  0
SECTION
  2
HEADER
  9
$ACADVER
  1
AC1015
  9
$ACADMAINTVER
 70
    20
  9
$DWGCODEPAGE
  3
ANSI_1252
  9
$INSBASE
 10
27.40406455225222
 20
-0.0247450193276033
 30
0.0
  9
$EXTMIN
 10
-6.555152049527407
 20
-1.918225096580528
 30
0.0
  9
$EXTMAX
 10
57.79192332564313
 20
35.41982073463602
 30
0.0
  9
$LIMMIN
 10
0.0
 20
0.0
  9
$LIMMAX
 10
36.0
 20
36.0
  9
$ORTHOMODE
 70
     1
  9
$REGENMODE
 70
     1
  9
$FILLMODE
 70
     1
  9
$QTEXTMODE
 70
     0
  9
$MIRRTEXT
 70
     1
  9
$LTSCALE
 40
1.0
  9
$ATTMODE
 70
     1
  9
$TEXTSIZE
 40
0.2
  9
$TRACEWID
 40
0.05
  9
$TEXTSTYLE
  7
STANDARD
  9
$CLAYER
  8
ADPDIM
  9
$CELTYPE
  6
ByLayer
  9
$CECOLOR
 62
   256
  9
$CELTSCALE
 40
1.0
  9
$DISPSILH
 70
     0
  9
$DIMSCALE
 40
1.0
  9
$DIMASZ
 40
0.125
  9
$DIMEXO
 40
0.0625
  9
$DIMDLI
 40
0.38
  9
$DIMRND
 40
0.0
  9
$DIMDLE
 40
0.0
  9
$DIMEXE
 40
0.18
  9
$DIMTP
 40
0.0
  9
$DIMTM
 40
0.0
  9
$DIMTXT
 40
0.125
  9
$DIMCEN
 40
0.1875
  9
$DIMTSZ
 40
0.125
  9
$DIMTOL
 70
     0
  9
$DIMLIM
 70
     0
  9
$DIMTIH
 70
     0
  9
$DIMTOH
 70
     0
  9
$DIMSE1
 70
     0
  9
$DIMSE2
 70
     0
  9
$DIMTAD
 70
     0
  9
$DIMZIN
 70
     3
  9
$DIMBLK
  1

  9
$DIMASO
 70
     1
  9
$DIMSHO
 70
     1
  9
$DIMPOST
  1

  9
$DIMAPOST
  1

  9
$DIMALT
 70
     0
  9
$DIMALTD
 70
     1
  9
$DIMALTF
 40
25.4
  9
$DIMLFAC
 40
1.0
  9
$DIMTOFL
 70
     0
  9
$DIMTVP
 40
0.0
  9
$DIMTIX
 70
     0
  9
$DIMSOXD
 70
     0
  9
$DIMSAH
 70
     0
  9
$DIMBLK1
  1

  9
$DIMBLK2
  1

  9
$DIMSTYLE
  2
Standard
  9
$DIMCLRD
 70
     0
  9
$DIMCLRE
 70
     0
  9
$DIMCLRT
 70
     0
  9
$DIMTFAC
 40
1.0
  9
$DIMGAP
 40
0.125
  9
$DIMJUST
 70
     0
  9
$DIMSD1
 70
     0
  9
$DIMSD2
 70
     0
  9
$DIMTOLJ
 70
     1
  9
$DIMTZIN
 70
     3
  9
$DIMALTZ
 70
     3
  9
$DIMALTTZ
 70
     3
  9
$DIMUPT
 70
     0
  9
$DIMDEC
 70
     5
  9
$DIMTDEC
 70
     5
  9
$DIMALTU
 70
     5
  9
$DIMALTTD
 70
     1
  9
$DIMTXSTY
  7
STANDARD
  9
$DIMAUNIT
 70
     0
  9
$DIMADEC
 70
     0
  9
$DIMALTRND
 40
0.0
  9
$DIMAZIN
 70
     0
  9
$DIMDSEP
 70
    46
  9
$DIMATFIT
 70
     3
  9
$DIMFRAC
 70
     0
  9
$DIMLDRBLK
  1

  9
$DIMLUNIT
 70
     5
  9
$DIMLWD
 70
    -2
  9
$DIMLWE
 70
    -2
  9
$DIMTMOVE
 70
     2
  9
$LUNITS
 70
     5
  9
$LUPREC
 70
     5
  9
$SKETCHINC
 40
0.1
  9
$FILLETRAD
 40
0.0
  9
$AUNITS
 70
     0
  9
$AUPREC
 70
     0
  9
$MENU
  1
acad
  9
$ELEVATION
 40
0.0
  9
$PELEVATION
 40
0.0
  9
$THICKNESS
 40
0.0
  9
$LIMCHECK
 70
     0
  9
$CHAMFERA
 40
0.0
  9
$CHAMFERB
 40
0.0
  9
$CHAMFERC
 40
0.0
  9
$CHAMFERD
 40
0.0
  9
$SKPOLY
 70
     0
  9
$TDCREATE
 40
2450414.532873843
  9
$TDUCREATE
 40
2450414.699540509
  9
$TDUPDATE
 40
2453954.916015498
  9
$TDUUPDATE
 40
2453955.082682164
  9
$TDINDWG
 40
0.0244453125
  9
$TDUSRTIMER
 40
0.0244453125
  9
$USRTIMER
 70
     1
  9
$ANGBASE
 50
0.0
  9
$ANGDIR
 70
     0
  9
$PDMODE
 70
     0
  9
$PDSIZE
 40
0.0
  9
$PLINEWID
 40
0.0
  9
$SPLFRAME
 70
     0
  9
$SPLINETYPE
 70
     6
  9
$SPLINESEGS
 70
     8
  9
$HANDSEED
  5
398
  9
$SURFTAB1
 70
     6
  9
$SURFTAB2
 70
     6
  9
$SURFTYPE
 70
     6
  9
$SURFU
 70
     6
  9
$SURFV
 70
     6
  9
$UCSBASE
  2

  9
$UCSNAME
  2

  9
$UCSORG
 10
0.0
 20
0.0
 30
0.0
  9
$UCSXDIR
 10
1.0
 20
0.0
 30
0.0
  9
$UCSYDIR
 10
0.0
 20
1.0
 30
0.0
  9
$UCSORTHOREF
  2

  9
$UCSORTHOVIEW
 70
     0
  9
$UCSORGTOP
 10
0.0
 20
0.0
 30
0.0
  9
$UCSORGBOTTOM
 10
0.0
 20
0.0
 30
0.0
  9
$UCSORGLEFT
 10
0.0
 20
0.0
 30
0.0
  9
$UCSORGRIGHT
 10
0.0
 20
0.0
 30
0.0
  9
$UCSORGFRONT
 10
0.0
 20
0.0
 30
0.0
  9
$UCSORGBACK
 10
0.0
 20
0.0
 30
0.0
  9
$PUCSBASE
  2

  9
$PUCSNAME
  2

  9
$PUCSORG
 10
0.0
 20
0.0
 30
0.0
  9
$PUCSXDIR
 10
1.0
 20
0.0
 30
0.0
  9
$PUCSYDIR
 10
0.0
 20
1.0
 30
0.0
  9
$PUCSORTHOREF
  2

  9
$PUCSORTHOVIEW
 70
     0
  9
$PUCSORGTOP
 10
0.0
 20
0.0
 30
0.0
  9
$PUCSORGBOTTOM
 10
0.0
 20
0.0
 30
0.0
  9
$PUCSORGLEFT
 10
0.0
 20
0.0
 30
0.0
  9
$PUCSORGRIGHT
 10
0.0
 20
0.0
 30
0.0
  9
$PUCSORGFRONT
 10
0.0
 20
0.0
 30
0.0
  9
$PUCSORGBACK
 10
0.0
 20
0.0
 30
0.0
  9
$USERI1
 70
     0
  9
$USERI2
 70
     0
  9
$USERI3
 70
     0
  9
$USERI4
 70
     0
  9
$USERI5
 70
     0
  9
$USERR1
 40
0.0
  9
$USERR2
 40
0.0
  9
$USERR3
 40
0.0
  9
$USERR4
 40
0.0
  9
$USERR5
 40
0.0
  9
$WORLDVIEW
 70
     1
  9
$SHADEDGE
 70
     3
  9
$SHADEDIF
 70
    70
  9
$TILEMODE
 70
     1
  9
$MAXACTVP
 70
    15
  9
$PINSBASE
 10
0.0781263709068299
 20
112.0104774350784
 30
0.0
  9
$PLIMCHECK
 70
     0
  9
$PEXTMIN
 10
1.000000000000000E+20
 20
1.000000000000000E+20
 30
1.000000000000000E+20
  9
$PEXTMAX
 10
-1.000000000000000E+20
 20
-1.000000000000000E+20
 30
-1.000000000000000E+20
  9
$PLIMMIN
 10
0.0
 20
0.0
  9
$PLIMMAX
 10
12.0
 20
9.0
  9
$UNITMODE
 70
     0
  9
$VISRETAIN
 70
     0
  9
$PLINEGEN
 70
     0
  9
$PSLTSCALE
 70
     1
  9
$TREEDEPTH
 70
  3020
  9
$CMLSTYLE
  2
Standard
  9
$CMLJUST
 70
     0
  9
$CMLSCALE
 40
1.0
  9
$PROXYGRAPHICS
 70
     1
  9
$MEASUREMENT
 70
     0
  9
$CELWEIGHT
370
    -1
  9
$ENDCAPS
280
     0
  9
$JOINSTYLE
280
     0
  9
$LWDISPLAY
290
     0
  9
$INSUNITS
 70
     0
  9
$HYPERLINKBASE
  1

  9
$STYLESHEET
  1

  9
$XEDIT
290
     1
  9
$CEPSNTYPE
380
     0
  9
$PSTYLEMODE
290
     1
  9
$FINGERPRINTGUID
  2
{3DA62076-A931-48E4-8B1F-500EEF39030A}
  9
$VERSIONGUID
  2
{FC365F55-F3B2-4BB0-96DC-576B0820FC99}
  9
$EXTNAMES
290
     1
  9
$PSVPSCALE
 40
0.0
  9
$OLESTARTUP
290
     0
  0
ENDSEC
  0
SECTION
  2
CLASSES
  0
CLASS
  1
ACDBDICTIONARYWDFLT
  2
AcDbDictionaryWithDefault
  3
ObjectDBX Classes
 90
        0
280
     0
281
     0
  0
CLASS
  1
ACDBPLACEHOLDER
  2
AcDbPlaceHolder
  3
ObjectDBX Classes
 90
        0
280
     0
281
     0
  0
CLASS
  1
LAYOUT
  2
AcDbLayout
  3
ObjectDBX Classes
 90
        0
280
     0
281
     0
  0
CLASS
  1
DICTIONARYVAR
  2
AcDbDictionaryVar
  3
ObjectDBX Classes
 90
        0
280
     0
281
     0
  0
CLASS
  1
MATERIAL
  2
AcDbMaterial
  3
ObjectDBX Classes
 90
     1024
280
     0
281
     0
  0
CLASS
  1
VISUALSTYLE
  2
AcDbVisualStyle
  3
ObjectDBX Classes
 90
     4095
280
     0
281
     0
  0
CLASS
  1
TABLESTYLE
  2
AcDbTableStyle
  3
ObjectDBX Classes
 90
     4095
280
     0
281
     0
  0
CLASS
  1
DIMASSOC
  2
AcDbDimAssoc
  3
"AcDbDimAssoc|Product Desc:     AcDim ARX App For Dimension|Company:          Autodesk, Inc.|WEB Address:      www.autodesk.com"
 90
        0
280
     0
281
     0
  0
ENDSEC
  0
SECTION
  2
TABLES
  0
TABLE
  2
VPORT
  5
8
330
0
100
AcDbSymbolTable
 70
     1
  0
VPORT
  5
2D2
330
8
100
AcDbSymbolTableRecord
100
AcDbViewportTableRecord
  2
*Active
 70
     0
 10
0.0
 20
0.0
 11
1.0
 21
1.0
 12
29.91224924483674
 22
20.3993867313633
 13
0.0
 23
0.0
 14
0.5740882589684922
 24
0.5740882589684922
 15
0.5
 25
0.5
 16
0.0
 26
0.0
 36
1.0
 17
0.0
 27
0.0
 37
0.0
 40
35.3572797459714
 41
1.774011299435028
 42
50.0
 43
0.0
 44
0.0
 50
0.0
 51
0.0
 71
     0
 72
   100
 73
     1
 74
     0
 75
     0
 76
     0
 77
     0
 78
     0
281
     0
 65
     1
110
0.0
120
0.0
130
0.0
111
1.0
121
0.0
131
0.0
112
0.0
122
1.0
132
0.0
 79
     0
146
0.0
  0
ENDTAB
  0
TABLE
  2
LTYPE
  5
5
330
0
100
AcDbSymbolTable
 70
     2
  0
LTYPE
  5
13
330
5
100
AcDbSymbolTableRecord
100
AcDbLinetypeTableRecord
  2
ByBlock
 70
     0
  3

 72
    65
 73
     0
 40
0.0
  0
LTYPE
  5
14
330
5
100
AcDbSymbolTableRecord
100
AcDbLinetypeTableRecord
  2
ByLayer
 70
     0
  3

 72
    65
 73
     0
 40
0.0
  0
LTYPE
  5
15
330
5
100
AcDbSymbolTableRecord
100
AcDbLinetypeTableRecord
  2
CONTINUOUS
 70
     0
  3
Solid line
 72
    65
 73
     0
 40
0.0
  0
ENDTAB
  0
TABLE
  2
LAYER
  5
2
330
0
100
AcDbSymbolTable
 70
     4
  0
LAYER
  5
10
330
2
100
AcDbSymbolTableRecord
100
AcDbLayerTableRecord
  2
0
 70
     0
 62
     7
  6
CONTINUOUS
370
    -3
390
F
  0
LAYER
  5
27
330
2
100
AcDbSymbolTableRecord
100
AcDbLayerTableRecord
  2
ADPDIM
 70
     0
 62
     3
  6
CONTINUOUS
370
    -3
390
F
  0
LAYER
  5
28
330
2
100
AcDbSymbolTableRecord
100
AcDbLayerTableRecord
  2
ADP1DETAIL
 70
     0
 62
     7
  6
CONTINUOUS
370
    -3
390
F
  0
LAYER
  5
29
330
2
100
AcDbSymbolTableRecord
100
AcDbLayerTableRecord
  2
DEFPOINTS
 70
     0
 62
     7
  6
CONTINUOUS
290
     0
370
    -3
390
F
  0
ENDTAB
  0
TABLE
  2
STYLE
  5
3
330
0
100
AcDbSymbolTable
 70
     2
  0
STYLE
  5
11
330
3
100
AcDbSymbolTableRecord
100
AcDbTextStyleTableRecord
  2
STANDARD
 70
     0
 40
0.0
 41
1.0
 50
0.0
 71
     0
 42
0.2
  3
txt
  4

  0
STYLE
  5
175
330
3
100
AcDbSymbolTableRecord
100
AcDbTextStyleTableRecord
  2
ARIAL_WIDE
 70
     0
 40
0.0
 41
1.25
 50
0.0
 71
     0
 42
0.2
  3
ARIAL.TTF
  4

1001
ACAD
1000
Arial
1071
       34
  0
ENDTAB
  0
TABLE
  2
VIEW
  5
6
330
0
100
AcDbSymbolTable
 70
     0
  0
ENDTAB
  0
TABLE
  2
UCS
  5
7
330
0
100
AcDbSymbolTable
 70
     0
  0
ENDTAB
  0
TABLE
  2
APPID
  5
9
330
0
100
AcDbSymbolTable
 70
     3
  0
APPID
  5
12
330
9
100
AcDbSymbolTableRecord
100
AcDbRegAppTableRecord
  2
ACAD
 70
     0
  0
APPID
  5
350
330
9
100
AcDbSymbolTableRecord
100
AcDbRegAppTableRecord
  2
ACAD_EXEMPT_FROM_CAD_STANDARDS
 70
     0
  0
APPID
  5
36C
330
9
100
AcDbSymbolTableRecord
100
AcDbRegAppTableRecord
  2
DCO15
 70
     0
  0
ENDTAB
  0
TABLE
  2
DIMSTYLE
  5
A
330
0
100
AcDbSymbolTable
 70
     2
100
AcDbDimStyleTable
 71
     1
340
173
  0
DIMSTYLE
105
173
102
{ACAD_REACTORS
330
324
102
}
330
A
100
AcDbSymbolTableRecord
100
AcDbDimStyleTableRecord
  2
Standard
 70
     0
340
11
  0
ENDTAB
  0
TABLE
  2
BLOCK_RECORD
  5
1
330
0
100
AcDbSymbolTable
 70
     5
  0
BLOCK_RECORD
  5
1E
102
{ACAD_XDICTIONARY
360
1B2
102
}
330
1
100
AcDbSymbolTableRecord
100
AcDbBlockTableRecord
  2
*Model_Space
340
21
  0
BLOCK_RECORD
  5
1A
102
{ACAD_XDICTIONARY
360
1B4
102
}
330
1
100
AcDbSymbolTableRecord
100
AcDbBlockTableRecord
  2
*Paper_Space
340
1D
  0
BLOCK_RECORD
  5
22
330
1
100
AcDbSymbolTableRecord
100
AcDbBlockTableRecord
  2
*D0
340
0
  0
BLOCK_RECORD
  5
23
330
1
100
AcDbSymbolTableRecord
100
AcDbBlockTableRecord
  2
*D1
340
0
  0
BLOCK_RECORD
  5
24
330
1
100
AcDbSymbolTableRecord
100
AcDbBlockTableRecord
  2
*D2
340
0
  0
BLOCK_RECORD
  5
325
330
1
100
AcDbSymbolTableRecord
100
AcDbBlockTableRecord
  2
*D3
340
0
  0
ENDTAB
  0
ENDSEC
  0
SECTION
  2
BLOCKS
  0
BLOCK
  5
2C
330
1E
100
AcDbEntity
  8
0
100
AcDbBlockBegin
  2
*Model_Space
 70
     0
 10
0.0
 20
0.0
 30
0.0
  3
*Model_Space
  1

  0
ENDBLK
  5
2D
330
1E
100
AcDbEntity
  8
0
100
AcDbBlockEnd
  0
BLOCK
  5
2A
330
1A
100
AcDbEntity
 67
     1
  8
0
100
AcDbBlockBegin
  2
*Paper_Space
 70
     0
 10
0.0
 20
0.0
 30
0.0
  3
*Paper_Space
  1

  0
ENDBLK
  5
2B
330
1A
100
AcDbEntity
 67
     1
  8
0
100
AcDbBlockEnd
  0
BLOCK
  5
2E
330
22
100
AcDbEntity
  8
0
100
AcDbBlockBegin
  2
*D0
 70
     1
 10
0.0
 20
0.0
 30
0.0
  3
*D0
  1
*U
  0
LINE
  5
2F
330
22
100
AcDbEntity
  8
0
  6
ByBlock
 62
     0
100
AcDbLine
 10
27.46656455225222
 20
3.467919616968351
 30
0.0
 11
31.26288940069354
 21
3.467919616968351
 31
0.0
  0
LINE
  5
30
330
22
100
AcDbEntity
  8
0
  6
ByBlock
 62
     0
100
AcDbLine
 10
27.46656455225223
 20
29.96791961696836
 30
0.0
 11
31.26288940069355
 21
29.96791961696835
 31
0.0
  0
LINE
  5
31
330
22
100
AcDbEntity
  8
0
  6
ByBlock
 62
     0
100
AcDbLine
 10
31.08288940069355
 20
3.467919616968351
 30
0.0
 11
31.08288940069355
 21
16.25958628363502
 31
0.0
  0
LINE
  5
32
330
22
100
AcDbEntity
  8
0
  6
ByBlock
 62
     0
100
AcDbLine
 10
31.08288940069355
 20
29.96791961696835
 30
0.0
 11
31.08288940069355
 21
17.17625295030168
 31
0.0
  0
LINE
  5
33
330
22
100
AcDbEntity
  8
0
  6
ByBlock
 62
     0
100
AcDbLine
 10
31.20788940069355
 20
3.342919616968351
 30
0.0
 11
30.95788940069355
 21
3.592919616968351
 31
0.0
  0
LINE
  5
34
330
22
100
AcDbEntity
  8
0
  6
ByBlock
 62
     0
100
AcDbLine
 10
31.20788940069355
 20
29.84291961696835
 30
0.0
 11
30.95788940069355
 21
30.09291961696835
 31
0.0
  0
TEXT
  5
35
330
22
100
AcDbEntity
  8
0
  6
ByBlock
 62
     0
100
AcDbText
 10
31.14538940069355
 20
16.38458628363502
 30
0.0
 40
0.125
  1
26 1/2
 50
90.0
 72
     1
 11
31.08288940069355
 21
16.71791961696835
 31
0.0
100
AcDbText
 73
     2
  0
POINT
  5
37
330
22
100
AcDbEntity
  8
DEFPOINTS
  6
ByBlock
 62
     0
100
AcDbPoint
 10
27.40406455225222
 20
3.467919616968351
 30
0.0
  0
POINT
  5
38
330
22
100
AcDbEntity
  8
DEFPOINTS
  6
ByBlock
 62
     0
100
AcDbPoint
 10
27.40406455225222
 20
29.96791961696836
 30
0.0
  0
POINT
  5
39
330
22
100
AcDbEntity
  8
DEFPOINTS
  6
ByBlock
 62
     0
100
AcDbPoint
 10
31.08288940069355
 20
29.96791961696835
 30
0.0
  0
ENDBLK
  5
3A
330
22
100
AcDbEntity
  8
0
100
AcDbBlockEnd
  0
BLOCK
  5
3B
330
23
100
AcDbEntity
  8
0
100
AcDbBlockBegin
  2
*D1
 70
     1
 10
0.0
 20
0.0
 30
0.0
  3
*D1
  1
*U
  0
LINE
  5
3C
330
23
100
AcDbEntity
  8
0
  6
ByBlock
 62
     0
100
AcDbLine
 10
27.46656455225223
 20
-0.0247450193276033
 30
0.0
 11
32.84388030798976
 21
-0.0247450193276037
 31
0.0
  0
LINE
  5
3D
330
23
100
AcDbEntity
  8
0
  6
ByBlock
 62
     0
100
AcDbLine
 10
27.46656455225223
 20
33.46058425326432
 30
0.0
 11
32.84388030798976
 21
33.46058425326432
 31
0.0
  0
LINE
  5
3E
330
23
100
AcDbEntity
  8
0
  6
ByBlock
 62
     0
100
AcDbLine
 10
32.66388030798976
 20
-0.0247450193276036
 30
0.0
 11
32.66388030798976
 21
16.25958628363502
 31
0.0
  0
LINE
  5
3F
330
23
100
AcDbEntity
  8
0
  6
ByBlock
 62
     0
100
AcDbLine
 10
32.66388030798976
 20
33.46058425326432
 30
0.0
 11
32.66388030798976
 21
17.17625295030168
 31
0.0
  0
LINE
  5
40
330
23
100
AcDbEntity
  8
0
  6
ByBlock
 62
     0
100
AcDbLine
 10
32.78888030798976
 20
-0.1497450193276036
 30
0.0
 11
32.53888030798976
 21
0.1002549806723964
 31
0.0
  0
LINE
  5
41
330
23
100
AcDbEntity
  8
0
  6
ByBlock
 62
     0
100
AcDbLine
 10
32.78888030798976
 20
33.33558425326432
 30
0.0
 11
32.53888030798976
 21
33.58558425326432
 31
0.0
  0
TEXT
  5
42
330
23
100
AcDbEntity
  8
0
  6
ByBlock
 62
     0
100
AcDbText
 10
32.72638030798976
 20
16.38458628363502
 30
0.0
 40
0.125
  1
33 1/2
 50
90.0
 72
     1
 11
32.66388030798976
 21
16.71791961696835
 31
0.0
100
AcDbText
 73
     2
  0
POINT
  5
43
330
23
100
AcDbEntity
  8
DEFPOINTS
  6
ByBlock
 62
     0
100
AcDbPoint
 10
27.40406455225222
 20
-0.0247450193276033
 30
0.0
  0
POINT
  5
44
330
23
100
AcDbEntity
  8
DEFPOINTS
  6
ByBlock
 62
     0
100
AcDbPoint
 10
27.40406455225222
 20
33.46058425326432
 30
0.0
  0
POINT
  5
45
330
23
100
AcDbEntity
  8
DEFPOINTS
  6
ByBlock
 62
     0
100
AcDbPoint
 10
32.66388030798976
 20
33.46058425326432
 30
0.0
  0
ENDBLK
  5
46
330
23
100
AcDbEntity
  8
0
100
AcDbBlockEnd
  0
BLOCK
  5
47
330
24
100
AcDbEntity
  8
0
100
AcDbBlockBegin
  2
*D2
 70
     1
 10
0.0
 20
0.0
 30
0.0
  3
*D2
  1
*U
  0
LINE
  5
48
330
24
100
AcDbEntity
  8
0
  6
ByBlock
 62
     0
100
AcDbLine
 10
21.19942402088383
 20
17.06989572081315
 30
0.0
 11
21.19942402088383
 21
35.41982073463602
 31
0.0
  0
LINE
  5
49
330
24
100
AcDbEntity
  8
0
  6
ByBlock
 62
     0
100
AcDbLine
 10
29.69942402088383
 20
17.06989572081315
 30
0.0
 11
29.69942402088383
 21
35.41982073463602
 31
0.0
  0
LINE
  5
4A
330
24
100
AcDbEntity
  8
0
  6
ByBlock
 62
     0
100
AcDbLine
 10
21.19942402088383
 20
35.23982073463602
 30
0.0
 11
25.0535906875505
 21
35.23982073463602
 31
0.0
  0
LINE
  5
4B
330
24
100
AcDbEntity
  8
0
  6
ByBlock
 62
     0
100
AcDbLine
 10
29.69942402088383
 20
35.23982073463602
 30
0.0
 11
25.84525735421717
 21
35.23982073463602
 31
0.0
  0
LINE
  5
4C
330
24
100
AcDbEntity
  8
0
  6
ByBlock
 62
     0
100
AcDbLine
 10
21.07442402088383
 20
35.11482073463602
 30
0.0
 11
21.32442402088383
 21
35.36482073463602
 31
0.0
  0
LINE
  5
4D
330
24
100
AcDbEntity
  8
0
  6
ByBlock
 62
     0
100
AcDbLine
 10
29.57442402088383
 20
35.11482073463602
 30
0.0
 11
29.82442402088383
 21
35.36482073463602
 31
0.0
  0
TEXT
  5
4E
330
24
100
AcDbEntity
  8
0
  6
ByBlock
 62
     0
100
AcDbText
 10
25.1785906875505
 20
35.17732073463602
 30
0.0
 40
0.125
  1
8 1/2
 72
     1
 11
25.44942402088383
 21
35.23982073463602
 31
0.0
100
AcDbText
 73
     2
  0
POINT
  5
4F
330
24
100
AcDbEntity
  8
DEFPOINTS
  6
ByBlock
 62
     0
100
AcDbPoint
 10
21.19942402088383
 20
17.00739572081315
 30
0.0
  0
POINT
  5
50
330
24
100
AcDbEntity
  8
DEFPOINTS
  6
ByBlock
 62
     0
100
AcDbPoint
 10
29.69942402088383
 20
17.00739572081315
 30
0.0
  0
POINT
  5
51
330
24
100
AcDbEntity
  8
DEFPOINTS
  6
ByBlock
 62
     0
100
AcDbPoint
 10
29.69942402088383
 20
35.23982073463602
 30
0.0
  0
ENDBLK
  5
52
330
24
100
AcDbEntity
  8
0
100
AcDbBlockEnd
  0
BLOCK
  5
330
330
325
100
AcDbEntity
  8
0
 62
     3
100
AcDbBlockBegin
  2
*D3
 70
     1
 10
0.0
 20
0.0
 30
0.0
  3
*D3
  1

  0
LINE
  5
360
330
325
100
AcDbEntity
  8
ADPDIM
 62
     0
370
    -2
100
AcDbLine
 10
27.46656455225223
 20
-0.0247450193276033
 30
0.0
 11
33.60001301000786
 21
-0.0247450193276051
 31
0.0
  0
LINE
  5
361
330
325
100
AcDbEntity
  8
ADPDIM
 62
     0
370
    -2
100
AcDbLine
 10
28.10281002916534
 20
33.9752549806724
 30
0.0
 11
33.60001301000787
 21
33.9752549806724
 31
0.0
  0
LINE
  5
362
330
325
100
AcDbEntity
  8
ADPDIM
 62
     0
370
    -2
100
AcDbLine
 10
33.42001301000787
 20
-0.024745019327605
 30
0.0
 11
33.42001301000787
 21
16.74608831400573
 31
0.0
  0
LINE
  5
363
330
325
100
AcDbEntity
  8
ADPDIM
 62
     0
370
    -2
100
AcDbLine
 10
33.42001301000787
 20
33.9752549806724
 30
0.0
 11
33.42001301000787
 21
17.20442164733906
 31
0.0
  0
LINE
  5
364
330
325
100
AcDbEntity
  8
ADPDIM
 62
     0
370
    -2
100
AcDbLine
 10
33.54501301000787
 20
33.8502549806724
 30
0.0
 11
33.29501301000787
 21
34.1002549806724
 31
0.0
  0
LINE
  5
365
330
325
100
AcDbEntity
  8
ADPDIM
 62
     0
370
    -2
100
AcDbLine
 10
33.54501301000786
 20
-0.149745019327605
 30
0.0
 11
33.29501301000787
 21
0.100254980672395
 31
0.0
  0
MTEXT
  5
366
330
325
100
AcDbEntity
  8
ADPDIM
 62
     0
100
AcDbMText
 10
33.42001301000787
 20
16.9752549806724
 30
0.0
 40
0.125
 41
0.0
 71
     5
 72
     1
  1
\A1;34
 11
0.0000000000000001
 21
1.0
 31
0.0
 73
     1
 44
1.0
1001
ACAD
1000
MTEXTBEGIN
1070
    73
1070
     1
1070
    44
1040
1.0
1070
    74
1070
     0
1000
MTEXTEND
  0
POINT
  5
367
330
325
100
AcDbEntity
  8
DEFPOINTS
 62
     0
100
AcDbPoint
 10
27.40406455225222
 20
-0.0247450193276033
 30
0.0
  0
POINT
  5
368
330
325
100
AcDbEntity
  8
DEFPOINTS
 62
     0
100
AcDbPoint
 10
28.04031002916534
 20
33.9752549806724
 30
0.0
  0
POINT
  5
369
330
325
100
AcDbEntity
  8
DEFPOINTS
 62
     0
100
AcDbPoint
 10
33.42001301000787
 20
33.9752549806724
 30
0.0
  0
ENDBLK
  5
331
330
325
100
AcDbEntity
  8
0
 62
     3
100
AcDbBlockEnd
  0
ENDSEC
  0
SECTION
  2
ENTITIES
  0
DIMENSION
  5
63
330
1E
100
AcDbEntity
  8
ADPDIM
100
AcDbDimension
  2
*D2
 10
29.69942402088383
 20
35.23982073463602
 30
0.0
 11
25.44942402088383
 21
35.23982073463602
 31
0.0
 71
     5
 42
-1.0
100
AcDbAlignedDimension
 13
21.19942402088383
 23
17.00739572081315
 33
0.0
 14
29.69942402088383
 24
17.00739572081315
 34
0.0
100
AcDbRotatedDimension
  0
LWPOLYLINE
  5
64
330
1E
100
AcDbEntity
  8
ADP1DETAIL
100
AcDbPolyline
 90
        2
 70
     0
 43
0.0
 10
21.12407966290613
 20
17.00063427182083
 42
0.1937287250751534
 10
23.80220292466749
 20
18.00540739225953
 42
0.2808504604890183
  0
LWPOLYLINE
  5
68
330
1E
100
AcDbEntity
  8
ADP1DETAIL
100
AcDbPolyline
 90
        2
 70
     0
 43
0.0
 10
29.77476837886154
 20
17.00063427182083
 42
-0.1937287250751534
 10
27.09664511710017
 20
18.00540739225953
 42
-0.2808504604890183
  0
DIMENSION
  5
6D
330
1E
100
AcDbEntity
  8
ADPDIM
100
AcDbDimension
  2
*D0
 10
31.08288940069355
 20
29.96791961696835
 30
0.0
 11
31.08288940069355
 21
16.71791961696835
 31
0.0
 71
     5
 42
-1.0
100
AcDbAlignedDimension
 13
27.40406455225222
 23
3.467919616968351
 33
0.0
 14
27.40406455225222
 24
29.96791961696836
 34
0.0
 50
90.0
100
AcDbRotatedDimension
  0
ARC
  5
6E
330
1E
100
AcDbEntity
  8
ADP1DETAIL
100
AcDbCircle
 10
26.09669816583338
 20
12.15169823757379
 30
0.0
 40
3.04661105148422
100
AcDbArc
 50
321.1453952413932
 51
70.4856384281737
  0
LWPOLYLINE
  5
6F
330
1E
100
AcDbEntity
  8
ADP1DETAIL
100
AcDbPolyline
 90
        2
 70
     0
 43
0.0
 10
29.77476837886154
 20
16.43520496211587
 42
0.1937287250751533
 10
27.09664511710017
 20
15.43043184167717
 42
0.2808504604890183
  0
ARC
  5
73
330
1E
100
AcDbEntity
  8
ADP1DETAIL
100
AcDbCircle
 10
19.94057065183923
 20
4.304923397446983
 30
0.0
 40
5.703797778711071
100
AcDbArc
 50
20.41305939702912
 51
45.60611949299337
  0
ARC
  5
74
330
1E
100
AcDbEntity
  8
ADP1DETAIL
100
AcDbCircle
 10
30.95827738992843
 20
4.304923397446983
 30
0.0
 40
5.703797778711071
100
AcDbArc
 50
134.3938805070066
 51
159.5869406029709
  0
LWPOLYLINE
  5
75
330
1E
100
AcDbEntity
  8
ADP1DETAIL
100
AcDbPolyline
 90
        3
 70
     0
 43
0.0
 10
23.97692754369018
 20
3.492205933535255
 10
23.97692754369018
 20
-0.0247450193276033
 10
23.49478348951544
 20
-0.0247450193276033
  0
LWPOLYLINE
  5
7A
330
1E
100
AcDbEntity
  8
ADP1DETAIL
100
AcDbPolyline
 90
        2
 70
     0
 43
0.0
 10
23.49478348951544
 20
-0.0247450193276033
 10
23.49478348951544
 20
3.467919616968352
  0
ARC
  5
7E
330
1E
100
AcDbEntity
  8
ADP1DETAIL
100
AcDbCircle
 10
23.67682861206841
 20
4.6518942870089
 30
0.0
 40
1.197888327826491
100
AcDbArc
 50
200.9625160314003
 51
261.2587933625979
  0
ARC
  5
7F
330
1E
100
AcDbEntity
  8
ADP1DETAIL
100
AcDbCircle
 10
23.17952461413438
 20
4.724660265106006
 30
0.0
 40
0.7983336327933948
100
AcDbArc
 50
67.22250597963334
 51
218.8995399994615
  0
LWPOLYLINE
  5
80
330
1E
100
AcDbEntity
  8
ADP1DETAIL
100
AcDbPolyline
 90
        3
 70
     0
 43
0.0
 10
26.92192049807749
 20
3.492205933535254
 10
26.92192049807749
 20
-0.0247450193276033
 10
27.40406455225222
 20
-0.0247450193276033
  0
LWPOLYLINE
  5
85
102
{ACAD_REACTORS
330
33D
102
}
330
1E
100
AcDbEntity
  8
ADP1DETAIL
100
AcDbPolyline
 90
        2
 70
     0
 43
0.0
 10
27.40406455225222
 20
-0.0247450193276033
 10
27.40406455225222
 20
3.467919616968351
  0
ARC
  5
89
330
1E
100
AcDbEntity
  8
ADP1DETAIL
100
AcDbCircle
 10
27.52575452059974
 20
5.48908855993771
 30
0.0
 40
2.075650289386409
100
AcDbArc
 50
157.1733194960509
 51
171.8695404875228
  0
ARC
  5
8A
330
1E
100
AcDbEntity
  8
ADP1DETAIL
100
AcDbCircle
 10
23.37309352116793
 20
5.48908855993771
 30
0.0
 40
2.075650289386409
100
AcDbArc
 50
297.3136204156014
 51
348.8115883993281
  0
ARC
  5
8B
330
1E
100
AcDbEntity
  8
ADP1DETAIL
100
AcDbCircle
 10
23.67682861206841
 20
4.6518942870089
 30
0.0
 40
1.197888327826491
100
AcDbArc
 50
284.5084802734344
 51
302.7882496072029
  0
ARC
  5
8C
330
1E
100
AcDbEntity
  8
ADP1DETAIL
100
AcDbCircle
 10
27.22201942969926
 20
4.6518942870089
 30
0.0
 40
1.197888327826491
100
AcDbArc
 50
278.7412066374021
 51
339.0374839685998
  0
ARC
  5
8D
330
1E
100
AcDbEntity
  8
ADP1DETAIL
100
AcDbCircle
 10
27.22201942969926
 20
4.6518942870089
 30
0.0
 40
1.197888327826491
100
AcDbArc
 50
237.2117503927972
 51
255.4915197265656
  0
ARC
  5
8E
330
1E
100
AcDbEntity
  8
ADP1DETAIL
100
AcDbCircle
 10
27.71932342763328
 20
4.724660265106006
 30
0.0
 40
0.7983336327933948
100
AcDbArc
 50
321.1004600005385
 51
112.7774940203666
  0
LWPOLYLINE
  5
8F
330
1E
100
AcDbEntity
  8
ADP1DETAIL
100
AcDbPolyline
 90
        4
 70
     0
 43
0.0
 10
24.41112249965237
 20
15.27141548424809
 42
-0.2952230332639072
 10
24.79937017598829
 20
12.22018647158808
 42
-0.5528185499321811
 10
22.92317292105823
 20
12.13023180868048
 42
-0.6673448802066787
 10
23.46290089850386
 20
13.17113576518277
 42
1.088282560816955
  0
ARC
  5
95
330
1E
100
AcDbEntity
  8
ADP1DETAIL
100
AcDbCircle
 10
-9.601149127204777
 20
-17.15001096774096
 30
0.0
 40
42.14506450992618
100
AcDbArc
 50
37.28487323011271
 51
40.53469188400756
  0
ARC
  5
96
330
1E
100
AcDbEntity
  8
ADP1DETAIL
100
AcDbCircle
 10
24.80214987593428
 20
12.15169823757379
 30
0.0
 40
3.04661105148422
100
AcDbArc
 50
109.5143615718263
 51
218.8546047586068
  0
LWPOLYLINE
  5
97
330
1E
100
AcDbEntity
  8
ADP1DETAIL
100
AcDbPolyline
 90
        2
 70
     0
 43
0.0
 10
22.12643162101944
 20
16.71791961696835
 42
0.1275964851129864
 10
24.13843630943314
 20
17.87320852208489
 42
0.2825946342103961
  0
LWPOLYLINE
  5
9B
330
1E
100
AcDbEntity
  8
ADP1DETAIL
100
AcDbPolyline
 90
        2
 70
     0
 43
0.0
 10
22.12643162101944
 20
16.71791961696835
 42
-0.1275964851129864
 10
24.13843630943314
 20
15.56263071185181
 42
-0.2825946342103961
  0
LWPOLYLINE
  5
9F
330
1E
100
AcDbEntity
  8
ADP1DETAIL
100
AcDbPolyline
 90
        2
 70
     0
 43
0.0
 10
21.12407966290613
 20
16.43520496211587
 42
-0.1937287250751533
 10
23.80220292466749
 20
15.43043184167717
 42
-0.2808504604890183
  0
LWPOLYLINE
  5
A3
330
1E
100
AcDbEntity
  8
ADP1DETAIL
100
AcDbPolyline
 90
        5
 70
     0
 43
0.0
 10
24.07479038711033
 20
15.15402933153036
 42
-0.0157290141209491
 10
24.22929478129396
 20
14.96920784600705
 42
-0.2808504604890183
 10
24.50373909954961
 20
12.3747666477968
 42
-0.5553816382990387
 10
23.18740648560297
 20
12.33445413108989
 42
-0.3760246161990745
 10
23.46290089850386
 20
13.17113576518277
 42
0.9999999486972612
  0
LINE
  5
AA
330
1E
100
AcDbEntity
  8
ADP1DETAIL
100
AcDbLine
 10
21.12407966290613
 20
16.43520496211587
 30
0.0
 11
21.12407966290613
 21
17.00063427182083
 31
0.0
  0
LWPOLYLINE
  5
AB
330
1E
100
AcDbEntity
  8
ADP1DETAIL
100
AcDbPolyline
 90
        5
 70
     0
 43
0.0
 10
26.48772554211529
 20
15.27141548424809
 42
0.0067392860062211
 10
26.40789385289117
 20
15.1758396814094
 42
0.2825946342103961
 10
26.09947786577939
 20
12.22018647158808
 42
0.5528185499321811
 10
27.97567512070944
 20
12.13023180868048
 42
0.6673448802066787
 10
27.43594714326381
 20
13.17113576518277
 42
-1.088282560816955
  0
LWPOLYLINE
  5
B2
330
1E
100
AcDbEntity
  8
ADP1DETAIL
100
AcDbPolyline
 90
        5
 70
     0
 43
0.0
 10
26.82405765465733
 20
15.15402933153036
 42
0.0157290141209491
 10
26.66955326047371
 20
14.96920784600705
 42
0.2808504604890183
 10
26.39510894221806
 20
12.3747666477968
 42
0.5553816382990387
 10
27.7114415561647
 20
12.33445413108989
 42
0.3760246161990745
 10
27.43594714326381
 20
13.17113576518277
 42
-0.9999999486972612
  0
ARC
  5
B9
330
1E
100
AcDbEntity
  8
ADP1DETAIL
100
AcDbCircle
 10
60.49999716897244
 20
-17.15001096774096
 30
0.0
 40
42.14506450992618
100
AcDbArc
 50
139.4653081159924
 51
142.7151267698873
  0
LWPOLYLINE
  5
BA
330
1E
100
AcDbEntity
  8
ADP1DETAIL
100
AcDbPolyline
 90
        2
 70
     0
 43
0.0
 10
26.76041173233453
 20
17.87320852208489
 42
-0.0792016213130394
 10
25.44942402088383
 20
17.64304263697224
 42
-0.4252111213725338
  0
ARC
  5
BE
330
1E
100
AcDbEntity
  8
ADP1DETAIL
100
AcDbCircle
 10
25.38295639882527
 20
11.56553766858707
 30
0.0
 40
3.867046061863531
100
AcDbArc
 50
73.40001442187634
 51
89.01513928194797
  0
LWPOLYLINE
  5
BF
330
1E
100
AcDbEntity
  8
ADP1DETAIL
100
AcDbPolyline
 90
        2
 70
     0
 43
0.0
 10
26.76041173233453
 20
15.56263071185181
 42
0.0792016213130395
 10
25.44942402088383
 20
15.79279659696446
 42
0.4252111213725338
  0
ARC
  5
C3
330
1E
100
AcDbEntity
  8
ADP1DETAIL
100
AcDbCircle
 10
25.51589164294239
 20
11.56553766858707
 30
0.0
 40
3.867046061863531
100
AcDbArc
 50
111.8798858578764
 51
116.5989434093671
  0
LWPOLYLINE
  5
C4
330
1E
100
AcDbEntity
  8
ADP1DETAIL
100
AcDbPolyline
 90
        2
 70
     0
 43
0.0
 10
24.13843630943314
 20
17.87320852208489
 42
0.0792016213130394
 10
25.44942402088383
 20
17.64304263697224
 42
0.4252111213725338
  0
LWPOLYLINE
  5
C8
330
1E
100
AcDbEntity
  8
ADP1DETAIL
100
AcDbPolyline
 90
        2
 70
     0
 43
0.0
 10
24.13843630943314
 20
15.56263071185181
 42
-0.0792016213130395
 10
25.44942402088383
 20
15.79279659696446
 42
-0.4252111213725338
  0
ARC
  5
CC
330
1E
100
AcDbEntity
  8
ADP1DETAIL
100
AcDbCircle
 10
25.51589164294239
 20
11.56553766858707
 30
0.0
 40
3.867046061863531
100
AcDbArc
 50
90.98486071805204
 51
106.5999855781236
  0
ARC
  5
CD
330
1E
100
AcDbEntity
  8
ADP1DETAIL
100
AcDbCircle
 10
25.38295639882527
 20
11.56553766858707
 30
0.0
 40
3.867046061863531
100
AcDbArc
 50
63.4010565906329
 51
68.12011414212356
  0
LWPOLYLINE
  5
CE
330
1E
100
AcDbEntity
  8
ADP1DETAIL
100
AcDbPolyline
 90
        2
 70
     0
 43
0.0
 10
28.77241642074822
 20
16.71791961696835
 42
-0.1275964851129864
 10
26.76041173233453
 20
17.87320852208489
 42
-0.2825946342103961
  0
LWPOLYLINE
  5
D2
330
1E
100
AcDbEntity
  8
ADP1DETAIL
100
AcDbPolyline
 90
        2
 70
     0
 43
0.0
 10
28.77241642074822
 20
16.71791961696835
 42
0.1275964851129864
 10
26.76041173233453
 20
15.56263071185181
 42
0.2825946342103961
  0
LINE
  5
D6
330
1E
100
AcDbEntity
  8
ADP1DETAIL
100
AcDbLine
 10
29.77476837886154
 20
16.43520496211587
 30
0.0
 11
29.77476837886154
 21
17.00063427182083
 31
0.0
  0
ARC
  5
D7
330
1E
100
AcDbEntity
  8
ADP1DETAIL
100
AcDbCircle
 10
26.09669816583338
 20
21.28414099636292
 30
0.0
 40
3.04661105148422
100
AcDbArc
 50
289.5143615718263
 51
38.85460475860681
  0
ARC
  5
D8
330
1E
100
AcDbEntity
  8
ADP1DETAIL
100
AcDbCircle
 10
23.37309352116793
 20
27.946750673999
 30
0.0
 40
2.075650289386409
100
AcDbArc
 50
337.1733194960509
 51
351.8695404875229
  0
ARC
  5
D9
330
1E
100
AcDbEntity
  8
ADP1DETAIL
100
AcDbCircle
 10
27.52575452059974
 20
27.946750673999
 30
0.0
 40
2.075650289386409
100
AcDbArc
 50
117.3136204156013
 51
168.8115883993279
  0
ARC
  5
DA
330
1E
100
AcDbEntity
  8
ADP1DETAIL
100
AcDbCircle
 10
23.67682861206841
 20
28.78394494692781
 30
0.0
 40
1.197888327826491
100
AcDbArc
 50
98.74120663740212
 51
159.0374839685997
  0
ARC
  5
DB
330
1E
100
AcDbEntity
  8
ADP1DETAIL
100
AcDbCircle
 10
27.22201942969926
 20
28.78394494692781
 30
0.0
 40
1.197888327826491
100
AcDbArc
 50
20.9625160314003
 51
81.25879336259789
  0
ARC
  5
DC
330
1E
100
AcDbEntity
  8
ADP1DETAIL
100
AcDbCircle
 10
24.80214987593428
 20
21.28414099636292
 30
0.0
 40
3.04661105148422
100
AcDbArc
 50
141.1453952413932
 51
250.4856384281737
  0
ARC
  5
DD
330
1E
100
AcDbEntity
  8
ADP1DETAIL
100
AcDbCircle
 10
-9.601149127204777
 20
50.58585020167768
 30
0.0
 40
42.14506450992618
100
AcDbArc
 50
319.4653081159925
 51
322.7151267698873
  0
LWPOLYLINE
  5
DE
330
1E
100
AcDbEntity
  8
ADP1DETAIL
100
AcDbPolyline
 90
        5
 70
     0
 43
0.0
 10
24.07479038711033
 20
18.28180990240634
 42
0.0157290141209491
 10
24.22929478129396
 20
18.46663138792966
 42
0.2808504604890183
 10
24.50373909954961
 20
21.0610725861399
 42
0.5553816382990387
 10
23.18740648560297
 20
21.10138510284682
 42
0.3760246161990745
 10
23.46290089850386
 20
20.26470346875394
 42
-0.9999999486972612
  0
LWPOLYLINE
  5
E5
330
1E
100
AcDbEntity
  8
ADP1DETAIL
100
AcDbPolyline
 90
        5
 70
     0
 43
0.0
 10
24.41112249965237
 20
18.16442374968861
 42
0.006739286006221
 10
24.4909541888765
 20
18.25999955252731
 42
0.2825946342103961
 10
24.79937017598829
 20
21.21565276234862
 42
0.5528185499321811
 10
22.92317292105823
 20
21.30560742525623
 42
0.6673448802066787
 10
23.46290089850386
 20
20.26470346875394
 42
-1.088282560816955
  0
ARC
  5
EC
330
1E
100
AcDbEntity
  8
ADP1DETAIL
100
AcDbCircle
 10
23.17952461413438
 20
28.7111789688307
 30
0.0
 40
0.7983336327933948
100
AcDbArc
 50
141.1004600005385
 51
292.7774940203666
  0
ARC
  5
ED
330
1E
100
AcDbEntity
  8
ADP1DETAIL
100
AcDbCircle
 10
60.49999716897244
 20
50.58585020167768
 30
0.0
 40
42.14506450992618
100
AcDbArc
 50
217.2848732301127
 51
220.5346918840076
  0
LWPOLYLINE
  5
EE
330
1E
100
AcDbEntity
  8
ADP1DETAIL
100
AcDbPolyline
 90
        5
 70
     0
 43
0.0
 10
26.48772554211529
 20
18.16442374968861
 42
-0.006739286006221
 10
26.40789385289117
 20
18.25999955252731
 42
-0.2825946342103961
 10
26.09947786577939
 20
21.21565276234862
 42
-0.5528185499321811
 10
27.97567512070944
 20
21.30560742525623
 42
-0.6673448802066787
 10
27.43594714326381
 20
20.26470346875394
 42
1.088282560816955
  0
LWPOLYLINE
  5
F5
330
1E
100
AcDbEntity
  8
ADP1DETAIL
100
AcDbPolyline
 90
        5
 70
     0
 43
0.0
 10
26.82405765465733
 20
18.28180990240634
 42
-0.0157290141209491
 10
26.66955326047371
 20
18.46663138792966
 42
-0.2808504604890183
 10
26.39510894221806
 20
21.0610725861399
 42
-0.5553816382990387
 10
27.7114415561647
 20
21.10138510284682
 42
-0.3760246161990745
 10
27.43594714326381
 20
20.26470346875394
 42
0.9999999486972612
  0
ARC
  5
FC
330
1E
100
AcDbEntity
  8
ADP1DETAIL
100
AcDbCircle
 10
25.38295639882527
 20
21.87030156534964
 30
0.0
 40
3.867046061863531
100
AcDbArc
 50
270.984860718052
 51
286.5999855781236
  0
ARC
  5
FD
330
1E
100
AcDbEntity
  8
ADP1DETAIL
100
AcDbCircle
 10
25.51589164294239
 20
21.87030156534964
 30
0.0
 40
3.867046061863531
100
AcDbArc
 50
253.4000144218763
 51
269.015139281948
  0
ARC
  5
FE
330
1E
100
AcDbEntity
  8
ADP1DETAIL
100
AcDbCircle
 10
25.51589164294239
 20
21.87030156534964
 30
0.0
 40
3.867046061863531
100
AcDbArc
 50
243.4010565906329
 51
248.1201141421236
  0
ARC
  5
FF
330
1E
100
AcDbEntity
  8
ADP1DETAIL
100
AcDbCircle
 10
25.38295639882527
 20
21.87030156534964
 30
0.0
 40
3.867046061863531
100
AcDbArc
 50
291.8798858578764
 51
296.5989434093671
  0
ARC
  5
100
330
1E
100
AcDbEntity
  8
ADP1DETAIL
100
AcDbCircle
 10
30.95827738992843
 20
29.13091583648973
 30
0.0
 40
5.703797778711071
100
AcDbArc
 50
200.4130593970292
 51
225.6061194929934
  0
ARC
  5
101
330
1E
100
AcDbEntity
  8
ADP1DETAIL
100
AcDbCircle
 10
19.94057065183923
 20
29.13091583648973
 30
0.0
 40
5.703797778711071
100
AcDbArc
 50
314.3938805070066
 51
339.5869406029709
  0
ARC
  5
102
330
1E
100
AcDbEntity
  8
ADP1DETAIL
100
AcDbCircle
 10
27.71932342763328
 20
28.7111789688307
 30
0.0
 40
0.7983336327933948
100
AcDbArc
 50
247.2225059796333
 51
38.89953999946151
  0
LWPOLYLINE
  5
103
330
1E
100
AcDbEntity
  8
ADP1DETAIL
100
AcDbPolyline
 90
        3
 70
     0
 43
0.0
 10
23.97692754369018
 20
29.94363330040146
 10
23.97692754369018
 20
33.94656776374117
 10
23.49478348951544
 20
33.94656776374117
  0
LWPOLYLINE
  5
108
330
1E
100
AcDbEntity
  8
ADP1DETAIL
100
AcDbPolyline
 90
        2
 70
     0
 43
0.0
 10
23.49478348951544
 20
33.94656776374117
 10
23.49478348951544
 20
29.96791961696836
  0
ARC
  5
10C
330
1E
100
AcDbEntity
  8
ADP1DETAIL
100
AcDbCircle
 10
23.67682861206841
 20
28.78394494692781
 30
0.0
 40
1.197888327826491
100
AcDbArc
 50
57.21175039279711
 51
75.49151972656566
  0
LWPOLYLINE
  5
10D
330
1E
100
AcDbEntity
  8
ADP1DETAIL
100
AcDbPolyline
 90
        3
 70
     0
 43
0.0
 10
26.92192049807748
 20
29.94363330040146
 10
26.92192049807749
 20
33.94669949932533
 10
27.40406455225222
 20
33.94669949932533
  0
LWPOLYLINE
  5
112
330
1E
100
AcDbEntity
  8
ADP1DETAIL
100
AcDbPolyline
 90
        2
 70
     0
 43
0.0
 10
27.40406455225222
 20
33.94669949932533
 10
27.40406455225222
 20
29.96791961696836
  0
ARC
  5
116
330
1E
100
AcDbEntity
  8
ADP1DETAIL
100
AcDbCircle
 10
27.22201942969926
 20
28.78394494692781
 30
0.0
 40
1.197888327826491
100
AcDbArc
 50
104.5084802734345
 51
122.7882496072029
  0
ARC
  5
117
330
1E
100
AcDbEntity
  8
ADP1DETAIL
100
AcDbCircle
 10
25.76724835227216
 20
28.00134901123848
 30
0.0
 40
0.2142837831314921
100
AcDbArc
 50
308.5306107512298
 51
51.46938924876895
  0
ARC
  5
118
330
1E
100
AcDbEntity
  8
ADP1DETAIL
100
AcDbCircle
 10
25.13159968949551
 20
28.00134901123848
 30
0.0
 40
0.2142837831314921
100
AcDbArc
 50
128.530610751231
 51
231.4693892487702
  0
LINE
  5
119
330
1E
100
AcDbEntity
  8
ADP1DETAIL
100
AcDbLine
 10
24.99811532188461
 20
28.34950143618073
 30
0.0
 11
24.99811532188461
 21
28.16897795658104
 31
0.0
  0
LINE
  5
11A
330
1E
100
AcDbEntity
  8
ADP1DETAIL
100
AcDbLine
 10
24.99811532188461
 20
28.16897795658104
 30
0.0
 11
25.90073271988306
 21
28.16897795658104
 31
0.0
  0
LINE
  5
11B
330
1E
100
AcDbEntity
  8
ADP1DETAIL
100
AcDbLine
 10
25.90073271988306
 20
28.16897795658104
 30
0.0
 11
25.90073271988306
 21
28.34950143618073
 31
0.0
  0
LINE
  5
11C
330
1E
100
AcDbEntity
  8
ADP1DETAIL
100
AcDbLine
 10
25.90073271988306
 20
28.34950143618073
 30
0.0
 11
24.99811532188461
 21
28.34950143618073
 31
0.0
  0
LINE
  5
11D
330
1E
100
AcDbEntity
  8
ADP1DETAIL
100
AcDbLine
 10
24.99811532188461
 20
27.83372006589591
 30
0.0
 11
24.99811532188461
 21
27.65319658629621
 31
0.0
  0
LINE
  5
11E
330
1E
100
AcDbEntity
  8
ADP1DETAIL
100
AcDbLine
 10
24.99811532188461
 20
27.65319658629621
 30
0.0
 11
25.90073271988306
 21
27.65319658629621
 31
0.0
  0
LINE
  5
11F
330
1E
100
AcDbEntity
  8
ADP1DETAIL
100
AcDbLine
 10
25.90073271988306
 20
27.65319658629621
 30
0.0
 11
25.90073271988306
 21
27.83372006589591
 31
0.0
  0
LINE
  5
120
330
1E
100
AcDbEntity
  8
ADP1DETAIL
100
AcDbLine
 10
25.90073271988306
 20
27.83372006589591
 30
0.0
 11
24.99811532188461
 21
27.83372006589591
 31
0.0
  0
LINE
  5
121
330
1E
100
AcDbEntity
  8
ADP1DETAIL
100
AcDbLine
 10
25.90073271988306
 20
5.602119168040804
 30
0.0
 11
24.99811532188461
 21
5.602119168040804
 31
0.0
  0
LINE
  5
122
330
1E
100
AcDbEntity
  8
ADP1DETAIL
100
AcDbLine
 10
24.99811532188461
 20
5.782642647640503
 30
0.0
 11
25.90073271988306
 21
5.782642647640503
 31
0.0
  0
LINE
  5
123
330
1E
100
AcDbEntity
  8
ADP1DETAIL
100
AcDbLine
 10
25.90073271988306
 20
5.086337797755977
 30
0.0
 11
24.99811532188461
 21
5.086337797755977
 31
0.0
  0
LINE
  5
124
330
1E
100
AcDbEntity
  8
ADP1DETAIL
100
AcDbLine
 10
24.99811532188461
 20
5.266861277355676
 30
0.0
 11
25.90073271988306
 21
5.266861277355676
 31
0.0
  0
LINE
  5
125
330
1E
100
AcDbEntity
  8
ADP1DETAIL
100
AcDbLine
 10
24.99811532188461
 20
5.086337797755977
 30
0.0
 11
24.99811532188461
 21
5.266861277355676
 31
0.0
  0
ARC
  5
126
330
1E
100
AcDbEntity
  8
ADP1DETAIL
100
AcDbCircle
 10
25.13159968949551
 20
5.434490222698233
 30
0.0
 40
0.2142837831314921
100
AcDbArc
 50
128.5306107512298
 51
231.469389248769
  0
LINE
  5
127
330
1E
100
AcDbEntity
  8
ADP1DETAIL
100
AcDbLine
 10
24.99811532188461
 20
5.602119168040804
 30
0.0
 11
24.99811532188461
 21
5.782642647640503
 31
0.0
  0
LINE
  5
128
330
1E
100
AcDbEntity
  8
ADP1DETAIL
100
AcDbLine
 10
25.90073271988306
 20
5.266861277355676
 30
0.0
 11
25.90073271988306
 21
5.086337797755977
 31
0.0
  0
ARC
  5
129
330
1E
100
AcDbEntity
  8
ADP1DETAIL
100
AcDbCircle
 10
25.76724835227216
 20
5.434490222698233
 30
0.0
 40
0.2142837831314921
100
AcDbArc
 50
308.5306107512311
 51
51.46938924877018
  0
LINE
  5
12A
330
1E
100
AcDbEntity
  8
ADP1DETAIL
100
AcDbLine
 10
25.90073271988306
 20
5.782642647640503
 30
0.0
 11
25.90073271988306
 21
5.602119168040804
 31
0.0
  0
LWPOLYLINE
  5
12B
330
1E
100
AcDbEntity
  8
ADP1DETAIL
100
AcDbPolyline
 90
        4
 70
     0
 43
0.0
 10
23.48860223076318
 20
27.97510314654868
 42
-0.6034298947112175
 10
22.88462092266926
 20
29.05455910143994
 42
-0.493470140489263
 10
24.14398620337574
 20
29.47863108371866
 42
-0.2203403465959485
 10
25.04004431250115
 20
28.34950143618073
 42
-0.0464676290574983
  0
LWPOLYLINE
  5
131
330
1E
100
AcDbEntity
  8
ADP1DETAIL
100
AcDbPolyline
 90
        9
 70
     0
 43
0.0
 10
25.0626967629846
 20
27.65319658629621
 42
-0.0567008219491772
 10
24.95357816954418
 20
27.28116717554716
 42
-0.0464676290574983
 10
24.05681190777815
 20
25.59752532300264
 42
0.538926339857142
 10
23.3007639768872
 20
26.12942629916448
 42
-0.2158708895094382
 10
23.74561555335634
 20
25.71338590772889
 42
-0.2931837048742489
 10
23.65566089044873
 20
25.28931392545018
 42
-0.0143282680041806
 10
22.15213295327876
 20
23.42596733664978
 42
0.5153336379456058
 10
23.64281022431907
 20
18.08009022671209
 42
0.010409747315612
 10
23.80220292466749
 20
18.00540739225953
 42
0.4252111213725338
  0
ARC
  5
13C
330
1E
100
AcDbEntity
  8
ADP1DETAIL
100
AcDbCircle
 10
23.37309352116793
 20
27.946750673999
 30
0.0
 40
2.075650289386409
100
AcDbArc
 50
11.18841160067201
 51
62.68637958439866
  0
ARC
  5
13D
330
1E
100
AcDbEntity
  8
ADP1DETAIL
100
AcDbCircle
 10
27.52575452059974
 20
27.946750673999
 30
0.0
 40
2.075650289386409
100
AcDbArc
 50
188.1304595124771
 51
202.8266805039491
  0
LWPOLYLINE
  5
13E
330
1E
100
AcDbEntity
  8
ADP1DETAIL
100
AcDbPolyline
 90
        4
 70
     0
 43
0.0
 10
27.41024581100449
 20
27.97510314654868
 42
0.6034298947112175
 10
28.01422711909841
 20
29.05455910143994
 42
0.493470140489263
 10
26.75486183839193
 20
29.47863108371866
 42
0.2203403465959485
 10
25.85880372926652
 20
28.34950143618073
 42
0.0464676290574983
  0
LWPOLYLINE
  5
144
330
1E
100
AcDbEntity
  8
ADP1DETAIL
100
AcDbPolyline
 90
        9
 70
     0
 43
0.0
 10
25.83615127878307
 20
27.65319658629621
 42
0.0567008219491772
 10
25.94526987222348
 20
27.28116717554716
 42
0.0464676290574983
 10
26.84203613398952
 20
25.59752532300264
 42
-0.538926339857142
 10
27.59808406488047
 20
26.12942629916448
 42
0.2158708895094382
 10
27.15323248841133
 20
25.71338590772889
 42
0.2931837048742489
 10
27.24318715131893
 20
25.28931392545018
 42
0.0143282680041806
 10
28.74671508848891
 20
23.42596733664978
 42
-0.5153336379456058
 10
27.25603781744859
 20
18.08009022671209
 42
-0.010409747315612
 10
27.09664511710017
 20
18.00540739225953
 42
-0.4252111213725338
  0
LWPOLYLINE
  5
14F
330
1E
100
AcDbEntity
  8
ADP1DETAIL
100
AcDbPolyline
 90
        4
 70
     0
 43
0.0
 10
23.48860223076318
 20
5.460736087388031
 42
0.6034298947112175
 10
22.88462092266926
 20
4.381280132496765
 42
0.493470140489263
 10
24.14398620337574
 20
3.957208150218055
 42
0.2203403465959491
 10
25.04004431250115
 20
5.086337797755977
 42
0.0464676290574983
  0
LWPOLYLINE
  5
155
330
1E
100
AcDbEntity
  8
ADP1DETAIL
100
AcDbPolyline
 90
        9
 70
     0
 43
0.0
 10
25.06269676298459
 20
5.782642647640503
 42
0.0567008219491766
 10
24.95357816954418
 20
6.154672058389554
 42
0.0464676290574983
 10
24.05681190777815
 20
7.838313910934068
 42
-0.538926339857142
 10
23.3007639768872
 20
7.306412934772234
 42
0.2158708895094382
 10
23.74561555335634
 20
7.722453326207823
 42
0.2931837048742489
 10
23.65566089044873
 20
8.146525308486531
 42
0.0143282680041806
 10
22.15213295327876
 20
10.00987189728692
 42
-0.5153336379456058
 10
23.64281022431907
 20
15.35574900722461
 42
-0.010409747315612
 10
23.80220292466749
 20
15.43043184167717
 42
-0.4252111213725338
  0
ARC
  5
160
330
1E
100
AcDbEntity
  8
ADP1DETAIL
100
AcDbCircle
 10
27.52575452059974
 20
5.48908855993771
 30
0.0
 40
2.075650289386409
100
AcDbArc
 50
191.1884116006719
 51
242.6863795843987
  0
ARC
  5
161
330
1E
100
AcDbEntity
  8
ADP1DETAIL
100
AcDbCircle
 10
23.37309352116793
 20
5.48908855993771
 30
0.0
 40
2.075650289386409
100
AcDbArc
 50
8.130459512477173
 51
22.82668050394908
  0
LWPOLYLINE
  5
162
330
1E
100
AcDbEntity
  8
ADP1DETAIL
100
AcDbPolyline
 90
        4
 70
     0
 43
0.0
 10
27.41024581100449
 20
5.460736087388031
 42
-0.6034298947112175
 10
28.01422711909841
 20
4.381280132496765
 42
-0.493470140489263
 10
26.75486183839193
 20
3.957208150218055
 42
-0.2203403465959491
 10
25.85880372926652
 20
5.086337797755977
 42
-0.0464676290574983
  0
LWPOLYLINE
  5
168
330
1E
100
AcDbEntity
  8
ADP1DETAIL
100
AcDbPolyline
 90
        9
 70
     0
 43
0.0
 10
25.83615127878307
 20
5.782642647640503
 42
-0.0567008219491766
 10
25.94526987222348
 20
6.154672058389554
 42
-0.0464676290574983
 10
26.84203613398952
 20
7.838313910934068
 42
0.538926339857142
 10
27.59808406488047
 20
7.306412934772234
 42
-0.2158708895094382
 10
27.15323248841133
 20
7.722453326207823
 42
-0.2931837048742489
 10
27.24318715131893
 20
8.146525308486531
 42
-0.0143282680041806
 10
28.74671508848891
 20
10.00987189728692
 42
0.5153336379456058
 10
27.25603781744859
 20
15.35574900722461
 42
0.010409747315612
 10
27.09664511710017
 20
15.43043184167717
 42
0.4252111213725338
  0
TEXT
  5
176
330
1E
100
AcDbEntity
  8
ADPDIM
100
AcDbText
 10
-6.555152049527407
 20
-1.733197811450924
 30
0.0
 40
0.625
  1
J U L I U S  B L U M  &  C O . ,  I N C .      ( 8 0 0 )  5 2 6 - 6 2 9 3        W W W . J U L I U S B L U M . C O M        P A R T  N o .  5 3 9
 41
1.25
  7
ARIAL_WIDE
 72
     1
 11
25.61838563805786
 21
-1.108197811450924
 31
0.0
100
AcDbText
 73
     3
  0
DIMENSION
  5
324
102
{ACAD_XDICTIONARY
360
332
102
}
102
{ACAD_REACTORS
330
33D
102
}
330
1E
100
AcDbEntity
  8
ADPDIM
 62
     3
100
AcDbDimension
  2
*D3
 10
33.42001301000787
 20
33.9752549806724
 30
0.0
 11
33.42001301000787
 21
16.9752549806724
 31
0.0
 70
    32
 71
     5
 42
34.0
  3
Standard
100
AcDbAlignedDimension
 13
27.40406455225222
 23
-0.0247450193276033
 33
0.0
 14
28.04031002916534
 24
33.9752549806724
 34
0.0
 50
90.0
100
AcDbRotatedDimension
1001
ACAD
1000
DSTYLE
1002
{
1070
    41
1040
0.125
1070
    73
1070
     0
1070
    74
1070
     0
1070
    78
1070
     3
1070
   140
1040
0.125
1070
   141
1040
0.1875
1070
   142
1040
0.125
1070
   147
1040
0.125
1070
   171
1070
     1
1070
   271
1070
     5
1070
   272
1070
     5
1070
   273
1070
     5
1070
   274
1070
     1
1070
   277
1070
     5
1070
   279
1070
     2
1070
   284
1070
     3
1070
   285
1070
     3
1070
   286
1070
     3
1002
}
  0
ENDSEC
  0
SECTION
  2
OBJECTS
  0
DICTIONARY
  5
C
330
0
100
AcDbDictionary
281
     1
  3
ACAD_COLOR
350
31E
  3
ACAD_GROUP
350
D
  3
ACAD_LAYOUT
350
19
  3
ACAD_MATERIAL
350
309
  3
ACAD_MLINESTYLE
350
16
  3
ACAD_PLOTSETTINGS
350
18
  3
ACAD_PLOTSTYLENAME
350
E
  3
ACAD_TABLESTYLE
350
31F
  3
ACAD_VISUALSTYLE
350
30D
  3
AcDbVariableDictionary
350
1E7
  3
ASE_INDEX_DICTIONARY
350
36B
  3
DWGPROPS
350
38B
  0
DICTIONARY
  5
1B2
330
1E
100
AcDbDictionary
280
     1
281
     1
  3
ACAD_LAYOUTSELFREF
360
305
  0
DICTIONARY
  5
1B4
330
1A
100
AcDbDictionary
280
     1
281
     1
  3
ACAD_LAYOUTSELFREF
360
304
  0
DICTIONARY
  5
332
330
324
100
AcDbDictionary
280
     1
281
     1
  3
ACAD_DIMASSOC
360
33D
  0
DICTIONARY
  5
31E
102
{ACAD_REACTORS
330
C
102
}
330
C
100
AcDbDictionary
281
     1
  0
DICTIONARY
  5
D
102
{ACAD_REACTORS
330
C
102
}
330
C
100
AcDbDictionary
281
     1
  0
DICTIONARY
  5
19
102
{ACAD_REACTORS
330
C
102
}
330
C
100
AcDbDictionary
281
     1
  3
Layout1
350
1D
  3
Model
350
21
  0
DICTIONARY
  5
309
102
{ACAD_REACTORS
330
C
102
}
330
C
100
AcDbDictionary
281
     1
  3
ByBlock
350
30B
  3
ByLayer
350
30A
  3
Global
350
30C
  0
DICTIONARY
  5
16
102
{ACAD_REACTORS
330
C
102
}
330
C
100
AcDbDictionary
281
     1
  3
Standard
350
17
  0
DICTIONARY
  5
18
102
{ACAD_REACTORS
330
C
102
}
330
C
100
AcDbDictionary
281
     1
  0
ACDBDICTIONARYWDFLT
  5
E
102
{ACAD_REACTORS
330
C
102
}
330
C
100
AcDbDictionary
281
     1
  3
Normal
350
F
100
AcDbDictionaryWithDefault
340
F
  0
DICTIONARY
  5
31F
102
{ACAD_REACTORS
330
C
102
}
330
C
100
AcDbDictionary
281
     1
  3
Standard
350
320
  0
DICTIONARY
  5
30D
102
{ACAD_REACTORS
330
C
102
}
330
C
100
AcDbDictionary
281
     1
  3
2dWireframe
350
313
  3
3D Hidden
350
315
  3
3dWireframe
350
314
  3
Basic
350
312
  3
Brighten
350
319
  3
ColorChange
350
31D
  3
Conceptual
350
316
  3
Dim
350
318
  3
Facepattern
350
31C
  3
Flat
350
30E
  3
FlatWithEdges
350
30F
  3
Gouraud
350
310
  3
GouraudWithEdges
350
311
  3
Linepattern
350
31B
  3
Realistic
350
317
  3
Thicken
350
31A
  0
DICTIONARY
  5
1E7
102
{ACAD_REACTORS
330
C
102
}
330
C
100
AcDbDictionary
281
     1
  3
CTABLESTYLE
350
388
  3
DIMASSOC
350
1E9
  3
HIDETEXT
350
1E8
  3
INDEXCTL
350
38A
  3
SORTENTS
350
389
  0
DICTIONARY
  5
36B
102
{ACAD_REACTORS
330
C
102
}
330
C
100
AcDbDictionary
281
     1
  3
ASEBlockHierarchyIndexRecord
350
36D
1001
DCO15
1040
1568307239.739
  0
XRECORD
  5
38B
102
{ACAD_REACTORS
330
C
102
}
330
C
100
AcDbXrecord
280
     1
  1
DWGPROPS COOKIE
  2

  3

  4

  6

  7

  8
Yu Hu
  9

300
=
301
=
302
=
303
=
304
=
305
=
306
=
307
=
308
=
309
=
 40
0.0244453125
 41
2450414.532873843
 42
2453954.916015498
  1

 90
        0
  0
XRECORD
  5
305
102
{ACAD_REACTORS
330
1B2
102
}
330
1B2
100
AcDbXrecord
280
     1
340
1E
  0
XRECORD
  5
304
102
{ACAD_REACTORS
330
1B4
102
}
330
1B4
100
AcDbXrecord
280
     1
340
1A
  0
DIMASSOC
  5
33D
102
{ACAD_REACTORS
330
332
102
}
330
332
100
AcDbDimAssoc
330
324
 90
        1
 70
     0
 71
     0
  1
AcDbOsnapPointRef
 72
    13
331
85
 73
     2
 91
        1
 40
0.0
 10
0.0
 20
0.0
 30
2.000000000000000E+50
 75
     0
  0
LAYOUT
  5
1D
102
{ACAD_XDICTIONARY
360
38C
102
}
102
{ACAD_REACTORS
330
19
102
}
330
19
100
AcDbPlotSettings
  1

  2
Fax
  4

  6

 40
0.0
 41
0.0
 42
0.0
 43
0.0
 44
0.0
 45
0.0
 46
0.0
 47
0.0
 48
0.0
 49
0.0
140
0.0
141
0.0
142
1.0
143
1.0
 70
   688
 72
     0
 73
     0
 74
     5
  7
Default R14 pen assignments.ctb
 75
    16
147
1.0
148
0.0
149
0.0
100
AcDbLayout
  1
Layout1
 70
     1
 71
     1
 10
0.0
 20
0.0
 11
12.0
 21
9.0
 12
0.0781263709068299
 22
112.0104774350784
 32
0.0
 14
1.000000000000000E+20
 24
1.000000000000000E+20
 34
1.000000000000000E+20
 15
-1.000000000000000E+20
 25
-1.000000000000000E+20
 35
-1.000000000000000E+20
146
0.0
 13
0.0
 23
0.0
 33
0.0
 16
1.0
 26
0.0
 36
0.0
 17
0.0
 27
1.0
 37
0.0
 76
     0
330
1A
  0
LAYOUT
  5
21
102
{ACAD_XDICTIONARY
360
38E
102
}
102
{ACAD_REACTORS
330
19
102
}
330
19
100
AcDbPlotSettings
  1

  2
Fax
  4

  6

 40
0.0
 41
0.0
 42
0.0
 43
0.0
 44
0.0
 45
0.0
 46
0.0
 47
0.0
 48
0.0
 49
0.0
140
0.0
141
0.0
142
1.0
143
1.0
 70
  1712
 72
     0
 73
     0
 74
     0
  7
Default R14 pen assignments.ctb
 75
     0
147
1.0
148
0.0
149
0.0
100
AcDbLayout
  1
Model
 70
     1
 71
     0
 10
0.0
 20
0.0
 11
12.0
 21
9.0
 12
0.0
 22
0.0
 32
0.0
 14
0.0
 24
0.0
 34
0.0
 15
0.0
 25
0.0
 35
0.0
146
0.0
 13
0.0
 23
0.0
 33
0.0
 16
1.0
 26
0.0
 36
0.0
 17
0.0
 27
1.0
 37
0.0
 76
     0
330
1E
331
2D2
  0
MATERIAL
  5
30B
102
{ACAD_XDICTIONARY
360
392
102
}
102
{ACAD_REACTORS
330
309
102
}
330
309
100
AcDbMaterial
  1
ByBlock
  0
MATERIAL
  5
30A
102
{ACAD_XDICTIONARY
360
390
102
}
102
{ACAD_REACTORS
330
309
102
}
330
309
100
AcDbMaterial
  1
ByLayer
  0
MATERIAL
  5
30C
102
{ACAD_XDICTIONARY
360
394
102
}
102
{ACAD_REACTORS
330
309
102
}
330
309
100
AcDbMaterial
  1
Global
  0
MLINESTYLE
  5
17
102
{ACAD_REACTORS
330
16
102
}
330
16
100
AcDbMlineStyle
  2
STANDARD
 70
     0
  3

 62
   256
 51
90.0
 52
90.0
 71
     2
 49
0.5
 62
   256
  6
BYLAYER
 49
-0.5
 62
   256
  6
BYLAYER
  0
ACDBPLACEHOLDER
  5
F
102
{ACAD_REACTORS
330
E
102
}
330
E
  0
TABLESTYLE
  5
320
102
{ACAD_XDICTIONARY
360
396
102
}
102
{ACAD_REACTORS
330
31F
102
}
330
31F
100
AcDbTableStyle
  3
Standard
 70
     0
 71
     0
 40
0.06
 41
0.06
280
     0
281
     0
  7
STANDARD
140
0.18
170
     2
 62
     0
 63
     7
283
     0
274
    -2
284
     1
 64
     0
275
    -2
285
     1
 65
     0
276
    -2
286
     1
 66
     0
277
    -2
287
     1
 67
     0
278
    -2
288
     1
 68
     0
279
    -2
289
     1
 69
     0
  7
STANDARD
140
0.25
170
     5
 62
     0
 63
     7
283
     0
274
    -2
284
     1
 64
     0
275
    -2
285
     1
 65
     0
276
    -2
286
     1
 66
     0
277
    -2
287
     1
 67
     0
278
    -2
288
     1
 68
     0
279
    -2
289
     1
 69
     0
  7
STANDARD
140
0.18
170
     5
 62
     0
 63
     7
283
     0
274
    -2
284
     1
 64
     0
275
    -2
285
     1
 65
     0
276
    -2
286
     1
 66
     0
277
    -2
287
     1
 67
     0
278
    -2
288
     1
 68
     0
279
    -2
289
     1
 69
     0
  0
VISUALSTYLE
  5
313
102
{ACAD_REACTORS
330
30D
102
}
330
30D
100
AcDbVisualStyle
  2
2dWireframe
 70
     4
 71
     0
 72
     2
 73
     0
 90
        0
 40
-0.6
 41
-30.0
 62
     5
 63
     7
 74
     1
 91
        4
 64
     7
 65
   257
 75
     1
175
     1
 42
1.0
 92
        0
 66
   257
 43
1.0
 76
     1
 77
     6
 78
     2
 67
     7
 79
     5
170
     0
171
     0
290
     0
174
     0
 93
        1
 44
0.0
173
     0
291
     0
 45
0.0
1001
ACAD
1000
AcDbSavedByObjectVersion
1070
     0
  0
VISUALSTYLE
  5
315
102
{ACAD_REACTORS
330
30D
102
}
330
30D
100
AcDbVisualStyle
  2
3D Hidden
 70
     6
 71
     1
 72
     2
 73
     2
 90
        0
 40
-0.6
 41
-30.0
 62
     5
 63
     7
 74
     2
 91
        2
 64
     7
 65
   257
 75
     2
175
     1
 42
40.0
 92
        0
 66
   257
 43
1.0
 76
     1
 77
     6
 78
     2
 67
     7
 79
     3
170
     0
171
     0
290
     0
174
     0
 93
        1
 44
0.0
173
     0
291
     0
 45
0.0
1001
ACAD
1000
AcDbSavedByObjectVersion
1070
     0
  0
VISUALSTYLE
  5
314
102
{ACAD_REACTORS
330
30D
102
}
330
30D
100
AcDbVisualStyle
  2
3dWireframe
 70
     5
 71
     0
 72
     2
 73
     0
 90
        0
 40
-0.6
 41
-30.0
 62
     5
 63
     7
 74
     1
 91
        4
 64
     7
 65
   257
 75
     1
175
     1
 42
1.0
 92
        0
 66
   257
 43
1.0
 76
     1
 77
     6
 78
     2
 67
     7
 79
     5
170
     0
171
     0
290
     0
174
     0
 93
        1
 44
0.0
173
     0
291
     0
 45
0.0
1001
ACAD
1000
AcDbSavedByObjectVersion
1070
     0
  0
VISUALSTYLE
  5
312
102
{ACAD_REACTORS
330
30D
102
}
330
30D
100
AcDbVisualStyle
  2
Basic
 70
     7
 71
     1
 72
     0
 73
     1
 90
        0
 40
-0.6
 41
-30.0
 62
     5
 63
     7
 74
     0
 91
        4
 64
     7
 65
   257
 75
     1
175
     1
 42
1.0
 92
        8
 66
     7
 43
1.0
 76
     1
 77
     6
 78
     2
 67
     7
 79
     5
170
     0
171
     0
290
     0
174
     0
 93
        1
 44
0.0
173
     0
291
     1
 45
0.0
1001
ACAD
1000
AcDbSavedByObjectVersion
1070
     0
  0
VISUALSTYLE
  5
319
102
{ACAD_REACTORS
330
30D
102
}
330
30D
100
AcDbVisualStyle
  2
Brighten
 70
    12
 71
     2
 72
     2
 73
     0
 90
        0
 40
-0.6
 41
-30.0
 62
     5
 63
     7
 74
     1
 91
        4
 64
     7
 65
   257
 75
     1
175
     1
 42
1.0
 92
        8
 66
     7
 43
1.0
 76
     1
 77
     6
 78
     2
 67
     7
 79
     5
170
     0
171
     0
290
     0
174
     0
 93
        1
 44
50.0
173
     0
291
     1
 45
0.0
1001
ACAD
1000
AcDbSavedByObjectVersion
1070
     0
  0
VISUALSTYLE
  5
31D
102
{ACAD_REACTORS
330
30D
102
}
330
30D
100
AcDbVisualStyle
  2
ColorChange
 70
    16
 71
     2
 72
     2
 73
     3
 90
        0
 40
-0.6
 41
-30.0
 62
     5
 63
     8
 74
     1
 91
        4
 64
     7
 65
   257
 75
     1
175
     1
 42
1.0
 92
        8
 66
     8
 43
1.0
 76
     1
 77
     6
 78
     2
 67
     7
 79
     5
170
     0
171
     0
290
     0
174
     0
 93
        1
 44
0.0
173
     0
291
     1
 45
0.0
1001
ACAD
1000
AcDbSavedByObjectVersion
1070
     0
  0
VISUALSTYLE
  5
316
102
{ACAD_REACTORS
330
30D
102
}
330
30D
100
AcDbVisualStyle
  2
Conceptual
 70
     9
 71
     3
 72
     2
 73
     0
 90
        0
 40
-0.6
 41
-30.0
 62
     5
 63
     7
 74
     2
 91
        2
 64
     7
 65
   257
 75
     1
175
     1
 42
40.0
 92
        8
 66
     7
 43
1.0
 76
     1
 77
     6
 78
     2
 67
     7
 79
     3
170
     0
171
     0
290
     0
174
     0
 93
        1
 44
0.0
173
     0
291
     0
 45
0.0
1001
ACAD
1000
AcDbSavedByObjectVersion
1070
     0
  0
VISUALSTYLE
  5
318
102
{ACAD_REACTORS
330
30D
102
}
330
30D
100
AcDbVisualStyle
  2
Dim
 70
    11
 71
     2
 72
     2
 73
     0
 90
        0
 40
-0.6
 41
-30.0
 62
     5
 63
     7
 74
     1
 91
        4
 64
     7
 65
   257
 75
     1
175
     1
 42
1.0
 92
        8
 66
     7
 43
1.0
 76
     1
 77
     6
 78
     2
 67
     7
 79
     5
170
     0
171
     0
290
     0
174
     0
 93
        1
 44
-50.0
173
     0
291
     1
 45
0.0
1001
ACAD
1000
AcDbSavedByObjectVersion
1070
     0
  0
VISUALSTYLE
  5
31C
102
{ACAD_REACTORS
330
30D
102
}
330
30D
100
AcDbVisualStyle
  2
Facepattern
 70
    15
 71
     2
 72
     2
 73
     0
 90
        0
 40
-0.6
 41
-30.0
 62
     5
 63
     7
 74
     1
 91
        4
 64
     7
 65
   257
 75
     1
175
     1
 42
1.0
 92
        8
 66
     7
 43
1.0
 76
     1
 77
     6
 78
     2
 67
     7
 79
     5
170
     0
171
     0
290
     0
174
     0
 93
        1
 44
0.0
173
     0
291
     1
 45
0.0
1001
ACAD
1000
AcDbSavedByObjectVersion
1070
     0
  0
VISUALSTYLE
  5
30E
102
{ACAD_REACTORS
330
30D
102
}
330
30D
100
AcDbVisualStyle
  2
Flat
 70
     0
 71
     2
 72
     1
 73
     1
 90
        2
 40
-0.6
 41
30.0
 62
     5
 63
     7
 74
     0
 91
        4
 64
     7
 65
   257
 75
     1
175
     1
 42
1.0
 92
        8
 66
     7
 43
1.0
 76
     1
 77
     6
 78
     2
 67
     7
 79
     5
170
     0
171
     0
290
     0
174
     0
 93
       13
 44
0.0
173
     0
291
     1
 45
0.0
1001
ACAD
1000
AcDbSavedByObjectVersion
1070
     0
  0
VISUALSTYLE
  5
30F
102
{ACAD_REACTORS
330
30D
102
}
330
30D
100
AcDbVisualStyle
  2
FlatWithEdges
 70
     1
 71
     2
 72
     1
 73
     1
 90
        2
 40
-0.6
 41
30.0
 62
     5
 63
     7
 74
     1
 91
        4
 64
     7
 65
   257
 75
     1
175
     1
 42
1.0
 92
        0
 66
   257
 43
1.0
 76
     1
 77
     6
 78
     2
 67
     7
 79
     5
170
     0
171
     0
290
     0
174
     0
 93
       13
 44
0.0
173
     0
291
     1
 45
0.0
1001
ACAD
1000
AcDbSavedByObjectVersion
1070
     0
  0
VISUALSTYLE
  5
310
102
{ACAD_REACTORS
330
30D
102
}
330
30D
100
AcDbVisualStyle
  2
Gouraud
 70
     2
 71
     2
 72
     2
 73
     1
 90
        2
 40
-0.6
 41
30.0
 62
     5
 63
     7
 74
     0
 91
        4
 64
     7
 65
   257
 75
     1
175
     1
 42
1.0
 92
        0
 66
     7
 43
1.0
 76
     1
 77
     6
 78
     2
 67
     7
 79
     5
170
     0
171
     0
290
     0
174
     0
 93
       13
 44
0.0
173
     0
291
     1
 45
0.0
1001
ACAD
1000
AcDbSavedByObjectVersion
1070
     0
  0
VISUALSTYLE
  5
311
102
{ACAD_REACTORS
330
30D
102
}
330
30D
100
AcDbVisualStyle
  2
GouraudWithEdges
 70
     3
 71
     2
 72
     2
 73
     1
 90
        2
 40
-0.6
 41
30.0
 62
     5
 63
     7
 74
     1
 91
        4
 64
     7
 65
   257
 75
     1
175
     1
 42
1.0
 92
        0
 66
   257
 43
1.0
 76
     1
 77
     6
 78
     2
 67
     7
 79
     5
170
     0
171
     0
290
     0
174
     0
 93
       13
 44
0.0
173
     0
291
     1
 45
0.0
1001
ACAD
1000
AcDbSavedByObjectVersion
1070
     0
  0
VISUALSTYLE
  5
31B
102
{ACAD_REACTORS
330
30D
102
}
330
30D
100
AcDbVisualStyle
  2
Linepattern
 70
    14
 71
     2
 72
     2
 73
     0
 90
        0
 40
-0.6
 41
-30.0
 62
     5
 63
     7
 74
     1
 91
        4
 64
     7
 65
   257
 75
     7
175
     7
 42
1.0
 92
        8
 66
     7
 43
1.0
 76
     1
 77
     6
 78
     2
 67
     7
 79
     5
170
     0
171
     0
290
     0
174
     0
 93
        1
 44
0.0
173
     0
291
     1
 45
0.0
1001
ACAD
1000
AcDbSavedByObjectVersion
1070
     0
  0
VISUALSTYLE
  5
317
102
{ACAD_REACTORS
330
30D
102
}
330
30D
100
AcDbVisualStyle
  2
Realistic
 70
     8
 71
     2
 72
     2
 73
     0
 90
        0
 40
-0.6
 41
-30.0
 62
     5
 63
     7
 74
     1
 91
        0
 64
     7
 65
   257
 75
     1
175
     1
 42
1.0
 92
        8
 66
     8
 43
1.0
 76
     1
 77
     6
 78
     2
 67
     7
 79
     5
170
     0
171
     0
290
     0
174
     0
 93
       13
 44
0.0
173
     0
291
     0
 45
0.0
1001
ACAD
1000
AcDbSavedByObjectVersion
1070
     0
  0
VISUALSTYLE
  5
31A
102
{ACAD_REACTORS
330
30D
102
}
330
30D
100
AcDbVisualStyle
  2
Thicken
 70
    13
 71
     2
 72
     2
 73
     0
 90
        0
 40
-0.6
 41
-30.0
 62
     5
 63
     7
 74
     1
 91
        4
 64
     7
 65
   257
 75
     1
175
     1
 42
1.0
 92
       12
 66
     7
 43
1.0
 76
     1
 77
     6
 78
     2
 67
     7
 79
     5
170
     0
171
     0
290
     0
174
     0
 93
        1
 44
0.0
173
     0
291
     1
 45
0.0
1001
ACAD
1000
AcDbSavedByObjectVersion
1070
     0
  0
DICTIONARYVAR
  5
388
102
{ACAD_REACTORS
330
1E7
102
}
330
1E7
100
DictionaryVariables
280
     0
  1
STANDARD
  0
DICTIONARYVAR
  5
1E9
102
{ACAD_REACTORS
330
1E7
102
}
330
1E7
100
DictionaryVariables
280
     0
  1
2
  0
DICTIONARYVAR
  5
1E8
102
{ACAD_REACTORS
330
1E7
102
}
330
1E7
100
DictionaryVariables
280
     0
  1
1
  0
DICTIONARYVAR
  5
38A
102
{ACAD_REACTORS
330
1E7
102
}
330
1E7
100
DictionaryVariables
280
     0
  1
0
  0
DICTIONARYVAR
  5
389
102
{ACAD_REACTORS
330
1E7
102
}
330
1E7
100
DictionaryVariables
280
     0
  1
127
  0
XRECORD
  5
36D
102
{ACAD_REACTORS
330
36B
102
}
330
36B
100
AcDbXrecord
280
     1
  0
DICTIONARY
  5
38C
330
1D
100
AcDbDictionary
280
     1
281
     1
  3
ACAD_XREC_ROUNDTRIP
360
38D
  0
DICTIONARY
  5
38E
330
21
100
AcDbDictionary
280
     1
281
     1
  3
ACAD_XREC_ROUNDTRIP
360
38F
  0
DICTIONARY
  5
392
330
30B
100
AcDbDictionary
280
     1
281
     1
  3
ACAD_XREC_ROUNDTRIP
360
393
  0
DICTIONARY
  5
390
330
30A
100
AcDbDictionary
280
     1
281
     1
  3
ACAD_XREC_ROUNDTRIP
360
391
  0
DICTIONARY
  5
394
330
30C
100
AcDbDictionary
280
     1
281
     1
  3
ACAD_XREC_ROUNDTRIP
360
395
  0
DICTIONARY
  5
396
330
320
100
AcDbDictionary
280
     1
281
     1
  3
ACAD_XREC_ROUNDTRIP
360
397
  0
XRECORD
  5
38D
102
{ACAD_REACTORS
330
38C
102
}
330
38C
100
AcDbXrecord
280
     1
102
SHADEPLOT
 70
     0
102
SHADEPLOTRESLEVEL
 70
     2
102
SHADEPLOTCUSTOMDPI
 70
   300
  0
XRECORD
  5
38F
102
{ACAD_REACTORS
330
38E
102
}
330
38E
100
AcDbXrecord
280
     1
102
SHADEPLOT
 70
     0
102
SHADEPLOTRESLEVEL
 70
     2
102
SHADEPLOTCUSTOMDPI
 70
   300
  0
XRECORD
  5
393
102
{ACAD_REACTORS
330
392
102
}
330
392
100
AcDbXrecord
280
     1
102
MATERIAL
148
0.0
149
0.0
149
0.0
 93
        0
 94
       63
282
     0
 72
     1
 77
     1
171
     1
175
     1
179
     1
273
     0
  0
XRECORD
  5
391
102
{ACAD_REACTORS
330
390
102
}
330
390
100
AcDbXrecord
280
     1
102
MATERIAL
148
0.0
149
0.0
149
0.0
 93
        0
 94
       63
282
     0
 72
     1
 77
     1
171
     1
175
     1
179
     1
273
     0
  0
XRECORD
  5
395
102
{ACAD_REACTORS
330
394
102
}
330
394
100
AcDbXrecord
280
     1
102
MATERIAL
148
0.0
149
0.0
149
0.0
 93
        0
 94
       63
282
     0
 72
     1
 77
     1
171
     1
175
     1
179
     1
273
     0
  0
XRECORD
  5
397
102
{ACAD_REACTORS
330
396
102
}
330
396
100
AcDbXrecord
280
     1
102
ACAD_ROUNDTRIP_PRE2007_TABLESTYLE
 90
      512
 91
        0
  1

 92
      512
 93
        0
  2

 94
      512
 95
        0
  3

  0
ENDSEC
  0
EOF
