  0
SECTION
  2
HEADER
  9
$ACADVER
  1
AC1014
  9
$ACADMAINTVER
 70
     9
  9
$DWGCODEPAGE
  3
ANSI_1252
  9
$INSBASE
 10
71.14111213905315
 20
-1.044466452713859
 30
0.0
  9
$EXTMIN
 10
38.71424111813455
 20
-4.623864651612453
 30
0.0
  9
$EXTMAX
 10
103.061316493305
 20
35.08053354728613
 30
0.0
  9
$LIMMIN
 10
0.0
 20
0.0
  9
$LIMMAX
 10
36.0
 20
36.0
  9
$ORTHOMODE
 70
     1
  9
$REGENMODE
 70
     1
  9
$FILLMODE
 70
     1
  9
$QTEXTMODE
 70
     0
  9
$MIRRTEXT
 70
     1
  9
$DRAGMODE
 70
     0
  9
$LTSCALE
 40
1.0
  9
$OSMODE
 70
    37
  9
$ATTMODE
 70
     1
  9
$TEXTSIZE
 40
0.2
  9
$TRACEWID
 40
0.05
  9
$TEXTSTYLE
  7
STANDARD
  9
$CLAYER
  8
ADPDIM
  9
$CELTYPE
  6
BYLAYER
  9
$CECOLOR
 62
   256
  9
$CELTSCALE
 40
1.0
  9
$DELOBJ
 70
     1
  9
$DISPSILH
 70
     0
  9
$DIMSCALE
 40
1.0
  9
$DIMASZ
 40
0.125
  9
$DIMEXO
 40
0.0625
  9
$DIMDLI
 40
0.38
  9
$DIMRND
 40
0.0
  9
$DIMDLE
 40
0.0
  9
$DIMEXE
 40
0.18
  9
$DIMTP
 40
0.0
  9
$DIMTM
 40
0.0
  9
$DIMTXT
 40
0.125
  9
$DIMCEN
 40
0.1875
  9
$DIMTSZ
 40
0.125
  9
$DIMTOL
 70
     0
  9
$DIMLIM
 70
     0
  9
$DIMTIH
 70
     0
  9
$DIMTOH
 70
     0
  9
$DIMSE1
 70
     0
  9
$DIMSE2
 70
     0
  9
$DIMTAD
 70
     0
  9
$DIMZIN
 70
     3
  9
$DIMBLK
  1

  9
$DIMASO
 70
     1
  9
$DIMSHO
 70
     1
  9
$DIMPOST
  1

  9
$DIMAPOST
  1

  9
$DIMALT
 70
     0
  9
$DIMALTD
 70
     1
  9
$DIMALTF
 40
25.4
  9
$DIMLFAC
 40
1.0
  9
$DIMTOFL
 70
     0
  9
$DIMTVP
 40
0.0
  9
$DIMTIX
 70
     0
  9
$DIMSOXD
 70
     0
  9
$DIMSAH
 70
     0
  9
$DIMBLK1
  1

  9
$DIMBLK2
  1

  9
$DIMSTYLE
  2
STANDARD
  9
$DIMCLRD
 70
     0
  9
$DIMCLRE
 70
     0
  9
$DIMCLRT
 70
     0
  9
$DIMTFAC
 40
1.0
  9
$DIMGAP
 40
0.125
  9
$DIMJUST
 70
     0
  9
$DIMSD1
 70
     0
  9
$DIMSD2
 70
     0
  9
$DIMTOLJ
 70
     1
  9
$DIMTZIN
 70
     0
  9
$DIMALTZ
 70
     0
  9
$DIMALTTZ
 70
     0
  9
$DIMFIT
 70
     3
  9
$DIMUPT
 70
     0
  9
$DIMUNIT
 70
     2
  9
$DIMDEC
 70
     4
  9
$DIMTDEC
 70
     4
  9
$DIMALTU
 70
     2
  9
$DIMALTTD
 70
     2
  9
$DIMTXSTY
  7
STANDARD
  9
$DIMAUNIT
 70
     0
  9
$LUNITS
 70
     5
  9
$LUPREC
 70
     4
  9
$SKETCHINC
 40
0.1
  9
$FILLETRAD
 40
0.062
  9
$AUNITS
 70
     0
  9
$AUPREC
 70
     0
  9
$MENU
  1
acad
  9
$ELEVATION
 40
0.0
  9
$PELEVATION
 40
0.0
  9
$THICKNESS
 40
0.0
  9
$LIMCHECK
 70
     0
  9
$BLIPMODE
 70
     0
  9
$CHAMFERA
 40
0.0
  9
$CHAMFERB
 40
0.0
  9
$CHAMFERC
 40
0.0
  9
$CHAMFERD
 40
0.0
  9
$SKPOLY
 70
     0
  9
$TDCREATE
 40
2450374.517600694
  9
$TDUPDATE
 40
2452297.072305046
  9
$TDINDWG
 40
0.0236233565
  9
$TDUSRTIMER
 40
0.0236233565
  9
$USRTIMER
 70
     1
  9
$ANGBASE
 50
0.0
  9
$ANGDIR
 70
     0
  9
$PDMODE
 70
     0
  9
$PDSIZE
 40
0.0
  9
$PLINEWID
 40
0.0
  9
$COORDS
 70
     2
  9
$SPLFRAME
 70
     0
  9
$SPLINETYPE
 70
     6
  9
$SPLINESEGS
 70
     8
  9
$ATTDIA
 70
     0
  9
$ATTREQ
 70
     1
  9
$HANDLING
 70
 22529
  9
$HANDSEED
  5
29F
  9
$SURFTAB1
 70
     6
  9
$SURFTAB2
 70
     6
  9
$SURFTYPE
 70
     6
  9
$SURFU
 70
     6
  9
$SURFV
 70
     6
  9
$UCSNAME
  2

  9
$UCSORG
 10
0.0
 20
0.0
 30
0.0
  9
$UCSXDIR
 10
1.0
 20
0.0
 30
0.0
  9
$UCSYDIR
 10
0.0
 20
1.0
 30
0.0
  9
$PUCSNAME
  2

  9
$PUCSORG
 10
0.0
 20
0.0
 30
0.0
  9
$PUCSXDIR
 10
1.0
 20
0.0
 30
0.0
  9
$PUCSYDIR
 10
0.0
 20
1.0
 30
0.0
  9
$USERI1
 70
     0
  9
$USERI2
 70
     0
  9
$USERI3
 70
     0
  9
$USERI4
 70
     0
  9
$USERI5
 70
     0
  9
$USERR1
 40
0.0
  9
$USERR2
 40
0.0
  9
$USERR3
 40
0.0
  9
$USERR4
 40
0.0
  9
$USERR5
 40
0.0
  9
$WORLDVIEW
 70
     1
  9
$SHADEDGE
 70
     3
  9
$SHADEDIF
 70
    70
  9
$TILEMODE
 70
     1
  9
$MAXACTVP
 70
    15
  9
$PINSBASE
 10
0.0
 20
0.0
 30
0.0
  9
$PLIMCHECK
 70
     0
  9
$PEXTMIN
 10
1.000000000000000E+20
 20
1.000000000000000E+20
 30
1.000000000000000E+20
  9
$PEXTMAX
 10
-1.000000000000000E+20
 20
-1.000000000000000E+20
 30
-1.000000000000000E+20
  9
$PLIMMIN
 10
0.0
 20
0.0
  9
$PLIMMAX
 10
12.0
 20
9.0
  9
$UNITMODE
 70
     0
  9
$VISRETAIN
 70
     0
  9
$PLINEGEN
 70
     0
  9
$PSLTSCALE
 70
     1
  9
$TREEDEPTH
 70
  3020
  9
$PICKSTYLE
 70
     1
  9
$CMLSTYLE
  2
STANDARD
  9
$CMLJUST
 70
     0
  9
$CMLSCALE
 40
1.0
  9
$PROXYGRAPHICS
 70
     1
  9
$MEASUREMENT
 70
     0
  0
ENDSEC
  0
SECTION
  2
CLASSES
  0
CLASS
  1
ACDBDICTIONARYWDFLT
  2
AcDbDictionaryWithDefault
  3
AutoCAD 2000
 90
        0
280
     0
281
     0
  0
CLASS
  1
ACDBPLACEHOLDER
  2
AcDbPlaceHolder
  3
AutoCAD 2000
 90
        0
280
     0
281
     0
  0
CLASS
  1
LAYOUT
  2
AcDbLayout
  3
AutoCAD 2000
 90
        0
280
     0
281
     0
  0
CLASS
  1
DICTIONARYVAR
  2
AcDbDictionaryVar
  3
AutoCAD 2000
 90
        0
280
     0
281
     0
  0
CLASS
  1
LONG_TRANSACTION
  2
AcDbLongTransaction
  3
AutoCAD 2000
 90
        0
280
     0
281
     0
  0
CLASS
  1
LWPOLYLINE
  2
AcDbPolyline
  3
AutoCAD 2000
 90
        0
280
     0
281
     1
  0
CLASS
  1
HATCH
  2
AcDbHatch
  3
AutoCAD 2000
 90
        0
280
     0
281
     1
  0
CLASS
  1
XRECORD
  2
AcDbXrecord
  3
AutoCAD 2000
 90
        0
280
     0
281
     0
  0
CLASS
  1
LONG_TRANSACTION
  2
AcDbLongTransaction
  3
AutoCAD 2000
 90
        0
280
     0
281
     0
  0
CLASS
  1
LWPOLYLINE
  2
AcDbPolyline
  3
AutoCAD 2000
 90
        0
280
     0
281
     1
  0
CLASS
  1
HATCH
  2
AcDbHatch
  3
AutoCAD 2000
 90
        0
280
     0
281
     1
  0
CLASS
  1
XRECORD
  2
AcDbXrecord
  3
AutoCAD 2000
 90
        0
280
     0
281
     0
  0
CLASS
  1
LONG_TRANSACTION
  2
AcDbLongTransaction
  3
AutoCAD 2000
 90
        0
280
     0
281
     0
  0
CLASS
  1
LWPOLYLINE
  2
AcDbPolyline
  3
AutoCAD 2000
 90
        0
280
     0
281
     1
  0
CLASS
  1
HATCH
  2
AcDbHatch
  3
AutoCAD 2000
 90
        0
280
     0
281
     1
  0
CLASS
  1
XRECORD
  2
AcDbXrecord
  3
AutoCAD 2000
 90
        0
280
     0
281
     0
  0
CLASS
  1
LONG_TRANSACTION
  2
AcDbLongTransaction
  3
AutoCAD 2000
 90
        0
280
     0
281
     0
  0
CLASS
  1
LWPOLYLINE
  2
AcDbPolyline
  3
AutoCAD 2000
 90
        0
280
     0
281
     1
  0
CLASS
  1
HATCH
  2
AcDbHatch
  3
AutoCAD 2000
 90
        0
280
     0
281
     1
  0
CLASS
  1
XRECORD
  2
AcDbXrecord
  3
AutoCAD 2000
 90
        0
280
     0
281
     0
  0
CLASS
  1
LONG_TRANSACTION
  2
AcDbLongTransaction
  3
AutoCAD 2000
 90
        0
280
     0
281
     0
  0
CLASS
  1
LWPOLYLINE
  2
AcDbPolyline
  3
AutoCAD 2000
 90
        0
280
     0
281
     1
  0
CLASS
  1
HATCH
  2
AcDbHatch
  3
AutoCAD 2000
 90
        0
280
     0
281
     1
  0
CLASS
  1
XRECORD
  2
AcDbXrecord
  3
AutoCAD 2000
 90
        0
280
     0
281
     0
  0
CLASS
  1
LONG_TRANSACTION
  2
AcDbLongTransaction
  3
AutoCAD 2000
 90
        0
280
     0
281
     0
  0
CLASS
  1
LWPOLYLINE
  2
AcDbPolyline
  3
AutoCAD 2000
 90
        0
280
     0
281
     1
  0
CLASS
  1
HATCH
  2
AcDbHatch
  3
AutoCAD 2000
 90
        0
280
     0
281
     1
  0
CLASS
  1
XRECORD
  2
AcDbXrecord
  3
AutoCAD 2000
 90
        0
280
     0
281
     0
  0
ENDSEC
  0
SECTION
  2
TABLES
  0
TABLE
  2
VPORT
  5
8
330
0
100
AcDbSymbolTable
 70
     2
  0
VPORT
  5
27C
330
8
100
AcDbSymbolTableRecord
100
AcDbViewportTableRecord
  2
*ACTIVE
 70
     0
 10
0.0
 20
0.0
 11
1.0
 21
1.0
 12
70.93998453150486
 22
15.22726099823923
 13
0.0
 23
0.0
 14
0.5740882589684922
 24
0.5740882589684922
 15
0.5
 25
0.5
 16
0.0
 26
0.0
 36
1.0
 17
0.0
 27
0.0
 37
0.0
 40
41.23819802752908
 41
1.570528967254408
 42
50.0
 43
0.0
 44
0.0
 50
0.0
 51
0.0
 71
     0
 72
   100
 73
     1
 74
     0
 75
     0
 76
     0
 77
     0
 78
     0
  0
ENDTAB
  0
TABLE
  2
LTYPE
  5
5
330
0
100
AcDbSymbolTable
 70
     1
  0
LTYPE
  5
12
330
5
100
AcDbSymbolTableRecord
100
AcDbLinetypeTableRecord
  2
BYBLOCK
 70
     0
  3

 72
    65
 73
     0
 40
0.0
  0
LTYPE
  5
13
330
5
100
AcDbSymbolTableRecord
100
AcDbLinetypeTableRecord
  2
BYLAYER
 70
     0
  3

 72
    65
 73
     0
 40
0.0
  0
LTYPE
  5
14
330
5
100
AcDbSymbolTableRecord
100
AcDbLinetypeTableRecord
  2
CONTINUOUS
 70
     0
  3
Solid line
 72
    65
 73
     0
 40
0.0
  0
ENDTAB
  0
TABLE
  2
LAYER
  5
2
330
0
100
AcDbSymbolTable
 70
     4
  0
LAYER
  5
F
330
2
100
AcDbSymbolTableRecord
100
AcDbLayerTableRecord
  2
0
 70
     0
 62
     7
  6
CONTINUOUS
  0
LAYER
  5
4B
330
2
100
AcDbSymbolTableRecord
100
AcDbLayerTableRecord
  2
ADPDIM
 70
     0
 62
     3
  6
CONTINUOUS
  0
LAYER
  5
4D
330
2
100
AcDbSymbolTableRecord
100
AcDbLayerTableRecord
  2
ADP1DETAIL
 70
     0
 62
     7
  6
CONTINUOUS
  0
LAYER
  5
4F
330
2
100
AcDbSymbolTableRecord
100
AcDbLayerTableRecord
  2
DEFPOINTS
 70
     0
 62
     7
  6
CONTINUOUS
  0
ENDTAB
  0
TABLE
  2
STYLE
  5
3
330
0
100
AcDbSymbolTable
 70
     2
  0
STYLE
  5
10
330
3
100
AcDbSymbolTableRecord
100
AcDbTextStyleTableRecord
  2
STANDARD
 70
     0
 40
0.0
 41
1.0
 50
0.0
 71
     0
 42
0.2
  3
txt
  4

  0
STYLE
  5
134
330
3
100
AcDbSymbolTableRecord
100
AcDbTextStyleTableRecord
  2
ARIAL_WIDE
 70
     0
 40
0.0
 41
1.25
 50
0.0
 71
     0
 42
0.2
  3
ARIAL.TTF
  4

1001
ACAD
1000
Arial
1071
       34
  0
ENDTAB
  0
TABLE
  2
VIEW
  5
6
330
0
100
AcDbSymbolTable
 70
     0
  0
ENDTAB
  0
TABLE
  2
UCS
  5
7
330
0
100
AcDbSymbolTable
 70
     0
  0
ENDTAB
  0
TABLE
  2
APPID
  5
9
330
0
100
AcDbSymbolTable
 70
     1
  0
APPID
  5
11
330
9
100
AcDbSymbolTableRecord
100
AcDbRegAppTableRecord
  2
ACAD
 70
     0
  0
ENDTAB
  0
TABLE
  2
DIMSTYLE
  5
A
330
0
100
AcDbSymbolTable
 70
     1
  0
DIMSTYLE
105
128
330
A
100
AcDbSymbolTableRecord
100
AcDbDimStyleTableRecord
  2
STANDARD
 70
     0
  3

  4

  5

  6

  7

 40
1.0
 41
0.18
 42
0.0625
 43
0.38
 44
0.18
 45
0.0
 46
0.0
 47
0.0
 48
0.0
140
0.18
141
0.09
142
0.0
143
25.4
144
1.0
145
0.0
146
1.0
147
0.09
 71
     0
 72
     0
 73
     1
 74
     1
 75
     0
 76
     0
 77
     0
 78
     0
170
     0
171
     2
172
     0
173
     0
174
     0
175
     0
176
     0
177
     0
178
     0
270
     2
271
     4
272
     4
273
     2
274
     2
340
10
275
     0
280
     0
281
     0
282
     0
283
     1
284
     0
285
     0
286
     0
287
     3
288
     0
  0
ENDTAB
  0
TABLE
  2
BLOCK_RECORD
  5
1
330
0
100
AcDbSymbolTable
 70
     2
  0
BLOCK_RECORD
  5
18
102
{ACAD_XDICTIONARY
360
189
102
}
330
1
100
AcDbSymbolTableRecord
100
AcDbBlockTableRecord
  2
*MODEL_SPACE
  0
BLOCK_RECORD
  5
15
102
{ACAD_XDICTIONARY
360
187
102
}
330
1
100
AcDbSymbolTableRecord
100
AcDbBlockTableRecord
  2
*PAPER_SPACE
  0
BLOCK_RECORD
  5
43
330
1
100
AcDbSymbolTableRecord
100
AcDbBlockTableRecord
  2
*D0
  0
BLOCK_RECORD
  5
49
330
1
100
AcDbSymbolTableRecord
100
AcDbBlockTableRecord
  2
*D1
  0
ENDTAB
  0
ENDSEC
  0
SECTION
  2
BLOCKS
  0
BLOCK
  5
52
330
18
100
AcDbEntity
  8
0
100
AcDbBlockBegin
  2
*MODEL_SPACE
 70
     0
 10
0.0
 20
0.0
 30
0.0
  3
*MODEL_SPACE
  1

  0
ENDBLK
  5
53
330
18
100
AcDbEntity
  8
0
100
AcDbBlockEnd
  0
BLOCK
  5
50
330
15
100
AcDbEntity
 67
     1
  8
0
100
AcDbBlockBegin
  2
*PAPER_SPACE
 70
     0
 10
0.0
 20
0.0
 30
0.0
  3
*PAPER_SPACE
  1

  0
ENDBLK
  5
51
330
15
100
AcDbEntity
 67
     1
  8
0
100
AcDbBlockEnd
  0
BLOCK
  5
55
330
43
100
AcDbEntity
  8
0
100
AcDbBlockBegin
  2
*D0
 70
     1
 10
0.0
 20
0.0
 30
0.0
  3
*D0
  1

  0
LINE
  5
56
330
43
100
AcDbEntity
  8
0
  6
BYBLOCK
 62
     0
100
AcDbLine
 10
70.57194547238649
 20
-1.044466452713859
 30
0.0
 11
68.09030584135979
 21
-1.044466452713859
 31
0.0
  0
LINE
  5
57
330
43
100
AcDbEntity
  8
0
  6
BYBLOCK
 62
     0
100
AcDbLine
 10
70.57194547238649
 20
34.95553354728613
 30
0.0
 11
68.09030584135979
 21
34.95553354728613
 31
0.0
  0
LINE
  5
58
330
43
100
AcDbEntity
  8
0
  6
BYBLOCK
 62
     0
100
AcDbLine
 10
68.2703058413598
 20
-1.044466452713859
 30
0.0
 11
68.2703058413598
 21
16.72636688061946
 31
0.0
  0
LINE
  5
59
330
43
100
AcDbEntity
  8
0
  6
BYBLOCK
 62
     0
100
AcDbLine
 10
68.2703058413598
 20
34.95553354728613
 30
0.0
 11
68.2703058413598
 21
17.1847002139528
 31
0.0
  0
LINE
  5
5A
330
43
100
AcDbEntity
  8
0
  6
BYBLOCK
 62
     0
100
AcDbLine
 10
68.3953058413598
 20
-1.169466452713859
 30
0.0
 11
68.1453058413598
 21
-0.9194664527138598
 31
0.0
  0
LINE
  5
5B
330
43
100
AcDbEntity
  8
0
  6
BYBLOCK
 62
     0
100
AcDbLine
 10
68.3953058413598
 20
34.83053354728613
 30
0.0
 11
68.1453058413598
 21
35.08053354728613
 31
0.0
  0
TEXT
  5
5C
330
43
100
AcDbEntity
  8
0
  6
BYBLOCK
 62
     0
100
AcDbText
 10
68.3328058413598
 20
16.85136688061946
 30
0.0
 40
0.125
  1
36
 50
90.0
 72
     1
 11
68.2703058413598
 21
16.95553354728613
 31
0.0
100
AcDbText
 73
     2
  0
POINT
  5
5D
330
43
100
AcDbEntity
  8
DEFPOINTS
  6
BYBLOCK
 62
     0
100
AcDbPoint
 10
70.63444547238649
 20
-1.044466452713859
 30
0.0
  0
POINT
  5
5E
330
43
100
AcDbEntity
  8
DEFPOINTS
  6
BYBLOCK
 62
     0
100
AcDbPoint
 10
70.63444547238649
 20
34.95553354728613
 30
0.0
  0
POINT
  5
5F
330
43
100
AcDbEntity
  8
DEFPOINTS
  6
BYBLOCK
 62
     0
100
AcDbPoint
 10
68.2703058413598
 20
34.95553354728613
 30
0.0
  0
ENDBLK
  5
60
330
43
100
AcDbEntity
  8
0
100
AcDbBlockEnd
  0
BLOCK
  5
61
330
49
100
AcDbEntity
  8
0
100
AcDbBlockBegin
  2
*D1
 70
     1
 10
0.0
 20
0.0
 30
0.0
  3
*D1
  1

  0
LINE
  5
62
330
49
100
AcDbEntity
  8
0
  6
BYBLOCK
 62
     0
100
AcDbLine
 10
70.63444547238649
 20
-2.479535401583515
 30
0.0
 11
70.63444547238649
 21
-3.054558384540067
 31
0.0
  0
LINE
  5
63
330
49
100
AcDbEntity
  8
0
  6
BYBLOCK
 62
     0
100
AcDbLine
 10
71.13444547238649
 20
-2.479535401583515
 30
0.0
 11
71.13444547238649
 21
-3.054558384540067
 31
0.0
  0
LINE
  5
64
330
49
100
AcDbEntity
  8
0
  6
BYBLOCK
 62
     0
100
AcDbLine
 10
70.63444547238649
 20
-2.874558384540067
 30
0.0
 11
70.38444547238649
 21
-2.874558384540067
 31
0.0
  0
LINE
  5
65
330
49
100
AcDbEntity
  8
0
  6
BYBLOCK
 62
     0
100
AcDbLine
 10
71.13444547238649
 20
-2.874558384540067
 30
0.0
 11
71.38444547238648
 21
-2.874558384540067
 31
0.0
  0
LINE
  5
66
330
49
100
AcDbEntity
  8
0
  6
BYBLOCK
 62
     0
100
AcDbLine
 10
70.50944547238649
 20
-2.999558384540067
 30
0.0
 11
70.75944547238648
 21
-2.749558384540067
 31
0.0
  0
LINE
  5
67
330
49
100
AcDbEntity
  8
0
  6
BYBLOCK
 62
     0
100
AcDbLine
 10
71.00944547238649
 20
-2.999558384540067
 30
0.0
 11
71.25944547238649
 21
-2.749558384540067
 31
0.0
  0
TEXT
  5
68
330
49
100
AcDbEntity
  8
0
  6
BYBLOCK
 62
     0
100
AcDbText
 10
71.50944547238649
 20
-2.937058384540067
 30
0.0
 40
0.125
  1
1/2
 72
     1
 11
71.65527880571982
 21
-2.874558384540067
 31
0.0
100
AcDbText
 73
     2
  0
POINT
  5
69
330
49
100
AcDbEntity
  8
DEFPOINTS
  6
BYBLOCK
 62
     0
100
AcDbPoint
 10
70.63444547238649
 20
-2.417035401583515
 30
0.0
  0
POINT
  5
6A
330
49
100
AcDbEntity
  8
DEFPOINTS
  6
BYBLOCK
 62
     0
100
AcDbPoint
 10
71.13444547238649
 20
-2.417035401583515
 30
0.0
  0
POINT
  5
6B
330
49
100
AcDbEntity
  8
DEFPOINTS
  6
BYBLOCK
 62
     0
100
AcDbPoint
 10
71.13444547238649
 20
-2.874558384540067
 30
0.0
  0
ENDBLK
  5
6C
330
49
100
AcDbEntity
  8
0
100
AcDbBlockEnd
  0
ENDSEC
  0
SECTION
  2
ENTITIES
  0
LWPOLYLINE
  5
6D
330
18
100
AcDbEntity
  8
0
100
AcDbPolyline
 90
        8
 70
     0
 43
0.0
 10
71.4344454723865
 20
19.54220021395279
 10
71.22111213905316
 20
19.35553354728614
 42
0.4537682265918514
 10
71.22111213905316
 20
19.11553354728614
 42
0.44028259730802
 10
71.46111213905317
 20
19.1422002139528
 10
71.62111213905316
 20
19.32886688061947
 42
1.056392942131379
 10
71.99444547238648
 20
19.6222002139528
 42
-0.3889836905545129
 10
72.36777880571982
 20
19.51553354728614
 42
-0.1732288045036213
 10
72.58111213905316
 20
18.5022002139528
 42
-0.8301283362844403
  0
LWPOLYLINE
  5
77
330
18
100
AcDbEntity
  8
0
100
AcDbPolyline
 90
        5
 70
     0
 43
0.0
 10
70.87444547238648
 20
20.60886688061947
 42
-0.045140107233019
 10
70.7944454723865
 20
22.15553354728613
 42
-0.1507516240704681
 10
70.12777880571983
 20
20.87553354728613
 42
0.3126366280373321
 10
70.02111213905315
 20
19.86220021395279
 42
-1.187758321656415
 10
70.31444547238649
 20
19.54220021395279
  0
LWPOLYLINE
  5
7E
330
18
100
AcDbEntity
  8
0
100
AcDbPolyline
 90
        8
 70
     0
 43
0.0
 10
71.06111213905316
 20
22.60886688061947
 42
0.1318155048711188
 10
71.35444547238648
 20
21.72886688061947
 42
-0.0488833688568722
 10
71.96777880571983
 20
20.92886688061947
 42
-0.3389795063123913
 10
71.86111213905317
 20
19.83553354728614
 10
72.7944454723865
 20
20.60886688061947
 10
72.02111213905316
 20
19.72886688061947
 42
-0.6020814153924304
 10
72.71444547238648
 20
19.51553354728614
 42
-0.0583834185109675
 10
72.90111213905316
 20
18.5022002139528
 42
-1.087514409478895
  0
LWPOLYLINE
  5
88
330
18
100
AcDbEntity
  8
0
100
AcDbPolyline
 90
        5
 70
     0
 43
0.0
 10
70.87444547238648
 20
20.60886688061947
 42
0.045140107233019
 10
70.95444547238648
 20
22.15553354728613
 42
0.1507516240704681
 10
71.62111213905316
 20
20.87553354728613
 42
-0.3126366280373321
 10
71.72777880571982
 20
19.86220021395279
 42
1.187758321656415
 10
71.4344454723865
 20
19.54220021395279
  0
LWPOLYLINE
  5
8F
330
18
100
AcDbEntity
  8
0
100
AcDbPolyline
 90
        8
 70
     0
 43
0.0
 10
70.68777880571982
 20
22.60886688061947
 42
-0.1318155048711188
 10
70.39444547238649
 20
21.72886688061947
 42
0.0488833688568722
 10
69.78111213905316
 20
20.92886688061947
 42
0.3389795063123913
 10
69.88777880571984
 20
19.83553354728614
 10
68.95444547238648
 20
20.60886688061947
 10
69.72777880571982
 20
19.72886688061947
 42
0.6020814153924304
 10
69.03444547238649
 20
19.51553354728614
 42
0.0583834185109675
 10
68.84777880571983
 20
18.5022002139528
 42
1.087514409478895
  0
LWPOLYLINE
  5
99
330
18
100
AcDbEntity
  8
0
100
AcDbPolyline
 90
        8
 70
     0
 43
0.0
 10
70.31444547238649
 20
19.54220021395279
 10
70.52777880571984
 20
19.35553354728614
 42
-0.4537682265918514
 10
70.52777880571984
 20
19.11553354728614
 42
-0.44028259730802
 10
70.28777880571983
 20
19.1422002139528
 10
70.12777880571983
 20
19.32886688061947
 42
-1.056392942131379
 10
69.75444547238649
 20
19.6222002139528
 42
0.3889836905545129
 10
69.38111213905315
 20
19.51553354728614
 42
0.1732288045036213
 10
69.16777880571982
 20
18.5022002139528
 42
0.8301283362844403
  0
DIMENSION
  5
A3
330
18
100
AcDbEntity
  8
ADPDIM
100
AcDbDimension
  2
*D0
 10
68.2703058413598
 20
34.95553354728613
 30
0.0
 11
68.2703058413598
 21
16.95553354728613
 31
0.0
100
AcDbAlignedDimension
 13
70.63444547238649
 23
-1.044466452713859
 33
0.0
 14
70.63444547238649
 24
34.95553354728613
 34
0.0
 50
90.0
100
AcDbRotatedDimension
  0
LWPOLYLINE
  5
A4
330
18
100
AcDbEntity
  8
0
100
AcDbPolyline
 90
        8
 70
     0
 43
0.0
 10
71.4344454723865
 20
17.46220021395281
 10
71.22111213905316
 20
17.64886688061946
 42
-0.4537682265918514
 10
71.22111213905316
 20
17.88886688061947
 42
-0.44028259730802
 10
71.46111213905317
 20
17.8622002139528
 10
71.62111213905316
 20
17.67553354728613
 42
-1.056392942131379
 10
71.99444547238648
 20
17.3822002139528
 42
0.3889836905545129
 10
72.36777880571982
 20
17.48886688061946
 42
0.1732288045036213
 10
72.58111213905316
 20
18.5022002139528
 42
0.8301283362844403
  0
LWPOLYLINE
  5
AE
330
18
100
AcDbEntity
  8
0
100
AcDbPolyline
 90
        8
 70
     0
 43
0.0
 10
71.06111213905316
 20
14.39553354728613
 42
-0.1318155048711188
 10
71.35444547238648
 20
15.27553354728613
 42
0.0488833688568722
 10
71.96777880571983
 20
16.07553354728613
 42
0.3389795063123913
 10
71.86111213905317
 20
17.16886688061946
 10
72.7944454723865
 20
16.39553354728613
 10
72.02111213905316
 20
17.27553354728613
 42
0.6020814153924304
 10
72.71444547238648
 20
17.48886688061946
 42
0.0583834185109675
 10
72.90111213905316
 20
18.5022002139528
 42
1.087514409478895
  0
LWPOLYLINE
  5
B8
330
18
100
AcDbEntity
  8
0
100
AcDbPolyline
 90
        2
 70
     0
 43
0.0
 10
70.63444547238649
 20
-1.044466452713859
 10
70.63444547238649
 20
13.9422002139528
  0
LWPOLYLINE
  5
BC
330
18
100
AcDbEntity
  8
0
100
AcDbPolyline
 90
        3
 70
     0
 43
0.0
 10
71.14111213905315
 20
13.94220021395281
 10
71.14111213905315
 20
-1.044466452713859
 10
70.63444547238649
 20
-1.044466452713859
  0
DIMENSION
  5
C1
330
18
100
AcDbEntity
  8
ADPDIM
100
AcDbDimension
  2
*D1
 10
71.13444547238649
 20
-2.874558384540067
 30
0.0
 11
71.65527880571982
 21
-2.874558384540067
 31
0.0
100
AcDbAlignedDimension
 13
70.63444547238649
 23
-2.417035401583515
 33
0.0
 14
71.13444547238649
 24
-2.417035401583515
 34
0.0
100
AcDbRotatedDimension
  0
LWPOLYLINE
  5
C2
330
18
100
AcDbEntity
  8
ADP1DETAIL
100
AcDbPolyline
 90
        4
 70
     1
 43
0.0
 10
70.63444547238649
 20
-1.917035401583514
 10
70.63444547238649
 20
-2.417035401583515
 10
71.13444547238649
 20
-2.417035401583515
 10
71.13444547238649
 20
-1.917035401583514
  0
LWPOLYLINE
  5
C8
330
18
100
AcDbEntity
  8
0
100
AcDbPolyline
 90
        8
 70
     0
 43
0.0
 10
70.68777880571982
 20
14.39553354728613
 42
0.1318155048711188
 10
70.39444547238649
 20
15.27553354728613
 42
-0.0488833688568722
 10
69.78111213905316
 20
16.07553354728613
 42
-0.3389795063123913
 10
69.88777880571984
 20
17.16886688061946
 10
68.95444547238648
 20
16.39553354728613
 10
69.72777880571982
 20
17.27553354728613
 42
-0.6020814153924304
 10
69.03444547238649
 20
17.48886688061946
 42
-0.0583834185109675
 10
68.84777880571983
 20
18.5022002139528
 42
-1.087514409478895
  0
LWPOLYLINE
  5
D2
330
18
100
AcDbEntity
  8
0
100
AcDbPolyline
 90
        5
 70
     0
 43
0.0
 10
70.87444547238648
 20
16.39553354728613
 42
0.045140107233019
 10
70.7944454723865
 20
14.84886688061947
 42
0.1507516240704681
 10
70.12777880571983
 20
16.12886688061947
 42
-0.3126366280373321
 10
70.02111213905315
 20
17.14220021395281
 42
1.187758321656415
 10
70.31444547238649
 20
17.46220021395281
  0
LWPOLYLINE
  5
D9
330
18
100
AcDbEntity
  8
0
100
AcDbPolyline
 90
        5
 70
     0
 43
0.0
 10
70.87444547238648
 20
16.39553354728613
 42
-0.045140107233019
 10
70.95444547238648
 20
14.84886688061947
 42
-0.1507516240704681
 10
71.62111213905316
 20
16.12886688061947
 42
0.3126366280373321
 10
71.72777880571982
 20
17.14220021395281
 42
-1.187758321656415
 10
71.4344454723865
 20
17.46220021395281
  0
LWPOLYLINE
  5
E0
330
18
100
AcDbEntity
  8
0
100
AcDbPolyline
 90
        3
 70
     0
 43
0.0
 10
71.32777880571982
 20
14.12886688061948
 10
71.32777880571982
 20
14.12886688061948
 42
0.459934922470422
 10
71.16777880571982
 20
13.9422002139528
 42
-1.409932776627831
  0
LWPOLYLINE
  5
E5
330
18
100
AcDbEntity
  8
0
100
AcDbPolyline
 90
        3
 70
     0
 43
0.0
 10
71.32777880571982
 20
14.20886688061947
 10
71.32777880571982
 20
14.20886688061947
 42
-0.459934922470422
 10
71.16777880571982
 20
14.39553354728615
 42
1.409932776627831
  0
LWPOLYLINE
  5
EA
330
18
100
AcDbEntity
  8
0
100
AcDbPolyline
 90
        4
 70
     1
 43
0.0
 10
70.44777880571982
 20
14.20886688061947
 10
70.44777880571982
 20
14.12886688061948
 10
71.32777880571982
 20
14.12886688061948
 10
71.32777880571982
 20
14.20886688061947
  0
LINE
  5
F0
330
18
100
AcDbEntity
  8
0
100
AcDbLine
 10
71.16777880571982
 20
13.94220021395281
 30
0.0
 11
70.60777880571982
 21
13.9422002139528
 31
0.0
  0
LINE
  5
F1
330
18
100
AcDbEntity
  8
0
100
AcDbLine
 10
70.60777880571982
 20
14.39553354728615
 30
0.0
 11
71.16777880571982
 21
14.39553354728615
 31
0.0
  0
LWPOLYLINE
  5
F2
330
18
100
AcDbEntity
  8
0
100
AcDbPolyline
 90
        3
 70
     0
 43
0.0
 10
70.44777880571982
 20
14.20886688061947
 10
70.44777880571982
 20
14.20886688061947
 42
0.459934922470422
 10
70.60777880571982
 20
14.39553354728615
 42
-1.409932776627831
  0
LWPOLYLINE
  5
F7
330
18
100
AcDbEntity
  8
0
100
AcDbPolyline
 90
        3
 70
     0
 43
0.0
 10
70.44777880571982
 20
14.12886688061948
 10
70.44777880571982
 20
14.12886688061948
 42
-0.459934922470422
 10
70.60777880571982
 20
13.9422002139528
 42
1.409932776627831
  0
LWPOLYLINE
  5
FC
330
18
100
AcDbEntity
  8
0
100
AcDbPolyline
 90
        8
 70
     0
 43
0.0
 10
70.31444547238649
 20
17.46220021395281
 10
70.52777880571984
 20
17.64886688061946
 42
0.4537682265918514
 10
70.52777880571984
 20
17.88886688061947
 42
0.44028259730802
 10
70.28777880571983
 20
17.8622002139528
 10
70.12777880571983
 20
17.67553354728613
 42
1.056392942131379
 10
69.75444547238649
 20
17.3822002139528
 42
-0.3889836905545129
 10
69.38111213905315
 20
17.48886688061946
 42
-0.1732288045036213
 10
69.16777880571982
 20
18.5022002139528
 42
-0.8301283362844403
  0
LWPOLYLINE
  5
106
330
18
100
AcDbEntity
  8
0
100
AcDbPolyline
 90
        4
 70
     0
 43
0.0
 10
70.63444547238649
 20
23.06220021395281
 10
70.63444547238649
 20
34.95553354728613
 10
71.14111213905315
 20
34.95553354728613
 10
71.14111213905315
 20
23.06220021395281
  0
LWPOLYLINE
  5
10C
330
18
100
AcDbEntity
  8
0
100
AcDbPolyline
 90
        3
 70
     0
 43
0.0
 10
71.32777880571982
 20
22.79553354728613
 10
71.32777880571982
 20
22.79553354728613
 42
0.459934922470422
 10
71.16777880571982
 20
22.60886688061947
 42
-1.409932776627831
  0
LWPOLYLINE
  5
111
330
18
100
AcDbEntity
  8
0
100
AcDbPolyline
 90
        4
 70
     1
 43
0.0
 10
70.44777880571982
 20
22.87553354728613
 10
70.44777880571982
 20
22.79553354728613
 10
71.32777880571982
 20
22.79553354728613
 10
71.32777880571982
 20
22.87553354728613
  0
LWPOLYLINE
  5
117
330
18
100
AcDbEntity
  8
0
100
AcDbPolyline
 90
        3
 70
     0
 43
0.0
 10
70.44777880571982
 20
22.79553354728613
 10
70.44777880571982
 20
22.79553354728613
 42
-0.459934922470422
 10
70.60777880571982
 20
22.60886688061947
 42
1.409932776627831
  0
LINE
  5
11C
330
18
100
AcDbEntity
  8
0
100
AcDbLine
 10
71.16777880571982
 20
22.60886688061947
 30
0.0
 11
70.60777880571982
 21
22.60886688061947
 31
0.0
  0
LWPOLYLINE
  5
11D
330
18
100
AcDbEntity
  8
0
100
AcDbPolyline
 90
        3
 70
     0
 43
0.0
 10
71.32777880571982
 20
22.87553354728613
 10
71.32777880571982
 20
22.87553354728613
 42
-0.459934922470422
 10
71.16777880571982
 20
23.06220021395281
 42
1.409932776627831
  0
LINE
  5
122
330
18
100
AcDbEntity
  8
0
100
AcDbLine
 10
70.60777880571982
 20
23.06220021395281
 30
0.0
 11
71.16777880571982
 21
23.06220021395281
 31
0.0
  0
LWPOLYLINE
  5
123
330
18
100
AcDbEntity
  8
0
100
AcDbPolyline
 90
        3
 70
     0
 43
0.0
 10
70.44777880571982
 20
22.87553354728613
 10
70.44777880571982
 20
22.87553354728613
 42
0.459934922470422
 10
70.60777880571982
 20
23.06220021395281
 42
-1.409932776627831
  0
TEXT
  5
135
330
18
100
AcDbEntity
  8
ADPDIM
100
AcDbText
 10
38.71424111813455
 20
-4.438837366482848
 30
0.0
 40
0.625
  1
J U L I U S  B L U M  &  C O . ,  I N C .      ( 8 0 0 )  5 2 6 - 6 2 9 3        W W W . J U L I U S B L U M . C O M        P A R T  N o .  5 3 3
 41
1.25
  7
ARIAL_WIDE
 72
     1
 11
70.88777880571981
 21
-3.813837366482848
 31
0.0
100
AcDbText
 73
     3
  0
ENDSEC
  0
SECTION
  2
OBJECTS
  0
DICTIONARY
  5
C
330
0
100
AcDbDictionary
  3
ACAD_GROUP
350
D
  3
ACAD_LAYOUT
350
12E
  3
ACAD_MLINESTYLE
350
E
  3
ACAD_PLOTSETTINGS
350
12F
  3
ACAD_PLOTSTYLENAME
350
12C
  3
ACDBHEADERROUNDTRIPXREC
350
27D
  3
ACDBVARIABLEDICTIONARY
350
18F
  0
DICTIONARY
  5
189
330
18
100
AcDbDictionary
280
     1
  3
ACAD_LAYOUTSELFREF
360
29E
  0
DICTIONARY
  5
187
330
15
100
AcDbDictionary
280
     1
  3
ACAD_LAYOUTSELFREF
360
29D
  0
DICTIONARY
  5
D
102
{ACAD_REACTORS
330
C
102
}
330
C
100
AcDbDictionary
  0
DICTIONARY
  5
12E
102
{ACAD_REACTORS
330
C
102
}
330
C
100
AcDbDictionary
  0
DICTIONARY
  5
E
102
{ACAD_REACTORS
330
C
102
}
330
C
100
AcDbDictionary
  3
STANDARD
350
1B
  0
DICTIONARY
  5
12F
102
{ACAD_REACTORS
330
C
102
}
330
C
100
AcDbDictionary
  0
ACDBDICTIONARYWDFLT
  5
12C
102
{ACAD_REACTORS
330
C
102
}
330
C
100
AcDbDictionary
281
     1
  3
Normal
350
12D
100
AcDbDictionaryWithDefault
340
12D
  0
DICTIONARY
  5
27D
102
{ACAD_REACTORS
330
C
102
}
330
C
100
AcDbDictionary
  3
CEPSNTYPE
350
287
  3
FINGERPRINTGUID
350
288
  3
HYPERLINKBASE
350
280
  3
INSUNITS
350
286
  3
LAYOUTDICT
350
282
  3
LWETCUNION
350
285
  3
PLOTSETDICT
350
283
  3
PLOTSTYLNAMDICT
350
284
  3
PSVPSCALE
350
28A
  3
PUCSBASE
350
28D
  3
PUCSORGBACK
350
293
  3
PUCSORGBOTTOM
350
28F
  3
PUCSORGFRONT
350
292
  3
PUCSORGLEFT
350
290
  3
PUCSORGRIGHT
350
291
  3
PUCSORGTOP
350
28E
  3
PUCSORTHOREF
350
28B
  3
PUCSORTHOVIEW
350
28C
  3
STYLESHEET
350
281
  3
TSTACKALIGN
350
27E
  3
TSTACKSIZE
350
27F
  3
UCSBASE
350
296
  3
UCSORGBACK
350
29C
  3
UCSORGBOTTOM
350
298
  3
UCSORGFRONT
350
29B
  3
UCSORGLEFT
350
299
  3
UCSORGRIGHT
350
29A
  3
UCSORGTOP
350
297
  3
UCSORTHOREF
350
294
  3
UCSORTHOVIEW
350
295
  3
VERSIONGUID
350
289
  0
DICTIONARY
  5
18F
102
{ACAD_REACTORS
330
C
102
}
330
C
100
AcDbDictionary
  3
DIMASSOC
350
190
  0
XRECORD
  5
29E
102
{ACAD_REACTORS
330
189
102
}
330
189
100
AcDbXrecord
340
18
  0
XRECORD
  5
29D
102
{ACAD_REACTORS
330
187
102
}
330
187
100
AcDbXrecord
340
15
  0
MLINESTYLE
  5
1B
102
{ACAD_REACTORS
330
E
102
}
330
E
100
AcDbMlineStyle
  2
STANDARD
 70
     0
  3

 62
     0
 51
90.0
 52
90.0
 71
     2
 49
0.5
 62
   256
  6
BYLAYER
 49
-0.5
 62
   256
  6
BYLAYER
  0
ACDBPLACEHOLDER
  5
12D
102
{ACAD_REACTORS
330
12C
102
}
330
12C
100
AcDbPlaceHolder
280
     0
  0
XRECORD
  5
287
102
{ACAD_REACTORS
330
27D
102
}
330
27D
100
AcDbXrecord
 90
        0
  0
XRECORD
  5
288
102
{ACAD_REACTORS
330
27D
102
}
330
27D
100
AcDbXrecord
  1
{4D8DAA9F-60F4-4106-BC7A-72B16DBF2789}
  0
XRECORD
  5
280
102
{ACAD_REACTORS
330
27D
102
}
330
27D
100
AcDbXrecord
  1

  0
XRECORD
  5
286
102
{ACAD_REACTORS
330
27D
102
}
330
27D
100
AcDbXrecord
 90
        0
  0
XRECORD
  5
282
102
{ACAD_REACTORS
330
27D
102
}
330
27D
100
AcDbXrecord
340
12E
  0
XRECORD
  5
285
102
{ACAD_REACTORS
330
27D
102
}
330
27D
100
AcDbXrecord
 90
    14877
  0
XRECORD
  5
283
102
{ACAD_REACTORS
330
27D
102
}
330
27D
100
AcDbXrecord
340
12F
  0
XRECORD
  5
284
102
{ACAD_REACTORS
330
27D
102
}
330
27D
100
AcDbXrecord
340
12C
  0
XRECORD
  5
28A
102
{ACAD_REACTORS
330
27D
102
}
330
27D
100
AcDbXrecord
 40
0.0
  0
XRECORD
  5
28D
102
{ACAD_REACTORS
330
27D
102
}
330
27D
100
AcDbXrecord
340
0
  0
XRECORD
  5
293
102
{ACAD_REACTORS
330
27D
102
}
330
27D
100
AcDbXrecord
 10
0.0
 20
0.0
 30
0.0
  0
XRECORD
  5
28F
102
{ACAD_REACTORS
330
27D
102
}
330
27D
100
AcDbXrecord
 10
0.0
 20
0.0
 30
0.0
  0
XRECORD
  5
292
102
{ACAD_REACTORS
330
27D
102
}
330
27D
100
AcDbXrecord
 10
0.0
 20
0.0
 30
0.0
  0
XRECORD
  5
290
102
{ACAD_REACTORS
330
27D
102
}
330
27D
100
AcDbXrecord
 10
0.0
 20
0.0
 30
0.0
  0
XRECORD
  5
291
102
{ACAD_REACTORS
330
27D
102
}
330
27D
100
AcDbXrecord
 10
0.0
 20
0.0
 30
0.0
  0
XRECORD
  5
28E
102
{ACAD_REACTORS
330
27D
102
}
330
27D
100
AcDbXrecord
 10
0.0
 20
0.0
 30
0.0
  0
XRECORD
  5
28B
102
{ACAD_REACTORS
330
27D
102
}
330
27D
100
AcDbXrecord
340
0
  0
XRECORD
  5
28C
102
{ACAD_REACTORS
330
27D
102
}
330
27D
100
AcDbXrecord
 70
     0
  0
XRECORD
  5
281
102
{ACAD_REACTORS
330
27D
102
}
330
27D
100
AcDbXrecord
  1

  0
XRECORD
  5
27E
102
{ACAD_REACTORS
330
27D
102
}
330
27D
100
AcDbXrecord
 90
        1
  0
XRECORD
  5
27F
102
{ACAD_REACTORS
330
27D
102
}
330
27D
100
AcDbXrecord
 90
       70
  0
XRECORD
  5
296
102
{ACAD_REACTORS
330
27D
102
}
330
27D
100
AcDbXrecord
340
0
  0
XRECORD
  5
29C
102
{ACAD_REACTORS
330
27D
102
}
330
27D
100
AcDbXrecord
 10
0.0
 20
0.0
 30
0.0
  0
XRECORD
  5
298
102
{ACAD_REACTORS
330
27D
102
}
330
27D
100
AcDbXrecord
 10
0.0
 20
0.0
 30
0.0
  0
XRECORD
  5
29B
102
{ACAD_REACTORS
330
27D
102
}
330
27D
100
AcDbXrecord
 10
0.0
 20
0.0
 30
0.0
  0
XRECORD
  5
299
102
{ACAD_REACTORS
330
27D
102
}
330
27D
100
AcDbXrecord
 10
0.0
 20
0.0
 30
0.0
  0
XRECORD
  5
29A
102
{ACAD_REACTORS
330
27D
102
}
330
27D
100
AcDbXrecord
 10
0.0
 20
0.0
 30
0.0
  0
XRECORD
  5
297
102
{ACAD_REACTORS
330
27D
102
}
330
27D
100
AcDbXrecord
 10
0.0
 20
0.0
 30
0.0
  0
XRECORD
  5
294
102
{ACAD_REACTORS
330
27D
102
}
330
27D
100
AcDbXrecord
340
0
  0
XRECORD
  5
295
102
{ACAD_REACTORS
330
27D
102
}
330
27D
100
AcDbXrecord
 70
     0
  0
XRECORD
  5
289
102
{ACAD_REACTORS
330
27D
102
}
330
27D
100
AcDbXrecord
  1
{F86A5758-60DF-4910-B465-6C8156950254}
  0
DICTIONARYVAR
  5
190
102
{ACAD_REACTORS
330
18F
102
}
330
18F
100
DictionaryVariables
280
     0
  1
1
  0
ENDSEC
  0
EOF
