  0
SECTION
  2
HEADER
  9
$ACADVER
  1
AC1015
  9
$ACADMAINTVER
 70
    18
  9
$DWGCODEPAGE
  3
ANSI_1252
  9
$INSBASE
 10
10.29474199974437
 20
0.6465306122448951
 30
0.0
  9
$EXTMIN
 10
1.000000000000000E+20
 20
1.000000000000000E+20
 30
1.000000000000000E+20
  9
$EXTMAX
 10
0.0
 20
0.0
 30
0.0
  9
$LIMMIN
 10
0.0
 20
0.0
  9
$LIMMAX
 10
36.0
 20
36.0
  9
$ORTHOMODE
 70
     1
  9
$REGENMODE
 70
     1
  9
$FILLMODE
 70
     1
  9
$QTEXTMODE
 70
     0
  9
$MIRRTEXT
 70
     1
  9
$LTSCALE
 40
1.0
  9
$ATTMODE
 70
     1
  9
$TEXTSIZE
 40
0.2
  9
$TRACEWID
 40
0.05
  9
$TEXTSTYLE
  7
STANDARD
  9
$CLAYER
  8
ADP1DETAIL
  9
$CELTYPE
  6
BYLAYER
  9
$CECOLOR
 62
   256
  9
$CELTSCALE
 40
1.0
  9
$DISPSILH
 70
     0
  9
$DIMSCALE
 40
1.0
  9
$DIMASZ
 40
0.125
  9
$DIMEXO
 40
0.0625
  9
$DIMDLI
 40
0.38
  9
$DIMRND
 40
0.0
  9
$DIMDLE
 40
0.0
  9
$DIMEXE
 40
0.18
  9
$DIMTP
 40
0.0
  9
$DIMTM
 40
0.0
  9
$DIMTXT
 40
0.125
  9
$DIMCEN
 40
0.1875
  9
$DIMTSZ
 40
0.125
  9
$DIMTOL
 70
     0
  9
$DIMLIM
 70
     0
  9
$DIMTIH
 70
     0
  9
$DIMTOH
 70
     0
  9
$DIMSE1
 70
     0
  9
$DIMSE2
 70
     0
  9
$DIMTAD
 70
     0
  9
$DIMZIN
 70
     3
  9
$DIMBLK
  1

  9
$DIMASO
 70
     1
  9
$DIMSHO
 70
     1
  9
$DIMPOST
  1

  9
$DIMAPOST
  1

  9
$DIMALT
 70
     0
  9
$DIMALTD
 70
     1
  9
$DIMALTF
 40
25.4
  9
$DIMLFAC
 40
1.0
  9
$DIMTOFL
 70
     0
  9
$DIMTVP
 40
0.0
  9
$DIMTIX
 70
     0
  9
$DIMSOXD
 70
     0
  9
$DIMSAH
 70
     0
  9
$DIMBLK1
  1

  9
$DIMBLK2
  1

  9
$DIMSTYLE
  2
STANDARD
  9
$DIMCLRD
 70
     0
  9
$DIMCLRE
 70
     0
  9
$DIMCLRT
 70
     0
  9
$DIMTFAC
 40
1.0
  9
$DIMGAP
 40
0.125
  9
$DIMJUST
 70
     0
  9
$DIMSD1
 70
     0
  9
$DIMSD2
 70
     0
  9
$DIMTOLJ
 70
     1
  9
$DIMTZIN
 70
     3
  9
$DIMALTZ
 70
     3
  9
$DIMALTTZ
 70
     3
  9
$DIMUPT
 70
     0
  9
$DIMDEC
 70
     4
  9
$DIMTDEC
 70
     4
  9
$DIMALTU
 70
     5
  9
$DIMALTTD
 70
     1
  9
$DIMTXSTY
  7
STANDARD
  9
$DIMAUNIT
 70
     0
  9
$DIMADEC
 70
     0
  9
$DIMALTRND
 40
0.0
  9
$DIMAZIN
 70
     0
  9
$DIMDSEP
 70
    46
  9
$DIMATFIT
 70
     3
  9
$DIMFRAC
 70
     0
  9
$DIMLDRBLK
  1

  9
$DIMLUNIT
 70
     5
  9
$DIMLWD
 70
    -2
  9
$DIMLWE
 70
    -2
  9
$DIMTMOVE
 70
     2
  9
$LUNITS
 70
     5
  9
$LUPREC
 70
     4
  9
$SKETCHINC
 40
0.1
  9
$FILLETRAD
 40
0.0
  9
$AUNITS
 70
     0
  9
$AUPREC
 70
     0
  9
$MENU
  1
acad
  9
$ELEVATION
 40
0.0
  9
$PELEVATION
 40
0.0
  9
$THICKNESS
 40
0.0
  9
$LIMCHECK
 70
     0
  9
$CHAMFERA
 40
0.0
  9
$CHAMFERB
 40
0.0
  9
$CHAMFERC
 40
0.0
  9
$CHAMFERD
 40
0.0
  9
$SKPOLY
 70
     0
  9
$TDCREATE
 40
2450367.678346447
  9
$TDUCREATE
 40
2450367.845013113
  9
$TDUPDATE
 40
2453937.660350556
  9
$TDUUPDATE
 40
2453937.827017222
  9
$TDINDWG
 40
0.0037299190
  9
$TDUSRTIMER
 40
0.0037299190
  9
$USRTIMER
 70
     1
  9
$ANGBASE
 50
0.0
  9
$ANGDIR
 70
     0
  9
$PDMODE
 70
     0
  9
$PDSIZE
 40
0.0
  9
$PLINEWID
 40
0.0
  9
$SPLFRAME
 70
     0
  9
$SPLINETYPE
 70
     6
  9
$SPLINESEGS
 70
     8
  9
$HANDSEED
  5
94
  9
$SURFTAB1
 70
     6
  9
$SURFTAB2
 70
     6
  9
$SURFTYPE
 70
     6
  9
$SURFU
 70
     6
  9
$SURFV
 70
     6
  9
$UCSBASE
  2

  9
$UCSNAME
  2

  9
$UCSORG
 10
0.0
 20
0.0
 30
0.0
  9
$UCSXDIR
 10
1.0
 20
0.0
 30
0.0
  9
$UCSYDIR
 10
0.0
 20
1.0
 30
0.0
  9
$UCSORTHOREF
  2

  9
$UCSORTHOVIEW
 70
     0
  9
$UCSORGTOP
 10
0.0
 20
0.0
 30
0.0
  9
$UCSORGBOTTOM
 10
0.0
 20
0.0
 30
0.0
  9
$UCSORGLEFT
 10
0.0
 20
0.0
 30
0.0
  9
$UCSORGRIGHT
 10
0.0
 20
0.0
 30
0.0
  9
$UCSORGFRONT
 10
0.0
 20
0.0
 30
0.0
  9
$UCSORGBACK
 10
0.0
 20
0.0
 30
0.0
  9
$PUCSBASE
  2

  9
$PUCSNAME
  2

  9
$PUCSORG
 10
0.0
 20
0.0
 30
0.0
  9
$PUCSXDIR
 10
1.0
 20
0.0
 30
0.0
  9
$PUCSYDIR
 10
0.0
 20
1.0
 30
0.0
  9
$PUCSORTHOREF
  2

  9
$PUCSORTHOVIEW
 70
     0
  9
$PUCSORGTOP
 10
0.0
 20
0.0
 30
0.0
  9
$PUCSORGBOTTOM
 10
0.0
 20
0.0
 30
0.0
  9
$PUCSORGLEFT
 10
0.0
 20
0.0
 30
0.0
  9
$PUCSORGRIGHT
 10
0.0
 20
0.0
 30
0.0
  9
$PUCSORGFRONT
 10
0.0
 20
0.0
 30
0.0
  9
$PUCSORGBACK
 10
0.0
 20
0.0
 30
0.0
  9
$USERI1
 70
     0
  9
$USERI2
 70
     0
  9
$USERI3
 70
     0
  9
$USERI4
 70
     0
  9
$USERI5
 70
     0
  9
$USERR1
 40
0.0
  9
$USERR2
 40
0.0
  9
$USERR3
 40
0.0
  9
$USERR4
 40
0.0
  9
$USERR5
 40
0.0
  9
$WORLDVIEW
 70
     1
  9
$SHADEDGE
 70
     3
  9
$SHADEDIF
 70
    70
  9
$TILEMODE
 70
     1
  9
$MAXACTVP
 70
    15
  9
$PINSBASE
 10
0.1093756556510927
 20
0.0
 30
0.0
  9
$PLIMCHECK
 70
     0
  9
$PEXTMIN
 10
1.000000000000000E+20
 20
1.000000000000000E+20
 30
1.000000000000000E+20
  9
$PEXTMAX
 10
-1.000000000000000E+20
 20
-1.000000000000000E+20
 30
-1.000000000000000E+20
  9
$PLIMMIN
 10
0.0
 20
0.0
  9
$PLIMMAX
 10
12.0
 20
9.0
  9
$UNITMODE
 70
     0
  9
$VISRETAIN
 70
     0
  9
$PLINEGEN
 70
     0
  9
$PSLTSCALE
 70
     1
  9
$TREEDEPTH
 70
  3020
  9
$CMLSTYLE
  2
STANDARD
  9
$CMLJUST
 70
     0
  9
$CMLSCALE
 40
1.0
  9
$PROXYGRAPHICS
 70
     1
  9
$MEASUREMENT
 70
     0
  9
$CELWEIGHT
370
    -1
  9
$ENDCAPS
280
     0
  9
$JOINSTYLE
280
     0
  9
$LWDISPLAY
290
     0
  9
$INSUNITS
 70
     0
  9
$HYPERLINKBASE
  1

  9
$STYLESHEET
  1

  9
$XEDIT
290
     1
  9
$CEPSNTYPE
380
     0
  9
$PSTYLEMODE
290
     1
  9
$FINGERPRINTGUID
  2
{D3D04625-68DD-44C6-88DC-5CC1D9C2E125}
  9
$VERSIONGUID
  2
{448A45F2-6F09-4BA9-9183-2509CD53FD81}
  9
$EXTNAMES
290
     1
  9
$PSVPSCALE
 40
0.0
  9
$OLESTARTUP
290
     0
  0
ENDSEC
  0
SECTION
  2
CLASSES
  0
CLASS
  1
DICTIONARYVAR
  2
AcDbDictionaryVar
  3
ObjectDBX Classes
 90
        0
280
     0
281
     0
  0
CLASS
  1
ACDBDICTIONARYWDFLT
  2
AcDbDictionaryWithDefault
  3
ObjectDBX Classes
 90
        0
280
     0
281
     0
  0
CLASS
  1
ACDBPLACEHOLDER
  2
AcDbPlaceHolder
  3
ObjectDBX Classes
 90
        0
280
     0
281
     0
  0
CLASS
  1
LAYOUT
  2
AcDbLayout
  3
ObjectDBX Classes
 90
        0
280
     0
281
     0
  0
ENDSEC
  0
SECTION
  2
TABLES
  0
TABLE
  2
VPORT
  5
7D
330
0
100
AcDbSymbolTable
 70
     1
  0
VPORT
  5
7E
330
7D
100
AcDbSymbolTableRecord
100
AcDbViewportTableRecord
  2
*Active
 70
     0
 10
0.0
 20
0.0
 11
1.0
 21
1.0
 12
10.04452522104201
 22
3.249396931998218
 13
0.0
 23
0.0
 14
0.5740882589684922
 24
0.5740882589684922
 15
0.5
 25
0.5
 16
0.0
 26
0.0
 36
1.0
 17
0.0
 27
0.0
 37
0.0
 40
10.43228625247389
 41
1.53355155482815
 42
50.0
 43
0.0
 44
0.0
 50
0.0
 51
0.0
 71
     0
 72
   100
 73
     1
 74
     0
 75
     0
 76
     0
 77
     0
 78
     0
281
     0
 65
     1
110
0.0
120
0.0
130
0.0
111
1.0
121
0.0
131
0.0
112
0.0
122
1.0
132
0.0
 79
     0
146
0.0
  0
ENDTAB
  0
TABLE
  2
LTYPE
  5
78
330
0
100
AcDbSymbolTable
 70
     1
  0
LTYPE
  5
79
330
78
100
AcDbSymbolTableRecord
100
AcDbLinetypeTableRecord
  2
BYBLOCK
 70
     0
  3

 72
    65
 73
     0
 40
0.0
  0
LTYPE
  5
7A
330
78
100
AcDbSymbolTableRecord
100
AcDbLinetypeTableRecord
  2
BYLAYER
 70
     0
  3

 72
    65
 73
     0
 40
0.0
  0
LTYPE
  5
A
330
78
100
AcDbSymbolTableRecord
100
AcDbLinetypeTableRecord
  2
CONTINUOUS
 70
     0
  3
Solid line
 72
    65
 73
     0
 40
0.0
  0
ENDTAB
  0
TABLE
  2
LAYER
  5
75
330
0
100
AcDbSymbolTable
 70
     4
  0
LAYER
  5
6
330
75
100
AcDbSymbolTableRecord
100
AcDbLayerTableRecord
  2
0
 70
     0
 62
     7
  6
CONTINUOUS
370
    -3
390
7
  0
LAYER
  5
C
330
75
100
AcDbSymbolTableRecord
100
AcDbLayerTableRecord
  2
ADPDIM
 70
     0
 62
     3
  6
CONTINUOUS
370
    -3
390
7
  0
LAYER
  5
1D
330
75
100
AcDbSymbolTableRecord
100
AcDbLayerTableRecord
  2
ADP1DETAIL
 70
     0
 62
     7
  6
CONTINUOUS
370
    -3
390
7
  0
LAYER
  5
18
330
75
100
AcDbSymbolTableRecord
100
AcDbLayerTableRecord
  2
DEFPOINTS
 70
     0
 62
     7
  6
CONTINUOUS
290
     0
370
    -3
390
7
  0
ENDTAB
  0
TABLE
  2
STYLE
  5
76
330
0
100
AcDbSymbolTable
 70
     2
  0
STYLE
  5
16
330
76
100
AcDbSymbolTableRecord
100
AcDbTextStyleTableRecord
  2
STANDARD
 70
     0
 40
0.0
 41
1.0
 50
0.0
 71
     0
 42
0.2
  3
txt
  4

  0
STYLE
  5
6A
330
76
100
AcDbSymbolTableRecord
100
AcDbTextStyleTableRecord
  2
ARIAL_WIDE
 70
     0
 40
0.0
 41
1.25
 50
0.0
 71
     0
 42
0.2
  3
ARIAL.TTF
  4

1001
ACAD
1000
Arial
1071
       34
  0
ENDTAB
  0
TABLE
  2
VIEW
  5
7B
330
0
100
AcDbSymbolTable
 70
     0
  0
ENDTAB
  0
TABLE
  2
UCS
  5
7C
330
0
100
AcDbSymbolTable
 70
     0
  0
ENDTAB
  0
TABLE
  2
APPID
  5
7F
330
0
100
AcDbSymbolTable
 70
     1
  0
APPID
  5
6B
330
7F
100
AcDbSymbolTableRecord
100
AcDbRegAppTableRecord
  2
ACAD
 70
     0
  0
ENDTAB
  0
TABLE
  2
DIMSTYLE
  5
80
330
0
100
AcDbSymbolTable
 70
     1
100
AcDbDimStyleTable
 71
     0
  0
DIMSTYLE
105
88
330
80
100
AcDbSymbolTableRecord
100
AcDbDimStyleTableRecord
  2
STANDARD
 70
     0
340
16
  0
ENDTAB
  0
TABLE
  2
BLOCK_RECORD
  5
1
330
0
100
AcDbSymbolTable
 70
     2
  0
BLOCK_RECORD
  5
2
102
{ACAD_XDICTIONARY
360
3
102
}
330
1
100
AcDbSymbolTableRecord
100
AcDbBlockTableRecord
  2
*MODEL_SPACE
340
6D
  0
BLOCK_RECORD
  5
6F
102
{ACAD_XDICTIONARY
360
70
102
}
330
1
100
AcDbSymbolTableRecord
100
AcDbBlockTableRecord
  2
*PAPER_SPACE
340
74
  0
BLOCK_RECORD
  5
D
330
1
100
AcDbSymbolTableRecord
100
AcDbBlockTableRecord
  2
*D0
340
0
  0
BLOCK_RECORD
  5
24
330
1
100
AcDbSymbolTableRecord
100
AcDbBlockTableRecord
  2
*D1
340
0
  0
ENDTAB
  0
ENDSEC
  0
SECTION
  2
BLOCKS
  0
BLOCK
  5
5
330
2
100
AcDbEntity
  8
0
100
AcDbBlockBegin
  2
*MODEL_SPACE
 70
     0
 10
0.0
 20
0.0
 30
0.0
  3
*MODEL_SPACE
  1

  0
ENDBLK
  5
6C
330
2
100
AcDbEntity
  8
0
100
AcDbBlockEnd
  0
BLOCK
  5
72
330
6F
100
AcDbEntity
 67
     1
  8
0
100
AcDbBlockBegin
  2
*PAPER_SPACE
 70
     0
 10
0.0
 20
0.0
 30
0.0
  3
*PAPER_SPACE
  1

  0
ENDBLK
  5
73
330
6F
100
AcDbEntity
 67
     1
  8
0
100
AcDbBlockEnd
  0
BLOCK
  5
E
330
D
100
AcDbEntity
  8
0
100
AcDbBlockBegin
  2
*D0
 70
     1
 10
0.0
 20
0.0
 30
0.0
  3
*D0
  1
*U
  0
LINE
  5
F
330
D
100
AcDbEntity
  8
0
  6
ByBlock
 62
     0
100
AcDbLine
 10
9.979057780523703
 20
7.653356388813605
 30
0.0
 11
8.455059339493443
 21
7.653356388813605
 31
0.0
  0
LINE
  5
10
330
D
100
AcDbEntity
  8
0
  6
ByBlock
 62
     0
100
AcDbLine
 10
9.732241999744374
 20
0.6465306122448951
 30
0.0
 11
8.455059339493443
 21
0.6465306122448951
 31
0.0
  0
LINE
  5
11
330
D
100
AcDbEntity
  8
0
  6
ByBlock
 62
     0
100
AcDbLine
 10
8.635059339493443
 20
7.653356388813605
 30
0.0
 11
8.635059339493443
 21
4.316610167195917
 31
0.0
  0
LINE
  5
12
330
D
100
AcDbEntity
  8
0
  6
ByBlock
 62
     0
100
AcDbLine
 10
8.635059339493443
 20
0.6465306122448951
 30
0.0
 11
8.635059339493443
 21
3.983276833862584
 31
0.0
  0
LINE
  5
13
330
D
100
AcDbEntity
  8
0
  6
ByBlock
 62
     0
100
AcDbLine
 10
8.760059339493443
 20
7.528356388813605
 30
0.0
 11
8.510059339493443
 21
7.778356388813605
 31
0.0
  0
LINE
  5
14
330
D
100
AcDbEntity
  8
0
  6
ByBlock
 62
     0
100
AcDbLine
 10
8.760059339493443
 20
0.5215306122448951
 30
0.0
 11
8.510059339493443
 21
0.7715306122448951
 31
0.0
  0
TEXT
  5
15
330
D
100
AcDbEntity
  8
0
  6
ByBlock
 62
     0
100
AcDbText
 10
8.697559339493443
 20
4.108276833862583
 30
0.0
 40
0.125
  1
7
 50
90.0
 72
     1
 11
8.635059339493443
 21
4.14994350052925
 31
0.0
100
AcDbText
 73
     2
  0
POINT
  5
17
330
D
100
AcDbEntity
  8
DEFPOINTS
  6
ByBlock
 62
     0
100
AcDbPoint
 10
10.0415577805237
 20
7.653356388813605
 30
0.0
  0
POINT
  5
19
330
D
100
AcDbEntity
  8
DEFPOINTS
  6
ByBlock
 62
     0
100
AcDbPoint
 10
9.794741999744374
 20
0.6465306122448951
 30
0.0
  0
POINT
  5
1A
330
D
100
AcDbEntity
  8
DEFPOINTS
  6
ByBlock
 62
     0
100
AcDbPoint
 10
8.635059339493443
 20
0.6465306122448951
 30
0.0
  0
ENDBLK
  5
1B
330
D
100
AcDbEntity
  8
0
100
AcDbBlockEnd
  0
BLOCK
  5
25
330
24
100
AcDbEntity
  8
0
100
AcDbBlockBegin
  2
*D1
 70
     1
 10
0.0
 20
0.0
 30
0.0
  3
*D1
  1
*U
  0
LINE
  5
26
330
24
100
AcDbEntity
  8
0
  6
ByBlock
 62
     0
100
AcDbLine
 10
9.794741999744374
 20
-0.415969387755105
 30
0.0
 11
9.794741999744374
 21
-0.767529862060872
 31
0.0
  0
LINE
  5
27
330
24
100
AcDbEntity
  8
0
  6
ByBlock
 62
     0
100
AcDbLine
 10
10.29474199974437
 20
-0.415969387755105
 30
0.0
 11
10.29474199974437
 21
-0.767529862060872
 31
0.0
  0
LINE
  5
28
330
24
100
AcDbEntity
  8
0
  6
ByBlock
 62
     0
100
AcDbLine
 10
9.794741999744374
 20
-0.5875298620608719
 30
0.0
 11
9.544741999744374
 21
-0.5875298620608719
 31
0.0
  0
LINE
  5
29
330
24
100
AcDbEntity
  8
0
  6
ByBlock
 62
     0
100
AcDbLine
 10
10.29474199974437
 20
-0.5875298620608719
 30
0.0
 11
10.54474199974437
 21
-0.5875298620608719
 31
0.0
  0
LINE
  5
2A
330
24
100
AcDbEntity
  8
0
  6
ByBlock
 62
     0
100
AcDbLine
 10
9.669741999744374
 20
-0.7125298620608719
 30
0.0
 11
9.919741999744374
 21
-0.4625298620608719
 31
0.0
  0
LINE
  5
2B
330
24
100
AcDbEntity
  8
0
  6
ByBlock
 62
     0
100
AcDbLine
 10
10.16974199974437
 20
-0.7125298620608719
 30
0.0
 11
10.41974199974437
 21
-0.4625298620608719
 31
0.0
  0
TEXT
  5
2C
330
24
100
AcDbEntity
  8
0
  6
ByBlock
 62
     0
100
AcDbText
 10
10.66974199974437
 20
-0.6500298620608719
 30
0.0
 40
0.125
  1
1/2
 72
     1
 11
10.81557533307771
 21
-0.5875298620608719
 31
0.0
100
AcDbText
 73
     2
  0
POINT
  5
2D
330
24
100
AcDbEntity
  8
DEFPOINTS
  6
ByBlock
 62
     0
100
AcDbPoint
 10
9.794741999744374
 20
-0.3534693877551049
 30
0.0
  0
POINT
  5
2E
330
24
100
AcDbEntity
  8
DEFPOINTS
  6
ByBlock
 62
     0
100
AcDbPoint
 10
10.29474199974437
 20
-0.3534693877551049
 30
0.0
  0
POINT
  5
2F
330
24
100
AcDbEntity
  8
DEFPOINTS
  6
ByBlock
 62
     0
100
AcDbPoint
 10
10.29474199974437
 20
-0.5875298620608719
 30
0.0
  0
ENDBLK
  5
30
330
24
100
AcDbEntity
  8
0
100
AcDbBlockEnd
  0
ENDSEC
  0
SECTION
  2
ENTITIES
  0
DIMENSION
  5
B
330
2
100
AcDbEntity
  8
ADPDIM
100
AcDbDimension
  2
*D0
 10
8.635059339493443
 20
0.6465306122448951
 30
0.0
 11
8.635059339493443
 21
4.14994350052925
 31
0.0
 71
     5
 42
-1.0
100
AcDbAlignedDimension
 13
10.0415577805237
 23
7.653356388813605
 33
0.0
 14
9.794741999744374
 24
0.6465306122448951
 34
0.0
 50
90.0
100
AcDbRotatedDimension
  0
LWPOLYLINE
  5
1C
330
2
100
AcDbEntity
  8
ADP1DETAIL
100
AcDbPolyline
 90
        3
 70
     0
 43
0.0
 10
10.52784579270262
 20
4.965806775883137
 10
10.14391013371256
 20
7.584796449708235
 42
0.2571532203481719
 10
10.04792621896504
 20
7.653356388813605
 42
1.124250873599258
  0
LWPOLYLINE
  5
1E
330
2
100
AcDbEntity
  8
ADP1DETAIL
100
AcDbPolyline
 90
        3
 70
     0
 43
0.0
 10
10.05478221287558
 20
7.598508437529307
 10
10.07535019460719
 20
7.557372474066092
 10
10.13019814589148
 20
4.43103925086126
  0
LWPOLYLINE
  5
1F
330
2
100
AcDbEntity
  8
ADP1DETAIL
100
AcDbPolyline
 90
        2
 70
     0
 43
0.0
 10
10.29474199974437
 20
4.801262922030254
 10
10.10277417024934
 20
7.557372474066092
  0
LWPOLYLINE
  5
20
330
2
100
AcDbEntity
  8
ADP1DETAIL
100
AcDbPolyline
 90
        2
 70
     0
 43
0.0
 10
9.794741999744374
 20
4.801262922030254
 10
9.986709829239408
 20
7.557372474066092
  0
LWPOLYLINE
  5
21
330
2
100
AcDbEntity
  8
ADP1DETAIL
100
AcDbPolyline
 90
        3
 70
     0
 43
0.0
 10
10.03470178661316
 20
7.598508437529307
 10
10.01413380488155
 20
7.557372474066092
 10
9.959285853597261
 20
4.43103925086126
  0
LWPOLYLINE
  5
22
330
2
100
AcDbEntity
  8
ADP1DETAIL
100
AcDbPolyline
 90
        3
 70
     0
 43
0.0
 10
9.56163820678612
 20
4.965806775883137
 10
9.945573865776186
 20
7.584796449708235
 42
-0.2571532203481719
 10
10.0415577805237
 20
7.653356388813605
 42
-1.124250873599258
  0
DIMENSION
  5
23
330
2
100
AcDbEntity
  8
ADPDIM
100
AcDbDimension
  2
*D1
 10
10.29474199974437
 20
-0.5875298620608719
 30
0.0
 11
10.81557533307771
 21
-0.5875298620608719
 31
0.0
 71
     5
 42
-1.0
100
AcDbAlignedDimension
 13
9.794741999744374
 23
-0.3534693877551049
 33
0.0
 14
10.29474199974437
 24
-0.3534693877551049
 34
0.0
100
AcDbRotatedDimension
  0
LWPOLYLINE
  5
31
330
2
100
AcDbEntity
  8
ADP1DETAIL
100
AcDbPolyline
 90
        4
 70
     1
 43
0.0
 10
9.794741999744374
 20
-0.3534693877551049
 10
9.794741999744374
 20
0.146530612244895
 10
10.29474199974437
 20
0.146530612244895
 10
10.29474199974437
 20
-0.3534693877551049
  0
LWPOLYLINE
  5
32
330
2
100
AcDbEntity
  8
ADP1DETAIL
100
AcDbPolyline
 90
        3
 70
     0
 43
0.0
 10
8.834902852269209
 20
5.240046532304617
 42
0.2153359073849939
 10
9.081718633048538
 20
4.965806775883137
 42
-0.1416134907943627
 10
9.7810300119233
 20
4.437895244771798
 42
-0.3329489893515479
  0
LWPOLYLINE
  5
33
330
2
100
AcDbEntity
  8
ADP1DETAIL
100
AcDbPolyline
 90
        8
 70
     0
 43
0.0
 10
9.753606036281153
 20
3.430064139922876
 10
9.753606036281153
 20
3.772863835449719
 42
0.2658948729142232
 10
9.026870681764243
 20
4.732702982924887
 42
-0.180103395476236
 10
8.766342913163841
 20
5.006942739346364
 42
-0.1310436740650021
 10
8.793766888805988
 20
5.205766562751932
 42
-0.5318642842005909
 10
8.937742760927264
 20
5.198910568841395
 42
0.1473332692430966
 10
9.198270529527665
 20
5.082358672362264
 42
-0.3454187234191735
 10
9.959285853597261
 20
4.43103925086126
 42
10.08146377686392
  0
LWPOLYLINE
  5
34
330
2
100
AcDbEntity
  8
ADP1DETAIL
100
AcDbPolyline
 90
        8
 70
     0
 43
0.0
 10
9.685046097175785
 20
3.299800255622674
 42
0.5616663701594956
 10
9.630198145891489
 20
3.121544413948718
 42
0.4694209939446793
 10
9.890725914491891
 20
3.22438432260677
 42
0.0634514518823208
 10
9.904437902312965
 20
3.759151847628643
 42
0.2455374806264914
 10
9.328534413827867
 20
4.664143043819521
 42
0.0298241945498326
 10
8.807478876627062
 20
4.938382800240994
 42
-0.1424359067737472
 10
9.7810300119233
 20
4.437895244771798
 42
-0.1489980322128317
 10
10.00042181706048
 20
3.292944261712136
 42
0.0532993108462529
  0
LWPOLYLINE
  5
35
330
2
100
AcDbEntity
  8
ADP1DETAIL
100
AcDbPolyline
 90
        4
 70
     0
 43
0.0
 10
10.0415577805237
 20
3.155824383501396
 42
-0.3113914953808576
 10
9.671334109354711
 20
2.963856554006369
 42
-0.5901933437219535
 10
9.589062182428268
 20
3.320368237354283
 42
-0.2681209938748298
 10
9.863301938849744
 20
3.334080225175355
 42
-4.140466072473837
  0
ARC
  5
36
330
2
100
AcDbEntity
  8
ADP1DETAIL
100
AcDbCircle
 10
9.68238967509791
 20
3.16194187002929
 30
0.0
 40
0.1361410574131491
100
AcDbArc
 50
125.7889734591841
 51
244.2959286791581
  0
LWPOLYLINE
  5
37
330
2
100
AcDbEntity
  8
ADP1DETAIL
100
AcDbPolyline
 90
        3
 70
     0
 43
0.0
 10
10.0415577805237
 20
3.046128480932807
 42
-0.5082143233079596
 10
9.493078267680751
 20
3.004992517469588
 42
-0.7646931125945877
 10
9.808453987565449
 20
3.402640164280725
 42
0.0921220942961581
  0
ARC
  5
38
330
2
100
AcDbEntity
  8
ADP1DETAIL
100
AcDbCircle
 10
10.28261216436419
 20
3.345155292261611
 30
0.0
 40
0.0575066406374101
100
AcDbArc
 50
91.57655005518165
 51
222.0262689175212
  0
LWPOLYLINE
  5
39
330
2
100
AcDbEntity
  8
ADP1DETAIL
100
AcDbPolyline
 90
        3
 70
     0
 43
0.0
 10
10.04792621896504
 20
3.046128480932807
 42
0.5082143233079596
 10
10.59640573180799
 20
3.004992517469588
 42
0.7646931125945877
 10
10.2810300119233
 20
3.402640164280725
 42
-0.0921220942961581
  0
LWPOLYLINE
  5
3A
330
2
100
AcDbEntity
  8
ADP1DETAIL
100
AcDbPolyline
 90
        4
 70
     0
 43
0.0
 10
10.04792621896504
 20
3.155824383501396
 42
0.3113914953808576
 10
10.41814989013403
 20
2.963856554006369
 42
0.5901933437219535
 10
10.50042181706048
 20
3.320368237354283
 42
0.2681209938748298
 10
10.226182060639
 20
3.334080225175355
 42
4.140466072473837
  0
LWPOLYLINE
  5
3B
330
2
100
AcDbEntity
  8
ADP1DETAIL
100
AcDbPolyline
 90
        8
 70
     0
 43
0.0
 10
10.40443790231296
 20
3.299800255622674
 42
-0.5616663701594956
 10
10.45928585359725
 20
3.121544413948718
 42
-0.4694209939446793
 10
10.19875808499685
 20
3.22438432260677
 42
-0.0634514518823208
 10
10.18504609717578
 20
3.759151847628643
 42
-0.2455374806264914
 10
10.76094958566088
 20
4.664143043819521
 42
-0.0298241945498326
 10
11.28200512286168
 20
4.938382800240994
 42
0.1424359067737472
 10
10.30845398756544
 20
4.437895244771798
 42
0.1489980322128317
 10
10.08906218242826
 20
3.292944261712136
 42
-0.0532993108462529
  0
ARC
  5
3C
330
2
100
AcDbEntity
  8
ADP1DETAIL
100
AcDbCircle
 10
9.806871835124558
 20
3.345155292261611
 30
0.0
 40
0.0575066406374101
100
AcDbArc
 50
317.9737310824787
 51
88.42344994481834
  0
ARC
  5
3D
330
2
100
AcDbEntity
  8
ADP1DETAIL
100
AcDbCircle
 10
10.37701392667081
 20
1.839473552678317
 30
0.0
 40
0.0834067657339328
100
AcDbArc
 50
260.5376777919732
 51
99.46232220802679
  0
ARC
  5
3E
330
2
100
AcDbEntity
  8
ADP1DETAIL
100
AcDbCircle
 10
9.71247007281793
 20
1.839473552678317
 30
0.0
 40
0.0834067657339328
100
AcDbArc
 50
80.5376777919732
 51
279.4623222080268
  0
LINE
  5
3F
330
2
100
AcDbEntity
  8
ADP1DETAIL
100
AcDbLine
 10
9.726182060639006
 20
1.757201625751874
 30
0.0
 11
10.37530918051771
 21
1.757201625751874
 31
0.0
  0
LINE
  5
40
330
2
100
AcDbEntity
  8
ADP1DETAIL
100
AcDbLine
 10
9.720178439805017
 20
1.682198318075531
 30
0.0
 11
10.36930555968373
 21
1.682198318075531
 31
0.0
  0
LINE
  5
41
330
2
100
AcDbEntity
  8
ADP1DETAIL
100
AcDbLine
 10
9.794741999744374
 20
0.6465306122448951
 30
0.0
 11
10.29474199974437
 21
0.6465306122448951
 31
0.0
  0
LWPOLYLINE
  5
42
330
2
100
AcDbEntity
  8
ADP1DETAIL
100
AcDbPolyline
 90
        2
 70
     0
 43
0.0
 10
9.794741999744374
 20
0.6465306122448951
 10
9.794741999744372
 20
1.682198318075531
  0
LINE
  5
43
330
2
100
AcDbEntity
  8
ADP1DETAIL
100
AcDbLine
 10
9.720178439805017
 20
1.756423750459482
 30
0.0
 11
9.720178439805017
 21
1.682198318075531
 31
0.0
  0
LWPOLYLINE
  5
44
330
2
100
AcDbEntity
  8
ADP1DETAIL
100
AcDbPolyline
 90
        2
 70
     0
 43
0.0
 10
10.29474199974437
 20
0.6465306122448951
 10
10.29474199974437
 20
1.682198318075531
  0
LINE
  5
45
330
2
100
AcDbEntity
  8
ADP1DETAIL
100
AcDbLine
 10
10.36930555968373
 20
1.757201625751875
 30
0.0
 11
10.36930555968373
 21
1.682198318075531
 31
0.0
  0
LINE
  5
46
330
2
100
AcDbEntity
  8
ADP1DETAIL
100
AcDbLine
 10
9.712470072817932
 20
2.621056858479527
 30
0.0
 11
10.37701392667081
 21
2.621056858479527
 31
0.0
  0
LINE
  5
47
330
2
100
AcDbEntity
  8
ADP1DETAIL
100
AcDbLine
 10
9.712470072817932
 20
2.689616797584889
 30
0.0
 11
10.37701392667081
 21
2.689616797584889
 31
0.0
  0
LINE
  5
48
330
2
100
AcDbEntity
  8
ADP1DETAIL
100
AcDbLine
 10
9.720178439805017
 20
2.579653878126098
 30
0.0
 11
10.36930555968373
 21
2.579653878126098
 31
0.0
  0
LINE
  5
49
330
2
100
AcDbEntity
  8
ADP1DETAIL
100
AcDbLine
 10
9.726182060639006
 20
1.921745479604759
 30
0.0
 11
10.37530918051771
 21
1.921745479604759
 31
0.0
  0
LINE
  5
4A
330
2
100
AcDbEntity
  8
ADP1DETAIL
100
AcDbLine
 10
9.720178439805017
 20
1.989479298854167
 30
0.0
 11
10.36930555968373
 21
1.989479298854167
 31
0.0
  0
LINE
  5
4B
330
2
100
AcDbEntity
  8
ADP1DETAIL
100
AcDbLine
 10
9.720178439805017
 20
2.730855627714261
 30
0.0
 11
10.36930555968373
 21
2.730855627714261
 31
0.0
  0
ARC
  5
4C
330
2
100
AcDbEntity
  8
ADP1DETAIL
100
AcDbCircle
 10
10.33050320254932
 20
3.053365363393884
 30
0.0
 40
0.2690098358908368
100
AcDbArc
 50
54.5021400440028
 51
109.6835345500797
  0
ARC
  5
4D
330
2
100
AcDbEntity
  8
ADP1DETAIL
100
AcDbCircle
 10
10.34522704581287
 20
3.236849766080458
 30
0.0
 40
0.2316401745573517
100
AcDbArc
 50
215.9140287663634
 51
301.4661062855959
  0
ARC
  5
4E
330
2
100
AcDbEntity
  8
ADP1DETAIL
100
AcDbCircle
 10
9.719326066728468
 20
2.655336828032208
 30
0.0
 40
0.0349588467348973
100
AcDbArc
 50
101.3099324740197
 51
258.6900675259805
  0
LINE
  5
4F
330
2
100
AcDbEntity
  8
ADP1DETAIL
100
AcDbLine
 10
9.890725914491891
 20
2.291969150773745
 30
0.0
 11
10.0415577805237
 21
2.058865357815498
 31
0.0
  0
LINE
  5
50
330
2
100
AcDbEntity
  8
ADP1DETAIL
100
AcDbLine
 10
10.0415577805237
 20
2.538784931553081
 30
0.0
 11
9.890725914491891
 21
2.291969150773745
 31
0.0
  0
LINE
  5
51
330
2
100
AcDbEntity
  8
ADP1DETAIL
100
AcDbLine
 10
9.720178439805017
 20
1.989479298854167
 30
0.0
 11
9.720178439805017
 21
1.922523354897151
 31
0.0
  0
LINE
  5
52
330
2
100
AcDbEntity
  8
ADP1DETAIL
100
AcDbLine
 10
9.720178439805017
 20
2.621056858479527
 30
0.0
 11
9.720178439805017
 21
2.579653878126098
 31
0.0
  0
LWPOLYLINE
  5
53
330
2
100
AcDbEntity
  8
ADP1DETAIL
100
AcDbPolyline
 90
        2
 70
     0
 43
0.0
 10
9.794741999744372
 20
1.989479298854167
 10
9.794741999744374
 20
2.579653878126098
  0
LINE
  5
54
330
2
100
AcDbEntity
  8
ADP1DETAIL
100
AcDbLine
 10
9.712470072817932
 20
2.291969150773745
 30
0.0
 11
9.794741999744374
 21
2.058865357815498
 31
0.0
  0
LINE
  5
55
330
2
100
AcDbEntity
  8
ADP1DETAIL
100
AcDbLine
 10
9.794741999744374
 20
2.538784931553081
 30
0.0
 11
9.712470072817932
 21
2.291969150773745
 31
0.0
  0
LINE
  5
56
330
2
100
AcDbEntity
  8
ADP1DETAIL
100
AcDbLine
 10
10.04792621896504
 20
2.538784931553081
 30
0.0
 11
10.19875808499685
 21
2.291969150773745
 31
0.0
  0
LINE
  5
57
330
2
100
AcDbEntity
  8
ADP1DETAIL
100
AcDbLine
 10
10.19875808499685
 20
2.291969150773745
 30
0.0
 11
10.04792621896504
 21
2.058865357815498
 31
0.0
  0
ARC
  5
58
330
2
100
AcDbEntity
  8
ADP1DETAIL
100
AcDbCircle
 10
9.744256953675877
 20
3.236849766080458
 30
0.0
 40
0.2316401745573517
100
AcDbArc
 50
238.5338937144041
 51
324.0859712336367
  0
LINE
  5
59
330
2
100
AcDbEntity
  8
ADP1DETAIL
100
AcDbLine
 10
9.720178439805017
 20
2.730855627714261
 30
0.0
 11
9.720178439805017
 21
2.689616797584889
 31
0.0
  0
LWPOLYLINE
  5
5A
330
2
100
AcDbEntity
  8
ADP1DETAIL
100
AcDbPolyline
 90
        2
 70
     0
 43
0.0
 10
9.794741999744374
 20
2.730855627714261
 10
9.794741999744374
 20
2.887889201960833
  0
ARC
  5
5B
330
2
100
AcDbEntity
  8
ADP1DETAIL
100
AcDbCircle
 10
9.758980796939422
 20
3.053365363393884
 30
0.0
 40
0.2690098358908368
100
AcDbArc
 50
70.31646544992025
 51
125.4978599559972
  0
ARC
  5
5C
330
2
100
AcDbEntity
  8
ADP1DETAIL
100
AcDbCircle
 10
10.32403579190757
 20
3.268636646938415
 30
0.0
 40
0.2362275540400065
100
AcDbArc
 50
174.0938588862297
 51
225.2137892298771
  0
ARC
  5
5D
330
2
100
AcDbEntity
  8
ADP1DETAIL
100
AcDbCircle
 10
9.765448207581169
 20
3.268636646938415
 30
0.0
 40
0.2362275540400065
100
AcDbArc
 50
314.786210770123
 51
5.906141113770269
  0
ARC
  5
5E
330
2
100
AcDbEntity
  8
ADP1DETAIL
100
AcDbCircle
 10
10.37015793276028
 20
2.655336828032208
 30
0.0
 40
0.0349588467348973
100
AcDbArc
 50
281.3099324740195
 51
78.69006752598024
  0
LINE
  5
5F
330
2
100
AcDbEntity
  8
ADP1DETAIL
100
AcDbLine
 10
10.36930555968373
 20
2.621056858479527
 30
0.0
 11
10.36930555968373
 21
2.579653878126098
 31
0.0
  0
LINE
  5
60
330
2
100
AcDbEntity
  8
ADP1DETAIL
100
AcDbLine
 10
10.36930555968373
 20
1.989479298854167
 30
0.0
 11
10.36930555968373
 21
1.921745479604759
 31
0.0
  0
LWPOLYLINE
  5
61
330
2
100
AcDbEntity
  8
ADP1DETAIL
100
AcDbPolyline
 90
        2
 70
     0
 43
0.0
 10
10.29474199974437
 20
1.989479298854167
 10
10.29474199974437
 20
2.579653878126098
  0
LINE
  5
62
330
2
100
AcDbEntity
  8
ADP1DETAIL
100
AcDbLine
 10
10.29474199974437
 20
2.538784931553081
 30
0.0
 11
10.37701392667081
 21
2.291969150773745
 31
0.0
  0
LINE
  5
63
330
2
100
AcDbEntity
  8
ADP1DETAIL
100
AcDbLine
 10
10.37701392667081
 20
2.291969150773745
 30
0.0
 11
10.29474199974437
 21
2.058865357815498
 31
0.0
  0
LINE
  5
64
330
2
100
AcDbEntity
  8
ADP1DETAIL
100
AcDbLine
 10
10.36930555968373
 20
2.730855627714261
 30
0.0
 11
10.36930555968373
 21
2.689616797584889
 31
0.0
  0
LWPOLYLINE
  5
65
330
2
100
AcDbEntity
  8
ADP1DETAIL
100
AcDbPolyline
 90
        2
 70
     0
 43
0.0
 10
10.29474199974437
 20
2.730855627714261
 10
10.29474199974437
 20
2.887889201960833
  0
ARC
  5
66
330
2
100
AcDbEntity
  8
ADP1DETAIL
100
AcDbCircle
 10
10.40709432439083
 20
3.16194187002929
 30
0.0
 40
0.1361410574131491
100
AcDbArc
 50
295.7040713208419
 51
54.21102654081585
  0
LWPOLYLINE
  5
67
330
2
100
AcDbEntity
  8
ADP1DETAIL
100
AcDbPolyline
 90
        8
 70
     0
 43
0.0
 10
10.33587796320759
 20
3.430064139922876
 10
10.33587796320759
 20
3.772863835449719
 42
-0.2658948729142232
 10
11.0626133177245
 20
4.732702982924887
 42
0.180103395476236
 10
11.3231410863249
 20
5.006942739346364
 42
0.1310436740650021
 10
11.29571711068276
 20
5.205766562751932
 42
0.5318642842005909
 10
11.15174123856148
 20
5.198910568841395
 42
-0.1473332692430966
 10
10.89121346996108
 20
5.082358672362264
 42
0.3454187234191735
 10
10.13019814589148
 20
4.43103925086126
 42
-10.08146377686392
  0
LWPOLYLINE
  5
68
330
2
100
AcDbEntity
  8
ADP1DETAIL
100
AcDbPolyline
 90
        3
 70
     0
 43
0.0
 10
11.25458114721954
 20
5.240046532304617
 42
-0.2153359073849939
 10
11.00776536644021
 20
4.965806775883137
 42
0.1416134907943627
 10
10.30845398756544
 20
4.437895244771798
 42
0.3329489893515479
  0
TEXT
  5
69
330
2
100
AcDbEntity
  8
ADPDIM
100
AcDbText
 10
2.084891641627048
 20
-1.478125570184502
 30
0.0
 40
0.15625
  1
J U L I U S  B L U M  &  C O . ,  I N C .      ( 8 0 0 )  5 2 6 - 6 2 9 3        W W W . J U L I U S B L U M . C O M        P A R T  N O .  5 3
 41
1.25
  7
ARIAL_WIDE
 72
     1
 11
10.04474199974437
 21
-1.321875570184502
 31
0.0
100
AcDbText
 73
     3
  0
ENDSEC
  0
SECTION
  2
OBJECTS
  0
DICTIONARY
  5
9
330
0
100
AcDbDictionary
281
     1
  3
ACAD_COLOR
350
86
  3
ACAD_GROUP
350
82
  3
ACAD_LAYOUT
350
6E
  3
ACAD_MATERIAL
350
85
  3
ACAD_MLINESTYLE
350
83
  3
ACAD_PLOTSETTINGS
350
84
  3
ACAD_PLOTSTYLENAME
350
8
  3
ACDBHEADERROUNDTRIPXREC
350
8D
  3
AcDbVariableDictionary
350
89
  0
DICTIONARY
  5
3
330
2
100
AcDbDictionary
280
     1
281
     1
  3
ACAD_LAYOUTSELFREF
360
4
  0
DICTIONARY
  5
70
330
6F
100
AcDbDictionary
280
     1
281
     1
  3
ACAD_LAYOUTSELFREF
360
71
  0
DICTIONARY
  5
86
102
{ACAD_REACTORS
330
9
102
}
330
9
100
AcDbDictionary
281
     1
  0
DICTIONARY
  5
82
102
{ACAD_REACTORS
330
9
102
}
330
9
100
AcDbDictionary
281
     1
  0
DICTIONARY
  5
6E
102
{ACAD_REACTORS
330
9
102
}
330
9
100
AcDbDictionary
281
     1
  3
Layout1
350
74
  3
Model
350
6D
  0
DICTIONARY
  5
85
102
{ACAD_REACTORS
330
9
102
}
330
9
100
AcDbDictionary
281
     1
  0
DICTIONARY
  5
83
102
{ACAD_REACTORS
330
9
102
}
330
9
100
AcDbDictionary
281
     1
  3
STANDARD
350
87
  0
DICTIONARY
  5
84
102
{ACAD_REACTORS
330
9
102
}
330
9
100
AcDbDictionary
281
     1
  0
ACDBDICTIONARYWDFLT
  5
8
102
{ACAD_REACTORS
330
9
102
}
330
9
100
AcDbDictionary
281
     1
  3
Normal
350
7
100
AcDbDictionaryWithDefault
340
7
  0
DICTIONARY
  5
8D
102
{ACAD_REACTORS
330
9
102
}
330
9
100
AcDbDictionary
281
     1
  3
COLORDICT
350
8F
  3
MATERIALDICT
350
8E
  0
DICTIONARY
  5
89
102
{ACAD_REACTORS
330
9
102
}
330
9
100
AcDbDictionary
281
     1
  3
DIMASSOC
350
8B
  3
HIDETEXT
350
8A
  3
PROJECTNAME
350
8C
  0
XRECORD
  5
4
102
{ACAD_REACTORS
330
3
102
}
330
3
100
AcDbXrecord
280
     1
340
2
  0
XRECORD
  5
71
102
{ACAD_REACTORS
330
70
102
}
330
70
100
AcDbXrecord
280
     1
340
6F
  0
LAYOUT
  5
74
102
{ACAD_XDICTIONARY
360
92
102
}
102
{ACAD_REACTORS
330
6E
102
}
330
6E
100
AcDbPlotSettings
  1

  2
Fax
  4

  6

 40
0.0
 41
0.0
 42
0.0
 43
0.0
 44
0.0
 45
0.0
 46
0.0
 47
0.0
 48
0.0
 49
0.0
140
0.0
141
0.0
142
1.0
143
1.0
 70
   688
 72
     0
 73
     0
 74
     5
  7
Default R14 pen assignments.ctb
 75
    16
147
1.0
148
0.0
149
0.0
100
AcDbLayout
  1
Layout1
 70
     1
 71
     1
 10
0.0
 20
0.0
 11
12.0
 21
9.0
 12
0.1093756556510927
 22
0.0
 32
0.0
 14
1.000000000000000E+20
 24
1.000000000000000E+20
 34
1.000000000000000E+20
 15
-1.000000000000000E+20
 25
-1.000000000000000E+20
 35
-1.000000000000000E+20
146
0.0
 13
0.0
 23
0.0
 33
0.0
 16
1.0
 26
0.0
 36
0.0
 17
0.0
 27
1.0
 37
0.0
 76
     0
330
6F
  0
LAYOUT
  5
6D
102
{ACAD_XDICTIONARY
360
90
102
}
102
{ACAD_REACTORS
330
6E
102
}
330
6E
100
AcDbPlotSettings
  1

  2
Fax
  4

  6

 40
0.0
 41
0.0
 42
0.0
 43
0.0
 44
0.0
 45
0.0
 46
0.0
 47
0.0
 48
0.0
 49
0.0
140
0.0
141
0.0
142
1.0
143
1.0
 70
  1712
 72
     0
 73
     0
 74
     0
  7
Default R14 pen assignments.ctb
 75
     0
147
1.0
148
0.0
149
0.0
100
AcDbLayout
  1
Model
 70
     1
 71
     0
 10
0.0
 20
0.0
 11
12.0
 21
9.0
 12
0.0
 22
0.0
 32
0.0
 14
0.0
 24
0.0
 34
0.0
 15
0.0
 25
0.0
 35
0.0
146
0.0
 13
0.0
 23
0.0
 33
0.0
 16
1.0
 26
0.0
 36
0.0
 17
0.0
 27
1.0
 37
0.0
 76
     0
330
2
  0
MLINESTYLE
  5
87
102
{ACAD_REACTORS
330
83
102
}
330
83
100
AcDbMlineStyle
  2
STANDARD
 70
     0
  3

 62
   256
 51
90.0
 52
90.0
 71
     2
 49
0.5
 62
   256
  6
BYLAYER
 49
-0.5
 62
   256
  6
BYLAYER
  0
ACDBPLACEHOLDER
  5
7
102
{ACAD_REACTORS
330
8
102
}
330
8
  0
XRECORD
  5
8F
102
{ACAD_REACTORS
330
8D
102
}
330
8D
100
AcDbXrecord
280
     1
340
86
  0
XRECORD
  5
8E
102
{ACAD_REACTORS
330
8D
102
}
330
8D
100
AcDbXrecord
280
     1
340
85
  0
DICTIONARYVAR
  5
8B
102
{ACAD_REACTORS
330
89
102
}
330
89
100
DictionaryVariables
280
     0
  1
1
  0
DICTIONARYVAR
  5
8A
102
{ACAD_REACTORS
330
89
102
}
330
89
100
DictionaryVariables
280
     0
  1
1
  0
DICTIONARYVAR
  5
8C
102
{ACAD_REACTORS
330
89
102
}
330
89
100
DictionaryVariables
280
     0
  1

  0
DICTIONARY
  5
92
330
74
100
AcDbDictionary
280
     1
281
     1
  3
ACAD_XREC_ROUNDTRIP
360
93
  0
DICTIONARY
  5
90
330
6D
100
AcDbDictionary
280
     1
281
     1
  3
ACAD_XREC_ROUNDTRIP
360
91
  0
XRECORD
  5
93
102
{ACAD_REACTORS
330
92
102
}
330
92
100
AcDbXrecord
280
     1
102
SHADEPLOT
 70
     0
102
SHADEPLOTRESLEVEL
 70
     2
102
SHADEPLOTCUSTOMDPI
 70
   300
  0
XRECORD
  5
91
102
{ACAD_REACTORS
330
90
102
}
330
90
100
AcDbXrecord
280
     1
102
SHADEPLOT
 70
     0
102
SHADEPLOTRESLEVEL
 70
     2
102
SHADEPLOTCUSTOMDPI
 70
   300
  0
ENDSEC
  0
EOF
