  0
SECTION
  2
HEADER
  9
$ACADVER
  1
AC1014
  9
$ACADMAINTVER
 70
     9
  9
$DWGCODEPAGE
  3
ANSI_1252
  9
$INSBASE
 10
-42.78734411316853
 20
54.17467823411908
 30
0.0
  9
$EXTMIN
 10
-61.22138881426928
 20
53.1061088742755
 30
0.0
  9
$EXTMAX
 10
-35.48255866420106
 20
61.75530871229697
 30
0.0
  9
$LIMMIN
 10
0.0
 20
0.0
  9
$LIMMAX
 10
36.0
 20
36.0
  9
$ORTHOMODE
 70
     1
  9
$REGENMODE
 70
     1
  9
$FILLMODE
 70
     1
  9
$QTEXTMODE
 70
     0
  9
$MIRRTEXT
 70
     1
  9
$DRAGMODE
 70
     0
  9
$LTSCALE
 40
1.0
  9
$OSMODE
 70
    37
  9
$ATTMODE
 70
     1
  9
$TEXTSIZE
 40
0.2
  9
$TRACEWID
 40
0.05
  9
$TEXTSTYLE
  7
STANDARD
  9
$CLAYER
  8
ADPDIM
  9
$CELTYPE
  6
BYLAYER
  9
$CECOLOR
 62
   256
  9
$CELTSCALE
 40
1.0
  9
$DELOBJ
 70
     1
  9
$DISPSILH
 70
     0
  9
$DIMSCALE
 40
1.0
  9
$DIMASZ
 40
0.125
  9
$DIMEXO
 40
0.0625
  9
$DIMDLI
 40
0.38
  9
$DIMRND
 40
0.0
  9
$DIMDLE
 40
0.0
  9
$DIMEXE
 40
0.18
  9
$DIMTP
 40
0.0
  9
$DIMTM
 40
0.0
  9
$DIMTXT
 40
0.125
  9
$DIMCEN
 40
0.1875
  9
$DIMTSZ
 40
0.125
  9
$DIMTOL
 70
     0
  9
$DIMLIM
 70
     0
  9
$DIMTIH
 70
     0
  9
$DIMTOH
 70
     0
  9
$DIMSE1
 70
     0
  9
$DIMSE2
 70
     0
  9
$DIMTAD
 70
     0
  9
$DIMZIN
 70
     3
  9
$DIMBLK
  1

  9
$DIMASO
 70
     1
  9
$DIMSHO
 70
     1
  9
$DIMPOST
  1

  9
$DIMAPOST
  1

  9
$DIMALT
 70
     0
  9
$DIMALTD
 70
     1
  9
$DIMALTF
 40
25.4
  9
$DIMLFAC
 40
1.0
  9
$DIMTOFL
 70
     0
  9
$DIMTVP
 40
0.0
  9
$DIMTIX
 70
     0
  9
$DIMSOXD
 70
     0
  9
$DIMSAH
 70
     0
  9
$DIMBLK1
  1

  9
$DIMBLK2
  1

  9
$DIMSTYLE
  2
STANDARD
  9
$DIMCLRD
 70
     0
  9
$DIMCLRE
 70
     0
  9
$DIMCLRT
 70
     0
  9
$DIMTFAC
 40
1.0
  9
$DIMGAP
 40
0.125
  9
$DIMJUST
 70
     0
  9
$DIMSD1
 70
     0
  9
$DIMSD2
 70
     0
  9
$DIMTOLJ
 70
     1
  9
$DIMTZIN
 70
     0
  9
$DIMALTZ
 70
     0
  9
$DIMALTTZ
 70
     0
  9
$DIMFIT
 70
     3
  9
$DIMUPT
 70
     0
  9
$DIMUNIT
 70
     2
  9
$DIMDEC
 70
     4
  9
$DIMTDEC
 70
     4
  9
$DIMALTU
 70
     2
  9
$DIMALTTD
 70
     2
  9
$DIMTXSTY
  7
STANDARD
  9
$DIMAUNIT
 70
     0
  9
$LUNITS
 70
     5
  9
$LUPREC
 70
     4
  9
$SKETCHINC
 40
0.1
  9
$FILLETRAD
 40
0.062
  9
$AUNITS
 70
     0
  9
$AUPREC
 70
     0
  9
$MENU
  1
acad
  9
$ELEVATION
 40
0.0
  9
$PELEVATION
 40
0.0
  9
$THICKNESS
 40
0.0
  9
$LIMCHECK
 70
     0
  9
$BLIPMODE
 70
     0
  9
$CHAMFERA
 40
0.0
  9
$CHAMFERB
 40
0.0
  9
$CHAMFERC
 40
0.0
  9
$CHAMFERD
 40
0.0
  9
$SKPOLY
 70
     0
  9
$TDCREATE
 40
2450407.568604548
  9
$TDUPDATE
 40
2452297.072145174
  9
$TDINDWG
 40
0.0258106366
  9
$TDUSRTIMER
 40
0.0258106366
  9
$USRTIMER
 70
     1
  9
$ANGBASE
 50
0.0
  9
$ANGDIR
 70
     0
  9
$PDMODE
 70
     0
  9
$PDSIZE
 40
0.0
  9
$PLINEWID
 40
0.0
  9
$COORDS
 70
     2
  9
$SPLFRAME
 70
     0
  9
$SPLINETYPE
 70
     6
  9
$SPLINESEGS
 70
     8
  9
$ATTDIA
 70
     0
  9
$ATTREQ
 70
     1
  9
$HANDLING
 70
 22529
  9
$HANDSEED
  5
266
  9
$SURFTAB1
 70
     6
  9
$SURFTAB2
 70
     6
  9
$SURFTYPE
 70
     6
  9
$SURFU
 70
     6
  9
$SURFV
 70
     6
  9
$UCSNAME
  2

  9
$UCSORG
 10
0.0
 20
0.0
 30
0.0
  9
$UCSXDIR
 10
1.0
 20
0.0
 30
0.0
  9
$UCSYDIR
 10
0.0
 20
1.0
 30
0.0
  9
$PUCSNAME
  2

  9
$PUCSORG
 10
0.0
 20
0.0
 30
0.0
  9
$PUCSXDIR
 10
1.0
 20
0.0
 30
0.0
  9
$PUCSYDIR
 10
0.0
 20
1.0
 30
0.0
  9
$USERI1
 70
     0
  9
$USERI2
 70
     0
  9
$USERI3
 70
     0
  9
$USERI4
 70
     0
  9
$USERI5
 70
     0
  9
$USERR1
 40
0.0
  9
$USERR2
 40
0.0
  9
$USERR3
 40
0.0
  9
$USERR4
 40
0.0
  9
$USERR5
 40
0.0
  9
$WORLDVIEW
 70
     1
  9
$SHADEDGE
 70
     3
  9
$SHADEDIF
 70
    70
  9
$TILEMODE
 70
     1
  9
$MAXACTVP
 70
    15
  9
$PINSBASE
 10
0.0008545038290322
 20
1.250283272183907
 30
0.0
  9
$PLIMCHECK
 70
     0
  9
$PEXTMIN
 10
1.000000000000000E+20
 20
1.000000000000000E+20
 30
1.000000000000000E+20
  9
$PEXTMAX
 10
-1.000000000000000E+20
 20
-1.000000000000000E+20
 30
-1.000000000000000E+20
  9
$PLIMMIN
 10
0.0
 20
0.0
  9
$PLIMMAX
 10
12.0
 20
9.0
  9
$UNITMODE
 70
     0
  9
$VISRETAIN
 70
     0
  9
$PLINEGEN
 70
     0
  9
$PSLTSCALE
 70
     1
  9
$TREEDEPTH
 70
  3020
  9
$PICKSTYLE
 70
     1
  9
$CMLSTYLE
  2
STANDARD
  9
$CMLJUST
 70
     0
  9
$CMLSCALE
 40
1.0
  9
$PROXYGRAPHICS
 70
     1
  9
$MEASUREMENT
 70
     0
  0
ENDSEC
  0
SECTION
  2
CLASSES
  0
CLASS
  1
ACDBDICTIONARYWDFLT
  2
AcDbDictionaryWithDefault
  3
AutoCAD 2000
 90
        0
280
     0
281
     0
  0
CLASS
  1
ACDBPLACEHOLDER
  2
AcDbPlaceHolder
  3
AutoCAD 2000
 90
        0
280
     0
281
     0
  0
CLASS
  1
LAYOUT
  2
AcDbLayout
  3
AutoCAD 2000
 90
        0
280
     0
281
     0
  0
CLASS
  1
DICTIONARYVAR
  2
AcDbDictionaryVar
  3
AutoCAD 2000
 90
        0
280
     0
281
     0
  0
CLASS
  1
LONG_TRANSACTION
  2
AcDbLongTransaction
  3
AutoCAD 2000
 90
        0
280
     0
281
     0
  0
CLASS
  1
LWPOLYLINE
  2
AcDbPolyline
  3
AutoCAD 2000
 90
        0
280
     0
281
     1
  0
CLASS
  1
HATCH
  2
AcDbHatch
  3
AutoCAD 2000
 90
        0
280
     0
281
     1
  0
CLASS
  1
XRECORD
  2
AcDbXrecord
  3
AutoCAD 2000
 90
        0
280
     0
281
     0
  0
CLASS
  1
LONG_TRANSACTION
  2
AcDbLongTransaction
  3
AutoCAD 2000
 90
        0
280
     0
281
     0
  0
CLASS
  1
LWPOLYLINE
  2
AcDbPolyline
  3
AutoCAD 2000
 90
        0
280
     0
281
     1
  0
CLASS
  1
HATCH
  2
AcDbHatch
  3
AutoCAD 2000
 90
        0
280
     0
281
     1
  0
CLASS
  1
XRECORD
  2
AcDbXrecord
  3
AutoCAD 2000
 90
        0
280
     0
281
     0
  0
CLASS
  1
LONG_TRANSACTION
  2
AcDbLongTransaction
  3
AutoCAD 2000
 90
        0
280
     0
281
     0
  0
CLASS
  1
LWPOLYLINE
  2
AcDbPolyline
  3
AutoCAD 2000
 90
        0
280
     0
281
     1
  0
CLASS
  1
HATCH
  2
AcDbHatch
  3
AutoCAD 2000
 90
        0
280
     0
281
     1
  0
CLASS
  1
XRECORD
  2
AcDbXrecord
  3
AutoCAD 2000
 90
        0
280
     0
281
     0
  0
CLASS
  1
LONG_TRANSACTION
  2
AcDbLongTransaction
  3
AutoCAD 2000
 90
        0
280
     0
281
     0
  0
CLASS
  1
LWPOLYLINE
  2
AcDbPolyline
  3
AutoCAD 2000
 90
        0
280
     0
281
     1
  0
CLASS
  1
HATCH
  2
AcDbHatch
  3
AutoCAD 2000
 90
        0
280
     0
281
     1
  0
CLASS
  1
XRECORD
  2
AcDbXrecord
  3
AutoCAD 2000
 90
        0
280
     0
281
     0
  0
CLASS
  1
LONG_TRANSACTION
  2
AcDbLongTransaction
  3
AutoCAD 2000
 90
        0
280
     0
281
     0
  0
CLASS
  1
LWPOLYLINE
  2
AcDbPolyline
  3
AutoCAD 2000
 90
        0
280
     0
281
     1
  0
CLASS
  1
HATCH
  2
AcDbHatch
  3
AutoCAD 2000
 90
        0
280
     0
281
     1
  0
CLASS
  1
XRECORD
  2
AcDbXrecord
  3
AutoCAD 2000
 90
        0
280
     0
281
     0
  0
CLASS
  1
LONG_TRANSACTION
  2
AcDbLongTransaction
  3
AutoCAD 2000
 90
        0
280
     0
281
     0
  0
CLASS
  1
LWPOLYLINE
  2
AcDbPolyline
  3
AutoCAD 2000
 90
        0
280
     0
281
     1
  0
CLASS
  1
HATCH
  2
AcDbHatch
  3
AutoCAD 2000
 90
        0
280
     0
281
     1
  0
CLASS
  1
XRECORD
  2
AcDbXrecord
  3
AutoCAD 2000
 90
        0
280
     0
281
     0
  0
ENDSEC
  0
SECTION
  2
TABLES
  0
TABLE
  2
VPORT
  5
8
330
0
100
AcDbSymbolTable
 70
     2
  0
VPORT
  5
243
330
8
100
AcDbSymbolTableRecord
100
AcDbViewportTableRecord
  2
*ACTIVE
 70
     0
 10
0.0
 20
0.0
 11
1.0
 21
1.0
 12
-48.33242016980989
 22
57.43142033620838
 13
0.0
 23
0.0
 14
0.5740882589684922
 24
0.5740882589684922
 15
0.5
 25
0.5
 16
0.0
 26
0.0
 36
1.0
 17
0.0
 27
0.0
 37
0.0
 40
16.49878610868136
 41
1.570528967254408
 42
50.0
 43
0.0
 44
0.0
 50
0.0
 51
0.0
 71
     0
 72
   100
 73
     1
 74
     0
 75
     0
 76
     0
 77
     0
 78
     0
  0
ENDTAB
  0
TABLE
  2
LTYPE
  5
5
330
0
100
AcDbSymbolTable
 70
     1
  0
LTYPE
  5
12
330
5
100
AcDbSymbolTableRecord
100
AcDbLinetypeTableRecord
  2
BYBLOCK
 70
     0
  3

 72
    65
 73
     0
 40
0.0
  0
LTYPE
  5
13
330
5
100
AcDbSymbolTableRecord
100
AcDbLinetypeTableRecord
  2
BYLAYER
 70
     0
  3

 72
    65
 73
     0
 40
0.0
  0
LTYPE
  5
14
330
5
100
AcDbSymbolTableRecord
100
AcDbLinetypeTableRecord
  2
CONTINUOUS
 70
     0
  3
Solid line
 72
    65
 73
     0
 40
0.0
  0
ENDTAB
  0
TABLE
  2
LAYER
  5
2
330
0
100
AcDbSymbolTable
 70
     4
  0
LAYER
  5
F
330
2
100
AcDbSymbolTableRecord
100
AcDbLayerTableRecord
  2
0
 70
     0
 62
     7
  6
CONTINUOUS
  0
LAYER
  5
6F
330
2
100
AcDbSymbolTableRecord
100
AcDbLayerTableRecord
  2
ADP1DETAIL
 70
     0
 62
     7
  6
CONTINUOUS
  0
LAYER
  5
71
330
2
100
AcDbSymbolTableRecord
100
AcDbLayerTableRecord
  2
DEFPOINTS
 70
     0
 62
     7
  6
CONTINUOUS
  0
LAYER
  5
74
330
2
100
AcDbSymbolTableRecord
100
AcDbLayerTableRecord
  2
ADPDIM
 70
     0
 62
     3
  6
CONTINUOUS
  0
ENDTAB
  0
TABLE
  2
STYLE
  5
3
330
0
100
AcDbSymbolTable
 70
     2
  0
STYLE
  5
10
330
3
100
AcDbSymbolTableRecord
100
AcDbTextStyleTableRecord
  2
STANDARD
 70
     0
 40
0.0
 41
1.0
 50
0.0
 71
     0
 42
0.2
  3
txt
  4

  0
STYLE
  5
FB
330
3
100
AcDbSymbolTableRecord
100
AcDbTextStyleTableRecord
  2
ARIAL_WIDE
 70
     0
 40
0.0
 41
1.25
 50
0.0
 71
     0
 42
0.2
  3
ARIAL.TTF
  4

1001
ACAD
1000
Arial
1071
       34
  0
ENDTAB
  0
TABLE
  2
VIEW
  5
6
330
0
100
AcDbSymbolTable
 70
     0
  0
ENDTAB
  0
TABLE
  2
UCS
  5
7
330
0
100
AcDbSymbolTable
 70
     0
  0
ENDTAB
  0
TABLE
  2
APPID
  5
9
330
0
100
AcDbSymbolTable
 70
     1
  0
APPID
  5
11
330
9
100
AcDbSymbolTableRecord
100
AcDbRegAppTableRecord
  2
ACAD
 70
     0
  0
ENDTAB
  0
TABLE
  2
DIMSTYLE
  5
A
330
0
100
AcDbSymbolTable
 70
     1
  0
DIMSTYLE
105
EF
330
A
100
AcDbSymbolTableRecord
100
AcDbDimStyleTableRecord
  2
STANDARD
 70
     0
  3

  4

  5

  6

  7

 40
1.0
 41
0.18
 42
0.0625
 43
0.38
 44
0.18
 45
0.0
 46
0.0
 47
0.0
 48
0.0
140
0.18
141
0.09
142
0.0
143
25.4
144
1.0
145
0.0
146
1.0
147
0.09
 71
     0
 72
     0
 73
     1
 74
     1
 75
     0
 76
     0
 77
     0
 78
     0
170
     0
171
     2
172
     0
173
     0
174
     0
175
     0
176
     0
177
     0
178
     0
270
     2
271
     4
272
     4
273
     2
274
     2
340
10
275
     0
280
     0
281
     0
282
     0
283
     1
284
     0
285
     0
286
     0
287
     3
288
     0
  0
ENDTAB
  0
TABLE
  2
BLOCK_RECORD
  5
1
330
0
100
AcDbSymbolTable
 70
     2
  0
BLOCK_RECORD
  5
18
102
{ACAD_XDICTIONARY
360
150
102
}
330
1
100
AcDbSymbolTableRecord
100
AcDbBlockTableRecord
  2
*MODEL_SPACE
  0
BLOCK_RECORD
  5
15
102
{ACAD_XDICTIONARY
360
14E
102
}
330
1
100
AcDbSymbolTableRecord
100
AcDbBlockTableRecord
  2
*PAPER_SPACE
  0
BLOCK_RECORD
  5
6A
330
1
100
AcDbSymbolTableRecord
100
AcDbBlockTableRecord
  2
*D0
  0
BLOCK_RECORD
  5
6B
330
1
100
AcDbSymbolTableRecord
100
AcDbBlockTableRecord
  2
*D1
  0
ENDTAB
  0
ENDSEC
  0
SECTION
  2
BLOCKS
  0
BLOCK
  5
77
330
18
100
AcDbEntity
  8
0
100
AcDbBlockBegin
  2
*MODEL_SPACE
 70
     0
 10
0.0
 20
0.0
 30
0.0
  3
*MODEL_SPACE
  1

  0
ENDBLK
  5
78
330
18
100
AcDbEntity
  8
0
100
AcDbBlockEnd
  0
BLOCK
  5
75
330
15
100
AcDbEntity
 67
     1
  8
0
100
AcDbBlockBegin
  2
*PAPER_SPACE
 70
     0
 10
0.0
 20
0.0
 30
0.0
  3
*PAPER_SPACE
  1

  0
ENDBLK
  5
76
330
15
100
AcDbEntity
 67
     1
  8
0
100
AcDbBlockEnd
  0
BLOCK
  5
7A
330
6A
100
AcDbEntity
  8
0
100
AcDbBlockBegin
  2
*D0
 70
     1
 10
0.0
 20
0.0
 30
0.0
  3
*D0
  1

  0
LINE
  5
7B
330
6A
100
AcDbEntity
  8
0
  6
BYBLOCK
 62
     0
100
AcDbLine
 10
-41.74100265984558
 20
55.62876492579579
 30
0.0
 11
-41.74100265984558
 21
61.75530871229697
 31
0.0
  0
LINE
  5
7C
330
6A
100
AcDbEntity
  8
0
  6
BYBLOCK
 62
     0
100
AcDbLine
 10
-55.11600265984558
 20
60.18902819778909
 30
0.0
 11
-55.11600265984558
 21
61.75530871229697
 31
0.0
  0
LINE
  5
7D
330
6A
100
AcDbEntity
  8
0
  6
BYBLOCK
 62
     0
100
AcDbLine
 10
-41.74100265984558
 20
61.57530871229697
 30
0.0
 11
-47.97016932651223
 21
61.57530871229697
 31
0.0
  0
LINE
  5
7E
330
6A
100
AcDbEntity
  8
0
  6
BYBLOCK
 62
     0
100
AcDbLine
 10
-55.11600265984558
 20
61.57530871229697
 30
0.0
 11
-48.88683599317891
 21
61.57530871229697
 31
0.0
  0
LINE
  5
7F
330
6A
100
AcDbEntity
  8
0
  6
BYBLOCK
 62
     0
100
AcDbLine
 10
-41.86600265984558
 20
61.45030871229697
 30
0.0
 11
-41.61600265984557
 21
61.70030871229697
 31
0.0
  0
LINE
  5
80
330
6A
100
AcDbEntity
  8
0
  6
BYBLOCK
 62
     0
100
AcDbLine
 10
-55.24100265984557
 20
61.45030871229697
 30
0.0
 11
-54.99100265984558
 21
61.70030871229697
 31
0.0
  0
TEXT
  5
81
330
6A
100
AcDbEntity
  8
0
  6
BYBLOCK
 62
     0
100
AcDbText
 10
-48.76183599317891
 20
61.51280871229698
 30
0.0
 40
0.125
  1
13 3/8
 72
     1
 11
-48.42850265984558
 21
61.57530871229697
 31
0.0
100
AcDbText
 73
     2
  0
POINT
  5
82
330
6A
100
AcDbEntity
  8
DEFPOINTS
  6
BYBLOCK
 62
     0
100
AcDbPoint
 10
-41.74100265984558
 20
55.56626492579579
 30
0.0
  0
POINT
  5
83
330
6A
100
AcDbEntity
  8
DEFPOINTS
  6
BYBLOCK
 62
     0
100
AcDbPoint
 10
-55.11600265984558
 20
60.12652819778909
 30
0.0
  0
POINT
  5
84
330
6A
100
AcDbEntity
  8
DEFPOINTS
  6
BYBLOCK
 62
     0
100
AcDbPoint
 10
-55.11600265984558
 20
61.57530871229697
 30
0.0
  0
ENDBLK
  5
85
330
6A
100
AcDbEntity
  8
0
100
AcDbBlockEnd
  0
BLOCK
  5
86
330
6B
100
AcDbEntity
  8
0
100
AcDbBlockBegin
  2
*D1
 70
     1
 10
0.0
 20
0.0
 30
0.0
  3
*D1
  1

  0
LINE
  5
87
330
6B
100
AcDbEntity
  8
0
  6
BYBLOCK
 62
     0
100
AcDbLine
 10
-42.56640978783702
 20
61.17542009908752
 30
0.0
 11
-41.00001538073684
 21
61.17542009908752
 31
0.0
  0
LINE
  5
88
330
6B
100
AcDbEntity
  8
0
  6
BYBLOCK
 62
     0
100
AcDbLine
 10
-41.97103129505856
 20
54.17560745088225
 30
0.0
 11
-41.00001538073685
 21
54.17560745088225
 31
0.0
  0
LINE
  5
89
330
6B
100
AcDbEntity
  8
0
  6
BYBLOCK
 62
     0
100
AcDbLine
 10
-41.18001538073684
 20
61.17542009908752
 30
0.0
 11
-41.18001538073685
 21
57.84218044165155
 31
0.0
  0
LINE
  5
8A
330
6B
100
AcDbEntity
  8
0
  6
BYBLOCK
 62
     0
100
AcDbLine
 10
-41.18001538073685
 20
54.17560745088225
 30
0.0
 11
-41.18001538073685
 21
57.50884710831822
 31
0.0
  0
LINE
  5
8B
330
6B
100
AcDbEntity
  8
0
  6
BYBLOCK
 62
     0
100
AcDbLine
 10
-41.05501538073684
 20
61.05042009908752
 30
0.0
 11
-41.30501538073684
 21
61.30042009908752
 31
0.0
  0
LINE
  5
8C
330
6B
100
AcDbEntity
  8
0
  6
BYBLOCK
 62
     0
100
AcDbLine
 10
-41.05501538073685
 20
54.05060745088225
 30
0.0
 11
-41.30501538073685
 21
54.30060745088225
 31
0.0
  0
TEXT
  5
8D
330
6B
100
AcDbEntity
  8
0
  6
BYBLOCK
 62
     0
100
AcDbText
 10
-41.11751538073685
 20
57.63384710831822
 30
0.0
 40
0.125
  1
7
 50
90.0
 72
     1
 11
-41.18001538073685
 21
57.67551377498488
 31
0.0
100
AcDbText
 73
     2
  0
POINT
  5
8E
330
6B
100
AcDbEntity
  8
DEFPOINTS
  6
BYBLOCK
 62
     0
100
AcDbPoint
 10
-42.62890978783703
 20
61.17542009908752
 30
0.0
  0
POINT
  5
8F
330
6B
100
AcDbEntity
  8
DEFPOINTS
  6
BYBLOCK
 62
     0
100
AcDbPoint
 10
-42.03353129505856
 20
54.17560745088225
 30
0.0
  0
POINT
  5
90
330
6B
100
AcDbEntity
  8
DEFPOINTS
  6
BYBLOCK
 62
     0
100
AcDbPoint
 10
-41.18001538073685
 20
54.17560745088225
 30
0.0
  0
ENDBLK
  5
91
330
6B
100
AcDbEntity
  8
0
100
AcDbBlockEnd
  0
ENDSEC
  0
SECTION
  2
ENTITIES
  0
ARC
  5
92
330
18
100
AcDbEntity
  8
ADP1DETAIL
100
AcDbCircle
 10
-43.95183745869625
 20
59.83949172996186
 30
0.0
 40
0.2617691085249416
100
AcDbArc
 50
257.951288183736
 51
2.49089683108029
  0
ARC
  5
93
330
18
100
AcDbEntity
  8
ADP1DETAIL
100
AcDbCircle
 10
-44.077098850344
 20
60.29398027495386
 30
0.0
 40
1.02970562711251
100
AcDbArc
 50
265.4668770304496
 51
293.9004264288667
  0
ARC
  5
94
330
18
100
AcDbEntity
  8
ADP1DETAIL
100
AcDbCircle
 10
-43.65316835649295
 20
59.77719155863807
 30
0.0
 40
0.4953046829554636
100
AcDbArc
 50
84.44177700088216
 51
134.5110141230535
  0
ARC
  5
95
330
18
100
AcDbEntity
  8
ADP1DETAIL
100
AcDbCircle
 10
-43.971297263231
 20
59.85086476091648
 30
0.0
 40
0.2810472031849114
100
AcDbArc
 50
358.7617945423334
 51
95.94367351463166
  0
ARC
  5
96
330
18
100
AcDbEntity
  8
ADP1DETAIL
100
AcDbCircle
 10
-43.86070048499087
 20
60.09965942427073
 30
0.0
 40
0.70537357167089
100
AcDbArc
 50
89.00063501310379
 51
181.4519118336316
  0
ARC
  5
97
330
18
100
AcDbEntity
  8
ADP1DETAIL
100
AcDbCircle
 10
-43.81443230937983
 20
57.79832644564216
 30
0.0
 40
0.2331023386067778
100
AcDbArc
 50
131.8649549909464
 51
230.1116333656858
  0
ARC
  5
98
330
18
100
AcDbEntity
  8
ADP1DETAIL
100
AcDbCircle
 10
-42.62426584790138
 20
55.68123062041006
 30
0.0
 40
1.51535296655321
100
AcDbArc
 50
156.5523091120182
 51
263.8220158305105
  0
DIMENSION
  5
99
330
18
100
AcDbEntity
  8
ADPDIM
100
AcDbDimension
  2
*D0
 10
-55.11600265984558
 20
61.57530871229697
 30
0.0
 11
-48.42850265984558
 21
61.57530871229697
 31
0.0
100
AcDbAlignedDimension
 13
-41.74100265984558
 23
55.56626492579579
 33
0.0
 14
-55.11600265984558
 24
60.12652819778909
 34
0.0
100
AcDbRotatedDimension
  0
ARC
  5
9A
330
18
100
AcDbEntity
  8
ADP1DETAIL
100
AcDbCircle
 10
-45.33426010411952
 20
59.26496015753928
 30
0.0
 40
2.852014266776109
100
AcDbArc
 50
263.6479246651254
 51
320.775828991415
  0
ARC
  5
9B
330
18
100
AcDbEntity
  8
ADP1DETAIL
100
AcDbCircle
 10
-43.70081273728112
 20
60.02492643430885
 30
0.0
 40
1.152202600531854
100
AcDbArc
 50
87.0579559416646
 51
177.171349841924
  0
ARC
  5
9C
330
18
100
AcDbEntity
  8
ADP1DETAIL
100
AcDbCircle
 10
-43.89888931440253
 20
60.26737591027264
 30
0.0
 40
0.692298123493679
100
AcDbArc
 50
195.5498681129975
 51
261.0593724504623
  0
ARC
  5
9D
330
18
100
AcDbEntity
  8
ADP1DETAIL
100
AcDbCircle
 10
-45.96025749044319
 20
59.9439912569277
 30
0.0
 40
0.4692735627463119
100
AcDbArc
 50
272.1936864432417
 51
169.0088381362824
  0
ARC
  5
9E
330
18
100
AcDbEntity
  8
ADP1DETAIL
100
AcDbCircle
 10
-47.47751822540808
 20
58.3654712586963
 30
0.0
 40
1.708499220606145
100
AcDbArc
 50
56.74279614595839
 51
88.45188596290672
  0
ARC
  5
9F
330
18
100
AcDbEntity
  8
ADP1DETAIL
100
AcDbCircle
 10
-47.00124946621435
 20
58.64362812685691
 30
0.0
 40
1.50844105187941
100
AcDbArc
 50
68.46364900573734
 51
156.8875300062249
  0
ARC
  5
A0
330
18
100
AcDbEntity
  8
ADP1DETAIL
100
AcDbCircle
 10
-76.84866361904504
 20
56.71101787070276
 30
0.0
 40
26.98214480537744
100
AcDbArc
 50
6.191962857918866
 51
7.38610158715734
  0
LINE
  5
A1
330
18
100
AcDbEntity
  8
ADP1DETAIL
100
AcDbLine
 10
-49.87768212738628
 20
60.04675714954573
 30
0.0
 11
-49.86438679313632
 21
59.96698514404596
 31
0.0
  0
ARC
  5
A2
330
18
100
AcDbEntity
  8
ADP1DETAIL
100
AcDbCircle
 10
-52.57787567053022
 20
59.01485616137989
 30
0.0
 40
1.153548616778298
100
AcDbArc
 50
86.63355356172614
 51
131.8655500624935
  0
ARC
  5
A3
330
18
100
AcDbEntity
  8
ADP1DETAIL
100
AcDbCircle
 10
-53.02369564796213
 20
59.59090685555906
 30
0.0
 40
0.8603089782641241
100
AcDbArc
 50
96.5423948371918
 51
158.9075603335968
  0
ARC
  5
A4
330
18
100
AcDbEntity
  8
ADP1DETAIL
100
AcDbCircle
 10
-52.48791828415547
 20
58.58722406513306
 30
0.0
 40
1.580410867715345
100
AcDbArc
 50
44.81250599494075
 51
92.25211625270397
  0
ARC
  5
A5
330
18
100
AcDbEntity
  8
ADP1DETAIL
100
AcDbCircle
 10
-57.08688834537888
 20
52.12302463275069
 30
0.0
 40
9.768391965496896
100
AcDbArc
 50
40.07214596447334
 51
55.01744246348127
  0
ARC
  5
A6
330
18
100
AcDbEntity
  8
ADP1DETAIL
100
AcDbCircle
 10
-50.12996757427953
 20
59.70605372930888
 30
0.0
 40
0.8004488648069832
100
AcDbArc
 50
322.8313664805913
 51
59.03624346792633
  0
ARC
  5
A7
330
18
100
AcDbEntity
  8
ADP1DETAIL
100
AcDbCircle
 10
-50.2981210549478
 20
59.50053461101239
 30
0.0
 40
1.330727225460659
100
AcDbArc
 50
315.6911052208609
 51
64.16139329753001
  0
ARC
  5
A8
330
18
100
AcDbEntity
  8
ADP1DETAIL
100
AcDbCircle
 10
-55.02378985938535
 20
60.10037142565884
 30
0.0
 40
0.0949223839043249
100
AcDbArc
 50
146.2417312417669
 51
315.1795367221931
  0
ARC
  5
A9
330
18
100
AcDbEntity
  8
ADP1DETAIL
100
AcDbCircle
 10
-53.53259578041776
 20
60.76371826156532
 30
0.0
 40
1.41621661700903
100
AcDbArc
 50
207.9499439436199
 51
237.5877763131693
  0
ARC
  5
AA
330
18
100
AcDbEntity
  8
ADP1DETAIL
100
AcDbCircle
 10
-53.8272847838308
 20
61.12393285325814
 30
0.0
 40
1.305085479821255
100
AcDbArc
 50
236.6737000442344
 51
261.2511077895057
  0
ARC
  5
AB
330
18
100
AcDbEntity
  8
ADP1DETAIL
100
AcDbCircle
 10
-44.03372199810746
 20
60.07590234359682
 30
0.0
 40
0.8179769375552201
100
AcDbArc
 50
179.1621412440733
 51
261.2268506711685
  0
ARC
  5
AC
330
18
100
AcDbEntity
  8
ADP1DETAIL
100
AcDbCircle
 10
-53.09209122316808
 20
59.45055178029326
 30
0.0
 40
0.4945646193181526
100
AcDbArc
 50
121.1252057666517
 51
272.7297585059596
  0
ARC
  5
AD
330
18
100
AcDbEntity
  8
ADP1DETAIL
100
AcDbCircle
 10
-53.0391124943397
 20
59.53789369217257
 30
0.0
 40
0.8667504728167166
100
AcDbArc
 50
155.2687630500998
 51
276.8599672251212
  0
ARC
  5
AE
330
18
100
AcDbEntity
  8
ADP1DETAIL
100
AcDbCircle
 10
-54.10342102297618
 20
60.12658313074503
 30
0.0
 40
0.5893379136571273
100
AcDbArc
 50
251.3690346005104
 51
292.3259543656858
  0
ARC
  5
AF
330
18
100
AcDbEntity
  8
ADP1DETAIL
100
AcDbCircle
 10
-45.53345821006236
 20
61.19344377310826
 30
0.0
 40
4.791976994909085
100
AcDbArc
 50
218.0698615930228
 51
239.7175719768851
  0
ARC
  5
B0
330
18
100
AcDbEntity
  8
ADP1DETAIL
100
AcDbCircle
 10
-40.94059993278789
 20
67.90447384802856
 30
0.0
 40
13.20360560920286
100
AcDbArc
 50
222.584832484929
 51
238.7497236367585
  0
ARC
  5
B1
330
18
100
AcDbEntity
  8
ADP1DETAIL
100
AcDbCircle
 10
-55.52788843647425
 20
54.98611973954731
 30
0.0
 40
6.288556501878147
100
AcDbArc
 50
39.30791894173978
 51
48.57031566102129
  0
ARC
  5
B2
330
18
100
AcDbEntity
  8
ADP1DETAIL
100
AcDbCircle
 10
-52.86865453663572
 20
59.14090549885243
 30
0.0
 40
0.4683641940008805
100
AcDbArc
 50
261.7841484325357
 51
70.14336463161112
  0
ARC
  5
B3
330
18
100
AcDbEntity
  8
ADP1DETAIL
100
AcDbCircle
 10
-52.76299405823234
 20
59.46502529257663
 30
0.0
 40
0.1280742992284329
100
AcDbArc
 50
65.34444742719668
 51
238.8609882120016
  0
ARC
  5
B4
330
18
100
AcDbEntity
  8
ADP1DETAIL
100
AcDbCircle
 10
-53.02738984939195
 20
59.2030821959672
 30
0.0
 40
0.2499441134049677
100
AcDbArc
 50
260.5244192789799
 51
37.54798676861876
  0
ARC
  5
B5
330
18
100
AcDbEntity
  8
ADP1DETAIL
100
AcDbCircle
 10
-40.01681613638129
 20
61.4174527292194
 30
0.0
 40
10.16702788145213
100
AcDbArc
 50
190.1754819397095
 51
193.4675032913441
  0
ARC
  5
B6
330
18
100
AcDbEntity
  8
ADP1DETAIL
100
AcDbCircle
 10
-48.96549816162137
 20
58.76974107062604
 30
0.0
 40
0.6944632677106844
100
AcDbArc
 50
139.316026789724
 51
171.1338530599316
  0
LINE
  5
B7
330
18
100
AcDbEntity
  8
ADP1DETAIL
100
AcDbLine
 10
-49.6649586938997
 20
59.79414771330928
 30
0.0
 11
-49.63836802539979
 21
59.72767104205947
 31
0.0
  0
ARC
  5
B8
330
18
100
AcDbEntity
  8
ADP1DETAIL
100
AcDbCircle
 10
-48.86914311050339
 20
58.45961125804948
 30
0.0
 40
0.4895675215896909
100
AcDbArc
 50
166.8502295257603
 51
206.8354344215342
  0
ARC
  5
B9
330
18
100
AcDbEntity
  8
ADP1DETAIL
100
AcDbCircle
 10
-50.42701649369096
 20
58.67622619124682
 30
0.0
 40
0.6424017287303239
100
AcDbArc
 50
0.1000765620120063
 51
35.53769172877886
  0
LINE
  5
BA
330
18
100
AcDbEntity
  8
ADP1DETAIL
100
AcDbLine
 10
-49.86438679313632
 20
59.96698514404596
 30
0.0
 11
-49.81120641339288
 21
59.91380476430252
 31
0.0
  0
ARC
  5
BB
330
18
100
AcDbEntity
  8
ADP1DETAIL
100
AcDbCircle
 10
-48.68956048999127
 20
58.72486524351188
 30
0.0
 40
0.9740220307261292
100
AcDbArc
 50
171.0273659521315
 51
198.7706651761191
  0
LINE
  5
BC
330
18
100
AcDbEntity
  8
ADP1DETAIL
100
AcDbLine
 10
-49.81120641339288
 20
59.91380476430252
 30
0.0
 11
-49.6649586938997
 21
59.79414771330928
 31
0.0
  0
ARC
  5
BD
330
18
100
AcDbEntity
  8
ADP1DETAIL
100
AcDbCircle
 10
-45.90561838124453
 20
58.66938594177597
 30
0.0
 40
2.253498363102361
100
AcDbArc
 50
192.0555595795658
 51
276.5182925847223
  0
ARC
  5
BE
330
18
100
AcDbEntity
  8
ADP1DETAIL
100
AcDbCircle
 10
-45.48637878707023
 20
60.8131269345122
 30
0.0
 40
4.78739399553137
100
AcDbArc
 50
241.2326572297397
 51
287.9057216974981
  0
ARC
  5
BF
330
18
100
AcDbEntity
  8
ADP1DETAIL
100
AcDbCircle
 10
-46.0023189802678
 20
59.50183210305954
 30
0.0
 40
1.076670925475103
100
AcDbArc
 50
223.7633209076538
 51
261.131111106322
  0
ARC
  5
C0
330
18
100
AcDbEntity
  8
ADP1DETAIL
100
AcDbCircle
 10
-46.06956321067985
 20
58.85208769489686
 30
0.0
 40
0.7268496933706448
100
AcDbArc
 50
185.3980306528721
 51
277.9617797869864
  0
ARC
  5
C1
330
18
100
AcDbEntity
  8
ADP1DETAIL
100
AcDbCircle
 10
-46.41747895988825
 20
58.49739695454506
 30
0.0
 40
2.104886515201157
100
AcDbArc
 50
159.4650140224345
 51
222.7490053462069
  0
ARC
  5
C2
330
18
100
AcDbEntity
  8
ADP1DETAIL
100
AcDbCircle
 10
-47.38619619035349
 20
58.98460817223863
 30
0.0
 40
0.6146413083818496
100
AcDbArc
 50
83.03882600402944
 51
163.8107917634641
  0
ARC
  5
C3
330
18
100
AcDbEntity
  8
ADP1DETAIL
100
AcDbCircle
 10
-46.17569549061268
 20
58.41800841251608
 30
0.0
 40
1.946115716671672
100
AcDbArc
 50
157.7158317284809
 51
186.4698303741679
  0
ARC
  5
C4
330
18
100
AcDbEntity
  8
ADP1DETAIL
100
AcDbCircle
 10
-46.89208657773185
 20
59.5080381737153
 30
0.0
 40
0.4532278886562057
100
AcDbArc
 50
342.0952581116166
 51
39.14394347072433
  0
ARC
  5
C5
330
18
100
AcDbEntity
  8
ADP1DETAIL
100
AcDbCircle
 10
-50.31638045484237
 20
60.7380890039272
 30
0.0
 40
4.078142056381379
100
AcDbArc
 50
336.3599218102108
 51
341.5651199320409
  0
ARC
  5
C6
330
18
100
AcDbEntity
  8
ADP1DETAIL
100
AcDbCircle
 10
-46.95223178168949
 20
59.1885447383695
 30
0.0
 40
0.4349547653419989
100
AcDbArc
 50
115.4096432730102
 51
291.4477462035056
  0
ARC
  5
C7
330
18
100
AcDbEntity
  8
ADP1DETAIL
100
AcDbCircle
 10
-47.21405862573904
 20
59.31305006353731
 30
0.0
 40
0.2981136569052993
100
AcDbArc
 50
344.9711333087417
 51
109.1197151999491
  0
ARC
  5
C8
330
18
100
AcDbEntity
  8
ADP1DETAIL
100
AcDbCircle
 10
-45.98870340414227
 20
58.33724537827055
 30
0.0
 40
0.2059567423150311
100
AcDbArc
 50
275.5217656896666
 51
150.70090728863
  0
ARC
  5
C9
330
18
100
AcDbEntity
  8
ADP1DETAIL
100
AcDbCircle
 10
-47.39399084071379
 20
59.24143283832326
 30
0.0
 40
1.285968730912292
100
AcDbArc
 50
337.2349897739919
 51
32.92421583997102
  0
ARC
  5
CA
330
18
100
AcDbEntity
  8
ADP1DETAIL
100
AcDbCircle
 10
-47.16006616519151
 20
58.9838888458315
 30
0.0
 40
1.303917603324838
100
AcDbArc
 50
339.0564058151701
 51
42.25140485281283
  0
ARC
  5
CB
330
18
100
AcDbEntity
  8
ADP1DETAIL
100
AcDbCircle
 10
-54.88248969165596
 20
60.28425781688426
 30
0.0
 40
0.193527518147733
100
AcDbArc
 50
287.7446656376855
 51
352.6442598054871
  0
ARC
  5
CC
330
18
100
AcDbEntity
  8
ADP1DETAIL
100
AcDbCircle
 10
-54.61078330874446
 20
59.73137845187697
 30
0.0
 40
0.7163097530637757
100
AcDbArc
 50
64.72922027991394
 51
115.2707797200861
  0
ARC
  5
CD
330
18
100
AcDbEntity
  8
ADP1DETAIL
100
AcDbCircle
 10
-54.51808718940048
 20
60.23957322422179
 30
0.0
 40
0.172594344808632
100
AcDbArc
 50
62.33273405813679
 51
177.8044829377867
  0
ARC
  5
CE
330
18
100
AcDbEntity
  8
ADP1DETAIL
100
AcDbCircle
 10
-54.54473135940337
 20
59.22088864009736
 30
0.0
 40
0.9109310150510443
100
AcDbArc
 50
105.2034938461781
 51
116.8711879745064
  0
ARC
  5
CF
330
18
100
AcDbEntity
  8
ADP1DETAIL
100
AcDbCircle
 10
-54.62287918109803
 20
59.94224603925204
 30
0.0
 40
0.526432027185988
100
AcDbArc
 50
123.9104297656572
 51
159.5090889754884
  0
ARC
  5
D0
330
18
100
AcDbEntity
  8
ADP1DETAIL
100
AcDbCircle
 10
-53.82381312423987
 20
61.05460366666493
 30
0.0
 40
0.8293301198499921
100
AcDbArc
 50
234.5351725264412
 51
289.4861764311361
  0
ARC
  5
D1
330
18
100
AcDbEntity
  8
ADP1DETAIL
100
AcDbCircle
 10
-52.64114512449463
 20
58.29251499268603
 30
0.0
 40
2.206078570935194
100
AcDbArc
 50
72.15296912894975
 51
102.5822122573949
  0
ARC
  5
D2
330
18
100
AcDbEntity
  8
ADP1DETAIL
100
AcDbCircle
 10
-52.47294247974464
 20
58.91447980820522
 30
0.0
 40
1.562791491679117
100
AcDbArc
 50
50.856402060298
 51
71.03435082366718
  0
ARC
  5
D3
330
18
100
AcDbEntity
  8
ADP1DETAIL
100
AcDbCircle
 10
-49.75376151251515
 20
59.80719605763203
 30
0.0
 40
0.8917384804468415
100
AcDbArc
 50
87.71064748011749
 51
121.7765423166828
  0
ARC
  5
D4
330
18
100
AcDbEntity
  8
ADP1DETAIL
100
AcDbCircle
 10
-49.82684374008535
 20
60.29099459010216
 30
0.0
 40
0.4821314498530559
100
AcDbArc
 50
145.3277127059219
 51
171.0690889836947
  0
ARC
  5
D5
330
18
100
AcDbEntity
  8
ADP1DETAIL
100
AcDbCircle
 10
-49.83163548471399
 20
60.69006840070358
 30
0.0
 40
0.5722146422820865
100
AcDbArc
 50
214.5146003455652
 51
243.113330280883
  0
LINE
  5
D6
330
18
100
AcDbEntity
  8
ADP1DETAIL
100
AcDbLine
 10
-49.87768212738628
 20
60.21959458028241
 30
0.0
 11
-49.87768212738628
 21
60.04675714954573
 31
0.0
  0
ARC
  5
D7
330
18
100
AcDbEntity
  8
ADP1DETAIL
100
AcDbCircle
 10
-46.00033710843073
 20
60.24946884508004
 30
0.0
 40
0.2610644288152021
100
AcDbArc
 50
180.7206694959874
 51
350.4818550835368
  0
ARC
  5
D8
330
18
100
AcDbEntity
  8
ADP1DETAIL
100
AcDbCircle
 10
-44.73759218695213
 20
59.19769602252739
 30
0.0
 40
2.758334037450605
100
AcDbArc
 50
354.1522556611108
 51
24.67377446573851
  0
ARC
  5
D9
330
18
100
AcDbEntity
  8
ADP1DETAIL
100
AcDbCircle
 10
-43.71326334199271
 20
59.92149633670906
 30
0.0
 40
0.3650348226885671
100
AcDbArc
 50
354.6292689922772
 51
72.77944749464976
  0
ARC
  5
DA
330
18
100
AcDbEntity
  8
ADP1DETAIL
100
AcDbCircle
 10
-43.59737597045326
 20
59.31577864993185
 30
0.0
 40
1.349679790032263
100
AcDbArc
 50
357.1752747934121
 51
55.50592909064522
  0
ARC
  5
DB
330
18
100
AcDbEntity
  8
ADP1DETAIL
100
AcDbCircle
 10
-43.81050806442999
 20
59.37191824163865
 30
0.0
 40
1.43350828806631
100
AcDbArc
 50
359.7124740561907
 51
91.51458964587739
  0
DIMENSION
  5
DC
330
18
100
AcDbEntity
  8
ADPDIM
100
AcDbDimension
  2
*D1
 10
-41.18001538073685
 20
54.17560745088225
 30
0.0
 11
-41.18001538073685
 21
57.67551377498488
 31
0.0
100
AcDbAlignedDimension
 13
-42.62890978783703
 23
61.17542009908752
 33
0.0
 14
-42.03353129505856
 24
54.17560745088225
 34
0.0
 50
90.0
100
AcDbRotatedDimension
  0
ARC
  5
DD
330
18
100
AcDbEntity
  8
ADP1DETAIL
100
AcDbCircle
 10
-41.17689956074467
 20
55.22865672083025
 30
0.0
 40
2.580264664004946
100
AcDbArc
 50
128.7323101082002
 51
160.9348149722355
  0
ARC
  5
DE
330
18
100
AcDbEntity
  8
ADP1DETAIL
100
AcDbCircle
 10
-42.43863007220721
 20
55.92062257545673
 30
0.0
 40
0.3736279674611576
100
AcDbArc
 50
76.68521773288202
 51
191.6045727741886
  0
ARC
  5
DF
330
18
100
AcDbEntity
  8
ADP1DETAIL
100
AcDbCircle
 10
-42.34299389384619
 20
55.6844863629375
 30
0.0
 40
0.6134898157373395
100
AcDbArc
 50
348.889419223047
 51
102.1618583223965
  0
ARC
  5
E0
330
18
100
AcDbEntity
  8
ADP1DETAIL
100
AcDbCircle
 10
-42.9222858393875
 20
55.36530984229176
 30
0.0
 40
1.198254103207999
100
AcDbArc
 50
276.4660973116991
 51
9.654500771798677
  0
ARC
  5
E1
330
18
100
AcDbEntity
  8
ADP1DETAIL
100
AcDbCircle
 10
-42.77431565592689
 20
55.30531845635006
 30
0.0
 40
0.6349022437100115
100
AcDbArc
 50
257.2134225630069
 51
347.4544544328212
  0
ARC
  5
E2
330
18
100
AcDbEntity
  8
ADP1DETAIL
100
AcDbCircle
 10
-42.6246335422035
 20
55.70288389568812
 30
0.0
 40
1.057327158588309
100
AcDbArc
 50
159.5973861341086
 51
254.0698991312933
  0
ARC
  5
E3
330
18
100
AcDbEntity
  8
ADP1DETAIL
100
AcDbCircle
 10
-42.73942397767913
 20
55.9462074332295
 30
0.0
 40
0.1199985638472794
100
AcDbArc
 50
237.0905293868056
 51
321.8336690492124
  0
ARC
  5
E4
330
18
100
AcDbEntity
  8
ADP1DETAIL
100
AcDbCircle
 10
-43.23444620778547
 20
55.54173142779767
 30
0.0
 40
1.142910884634971
100
AcDbArc
 50
340.8818149245624
 51
18.90003040184503
  0
ARC
  5
E5
330
18
100
AcDbEntity
  8
ADP1DETAIL
100
AcDbCircle
 10
-42.37955306515726
 20
55.6507120913201
 30
0.0
 40
0.345682549924454
100
AcDbArc
 50
49.08564819084875
 51
140.1853505113458
  0
ARC
  5
E6
330
18
100
AcDbEntity
  8
ADP1DETAIL
100
AcDbCircle
 10
-43.99691481289223
 20
59.21303230194092
 30
0.0
 40
1.747954297883113
100
AcDbArc
 50
314.4785995694066
 51
1.187760173174484
  0
ARC
  5
E7
330
18
100
AcDbEntity
  8
ADP1DETAIL
100
AcDbCircle
 10
-43.67246549614188
 20
59.26479514230272
 30
0.0
 40
1.299296174218022
100
AcDbArc
 50
268.6764991492256
 51
4.410997430600936
  0
ARC
  5
E8
330
18
100
AcDbEntity
  8
ADP1DETAIL
100
AcDbCircle
 10
-44.83437651276704
 20
59.24187690831168
 30
0.0
 40
2.8593193206943
100
AcDbArc
 50
315.604140566689
 51
353.4691337247633
  0
ARC
  5
E9
330
18
100
AcDbEntity
  8
ADP1DETAIL
100
AcDbCircle
 10
-43.39730024623842
 20
58.72606035164807
 30
0.0
 40
0.9850685191103616
100
AcDbArc
 50
270.2855069612801
 51
308.9306733523104
  0
ARC
  5
EA
330
18
100
AcDbEntity
  8
ADP1DETAIL
100
AcDbCircle
 10
-43.84145055605823
 20
57.73939302917964
 30
0.0
 40
0.2656966939078144
100
AcDbArc
 50
58.46241873051491
 51
118.9350820912078
  0
ARC
  5
EB
330
18
100
AcDbEntity
  8
ADP1DETAIL
100
AcDbCircle
 10
-43.44125437575347
 20
58.00696529974311
 30
0.0
 40
0.2644380630867136
100
AcDbArc
 50
188.9457049781006
 51
280.648278920962
  0
ARC
  5
EC
330
18
100
AcDbEntity
  8
ADP1DETAIL
100
AcDbCircle
 10
-43.34867502952818
 20
58.59388092043115
 30
0.0
 40
1.154314095532116
100
AcDbArc
 50
238.147902081517
 51
281.1797397022989
  0
ARC
  5
ED
330
18
100
AcDbEntity
  8
ADP1DETAIL
100
AcDbCircle
 10
-43.90637812975592
 20
59.85276620426567
 30
0.0
 40
0.5576192653120304
100
AcDbArc
 50
296.231002361343
 51
3.553648148749712
  0
ARC
  5
EE
330
18
100
AcDbEntity
  8
ADP1DETAIL
100
AcDbCircle
 10
-43.46265035776944
 20
59.87375166531186
 30
0.0
 40
1.32013073612148
100
AcDbArc
 50
21.10797017853654
 51
97.79397080174696
  0
TEXT
  5
FC
330
18
100
AcDbEntity
  8
ADPDIM
100
AcDbText
 10
-61.22138881426928
 20
53.18011978832734
 30
0.0
 40
0.25
  1
J U L I U S  B L U M  &  C O . ,  I N C .      ( 8 0 0 )  5 2 6 - 6 2 9 3        W W W . J U L I U S B L U M . C O M        P A R T  N o .  5 2 7
 41
1.25
  7
ARIAL_WIDE
 72
     1
 11
-48.35197373923517
 21
53.43011978832734
 31
0.0
100
AcDbText
 73
     3
  0
ENDSEC
  0
SECTION
  2
OBJECTS
  0
DICTIONARY
  5
C
330
0
100
AcDbDictionary
  3
ACAD_GROUP
350
D
  3
ACAD_LAYOUT
350
F5
  3
ACAD_MLINESTYLE
350
E
  3
ACAD_PLOTSETTINGS
350
F6
  3
ACAD_PLOTSTYLENAME
350
F3
  3
ACDBHEADERROUNDTRIPXREC
350
244
  3
ACDBVARIABLEDICTIONARY
350
156
  0
DICTIONARY
  5
150
330
18
100
AcDbDictionary
280
     1
  3
ACAD_LAYOUTSELFREF
360
265
  0
DICTIONARY
  5
14E
330
15
100
AcDbDictionary
280
     1
  3
ACAD_LAYOUTSELFREF
360
264
  0
DICTIONARY
  5
D
102
{ACAD_REACTORS
330
C
102
}
330
C
100
AcDbDictionary
  0
DICTIONARY
  5
F5
102
{ACAD_REACTORS
330
C
102
}
330
C
100
AcDbDictionary
  0
DICTIONARY
  5
E
102
{ACAD_REACTORS
330
C
102
}
330
C
100
AcDbDictionary
  3
STANDARD
350
1B
  0
DICTIONARY
  5
F6
102
{ACAD_REACTORS
330
C
102
}
330
C
100
AcDbDictionary
  0
ACDBDICTIONARYWDFLT
  5
F3
102
{ACAD_REACTORS
330
C
102
}
330
C
100
AcDbDictionary
281
     1
  3
Normal
350
F4
100
AcDbDictionaryWithDefault
340
F4
  0
DICTIONARY
  5
244
102
{ACAD_REACTORS
330
C
102
}
330
C
100
AcDbDictionary
  3
CEPSNTYPE
350
24E
  3
FINGERPRINTGUID
350
24F
  3
HYPERLINKBASE
350
247
  3
INSUNITS
350
24D
  3
LAYOUTDICT
350
249
  3
LWETCUNION
350
24C
  3
PLOTSETDICT
350
24A
  3
PLOTSTYLNAMDICT
350
24B
  3
PSVPSCALE
350
251
  3
PUCSBASE
350
254
  3
PUCSORGBACK
350
25A
  3
PUCSORGBOTTOM
350
256
  3
PUCSORGFRONT
350
259
  3
PUCSORGLEFT
350
257
  3
PUCSORGRIGHT
350
258
  3
PUCSORGTOP
350
255
  3
PUCSORTHOREF
350
252
  3
PUCSORTHOVIEW
350
253
  3
STYLESHEET
350
248
  3
TSTACKALIGN
350
245
  3
TSTACKSIZE
350
246
  3
UCSBASE
350
25D
  3
UCSORGBACK
350
263
  3
UCSORGBOTTOM
350
25F
  3
UCSORGFRONT
350
262
  3
UCSORGLEFT
350
260
  3
UCSORGRIGHT
350
261
  3
UCSORGTOP
350
25E
  3
UCSORTHOREF
350
25B
  3
UCSORTHOVIEW
350
25C
  3
VERSIONGUID
350
250
  0
DICTIONARY
  5
156
102
{ACAD_REACTORS
330
C
102
}
330
C
100
AcDbDictionary
  3
DIMASSOC
350
157
  0
XRECORD
  5
265
102
{ACAD_REACTORS
330
150
102
}
330
150
100
AcDbXrecord
340
18
  0
XRECORD
  5
264
102
{ACAD_REACTORS
330
14E
102
}
330
14E
100
AcDbXrecord
340
15
  0
MLINESTYLE
  5
1B
102
{ACAD_REACTORS
330
E
102
}
330
E
100
AcDbMlineStyle
  2
STANDARD
 70
     0
  3

 62
     0
 51
90.0
 52
90.0
 71
     2
 49
0.5
 62
   256
  6
BYLAYER
 49
-0.5
 62
   256
  6
BYLAYER
  0
ACDBPLACEHOLDER
  5
F4
102
{ACAD_REACTORS
330
F3
102
}
330
F3
100
AcDbPlaceHolder
280
     0
  0
XRECORD
  5
24E
102
{ACAD_REACTORS
330
244
102
}
330
244
100
AcDbXrecord
 90
        0
  0
XRECORD
  5
24F
102
{ACAD_REACTORS
330
244
102
}
330
244
100
AcDbXrecord
  1
{A33EBC52-0760-4617-AD02-54A47EE8B08F}
  0
XRECORD
  5
247
102
{ACAD_REACTORS
330
244
102
}
330
244
100
AcDbXrecord
  1

  0
XRECORD
  5
24D
102
{ACAD_REACTORS
330
244
102
}
330
244
100
AcDbXrecord
 90
        0
  0
XRECORD
  5
249
102
{ACAD_REACTORS
330
244
102
}
330
244
100
AcDbXrecord
340
F5
  0
XRECORD
  5
24C
102
{ACAD_REACTORS
330
244
102
}
330
244
100
AcDbXrecord
 90
    14877
  0
XRECORD
  5
24A
102
{ACAD_REACTORS
330
244
102
}
330
244
100
AcDbXrecord
340
F6
  0
XRECORD
  5
24B
102
{ACAD_REACTORS
330
244
102
}
330
244
100
AcDbXrecord
340
F3
  0
XRECORD
  5
251
102
{ACAD_REACTORS
330
244
102
}
330
244
100
AcDbXrecord
 40
0.0
  0
XRECORD
  5
254
102
{ACAD_REACTORS
330
244
102
}
330
244
100
AcDbXrecord
340
0
  0
XRECORD
  5
25A
102
{ACAD_REACTORS
330
244
102
}
330
244
100
AcDbXrecord
 10
0.0
 20
0.0
 30
0.0
  0
XRECORD
  5
256
102
{ACAD_REACTORS
330
244
102
}
330
244
100
AcDbXrecord
 10
0.0
 20
0.0
 30
0.0
  0
XRECORD
  5
259
102
{ACAD_REACTORS
330
244
102
}
330
244
100
AcDbXrecord
 10
0.0
 20
0.0
 30
0.0
  0
XRECORD
  5
257
102
{ACAD_REACTORS
330
244
102
}
330
244
100
AcDbXrecord
 10
0.0
 20
0.0
 30
0.0
  0
XRECORD
  5
258
102
{ACAD_REACTORS
330
244
102
}
330
244
100
AcDbXrecord
 10
0.0
 20
0.0
 30
0.0
  0
XRECORD
  5
255
102
{ACAD_REACTORS
330
244
102
}
330
244
100
AcDbXrecord
 10
0.0
 20
0.0
 30
0.0
  0
XRECORD
  5
252
102
{ACAD_REACTORS
330
244
102
}
330
244
100
AcDbXrecord
340
0
  0
XRECORD
  5
253
102
{ACAD_REACTORS
330
244
102
}
330
244
100
AcDbXrecord
 70
     0
  0
XRECORD
  5
248
102
{ACAD_REACTORS
330
244
102
}
330
244
100
AcDbXrecord
  1

  0
XRECORD
  5
245
102
{ACAD_REACTORS
330
244
102
}
330
244
100
AcDbXrecord
 90
        1
  0
XRECORD
  5
246
102
{ACAD_REACTORS
330
244
102
}
330
244
100
AcDbXrecord
 90
       70
  0
XRECORD
  5
25D
102
{ACAD_REACTORS
330
244
102
}
330
244
100
AcDbXrecord
340
0
  0
XRECORD
  5
263
102
{ACAD_REACTORS
330
244
102
}
330
244
100
AcDbXrecord
 10
0.0
 20
0.0
 30
0.0
  0
XRECORD
  5
25F
102
{ACAD_REACTORS
330
244
102
}
330
244
100
AcDbXrecord
 10
0.0
 20
0.0
 30
0.0
  0
XRECORD
  5
262
102
{ACAD_REACTORS
330
244
102
}
330
244
100
AcDbXrecord
 10
0.0
 20
0.0
 30
0.0
  0
XRECORD
  5
260
102
{ACAD_REACTORS
330
244
102
}
330
244
100
AcDbXrecord
 10
0.0
 20
0.0
 30
0.0
  0
XRECORD
  5
261
102
{ACAD_REACTORS
330
244
102
}
330
244
100
AcDbXrecord
 10
0.0
 20
0.0
 30
0.0
  0
XRECORD
  5
25E
102
{ACAD_REACTORS
330
244
102
}
330
244
100
AcDbXrecord
 10
0.0
 20
0.0
 30
0.0
  0
XRECORD
  5
25B
102
{ACAD_REACTORS
330
244
102
}
330
244
100
AcDbXrecord
340
0
  0
XRECORD
  5
25C
102
{ACAD_REACTORS
330
244
102
}
330
244
100
AcDbXrecord
 70
     0
  0
XRECORD
  5
250
102
{ACAD_REACTORS
330
244
102
}
330
244
100
AcDbXrecord
  1
{99A07D2E-73AA-4B9D-A484-A3A30CE266A6}
  0
DICTIONARYVAR
  5
157
102
{ACAD_REACTORS
330
156
102
}
330
156
100
DictionaryVariables
280
     0
  1
1
  0
ENDSEC
  0
EOF
