  0
SECTION
  2
HEADER
  9
$ACADVER
  1
AC1014
  9
$ACADMAINTVER
 70
     9
  9
$DWGCODEPAGE
  3
ANSI_1252
  9
$INSBASE
 10
-84.87374306479251
 20
42.55325798531534
 30
0.0
  9
$EXTMIN
 10
-97.62634055722053
 20
40.14869724956098
 30
0.0
  9
$EXTMAX
 10
-65.45280286963524
 20
53.42825798531534
 30
0.0
  9
$LIMMIN
 10
0.0
 20
0.0
  9
$LIMMAX
 10
36.0
 20
36.0
  9
$ORTHOMODE
 70
     1
  9
$REGENMODE
 70
     1
  9
$FILLMODE
 70
     1
  9
$QTEXTMODE
 70
     0
  9
$MIRRTEXT
 70
     1
  9
$DRAGMODE
 70
     0
  9
$LTSCALE
 40
1.0
  9
$OSMODE
 70
    37
  9
$ATTMODE
 70
     1
  9
$TEXTSIZE
 40
0.2
  9
$TRACEWID
 40
0.05
  9
$TEXTSTYLE
  7
STANDARD
  9
$CLAYER
  8
ADPDIM
  9
$CELTYPE
  6
BYLAYER
  9
$CECOLOR
 62
   256
  9
$CELTSCALE
 40
1.0
  9
$DELOBJ
 70
     1
  9
$DISPSILH
 70
     0
  9
$DIMSCALE
 40
1.0
  9
$DIMASZ
 40
0.125
  9
$DIMEXO
 40
0.0625
  9
$DIMDLI
 40
0.38
  9
$DIMRND
 40
0.0
  9
$DIMDLE
 40
0.0
  9
$DIMEXE
 40
0.18
  9
$DIMTP
 40
0.0
  9
$DIMTM
 40
0.0
  9
$DIMTXT
 40
0.125
  9
$DIMCEN
 40
0.1875
  9
$DIMTSZ
 40
0.125
  9
$DIMTOL
 70
     0
  9
$DIMLIM
 70
     0
  9
$DIMTIH
 70
     0
  9
$DIMTOH
 70
     0
  9
$DIMSE1
 70
     0
  9
$DIMSE2
 70
     0
  9
$DIMTAD
 70
     0
  9
$DIMZIN
 70
     3
  9
$DIMBLK
  1

  9
$DIMASO
 70
     1
  9
$DIMSHO
 70
     1
  9
$DIMPOST
  1

  9
$DIMAPOST
  1

  9
$DIMALT
 70
     0
  9
$DIMALTD
 70
     1
  9
$DIMALTF
 40
25.4
  9
$DIMLFAC
 40
1.0
  9
$DIMTOFL
 70
     0
  9
$DIMTVP
 40
0.0
  9
$DIMTIX
 70
     0
  9
$DIMSOXD
 70
     0
  9
$DIMSAH
 70
     0
  9
$DIMBLK1
  1

  9
$DIMBLK2
  1

  9
$DIMSTYLE
  2
STANDARD
  9
$DIMCLRD
 70
     0
  9
$DIMCLRE
 70
     0
  9
$DIMCLRT
 70
     0
  9
$DIMTFAC
 40
1.0
  9
$DIMGAP
 40
0.125
  9
$DIMJUST
 70
     0
  9
$DIMSD1
 70
     0
  9
$DIMSD2
 70
     0
  9
$DIMTOLJ
 70
     1
  9
$DIMTZIN
 70
     0
  9
$DIMALTZ
 70
     0
  9
$DIMALTTZ
 70
     0
  9
$DIMFIT
 70
     3
  9
$DIMUPT
 70
     0
  9
$DIMUNIT
 70
     2
  9
$DIMDEC
 70
     4
  9
$DIMTDEC
 70
     4
  9
$DIMALTU
 70
     2
  9
$DIMALTTD
 70
     2
  9
$DIMTXSTY
  7
STANDARD
  9
$DIMAUNIT
 70
     0
  9
$LUNITS
 70
     5
  9
$LUPREC
 70
     4
  9
$SKETCHINC
 40
0.1
  9
$FILLETRAD
 40
0.062
  9
$AUNITS
 70
     0
  9
$AUPREC
 70
     0
  9
$MENU
  1
acad
  9
$ELEVATION
 40
0.0
  9
$PELEVATION
 40
0.0
  9
$THICKNESS
 40
0.0
  9
$LIMCHECK
 70
     0
  9
$BLIPMODE
 70
     0
  9
$CHAMFERA
 40
0.0
  9
$CHAMFERB
 40
0.0
  9
$CHAMFERC
 40
0.0
  9
$CHAMFERD
 40
0.0
  9
$SKPOLY
 70
     0
  9
$TDCREATE
 40
2450407.574429583
  9
$TDUPDATE
 40
2452297.072068680
  9
$TDINDWG
 40
0.0279418750
  9
$TDUSRTIMER
 40
0.0279418750
  9
$USRTIMER
 70
     1
  9
$ANGBASE
 50
0.0
  9
$ANGDIR
 70
     0
  9
$PDMODE
 70
     0
  9
$PDSIZE
 40
0.0
  9
$PLINEWID
 40
0.0
  9
$COORDS
 70
     2
  9
$SPLFRAME
 70
     0
  9
$SPLINETYPE
 70
     6
  9
$SPLINESEGS
 70
     8
  9
$ATTDIA
 70
     0
  9
$ATTREQ
 70
     1
  9
$HANDLING
 70
 22529
  9
$HANDSEED
  5
2CA
  9
$SURFTAB1
 70
     6
  9
$SURFTAB2
 70
     6
  9
$SURFTYPE
 70
     6
  9
$SURFU
 70
     6
  9
$SURFV
 70
     6
  9
$UCSNAME
  2

  9
$UCSORG
 10
0.0
 20
0.0
 30
0.0
  9
$UCSXDIR
 10
1.0
 20
0.0
 30
0.0
  9
$UCSYDIR
 10
0.0
 20
1.0
 30
0.0
  9
$PUCSNAME
  2

  9
$PUCSORG
 10
0.0
 20
0.0
 30
0.0
  9
$PUCSXDIR
 10
1.0
 20
0.0
 30
0.0
  9
$PUCSYDIR
 10
0.0
 20
1.0
 30
0.0
  9
$USERI1
 70
     0
  9
$USERI2
 70
     0
  9
$USERI3
 70
     0
  9
$USERI4
 70
     0
  9
$USERI5
 70
     0
  9
$USERR1
 40
0.0
  9
$USERR2
 40
0.0
  9
$USERR3
 40
0.0
  9
$USERR4
 40
0.0
  9
$USERR5
 40
0.0
  9
$WORLDVIEW
 70
     1
  9
$SHADEDGE
 70
     3
  9
$SHADEDIF
 70
    70
  9
$TILEMODE
 70
     1
  9
$MAXACTVP
 70
    15
  9
$PINSBASE
 10
0.0008545038290322
 20
1.250283272183907
 30
0.0
  9
$PLIMCHECK
 70
     0
  9
$PEXTMIN
 10
1.000000000000000E+20
 20
1.000000000000000E+20
 30
1.000000000000000E+20
  9
$PEXTMAX
 10
-1.000000000000000E+20
 20
-1.000000000000000E+20
 30
-1.000000000000000E+20
  9
$PLIMMIN
 10
0.0
 20
0.0
  9
$PLIMMAX
 10
12.0
 20
9.0
  9
$UNITMODE
 70
     0
  9
$VISRETAIN
 70
     0
  9
$PLINEGEN
 70
     0
  9
$PSLTSCALE
 70
     1
  9
$TREEDEPTH
 70
  3020
  9
$PICKSTYLE
 70
     1
  9
$CMLSTYLE
  2
STANDARD
  9
$CMLJUST
 70
     0
  9
$CMLSCALE
 40
1.0
  9
$PROXYGRAPHICS
 70
     1
  9
$MEASUREMENT
 70
     0
  0
ENDSEC
  0
SECTION
  2
CLASSES
  0
CLASS
  1
ACDBDICTIONARYWDFLT
  2
AcDbDictionaryWithDefault
  3
AutoCAD 2000
 90
        0
280
     0
281
     0
  0
CLASS
  1
ACDBPLACEHOLDER
  2
AcDbPlaceHolder
  3
AutoCAD 2000
 90
        0
280
     0
281
     0
  0
CLASS
  1
LAYOUT
  2
AcDbLayout
  3
AutoCAD 2000
 90
        0
280
     0
281
     0
  0
CLASS
  1
DICTIONARYVAR
  2
AcDbDictionaryVar
  3
AutoCAD 2000
 90
        0
280
     0
281
     0
  0
CLASS
  1
LONG_TRANSACTION
  2
AcDbLongTransaction
  3
AutoCAD 2000
 90
        0
280
     0
281
     0
  0
CLASS
  1
LWPOLYLINE
  2
AcDbPolyline
  3
AutoCAD 2000
 90
        0
280
     0
281
     1
  0
CLASS
  1
HATCH
  2
AcDbHatch
  3
AutoCAD 2000
 90
        0
280
     0
281
     1
  0
CLASS
  1
XRECORD
  2
AcDbXrecord
  3
AutoCAD 2000
 90
        0
280
     0
281
     0
  0
CLASS
  1
LONG_TRANSACTION
  2
AcDbLongTransaction
  3
AutoCAD 2000
 90
        0
280
     0
281
     0
  0
CLASS
  1
LWPOLYLINE
  2
AcDbPolyline
  3
AutoCAD 2000
 90
        0
280
     0
281
     1
  0
CLASS
  1
HATCH
  2
AcDbHatch
  3
AutoCAD 2000
 90
        0
280
     0
281
     1
  0
CLASS
  1
XRECORD
  2
AcDbXrecord
  3
AutoCAD 2000
 90
        0
280
     0
281
     0
  0
CLASS
  1
LONG_TRANSACTION
  2
AcDbLongTransaction
  3
AutoCAD 2000
 90
        0
280
     0
281
     0
  0
CLASS
  1
LWPOLYLINE
  2
AcDbPolyline
  3
AutoCAD 2000
 90
        0
280
     0
281
     1
  0
CLASS
  1
HATCH
  2
AcDbHatch
  3
AutoCAD 2000
 90
        0
280
     0
281
     1
  0
CLASS
  1
XRECORD
  2
AcDbXrecord
  3
AutoCAD 2000
 90
        0
280
     0
281
     0
  0
CLASS
  1
LONG_TRANSACTION
  2
AcDbLongTransaction
  3
AutoCAD 2000
 90
        0
280
     0
281
     0
  0
CLASS
  1
LWPOLYLINE
  2
AcDbPolyline
  3
AutoCAD 2000
 90
        0
280
     0
281
     1
  0
CLASS
  1
HATCH
  2
AcDbHatch
  3
AutoCAD 2000
 90
        0
280
     0
281
     1
  0
CLASS
  1
XRECORD
  2
AcDbXrecord
  3
AutoCAD 2000
 90
        0
280
     0
281
     0
  0
CLASS
  1
LONG_TRANSACTION
  2
AcDbLongTransaction
  3
AutoCAD 2000
 90
        0
280
     0
281
     0
  0
CLASS
  1
LWPOLYLINE
  2
AcDbPolyline
  3
AutoCAD 2000
 90
        0
280
     0
281
     1
  0
CLASS
  1
HATCH
  2
AcDbHatch
  3
AutoCAD 2000
 90
        0
280
     0
281
     1
  0
CLASS
  1
XRECORD
  2
AcDbXrecord
  3
AutoCAD 2000
 90
        0
280
     0
281
     0
  0
CLASS
  1
LONG_TRANSACTION
  2
AcDbLongTransaction
  3
AutoCAD 2000
 90
        0
280
     0
281
     0
  0
CLASS
  1
LWPOLYLINE
  2
AcDbPolyline
  3
AutoCAD 2000
 90
        0
280
     0
281
     1
  0
CLASS
  1
HATCH
  2
AcDbHatch
  3
AutoCAD 2000
 90
        0
280
     0
281
     1
  0
CLASS
  1
XRECORD
  2
AcDbXrecord
  3
AutoCAD 2000
 90
        0
280
     0
281
     0
  0
ENDSEC
  0
SECTION
  2
TABLES
  0
TABLE
  2
VPORT
  5
8
330
0
100
AcDbSymbolTable
 70
     2
  0
VPORT
  5
2A7
330
8
100
AcDbSymbolTableRecord
100
AcDbViewportTableRecord
  2
*ACTIVE
 70
     0
 10
0.0
 20
0.0
 11
1.0
 21
1.0
 12
-81.51334346142709
 22
46.78909914802239
 13
0.0
 23
0.0
 14
0.5740882589684922
 24
0.5740882589684922
 15
0.5
 25
0.5
 16
0.0
 26
0.0
 36
1.0
 17
0.0
 27
0.0
 37
0.0
 40
20.62084521084345
 41
1.570528967254408
 42
50.0
 43
0.0
 44
0.0
 50
0.0
 51
0.0
 71
     0
 72
   100
 73
     1
 74
     0
 75
     0
 76
     0
 77
     0
 78
     0
  0
ENDTAB
  0
TABLE
  2
LTYPE
  5
5
330
0
100
AcDbSymbolTable
 70
     1
  0
LTYPE
  5
12
330
5
100
AcDbSymbolTableRecord
100
AcDbLinetypeTableRecord
  2
BYBLOCK
 70
     0
  3

 72
    65
 73
     0
 40
0.0
  0
LTYPE
  5
13
330
5
100
AcDbSymbolTableRecord
100
AcDbLinetypeTableRecord
  2
BYLAYER
 70
     0
  3

 72
    65
 73
     0
 40
0.0
  0
LTYPE
  5
14
330
5
100
AcDbSymbolTableRecord
100
AcDbLinetypeTableRecord
  2
CONTINUOUS
 70
     0
  3
Solid line
 72
    65
 73
     0
 40
0.0
  0
ENDTAB
  0
TABLE
  2
LAYER
  5
2
330
0
100
AcDbSymbolTable
 70
     4
  0
LAYER
  5
F
330
2
100
AcDbSymbolTableRecord
100
AcDbLayerTableRecord
  2
0
 70
     0
 62
     7
  6
CONTINUOUS
  0
LAYER
  5
73
330
2
100
AcDbSymbolTableRecord
100
AcDbLayerTableRecord
  2
ADP1DETAIL
 70
     0
 62
     7
  6
CONTINUOUS
  0
LAYER
  5
75
330
2
100
AcDbSymbolTableRecord
100
AcDbLayerTableRecord
  2
DEFPOINTS
 70
     0
 62
     7
  6
CONTINUOUS
  0
LAYER
  5
78
330
2
100
AcDbSymbolTableRecord
100
AcDbLayerTableRecord
  2
ADPDIM
 70
     0
 62
     3
  6
CONTINUOUS
  0
ENDTAB
  0
TABLE
  2
STYLE
  5
3
330
0
100
AcDbSymbolTable
 70
     2
  0
STYLE
  5
10
330
3
100
AcDbSymbolTableRecord
100
AcDbTextStyleTableRecord
  2
STANDARD
 70
     0
 40
0.0
 41
1.0
 50
0.0
 71
     0
 42
0.2
  3
txt
  4

  0
STYLE
  5
15F
330
3
100
AcDbSymbolTableRecord
100
AcDbTextStyleTableRecord
  2
ARIAL_WIDE
 70
     0
 40
0.0
 41
1.25
 50
0.0
 71
     0
 42
0.2
  3
ARIAL.TTF
  4

1001
ACAD
1000
Arial
1071
       34
  0
ENDTAB
  0
TABLE
  2
VIEW
  5
6
330
0
100
AcDbSymbolTable
 70
     0
  0
ENDTAB
  0
TABLE
  2
UCS
  5
7
330
0
100
AcDbSymbolTable
 70
     0
  0
ENDTAB
  0
TABLE
  2
APPID
  5
9
330
0
100
AcDbSymbolTable
 70
     1
  0
APPID
  5
11
330
9
100
AcDbSymbolTableRecord
100
AcDbRegAppTableRecord
  2
ACAD
 70
     0
  0
ENDTAB
  0
TABLE
  2
DIMSTYLE
  5
A
330
0
100
AcDbSymbolTable
 70
     1
  0
DIMSTYLE
105
153
330
A
100
AcDbSymbolTableRecord
100
AcDbDimStyleTableRecord
  2
STANDARD
 70
     0
  3

  4

  5

  6

  7

 40
1.0
 41
0.18
 42
0.0625
 43
0.38
 44
0.18
 45
0.0
 46
0.0
 47
0.0
 48
0.0
140
0.18
141
0.09
142
0.0
143
25.4
144
1.0
145
0.0
146
1.0
147
0.09
 71
     0
 72
     0
 73
     1
 74
     1
 75
     0
 76
     0
 77
     0
 78
     0
170
     0
171
     2
172
     0
173
     0
174
     0
175
     0
176
     0
177
     0
178
     0
270
     2
271
     4
272
     4
273
     2
274
     2
340
10
275
     0
280
     0
281
     0
282
     0
283
     1
284
     0
285
     0
286
     0
287
     3
288
     0
  0
ENDTAB
  0
TABLE
  2
BLOCK_RECORD
  5
1
330
0
100
AcDbSymbolTable
 70
     2
  0
BLOCK_RECORD
  5
18
102
{ACAD_XDICTIONARY
360
1B4
102
}
330
1
100
AcDbSymbolTableRecord
100
AcDbBlockTableRecord
  2
*MODEL_SPACE
  0
BLOCK_RECORD
  5
15
102
{ACAD_XDICTIONARY
360
1B2
102
}
330
1
100
AcDbSymbolTableRecord
100
AcDbBlockTableRecord
  2
*PAPER_SPACE
  0
BLOCK_RECORD
  5
6E
330
1
100
AcDbSymbolTableRecord
100
AcDbBlockTableRecord
  2
*D0
  0
BLOCK_RECORD
  5
6F
330
1
100
AcDbSymbolTableRecord
100
AcDbBlockTableRecord
  2
*D1
  0
ENDTAB
  0
ENDSEC
  0
SECTION
  2
BLOCKS
  0
BLOCK
  5
7B
330
18
100
AcDbEntity
  8
0
100
AcDbBlockBegin
  2
*MODEL_SPACE
 70
     0
 10
0.0
 20
0.0
 30
0.0
  3
*MODEL_SPACE
  1

  0
ENDBLK
  5
7C
330
18
100
AcDbEntity
  8
0
100
AcDbBlockEnd
  0
BLOCK
  5
79
330
15
100
AcDbEntity
 67
     1
  8
0
100
AcDbBlockBegin
  2
*PAPER_SPACE
 70
     0
 10
0.0
 20
0.0
 30
0.0
  3
*PAPER_SPACE
  1

  0
ENDBLK
  5
7A
330
15
100
AcDbEntity
 67
     1
  8
0
100
AcDbBlockEnd
  0
BLOCK
  5
7E
330
6E
100
AcDbEntity
  8
0
100
AcDbBlockBegin
  2
*D0
 70
     1
 10
0.0
 20
0.0
 30
0.0
  3
*D0
  1

  0
LINE
  5
7F
330
6E
100
AcDbEntity
  8
0
  6
BYBLOCK
 62
     0
100
AcDbLine
 10
-84.87374306479251
 20
42.49075798531534
 30
0.0
 11
-84.87374306479251
 21
41.74180143355109
 31
0.0
  0
LINE
  5
80
330
6E
100
AcDbEntity
  8
0
  6
BYBLOCK
 62
     0
100
AcDbLine
 10
-78.43545751083464
 20
52.12770391719993
 30
0.0
 11
-78.43545751083464
 21
41.74180143355109
 31
0.0
  0
LINE
  5
81
330
6E
100
AcDbEntity
  8
0
  6
BYBLOCK
 62
     0
100
AcDbLine
 10
-84.87374306479251
 20
41.92180143355109
 30
0.0
 11
-82.11293362114691
 21
41.92180143355109
 31
0.0
  0
LINE
  5
82
330
6E
100
AcDbEntity
  8
0
  6
BYBLOCK
 62
     0
100
AcDbLine
 10
-78.43545751083464
 20
41.92180143355109
 30
0.0
 11
-81.19626695448024
 21
41.92180143355109
 31
0.0
  0
LINE
  5
83
330
6E
100
AcDbEntity
  8
0
  6
BYBLOCK
 62
     0
100
AcDbLine
 10
-84.99874306479252
 20
41.79680143355109
 30
0.0
 11
-84.74874306479252
 21
42.04680143355109
 31
0.0
  0
LINE
  5
84
330
6E
100
AcDbEntity
  8
0
  6
BYBLOCK
 62
     0
100
AcDbLine
 10
-78.56045751083463
 20
41.79680143355109
 30
0.0
 11
-78.31045751083464
 21
42.04680143355109
 31
0.0
  0
TEXT
  5
85
330
6E
100
AcDbEntity
  8
0
  6
BYBLOCK
 62
     0
100
AcDbText
 10
-81.9879336211469
 20
41.85930143355109
 30
0.0
 40
0.125
  1
6 7/16
 72
     1
 11
-81.65460028781359
 21
41.92180143355109
 31
0.0
100
AcDbText
 73
     2
  0
POINT
  5
86
330
6E
100
AcDbEntity
  8
DEFPOINTS
  6
BYBLOCK
 62
     0
100
AcDbPoint
 10
-84.87374306479251
 20
42.55325798531534
 30
0.0
  0
POINT
  5
87
330
6E
100
AcDbEntity
  8
DEFPOINTS
  6
BYBLOCK
 62
     0
100
AcDbPoint
 10
-78.43545751083464
 20
52.19020391719993
 30
0.0
  0
POINT
  5
88
330
6E
100
AcDbEntity
  8
DEFPOINTS
  6
BYBLOCK
 62
     0
100
AcDbPoint
 10
-78.43545751083464
 20
41.92180143355109
 30
0.0
  0
ENDBLK
  5
89
330
6E
100
AcDbEntity
  8
0
100
AcDbBlockEnd
  0
BLOCK
  5
8A
330
6F
100
AcDbEntity
  8
0
100
AcDbBlockBegin
  2
*D1
 70
     1
 10
0.0
 20
0.0
 30
0.0
  3
*D1
  1

  0
LINE
  5
8B
330
6F
100
AcDbEntity
  8
0
  6
BYBLOCK
 62
     0
100
AcDbLine
 10
-84.93624306479253
 20
42.55325798531534
 30
0.0
 11
-85.88484458981964
 21
42.55325798531534
 31
0.0
  0
LINE
  5
8C
330
6F
100
AcDbEntity
  8
0
  6
BYBLOCK
 62
     0
100
AcDbLine
 10
-82.52909291328675
 20
53.30325798531534
 30
0.0
 11
-85.88484458981964
 21
53.30325798531534
 31
0.0
  0
LINE
  5
8D
330
6F
100
AcDbEntity
  8
0
  6
BYBLOCK
 62
     0
100
AcDbLine
 10
-85.70484458981963
 20
42.55325798531534
 30
0.0
 11
-85.70484458981963
 21
47.48034131864868
 31
0.0
  0
LINE
  5
8E
330
6F
100
AcDbEntity
  8
0
  6
BYBLOCK
 62
     0
100
AcDbLine
 10
-85.70484458981963
 20
53.30325798531534
 30
0.0
 11
-85.70484458981963
 21
48.376174651982
 31
0.0
  0
LINE
  5
8F
330
6F
100
AcDbEntity
  8
0
  6
BYBLOCK
 62
     0
100
AcDbLine
 10
-85.57984458981962
 20
42.42825798531534
 30
0.0
 11
-85.82984458981963
 21
42.67825798531534
 31
0.0
  0
LINE
  5
90
330
6F
100
AcDbEntity
  8
0
  6
BYBLOCK
 62
     0
100
AcDbLine
 10
-85.57984458981962
 20
53.17825798531534
 30
0.0
 11
-85.82984458981963
 21
53.42825798531534
 31
0.0
  0
TEXT
  5
91
330
6F
100
AcDbEntity
  8
0
  6
BYBLOCK
 62
     0
100
AcDbText
 10
-85.64234458981962
 20
47.60534131864868
 30
0.0
 40
0.125
  1
10 3/4
 50
90.0
 72
     1
 11
-85.70484458981963
 21
47.92825798531533
 31
0.0
100
AcDbText
 73
     2
  0
POINT
  5
92
330
6F
100
AcDbEntity
  8
DEFPOINTS
  6
BYBLOCK
 62
     0
100
AcDbPoint
 10
-84.87374306479251
 20
42.55325798531534
 30
0.0
  0
POINT
  5
93
330
6F
100
AcDbEntity
  8
DEFPOINTS
  6
BYBLOCK
 62
     0
100
AcDbPoint
 10
-82.46659291328676
 20
53.30325798531534
 30
0.0
  0
POINT
  5
94
330
6F
100
AcDbEntity
  8
DEFPOINTS
  6
BYBLOCK
 62
     0
100
AcDbPoint
 10
-85.70484458981963
 20
53.30325798531534
 30
0.0
  0
ENDBLK
  5
95
330
6F
100
AcDbEntity
  8
0
100
AcDbBlockEnd
  0
ENDSEC
  0
SECTION
  2
ENTITIES
  0
LWPOLYLINE
  5
96
330
18
100
AcDbEntity
  8
ADP1DETAIL
100
AcDbPolyline
 90
        3
 70
     0
 43
0.0
 10
-83.9265184122264
 20
45.88577360928456
 42
0.1759082850242796
 10
-84.87374306479251
 20
42.55325798531534
 10
-84.27140830849541
 20
42.55183794535077
  0
LWPOLYLINE
  5
9B
330
18
100
AcDbEntity
  8
ADP1DETAIL
100
AcDbPolyline
 90
       18
 70
     0
 43
0.0
 10
-83.53564319645485
 20
45.63285435202061
 42
-0.3459744276019047
 10
-80.7305387068002
 20
44.80511860097498
 42
-0.4148716527413887
 10
-81.07542860306921
 20
42.78176454286344
 42
-0.4902027302744929
 10
-82.43199552839399
 20
43.19563241838625
 42
-0.4331013630581199
 10
-81.94914967361738
 20
44.18431678769076
 42
-0.5422889426759362
 10
-81.39732583958695
 20
43.72446359266541
 42
-0.3245612571366661
 10
-81.67323775660218
 20
43.42555901589893
 42
-0.979254539556954
 10
-81.76520839560724
 20
43.83942689142173
 42
0.7166494083191031
 10
-82.20206893088132
 20
43.47154433540146
 42
0.6399536753513662
 10
-81.07542860306921
 20
43.17263975863498
 42
0.4405399959141552
 10
-81.32834786033317
 20
44.98905987898512
 42
0.2253999852597447
 10
-83.19075330018582
 20
45.28796445575159
 42
-0.4439784317922451
 10
-83.07579000142949
 20
44.64416998271611
 42
0.4218084093211541
 10
-84.34038628774921
 20
44.18431678769076
 42
-0.8443654562474288
 10
-83.60462117570865
 20
44.02336816943189
 42
0.3886601429531015
 10
-84.45534958650554
 20
43.47154433540146
 42
-0.7418751302767927
 10
-83.97250373172893
 20
43.35658103664512
 42
0.2871020584826902
 10
-84.27140830849541
 20
42.55183794535077
 42
0.3773068847316267
  0
LWPOLYLINE
  5
AF
330
18
100
AcDbEntity
  8
ADP1DETAIL
100
AcDbPolyline
 90
       11
 70
     0
 43
0.0
 10
-79.68816698614961
 20
46.48103838618014
 42
-0.2797574204558075
 10
-79.288747635171
 20
45.75710315075352
 42
-0.4321241369119836
 10
-79.67604792008183
 20
45.42175975971983
 42
-0.8406222246174188
 10
-79.69329680047028
 20
45.66570022642571
 42
0.584092087156064
 10
-79.91175722579336
 20
45.97320755588035
 42
0.0085216396696612
 10
-80.12505275167205
 20
45.9472256316378
 42
0.0411513105681509
 10
-80.97627707528515
 20
45.75641609799603
 42
-0.3962678575158986
 10
-81.66541206309394
 20
46.09083728972931
 42
0.1759419294109441
 10
-81.87053933225962
 20
46.32816681311137
 42
0.151483505460356
 10
-82.54695882715035
 20
46.18467818605104
 42
0.0776796853637041
 10
-83.53564319645485
 20
45.63285435202061
 42
-1.000000200393059
  0
DIMENSION
  5
BC
330
18
100
AcDbEntity
  8
ADPDIM
100
AcDbDimension
  2
*D1
 10
-85.70484458981963
 20
53.30325798531534
 30
0.0
 11
-85.70484458981963
 21
47.92825798531533
 31
0.0
100
AcDbAlignedDimension
 13
-84.87374306479251
 23
42.55325798531534
 33
0.0
 14
-82.46659291328676
 24
53.30325798531534
 34
0.0
 50
90.0
100
AcDbRotatedDimension
  0
DIMENSION
  5
BD
330
18
100
AcDbEntity
  8
ADPDIM
100
AcDbDimension
  2
*D0
 10
-78.43545751083464
 20
41.92180143355109
 30
0.0
 11
-81.65460028781359
 21
41.92180143355109
 31
0.0
100
AcDbAlignedDimension
 13
-84.87374306479251
 23
42.55325798531534
 33
0.0
 14
-78.43545751083464
 24
52.19020391719993
 34
0.0
100
AcDbRotatedDimension
  0
LWPOLYLINE
  5
BE
330
18
100
AcDbEntity
  8
ADP1DETAIL
100
AcDbPolyline
 90
        3
 70
     0
 43
0.0
 10
-82.07677837136788
 20
51.96288638361282
 10
-81.24772225053739
 20
52.11931206678839
 42
-0.3831394311863961
 10
-81.30032179325548
 20
51.42221574048414
  0
LWPOLYLINE
  5
C3
330
18
100
AcDbEntity
  8
ADP1DETAIL
100
AcDbPolyline
 90
        3
 70
     0
 43
0.0
 10
-82.18392790739668
 20
52.20495845110459
 10
-81.55071787346821
 20
52.74931496561171
 42
-0.3831394311863963
 10
-81.24772225053739
 20
52.11931206678839
  0
CIRCLE
  5
C8
330
18
100
AcDbEntity
  8
ADP1DETAIL
100
AcDbCircle
 10
-82.57309798142157
 20
51.8879481155931
 30
0.0
 40
0.501945115861913
  0
LWPOLYLINE
  5
C9
330
18
100
AcDbEntity
  8
ADP1DETAIL
100
AcDbPolyline
 90
        3
 70
     0
 43
0.0
 10
-82.4026744779387
 20
52.36007598894762
 10
-82.12812122957346
 20
53.14341566898514
 42
-0.3831394311863983
 10
-81.55071787346821
 20
52.74931496561171
  0
LWPOLYLINE
  5
CE
330
18
100
AcDbEntity
  8
ADP1DETAIL
100
AcDbPolyline
 90
        3
 70
     0
 43
0.0
 10
-82.25640211960039
 20
51.49852208867274
 10
-81.69442249662889
 20
50.8448123843789
 42
-0.38313943118638
 10
-82.32442539545221
 20
50.54181676144806
  0
LWPOLYLINE
  5
D3
330
18
100
AcDbEntity
  8
ADP1DETAIL
100
AcDbPolyline
 90
        3
 70
     0
 43
0.0
 10
-82.10585767980603
 20
51.70454855211527
 10
-81.30032179325548
 20
51.42221574048414
 42
-0.3831394311864034
 10
-81.69442249662889
 20
50.8448123843789
  0
LWPOLYLINE
  5
D8
330
18
100
AcDbEntity
  8
ADP1DETAIL
100
AcDbPolyline
 90
       10
 70
     0
 43
0.0
 10
-81.24004549122073
 20
52.29021047319971
 10
-80.53968295538934
 20
52.29021047319971
 42
-0.2068695980659357
 10
-80.01083768226537
 20
52.06162409392244
 42
0.0637192107826862
 10
-79.52487181245889
 20
51.6615981109788
 42
0.3232266625253566
 10
-79.18432356030547
 20
51.69017149878427
 10
-79.00606461217255
 20
52.20449055083879
 10
-78.43545751083464
 20
52.19020391719993
 42
-0.1590877325323984
 10
-78.73867630754162
 20
51.0868665095666
 42
-0.066087508150458
 10
-79.96795845422915
 20
49.26144221331706
 42
-0.0943620843818047
 10
-83.01239153245793
 20
46.51840686726713
 42
3.577054926970503
  0
LWPOLYLINE
  5
E4
330
18
100
AcDbEntity
  8
ADP1DETAIL
100
AcDbPolyline
 90
       21
 70
     0
 43
0.0
 10
-81.95470116149127
 20
47.8899245402921
 42
0.1369878034955487
 10
-81.11140745654953
 20
48.8757028640123
 42
0.584501873046742
 10
-81.58308019191684
 20
49.53288837298319
 42
0.5622393645188611
 10
-81.68313195770972
 20
49.31858874787251
 42
-0.2901809115754737
 10
-81.66883882327056
 20
48.68997650617934
 42
-0.1065109350593347
 10
-82.95521899470129
 20
47.00415265204394
 10
-83.51265053670358
 20
46.57555340182258
 10
-83.51265053670358
 20
47.56133172554278
 42
0.5546703990866869
 10
-82.84087409446925
 20
47.56133172554278
 42
0.6151323696741322
 10
-82.96951212914047
 20
48.64711660526275
 42
0.3459248915547703
 10
-83.75563347160682
 20
48.38995695870777
 42
0.3769158946885671
 10
-83.97003013763173
 20
50.43294689487021
 42
0.2531377405421217
 10
-84.69897894234145
 20
50.61867325270316
 42
0.7796486356694925
 10
-84.69897894234145
 20
50.24722053703726
 42
-0.4039142426200172
 10
-84.58463404210942
 20
49.63289492898296
 42
0.3939045194755995
 10
-84.59892700126733
 20
48.11851079904164
 42
0.6091879730947741
 10
-84.74185817037769
 20
47.07558594076599
 42
0.3541565841767345
 10
-84.11296130674209
 20
47.11844584168257
 42
-0.542195843797301
 10
-83.82709896852137
 20
47.04701267348825
 42
-0.2382870160676131
 10
-83.86997837183887
 20
46.73270649237781
 10
-83.9265184122264
 20
45.88577360928456
  0
LWPOLYLINE
  5
FB
330
18
100
AcDbEntity
  8
ADP1DETAIL
100
AcDbPolyline
 90
       10
 70
     0
 43
0.0
 10
-83.01239153245793
 20
46.51840686726713
 10
-82.2514607548438
 20
46.64843471923247
 42
0.1232219073343299
 10
-81.72782535639255
 20
46.87880066516925
 42
-0.1553204886115531
 10
-81.44540084414083
 20
47.38326716160829
 42
-0.1395456514595502
 10
-80.84159795102889
 20
47.49798431668484
 42
0.1501332051253366
 10
-80.12154394622241
 20
47.46028165378096
 42
0.5688125666465952
 10
-79.89208031492975
 20
47.70746857882373
 42
0.0496026872800406
 10
-79.97420547700833
 20
47.90999861430767
 42
-0.6471915159302311
 10
-79.88053650816516
 20
48.02959038546217
 42
-0.5320753588525675
 10
-79.78079035512905
 20
47.04512903460944
 42
3.867362276860605
  0
LWPOLYLINE
  5
107
330
18
100
AcDbEntity
  8
ADP1DETAIL
100
AcDbPolyline
 90
        3
 70
     0
 43
0.0
 10
-82.66882344516762
 20
52.37812045005171
 10
-82.82521755587771
 20
53.19601521170321
 42
-0.3831394311863966
 10
-82.12812122957346
 20
53.14341566898514
  0
LWPOLYLINE
  5
10C
330
18
100
AcDbEntity
  8
ADP1DETAIL
100
AcDbPolyline
 90
        3
 70
     0
 43
0.0
 10
-83.05259698653919
 20
52.03637184492511
 10
-83.84932115807446
 20
52.31561623266713
 42
-0.3831394311863934
 10
-83.45522045470104
 20
52.89301958877238
  0
LWPOLYLINE
  5
111
330
18
100
AcDbEntity
  8
ADP1DETAIL
100
AcDbPolyline
 90
        3
 70
     0
 43
0.0
 10
-82.91059259578707
 20
52.25949391978405
 10
-83.45522045470104
 20
52.89301958877238
 42
-0.3831394311863923
 10
-82.82521755587771
 20
53.19601521170321
  0
LWPOLYLINE
  5
116
330
18
100
AcDbEntity
  8
ADP1DETAIL
100
AcDbPolyline
 90
        3
 70
     0
 43
0.0
 10
-84.28447856944954
 20
48.34709705779117
 42
-0.1604821641243519
 10
-84.14154740033916
 20
49.732901364455
 42
0.1693235789715034
 10
-84.02720250010714
 20
48.01850436356959
 42
0.6614270344946487
  0
LWPOLYLINE
  5
11B
330
18
100
AcDbEntity
  8
ADP1DETAIL
100
AcDbPolyline
 90
        4
 70
     0
 43
0.0
 10
-83.86997837183887
 20
47.38989200134869
 42
0.4409447072017441
 10
-84.59892700126733
 20
47.71848481609801
 42
0.4796161699864479
 10
-84.71327190149935
 20
47.30417219951553
 42
0.3926772485782423
 10
-84.42740973855988
 20
47.24702566496007
 42
0.559194121086701
  0
LWPOLYLINE
  5
121
330
18
100
AcDbEntity
  8
ADP1DETAIL
100
AcDbPolyline
 90
        3
 70
     0
 43
0.0
 10
-83.52632658047342
 20
47.56210340691632
 10
-83.52632658047342
 20
47.88761831119288
 42
-1.618033988749888
 10
-83.07561363609046
 20
47.66226183900141
 42
2.063384739074439
  0
LWPOLYLINE
  5
126
330
18
100
AcDbEntity
  8
ADP1DETAIL
100
AcDbPolyline
 90
        3
 70
     0
 43
0.0
 10
-82.48517022079436
 20
51.39376433576144
 10
-82.32442539545221
 20
50.54181676144806
 42
-0.3331860747885969
 10
-83.05057402806919
 20
50.56685636946932
  0
LWPOLYLINE
  5
12B
330
18
100
AcDbEntity
  8
ADP1DETAIL
100
AcDbPolyline
 90
        3
 70
     0
 43
0.0
 10
-82.73470976988912
 20
51.41273181834947
 10
-83.02152172175647
 20
50.59441630416614
 42
-0.3831394311863879
 10
-83.5989250778617
 20
50.98851700753955
  0
LWPOLYLINE
  5
130
330
18
100
AcDbEntity
  8
ADP1DETAIL
100
AcDbPolyline
 90
        3
 70
     0
 43
0.0
 10
-82.94491629138889
 20
51.55075374477611
 10
-83.5989250778617
 20
50.98851700753955
 42
-0.3831394311863985
 10
-83.90192070079255
 20
51.61851990636289
  0
LWPOLYLINE
  5
135
330
18
100
AcDbEntity
  8
ADP1DETAIL
100
AcDbPolyline
 90
        3
 70
     0
 43
0.0
 10
-83.06260103667639
 20
51.77688210713952
 10
-83.90192070079255
 20
51.61851990636289
 42
-0.3831394311863969
 10
-83.84932115807446
 20
52.31561623266713
  0
LWPOLYLINE
  5
13A
330
18
100
AcDbEntity
  8
ADP1DETAIL
100
AcDbPolyline
 90
        6
 70
     0
 43
0.0
 10
-81.15428685986701
 20
51.86161110245063
 10
-80.59685531786474
 20
51.87589785661721
 42
-0.2359724501246107
 10
-80.23952748272945
 20
51.79017793425631
 42
-0.1378219222622852
 10
-79.78214788180131
 20
51.11870579164655
 42
-0.1634583331642314
 10
-79.78214788180131
 20
50.27579380431498
 42
-0.0291226485776122
 10
-81.24004549122073
 20
48.58997007070731
 42
2.366724417831518
  0
LWPOLYLINE
  5
142
330
18
100
AcDbEntity
  8
ADP1DETAIL
100
AcDbPolyline
 90
       10
 70
     0
 43
0.0
 10
-80.88797632682135
 20
47.05290667456694
 42
0.0533953325961015
 10
-81.19085677928712
 20
47.03898868662388
 42
0.9999999999999996
 10
-80.99835387466612
 20
46.94468262000697
 42
-0.3877938508805039
 10
-79.72266487413382
 20
46.96891905005613
 42
0.1220442415295134
 10
-79.49674500620722
 20
46.85187763594312
 42
0.1293913532655208
 10
-79.69954230268827
 20
46.46433498034563
 42
-0.293577198977297
 10
-80.56018410322129
 20
46.16994082896227
 42
0.046403389728177
 10
-80.85968898313874
 20
46.21483308162348
 42
0.3331887055140079
 10
-81.12115236141006
 20
46.13607285843826
 42
0.5997278435957814
 10
-80.84031375040888
 20
46.18942968540486
 42
-0.5997278435957823
  0
LWPOLYLINE
  5
14E
330
18
100
AcDbEntity
  8
ADP1DETAIL
100
AcDbPolyline
 90
        3
 70
     0
 43
0.0
 10
-81.72782535639255
 20
46.87880066516925
 42
0.3078564825504875
 10
-81.15298346845868
 20
46.60991811222594
 42
0.1012423437766095
 10
-81.67412074840113
 20
46.06009832268028
 42
2.281374115986348
  0
TEXT
  5
160
330
18
100
AcDbEntity
  8
ADPDIM
100
AcDbText
 10
-97.62634055722053
 20
40.24121089212578
 30
0.0
 40
0.3125
  1
J U L I U S  B L U M  &  C O . ,  I N C .      ( 8 0 0 )  5 2 6 - 6 2 9 3        W W W . J U L I U S B L U M . C O M        P A R T  N o .  5 2 4
 41
1.25
  7
ARIAL_WIDE
 72
     1
 11
-81.53957171342787
 21
40.55371089212578
 31
0.0
100
AcDbText
 73
     3
  0
ENDSEC
  0
SECTION
  2
OBJECTS
  0
DICTIONARY
  5
C
330
0
100
AcDbDictionary
  3
ACAD_GROUP
350
D
  3
ACAD_LAYOUT
350
159
  3
ACAD_MLINESTYLE
350
E
  3
ACAD_PLOTSETTINGS
350
15A
  3
ACAD_PLOTSTYLENAME
350
157
  3
ACDBHEADERROUNDTRIPXREC
350
2A8
  3
ACDBVARIABLEDICTIONARY
350
1BA
  0
DICTIONARY
  5
1B4
330
18
100
AcDbDictionary
280
     1
  3
ACAD_LAYOUTSELFREF
360
2C9
  0
DICTIONARY
  5
1B2
330
15
100
AcDbDictionary
280
     1
  3
ACAD_LAYOUTSELFREF
360
2C8
  0
DICTIONARY
  5
D
102
{ACAD_REACTORS
330
C
102
}
330
C
100
AcDbDictionary
  0
DICTIONARY
  5
159
102
{ACAD_REACTORS
330
C
102
}
330
C
100
AcDbDictionary
  0
DICTIONARY
  5
E
102
{ACAD_REACTORS
330
C
102
}
330
C
100
AcDbDictionary
  3
STANDARD
350
1B
  0
DICTIONARY
  5
15A
102
{ACAD_REACTORS
330
C
102
}
330
C
100
AcDbDictionary
  0
ACDBDICTIONARYWDFLT
  5
157
102
{ACAD_REACTORS
330
C
102
}
330
C
100
AcDbDictionary
281
     1
  3
Normal
350
158
100
AcDbDictionaryWithDefault
340
158
  0
DICTIONARY
  5
2A8
102
{ACAD_REACTORS
330
C
102
}
330
C
100
AcDbDictionary
  3
CEPSNTYPE
350
2B2
  3
FINGERPRINTGUID
350
2B3
  3
HYPERLINKBASE
350
2AB
  3
INSUNITS
350
2B1
  3
LAYOUTDICT
350
2AD
  3
LWETCUNION
350
2B0
  3
PLOTSETDICT
350
2AE
  3
PLOTSTYLNAMDICT
350
2AF
  3
PSVPSCALE
350
2B5
  3
PUCSBASE
350
2B8
  3
PUCSORGBACK
350
2BE
  3
PUCSORGBOTTOM
350
2BA
  3
PUCSORGFRONT
350
2BD
  3
PUCSORGLEFT
350
2BB
  3
PUCSORGRIGHT
350
2BC
  3
PUCSORGTOP
350
2B9
  3
PUCSORTHOREF
350
2B6
  3
PUCSORTHOVIEW
350
2B7
  3
STYLESHEET
350
2AC
  3
TSTACKALIGN
350
2A9
  3
TSTACKSIZE
350
2AA
  3
UCSBASE
350
2C1
  3
UCSORGBACK
350
2C7
  3
UCSORGBOTTOM
350
2C3
  3
UCSORGFRONT
350
2C6
  3
UCSORGLEFT
350
2C4
  3
UCSORGRIGHT
350
2C5
  3
UCSORGTOP
350
2C2
  3
UCSORTHOREF
350
2BF
  3
UCSORTHOVIEW
350
2C0
  3
VERSIONGUID
350
2B4
  0
DICTIONARY
  5
1BA
102
{ACAD_REACTORS
330
C
102
}
330
C
100
AcDbDictionary
  3
DIMASSOC
350
1BB
  0
XRECORD
  5
2C9
102
{ACAD_REACTORS
330
1B4
102
}
330
1B4
100
AcDbXrecord
340
18
  0
XRECORD
  5
2C8
102
{ACAD_REACTORS
330
1B2
102
}
330
1B2
100
AcDbXrecord
340
15
  0
MLINESTYLE
  5
1B
102
{ACAD_REACTORS
330
E
102
}
330
E
100
AcDbMlineStyle
  2
STANDARD
 70
     0
  3

 62
     0
 51
90.0
 52
90.0
 71
     2
 49
0.5
 62
   256
  6
BYLAYER
 49
-0.5
 62
   256
  6
BYLAYER
  0
ACDBPLACEHOLDER
  5
158
102
{ACAD_REACTORS
330
157
102
}
330
157
100
AcDbPlaceHolder
280
     0
  0
XRECORD
  5
2B2
102
{ACAD_REACTORS
330
2A8
102
}
330
2A8
100
AcDbXrecord
 90
        0
  0
XRECORD
  5
2B3
102
{ACAD_REACTORS
330
2A8
102
}
330
2A8
100
AcDbXrecord
  1
{2CDE9C4E-15FF-4DCB-A6BC-C35F72C6519F}
  0
XRECORD
  5
2AB
102
{ACAD_REACTORS
330
2A8
102
}
330
2A8
100
AcDbXrecord
  1

  0
XRECORD
  5
2B1
102
{ACAD_REACTORS
330
2A8
102
}
330
2A8
100
AcDbXrecord
 90
        0
  0
XRECORD
  5
2AD
102
{ACAD_REACTORS
330
2A8
102
}
330
2A8
100
AcDbXrecord
340
159
  0
XRECORD
  5
2B0
102
{ACAD_REACTORS
330
2A8
102
}
330
2A8
100
AcDbXrecord
 90
    14877
  0
XRECORD
  5
2AE
102
{ACAD_REACTORS
330
2A8
102
}
330
2A8
100
AcDbXrecord
340
15A
  0
XRECORD
  5
2AF
102
{ACAD_REACTORS
330
2A8
102
}
330
2A8
100
AcDbXrecord
340
157
  0
XRECORD
  5
2B5
102
{ACAD_REACTORS
330
2A8
102
}
330
2A8
100
AcDbXrecord
 40
0.0
  0
XRECORD
  5
2B8
102
{ACAD_REACTORS
330
2A8
102
}
330
2A8
100
AcDbXrecord
340
0
  0
XRECORD
  5
2BE
102
{ACAD_REACTORS
330
2A8
102
}
330
2A8
100
AcDbXrecord
 10
0.0
 20
0.0
 30
0.0
  0
XRECORD
  5
2BA
102
{ACAD_REACTORS
330
2A8
102
}
330
2A8
100
AcDbXrecord
 10
0.0
 20
0.0
 30
0.0
  0
XRECORD
  5
2BD
102
{ACAD_REACTORS
330
2A8
102
}
330
2A8
100
AcDbXrecord
 10
0.0
 20
0.0
 30
0.0
  0
XRECORD
  5
2BB
102
{ACAD_REACTORS
330
2A8
102
}
330
2A8
100
AcDbXrecord
 10
0.0
 20
0.0
 30
0.0
  0
XRECORD
  5
2BC
102
{ACAD_REACTORS
330
2A8
102
}
330
2A8
100
AcDbXrecord
 10
0.0
 20
0.0
 30
0.0
  0
XRECORD
  5
2B9
102
{ACAD_REACTORS
330
2A8
102
}
330
2A8
100
AcDbXrecord
 10
0.0
 20
0.0
 30
0.0
  0
XRECORD
  5
2B6
102
{ACAD_REACTORS
330
2A8
102
}
330
2A8
100
AcDbXrecord
340
0
  0
XRECORD
  5
2B7
102
{ACAD_REACTORS
330
2A8
102
}
330
2A8
100
AcDbXrecord
 70
     0
  0
XRECORD
  5
2AC
102
{ACAD_REACTORS
330
2A8
102
}
330
2A8
100
AcDbXrecord
  1

  0
XRECORD
  5
2A9
102
{ACAD_REACTORS
330
2A8
102
}
330
2A8
100
AcDbXrecord
 90
        1
  0
XRECORD
  5
2AA
102
{ACAD_REACTORS
330
2A8
102
}
330
2A8
100
AcDbXrecord
 90
       70
  0
XRECORD
  5
2C1
102
{ACAD_REACTORS
330
2A8
102
}
330
2A8
100
AcDbXrecord
340
0
  0
XRECORD
  5
2C7
102
{ACAD_REACTORS
330
2A8
102
}
330
2A8
100
AcDbXrecord
 10
0.0
 20
0.0
 30
0.0
  0
XRECORD
  5
2C3
102
{ACAD_REACTORS
330
2A8
102
}
330
2A8
100
AcDbXrecord
 10
0.0
 20
0.0
 30
0.0
  0
XRECORD
  5
2C6
102
{ACAD_REACTORS
330
2A8
102
}
330
2A8
100
AcDbXrecord
 10
0.0
 20
0.0
 30
0.0
  0
XRECORD
  5
2C4
102
{ACAD_REACTORS
330
2A8
102
}
330
2A8
100
AcDbXrecord
 10
0.0
 20
0.0
 30
0.0
  0
XRECORD
  5
2C5
102
{ACAD_REACTORS
330
2A8
102
}
330
2A8
100
AcDbXrecord
 10
0.0
 20
0.0
 30
0.0
  0
XRECORD
  5
2C2
102
{ACAD_REACTORS
330
2A8
102
}
330
2A8
100
AcDbXrecord
 10
0.0
 20
0.0
 30
0.0
  0
XRECORD
  5
2BF
102
{ACAD_REACTORS
330
2A8
102
}
330
2A8
100
AcDbXrecord
340
0
  0
XRECORD
  5
2C0
102
{ACAD_REACTORS
330
2A8
102
}
330
2A8
100
AcDbXrecord
 70
     0
  0
XRECORD
  5
2B4
102
{ACAD_REACTORS
330
2A8
102
}
330
2A8
100
AcDbXrecord
  1
{8E687CF5-8189-46E5-9852-A00B03F2EFAA}
  0
DICTIONARYVAR
  5
1BB
102
{ACAD_REACTORS
330
1BA
102
}
330
1BA
100
DictionaryVariables
280
     0
  1
1
  0
ENDSEC
  0
EOF
