  0
SECTION
  2
HEADER
  9
$ACADVER
  1
AC1015
  9
$ACADMAINTVER
 70
    20
  9
$DWGCODEPAGE
  3
ANSI_1252
  9
$INSBASE
 10
12.19283349755493
 20
13.70527538026772
 30
0.0
  9
$EXTMIN
 10
5.94944568569285
 20
12.11500374845928
 30
-0.0015258207003583
  9
$EXTMAX
 10
19.35421579635174
 20
16.81342119513755
 30
0.0000000349246037
  9
$LIMMIN
 10
-23.61579290080726
 20
-21.96805058542325
  9
$LIMMAX
 10
-4.61579290080726
 20
2.031949414576754
  9
$ORTHOMODE
 70
     1
  9
$REGENMODE
 70
     1
  9
$FILLMODE
 70
     1
  9
$QTEXTMODE
 70
     0
  9
$MIRRTEXT
 70
     1
  9
$LTSCALE
 40
1.0
  9
$ATTMODE
 70
     1
  9
$TEXTSIZE
 40
0.2
  9
$TRACEWID
 40
0.125
  9
$TEXTSTYLE
  7
STANDARD
  9
$CLAYER
  8
ADPDIM
  9
$CELTYPE
  6
CONTINUOUS
  9
$CECOLOR
 62
   256
  9
$CELTSCALE
 40
1.0
  9
$DISPSILH
 70
     0
  9
$DIMSCALE
 40
1.0
  9
$DIMASZ
 40
0.1875
  9
$DIMEXO
 40
0.0625
  9
$DIMDLI
 40
0.375
  9
$DIMRND
 40
0.0
  9
$DIMDLE
 40
0.0
  9
$DIMEXE
 40
0.1875
  9
$DIMTP
 40
0.0
  9
$DIMTM
 40
0.0
  9
$DIMTXT
 40
0.18
  9
$DIMCEN
 40
0.09375
  9
$DIMTSZ
 40
0.0
  9
$DIMTOL
 70
     0
  9
$DIMLIM
 70
     0
  9
$DIMTIH
 70
     1
  9
$DIMTOH
 70
     1
  9
$DIMSE1
 70
     0
  9
$DIMSE2
 70
     0
  9
$DIMTAD
 70
     0
  9
$DIMZIN
 70
     2
  9
$DIMBLK
  1

  9
$DIMASO
 70
     1
  9
$DIMSHO
 70
     1
  9
$DIMPOST
  1

  9
$DIMAPOST
  1

  9
$DIMALT
 70
     0
  9
$DIMALTD
 70
     2
  9
$DIMALTF
 40
25.4
  9
$DIMLFAC
 40
1.0
  9
$DIMTOFL
 70
     0
  9
$DIMTVP
 40
0.0
  9
$DIMTIX
 70
     0
  9
$DIMSOXD
 70
     0
  9
$DIMSAH
 70
     1
  9
$DIMBLK1
  1
OBLIQUE
  9
$DIMBLK2
  1
OBLIQUE
  9
$DIMSTYLE
  2
STANDARD
  9
$DIMCLRD
 70
     0
  9
$DIMCLRE
 70
     0
  9
$DIMCLRT
 70
     0
  9
$DIMTFAC
 40
1.0
  9
$DIMGAP
 40
0.09375
  9
$DIMJUST
 70
     0
  9
$DIMSD1
 70
     0
  9
$DIMSD2
 70
     0
  9
$DIMTOLJ
 70
     1
  9
$DIMTZIN
 70
     0
  9
$DIMALTZ
 70
     0
  9
$DIMALTTZ
 70
     0
  9
$DIMUPT
 70
     0
  9
$DIMDEC
 70
     3
  9
$DIMTDEC
 70
     4
  9
$DIMALTU
 70
     2
  9
$DIMALTTD
 70
     2
  9
$DIMTXSTY
  7
STANDARD
  9
$DIMAUNIT
 70
     0
  9
$DIMADEC
 70
     0
  9
$DIMALTRND
 40
0.0
  9
$DIMAZIN
 70
     0
  9
$DIMDSEP
 70
    46
  9
$DIMATFIT
 70
     3
  9
$DIMFRAC
 70
     2
  9
$DIMLDRBLK
  1
OBLIQUE
  9
$DIMLUNIT
 70
     5
  9
$DIMLWD
 70
    -2
  9
$DIMLWE
 70
    -2
  9
$DIMTMOVE
 70
     0
  9
$LUNITS
 70
     5
  9
$LUPREC
 70
     5
  9
$SKETCHINC
 40
0.1
  9
$FILLETRAD
 40
0.0
  9
$AUNITS
 70
     0
  9
$AUPREC
 70
     0
  9
$MENU
  1
acad
  9
$ELEVATION
 40
0.0
  9
$PELEVATION
 40
0.0
  9
$THICKNESS
 40
0.0
  9
$LIMCHECK
 70
     0
  9
$CHAMFERA
 40
0.0
  9
$CHAMFERB
 40
0.0
  9
$CHAMFERC
 40
0.0
  9
$CHAMFERD
 40
0.0
  9
$SKPOLY
 70
     0
  9
$TDCREATE
 40
2450358.977603010
  9
$TDUCREATE
 40
2450359.144269676
  9
$TDUPDATE
 40
2453963.002365197
  9
$TDUUPDATE
 40
2453963.169031864
  9
$TDINDWG
 40
0.0672238426
  9
$TDUSRTIMER
 40
0.0672238426
  9
$USRTIMER
 70
     1
  9
$ANGBASE
 50
0.0
  9
$ANGDIR
 70
     0
  9
$PDMODE
 70
    34
  9
$PDSIZE
 40
0.0
  9
$PLINEWID
 40
0.0
  9
$SPLFRAME
 70
     0
  9
$SPLINETYPE
 70
     6
  9
$SPLINESEGS
 70
     8
  9
$HANDSEED
  5
3B5
  9
$SURFTAB1
 70
     6
  9
$SURFTAB2
 70
     6
  9
$SURFTYPE
 70
     6
  9
$SURFU
 70
     6
  9
$SURFV
 70
     6
  9
$UCSBASE
  2

  9
$UCSNAME
  2

  9
$UCSORG
 10
0.0
 20
0.0
 30
0.0
  9
$UCSXDIR
 10
1.0
 20
0.0
 30
0.0
  9
$UCSYDIR
 10
0.0
 20
1.0
 30
0.0
  9
$UCSORTHOREF
  2

  9
$UCSORTHOVIEW
 70
     0
  9
$UCSORGTOP
 10
0.0
 20
0.0
 30
0.0
  9
$UCSORGBOTTOM
 10
0.0
 20
0.0
 30
0.0
  9
$UCSORGLEFT
 10
0.0
 20
0.0
 30
0.0
  9
$UCSORGRIGHT
 10
0.0
 20
0.0
 30
0.0
  9
$UCSORGFRONT
 10
0.0
 20
0.0
 30
0.0
  9
$UCSORGBACK
 10
0.0
 20
0.0
 30
0.0
  9
$PUCSBASE
  2

  9
$PUCSNAME
  2

  9
$PUCSORG
 10
0.0
 20
0.0
 30
0.0
  9
$PUCSXDIR
 10
1.0
 20
0.0
 30
0.0
  9
$PUCSYDIR
 10
0.0
 20
1.0
 30
0.0
  9
$PUCSORTHOREF
  2

  9
$PUCSORTHOVIEW
 70
     0
  9
$PUCSORGTOP
 10
0.0
 20
0.0
 30
0.0
  9
$PUCSORGBOTTOM
 10
0.0
 20
0.0
 30
0.0
  9
$PUCSORGLEFT
 10
0.0
 20
0.0
 30
0.0
  9
$PUCSORGRIGHT
 10
0.0
 20
0.0
 30
0.0
  9
$PUCSORGFRONT
 10
0.0
 20
0.0
 30
0.0
  9
$PUCSORGBACK
 10
0.0
 20
0.0
 30
0.0
  9
$USERI1
 70
     0
  9
$USERI2
 70
     0
  9
$USERI3
 70
     0
  9
$USERI4
 70
     0
  9
$USERI5
 70
     0
  9
$USERR1
 40
0.0
  9
$USERR2
 40
0.0
  9
$USERR3
 40
0.0
  9
$USERR4
 40
0.0
  9
$USERR5
 40
0.0
  9
$WORLDVIEW
 70
     1
  9
$SHADEDGE
 70
     3
  9
$SHADEDIF
 70
    70
  9
$TILEMODE
 70
     1
  9
$MAXACTVP
 70
    15
  9
$PINSBASE
 10
0.0
 20
0.0
 30
0.0
  9
$PLIMCHECK
 70
     0
  9
$PEXTMIN
 10
1.000000000000000E+20
 20
1.000000000000000E+20
 30
1.000000000000000E+20
  9
$PEXTMAX
 10
-1.000000000000000E+20
 20
-1.000000000000000E+20
 30
-1.000000000000000E+20
  9
$PLIMMIN
 10
-21.61579290080726
 20
-19.96805058542324
  9
$PLIMMAX
 10
-9.61579290080726
 20
-10.96805058542324
  9
$UNITMODE
 70
     0
  9
$VISRETAIN
 70
     0
  9
$PLINEGEN
 70
     0
  9
$PSLTSCALE
 70
     1
  9
$TREEDEPTH
 70
  3020
  9
$CMLSTYLE
  2
STANDARD
  9
$CMLJUST
 70
     0
  9
$CMLSCALE
 40
1.0
  9
$PROXYGRAPHICS
 70
     1
  9
$MEASUREMENT
 70
     0
  9
$CELWEIGHT
370
    -1
  9
$ENDCAPS
280
     0
  9
$JOINSTYLE
280
     0
  9
$LWDISPLAY
290
     0
  9
$INSUNITS
 70
     0
  9
$HYPERLINKBASE
  1

  9
$STYLESHEET
  1

  9
$XEDIT
290
     1
  9
$CEPSNTYPE
380
     0
  9
$PSTYLEMODE
290
     1
  9
$FINGERPRINTGUID
  2
{ABD19D39-20F9-481E-9971-3AA5208CE30E}
  9
$VERSIONGUID
  2
{25C5BD09-5A97-4020-A9C8-09D0B7C88E54}
  9
$EXTNAMES
290
     1
  9
$PSVPSCALE
 40
0.0
  9
$OLESTARTUP
290
     0
  0
ENDSEC
  0
SECTION
  2
CLASSES
  0
CLASS
  1
ACDBDICTIONARYWDFLT
  2
AcDbDictionaryWithDefault
  3
ObjectDBX Classes
 90
        0
280
     0
281
     0
  0
CLASS
  1
ACDBPLACEHOLDER
  2
AcDbPlaceHolder
  3
ObjectDBX Classes
 90
        0
280
     0
281
     0
  0
CLASS
  1
LAYOUT
  2
AcDbLayout
  3
ObjectDBX Classes
 90
        0
280
     0
281
     0
  0
CLASS
  1
DICTIONARYVAR
  2
AcDbDictionaryVar
  3
ObjectDBX Classes
 90
        0
280
     0
281
     0
  0
CLASS
  1
MATERIAL
  2
AcDbMaterial
  3
ObjectDBX Classes
 90
     1024
280
     0
281
     0
  0
CLASS
  1
VISUALSTYLE
  2
AcDbVisualStyle
  3
ObjectDBX Classes
 90
     4095
280
     0
281
     0
  0
CLASS
  1
TABLESTYLE
  2
AcDbTableStyle
  3
ObjectDBX Classes
 90
     4095
280
     0
281
     0
  0
ENDSEC
  0
SECTION
  2
TABLES
  0
TABLE
  2
VPORT
  5
12
330
0
100
AcDbSymbolTable
 70
     1
  0
VPORT
  5
268
330
12
100
AcDbSymbolTableRecord
100
AcDbViewportTableRecord
  2
*Active
 70
     0
 10
0.0
 20
0.0
 11
1.0
 21
1.0
 12
35.40463823495419
 22
34.37631390239789
 13
0.0
 23
0.0
 14
1.0
 24
1.0
 15
1.0
 25
1.0
 16
0.0
 26
0.0
 36
1.0
 17
-21.61579290080726
 27
-19.96805058542324
 37
0.0
 40
5.493666921754828
 41
1.726930320150659
 42
50.0
 43
0.0
 44
0.0
 50
0.0
 51
0.0
 71
     0
 72
   100
 73
     1
 74
     3
 75
     0
 76
     0
 77
     0
 78
     0
281
     0
 65
     1
110
0.0
120
0.0
130
0.0
111
1.0
121
0.0
131
0.0
112
0.0
122
1.0
132
0.0
 79
     0
146
0.0
  0
ENDTAB
  0
TABLE
  2
LTYPE
  5
E
330
0
100
AcDbSymbolTable
 70
     3
  0
LTYPE
  5
F
330
E
100
AcDbSymbolTableRecord
100
AcDbLinetypeTableRecord
  2
BYBLOCK
 70
     0
  3

 72
    65
 73
     0
 40
0.0
  0
LTYPE
  5
6
330
E
100
AcDbSymbolTableRecord
100
AcDbLinetypeTableRecord
  2
BYLAYER
 70
     0
  3

 72
    65
 73
     0
 40
0.0
  0
LTYPE
  5
5
330
E
100
AcDbSymbolTableRecord
100
AcDbLinetypeTableRecord
  2
CONTINUOUS
 70
     0
  3
Solid line
 72
    65
 73
     0
 40
0.0
  0
LTYPE
  5
38
330
E
100
AcDbSymbolTableRecord
100
AcDbLinetypeTableRecord
  2
HIDDEN2
 70
     0
  3
_ _ _ _ _ _ _ _ _ _ _ _ _ _ _ _ _ _ _ _ _ _ _ _
 72
    65
 73
     2
 40
0.1875
 49
0.125
 74
     0
 49
-0.0625
 74
     0
  0
ENDTAB
  0
TABLE
  2
LAYER
  5
B
330
0
100
AcDbSymbolTable
 70
     5
  0
LAYER
  5
4
330
B
100
AcDbSymbolTableRecord
100
AcDbLayerTableRecord
  2
0
 70
     0
 62
     7
  6
CONTINUOUS
370
    -3
390
80
  0
LAYER
  5
2C
330
B
100
AcDbSymbolTableRecord
100
AcDbLayerTableRecord
  2
DEFPOINTS
 70
     0
 62
    -7
  6
CONTINUOUS
290
     0
370
    -3
390
80
  0
LAYER
  5
1B
330
B
100
AcDbSymbolTableRecord
100
AcDbLayerTableRecord
  2
ADPDIM
 70
     0
 62
     3
  6
CONTINUOUS
370
    -3
390
80
  0
LAYER
  5
32
330
B
100
AcDbSymbolTableRecord
100
AcDbLayerTableRecord
  2
ADP1DETAIL
 70
     0
 62
     7
  6
CONTINUOUS
370
    -3
390
80
  0
LAYER
  5
37
330
B
100
AcDbSymbolTableRecord
100
AcDbLayerTableRecord
  2
ADP2DETAIL
 70
     0
 62
     5
  6
CONTINUOUS
370
    -3
390
80
  0
ENDTAB
  0
TABLE
  2
STYLE
  5
C
330
0
100
AcDbSymbolTable
 70
     2
  0
STYLE
  5
D
330
C
100
AcDbSymbolTableRecord
100
AcDbTextStyleTableRecord
  2
STANDARD
 70
     0
 40
0.0
 41
1.0
 50
0.0
 71
     0
 42
0.2
  3
txt
  4

  0
STYLE
  5
87
330
C
100
AcDbSymbolTableRecord
100
AcDbTextStyleTableRecord
  2
ARIAL_WIDE
 70
     0
 40
0.0
 41
1.25
 50
0.0
 71
     0
 42
0.2
  3
ARIAL.TTF
  4

1001
ACAD
1000
Arial
1071
       34
  0
ENDTAB
  0
TABLE
  2
VIEW
  5
10
330
0
100
AcDbSymbolTable
 70
     0
  0
ENDTAB
  0
TABLE
  2
UCS
  5
11
330
0
100
AcDbSymbolTable
 70
     0
  0
ENDTAB
  0
TABLE
  2
APPID
  5
14
330
0
100
AcDbSymbolTable
 70
     2
  0
APPID
  5
15
330
14
100
AcDbSymbolTableRecord
100
AcDbRegAppTableRecord
  2
ACAD
 70
     0
  0
APPID
  5
31F
330
14
100
AcDbSymbolTableRecord
100
AcDbRegAppTableRecord
  2
DCO15
 70
     0
  0
ENDTAB
  0
TABLE
  2
DIMSTYLE
  5
16
330
0
100
AcDbSymbolTable
 70
     2
100
AcDbDimStyleTable
 71
     0
  0
DIMSTYLE
105
1D
102
{ACAD_REACTORS
330
1E
330
329
330
32A
330
32B
102
}
330
16
100
AcDbSymbolTableRecord
100
AcDbDimStyleTableRecord
  2
STANDARD
 70
     0
340
D
  0
ENDTAB
  0
TABLE
  2
BLOCK_RECORD
  5
1
330
0
100
AcDbSymbolTable
 70
    13
  0
BLOCK_RECORD
  5
2
102
{ACAD_XDICTIONARY
360
103
102
}
330
1
100
AcDbSymbolTableRecord
100
AcDbBlockTableRecord
  2
*MODEL_SPACE
340
83
  0
BLOCK_RECORD
  5
8
102
{ACAD_XDICTIONARY
360
105
102
}
330
1
100
AcDbSymbolTableRecord
100
AcDbBlockTableRecord
  2
*PAPER_SPACE
340
84
  0
BLOCK_RECORD
  5
25
330
1
100
AcDbSymbolTableRecord
100
AcDbBlockTableRecord
  2
_OBLIQUE
340
0
102
{BLKREFS
331
294
331
295
331
2A0
331
2A1
331
2AA
331
2AB
102
}
  0
BLOCK_RECORD
  5
107
330
1
100
AcDbSymbolTableRecord
100
AcDbBlockTableRecord
  2
*D1
340
0
  0
BLOCK_RECORD
  5
116
330
1
100
AcDbSymbolTableRecord
100
AcDbBlockTableRecord
  2
*D2
340
0
  0
BLOCK_RECORD
  5
123
330
1
100
AcDbSymbolTableRecord
100
AcDbBlockTableRecord
  2
*D3
340
0
  0
BLOCK_RECORD
  5
2D4
330
1
100
AcDbSymbolTableRecord
100
AcDbBlockTableRecord
  2
*D5
340
0
  0
BLOCK_RECORD
  5
2E1
330
1
100
AcDbSymbolTableRecord
100
AcDbBlockTableRecord
  2
*D6
340
0
  0
BLOCK_RECORD
  5
2EE
330
1
100
AcDbSymbolTableRecord
100
AcDbBlockTableRecord
  2
AI9-BLK1
340
0
102
{BLKREFS
331
324
331
32C
102
}
  0
BLOCK_RECORD
  5
312
330
1
100
AcDbSymbolTableRecord
100
AcDbBlockTableRecord
  2
*D8
340
0
  0
BLOCK_RECORD
  5
32D
330
1
100
AcDbSymbolTableRecord
100
AcDbBlockTableRecord
  2
*D10
340
0
  0
BLOCK_RECORD
  5
33A
330
1
100
AcDbSymbolTableRecord
100
AcDbBlockTableRecord
  2
*D11
340
0
  0
BLOCK_RECORD
  5
347
330
1
100
AcDbSymbolTableRecord
100
AcDbBlockTableRecord
  2
*D12
340
0
  0
ENDTAB
  0
ENDSEC
  0
SECTION
  2
BLOCKS
  0
BLOCK
  5
3
330
2
100
AcDbEntity
  8
0
100
AcDbBlockBegin
  2
*MODEL_SPACE
 70
     0
 10
0.0
 20
0.0
 30
0.0
  3
*MODEL_SPACE
  1

  0
ENDBLK
  5
7
330
2
100
AcDbEntity
  8
0
100
AcDbBlockEnd
  0
BLOCK
  5
9
330
8
100
AcDbEntity
 67
     1
  8
0
100
AcDbBlockBegin
  2
*PAPER_SPACE
 70
     0
 10
0.0
 20
0.0
 30
0.0
  3
*PAPER_SPACE
  1

  0
ENDBLK
  5
A
330
8
100
AcDbEntity
 67
     1
  8
0
100
AcDbBlockEnd
  0
BLOCK
  5
27
330
25
100
AcDbEntity
  8
0
100
AcDbBlockBegin
  2
_OBLIQUE
 70
     0
 10
0.0
 20
0.0
 30
0.0
  3
_OBLIQUE
  1

  0
LINE
  5
26
330
25
100
AcDbEntity
  8
0
  6
ByBlock
 62
     0
100
AcDbLine
 10
-0.5
 20
-0.5
 30
0.0
 11
0.5
 21
0.5
 31
0.0
  0
ENDBLK
  5
28
330
25
100
AcDbEntity
  8
0
100
AcDbBlockEnd
  0
BLOCK
  5
112
330
107
100
AcDbEntity
  8
0
100
AcDbBlockBegin
  2
*D1
 70
     1
 10
0.0
 20
0.0
 30
0.0
  3
*D1
  1

  0
LINE
  5
290
330
107
100
AcDbEntity
  8
ADPDIM
  6
Continuous
 62
     0
100
AcDbLine
 10
12.19283349755493
 20
13.52800056963815
 30
0.0
 11
12.19283349755493
 21
13.11206321450654
 31
0.0
  0
LINE
  5
291
330
107
100
AcDbEntity
  8
ADPDIM
  6
Continuous
 62
     0
100
AcDbLine
 10
15.81787537248374
 20
13.90176533987726
 30
0.0
 11
15.81787537248374
 21
13.11206321450654
 31
0.0
  0
LINE
  5
292
330
107
100
AcDbEntity
  8
ADPDIM
  6
Continuous
 62
     0
100
AcDbLine
 10
12.19283349755493
 20
13.29956321450654
 30
0.0
 11
13.49160443501933
 21
13.29956321450654
 31
0.0
  0
LINE
  5
293
330
107
100
AcDbEntity
  8
ADPDIM
  6
Continuous
 62
     0
100
AcDbLine
 10
15.81787537248374
 20
13.29956321450654
 30
0.0
 11
14.51910443501933
 21
13.29956321450654
 31
0.0
  0
INSERT
  5
294
330
107
100
AcDbEntity
  8
ADPDIM
  6
Continuous
 62
     0
100
AcDbBlockReference
  2
_OBLIQUE
 10
12.19283349755493
 20
13.29956321450654
 30
0.0
 41
0.1875
 42
0.1875
 43
0.1875
 50
180.0
  0
INSERT
  5
295
330
107
100
AcDbEntity
  8
ADPDIM
  6
Continuous
 62
     0
100
AcDbBlockReference
  2
_OBLIQUE
 10
15.81787537248374
 20
13.29956321450654
 30
0.0
 41
0.1875
 42
0.1875
 43
0.1875
  0
MTEXT
  5
296
330
107
100
AcDbEntity
  8
ADPDIM
  6
Continuous
 62
     0
100
AcDbMText
 10
14.00535443501933
 20
13.29956321450654
 30
0.0
 40
0.18
 41
0.0
 71
     5
 72
     1
  1
\A1;3 5/8
 73
     1
 44
1.0
1001
ACAD
1000
MTEXTBEGIN
1070
    73
1070
     1
1070
    44
1040
1.0
1070
    74
1070
     0
1000
MTEXTEND
  0
POINT
  5
297
330
107
100
AcDbEntity
  8
DEFPOINTS
  6
Continuous
 62
     0
100
AcDbPoint
 10
12.19283349755493
 20
13.59050056963815
 30
0.0
  0
POINT
  5
298
330
107
100
AcDbEntity
  8
DEFPOINTS
  6
Continuous
 62
     0
100
AcDbPoint
 10
15.81787537248374
 20
13.96426533987726
 30
0.0
  0
POINT
  5
299
330
107
100
AcDbEntity
  8
DEFPOINTS
  6
Continuous
 62
     0
100
AcDbPoint
 10
15.81787537248374
 20
13.29956321450654
 30
0.0
  0
ENDBLK
  5
113
330
107
100
AcDbEntity
  8
0
100
AcDbBlockEnd
  0
BLOCK
  5
121
330
116
100
AcDbEntity
  8
0
100
AcDbBlockBegin
  2
*D2
 70
     1
 10
0.0
 20
0.0
 30
0.0
  3
*D2
  1

  0
LINE
  5
29C
330
116
100
AcDbEntity
  8
ADPDIM
 62
     0
100
AcDbLine
 10
9.656937234301697
 20
13.97890961193061
 30
0.0
 11
9.656937234301697
 21
14.74161380502247
 31
0.0
  0
LINE
  5
29D
330
116
100
AcDbEntity
  8
ADPDIM
 62
     0
100
AcDbLine
 10
11.78203455905209
 20
13.97890961193061
 30
0.0
 11
11.78203455905209
 21
14.74161380502247
 31
0.0
  0
LINE
  5
29E
330
116
100
AcDbEntity
  8
ADPDIM
 62
     0
100
AcDbLine
 10
9.656937234301697
 20
14.55411380502247
 30
0.0
 11
10.23573589667689
 21
14.55411380502247
 31
0.0
  0
LINE
  5
29F
330
116
100
AcDbEntity
  8
ADPDIM
 62
     0
100
AcDbLine
 10
11.78203455905209
 20
14.55411380502247
 30
0.0
 11
11.20323589667689
 21
14.55411380502247
 31
0.0
  0
INSERT
  5
2A0
330
116
100
AcDbEntity
  8
ADPDIM
 62
     0
100
AcDbBlockReference
  2
_OBLIQUE
 10
9.656937234301697
 20
14.55411380502247
 30
0.0
 41
0.1875
 42
0.1875
 43
0.1875
 50
180.0
  0
INSERT
  5
2A1
330
116
100
AcDbEntity
  8
ADPDIM
 62
     0
100
AcDbBlockReference
  2
_OBLIQUE
 10
11.78203455905209
 20
14.55411380502247
 30
0.0
 41
0.1875
 42
0.1875
 43
0.1875
  0
MTEXT
  5
2A2
330
116
100
AcDbEntity
  8
ADPDIM
 62
     0
100
AcDbMText
 10
10.71948589667689
 20
14.55411380502247
 30
0.0
 40
0.18
 41
0.0
 71
     5
 72
     1
  1
\A1;2 1/8
 73
     1
 44
1.0
1001
ACAD
1000
MTEXTBEGIN
1070
    73
1070
     1
1070
    44
1040
1.0
1070
    74
1070
     0
1000
MTEXTEND
  0
POINT
  5
2A3
330
116
100
AcDbEntity
  8
DEFPOINTS
 62
     0
100
AcDbPoint
 10
9.656937234301697
 20
13.91640961193061
 30
0.0
  0
POINT
  5
2A4
330
116
100
AcDbEntity
  8
DEFPOINTS
 62
     0
100
AcDbPoint
 10
11.78203455905209
 20
13.91640961193061
 30
0.0
  0
POINT
  5
2A5
330
116
100
AcDbEntity
  8
DEFPOINTS
 62
     0
100
AcDbPoint
 10
11.78203455905209
 20
14.55411380502247
 30
0.0
  0
ENDBLK
  5
122
330
116
100
AcDbEntity
  8
0
100
AcDbBlockEnd
  0
BLOCK
  5
12E
330
123
100
AcDbEntity
  8
0
100
AcDbBlockBegin
  2
*D3
 70
     1
 10
0.0
 20
0.0
 30
0.0
  3
*D3
  1

  0
LINE
  5
2A6
330
123
100
AcDbEntity
  8
ADPDIM
 62
     0
100
AcDbLine
 10
9.933577036440912
 20
13.46626587783817
 30
0.0
 11
9.933577036440912
 21
13.12761412288361
 31
0.0
  0
LINE
  5
2A7
330
123
100
AcDbEntity
  8
ADPDIM
 62
     0
100
AcDbLine
 10
11.49282017626115
 20
13.46626587783817
 30
0.0
 11
11.49282017626115
 21
13.12761412288361
 31
0.0
  0
LINE
  5
2A8
330
123
100
AcDbEntity
  8
ADPDIM
 62
     0
100
AcDbLine
 10
9.933577036440912
 20
13.31511412288362
 30
0.0
 11
10.25944860635103
 21
13.31511412288362
 31
0.0
  0
LINE
  5
2A9
330
123
100
AcDbEntity
  8
ADPDIM
 62
     0
100
AcDbLine
 10
11.49282017626115
 20
13.31511412288362
 30
0.0
 11
11.16694860635103
 21
13.31511412288362
 31
0.0
  0
INSERT
  5
2AA
330
123
100
AcDbEntity
  8
ADPDIM
 62
     0
100
AcDbBlockReference
  2
_OBLIQUE
 10
9.933577036440912
 20
13.31511412288362
 30
0.0
 41
0.1875
 42
0.1875
 43
0.1875
 50
180.0
  0
INSERT
  5
2AB
330
123
100
AcDbEntity
  8
ADPDIM
 62
     0
100
AcDbBlockReference
  2
_OBLIQUE
 10
11.49282017626115
 20
13.31511412288362
 30
0.0
 41
0.1875
 42
0.1875
 43
0.1875
  0
MTEXT
  5
2AC
330
123
100
AcDbEntity
  8
ADPDIM
 62
     0
100
AcDbMText
 10
10.71319860635103
 20
13.31511412288362
 30
0.0
 40
0.18
 41
0.0
 71
     5
 72
     1
  1
\A1;1 1/2
 73
     1
 44
1.0
1001
ACAD
1000
MTEXTBEGIN
1070
    73
1070
     1
1070
    44
1040
1.0
1070
    74
1070
     0
1000
MTEXTEND
  0
POINT
  5
2AD
330
123
100
AcDbEntity
  8
DEFPOINTS
 62
     0
100
AcDbPoint
 10
9.933577036440912
 20
13.52876587783817
 30
0.0
  0
POINT
  5
2AE
330
123
100
AcDbEntity
  8
DEFPOINTS
 62
     0
100
AcDbPoint
 10
11.49282017626115
 20
13.52876587783817
 30
0.0
  0
POINT
  5
2AF
330
123
100
AcDbEntity
  8
DEFPOINTS
 62
     0
100
AcDbPoint
 10
11.49282017626115
 20
13.31511412288362
 30
0.0
  0
ENDBLK
  5
12F
330
123
100
AcDbEntity
  8
0
100
AcDbBlockEnd
  0
BLOCK
  5
2D5
330
2D4
100
AcDbEntity
  8
0
 62
     3
100
AcDbBlockBegin
  2
*D5
 70
     1
 10
0.0
 20
0.0
 30
0.0
  3
*D5
  1

  0
LINE
  5
2D6
330
2D4
100
AcDbEntity
  8
ADPDIM
 62
     0
370
    -2
100
AcDbLine
 10
10.07441137871769
 20
14.19639199073276
 30
0.0
 11
10.07441137871769
 21
13.90025028814471
 31
0.0
  0
LINE
  5
2D7
330
2D4
100
AcDbEntity
  8
ADPDIM
 62
     0
370
    -2
100
AcDbLine
 10
11.38691137871769
 20
14.19639199073276
 30
0.0
 11
11.38691137871769
 21
13.90025028814471
 31
0.0
  0
LINE
  5
2D8
330
2D4
100
AcDbEntity
  8
ADPDIM
 62
     0
370
    -2
100
AcDbLine
 10
10.25441137871769
 20
14.08025028814471
 30
0.0
 11
11.20691137871769
 21
14.08025028814471
 31
0.0
  0
LINE
  5
2D9
330
2D4
100
AcDbEntity
  8
ADPDIM
 62
     0
370
    -2
100
AcDbLine
 10
11.38691137871769
 20
14.08025028814471
 30
0.0
 11
11.95308802826757
 21
14.08025028814471
 31
0.0
  0
SOLID
  5
2DA
330
2D4
100
AcDbEntity
  8
ADPDIM
 62
     0
100
AcDbTrace
 10
10.25441137871769
 20
14.11025028814471
 30
0.0
 11
10.25441137871769
 21
14.05025028814471
 31
0.0
 12
10.07441137871769
 22
14.08025028814471
 32
0.0
 13
10.07441137871769
 23
14.08025028814471
 33
0.0
  0
SOLID
  5
2DB
330
2D4
100
AcDbEntity
  8
ADPDIM
 62
     0
100
AcDbTrace
 10
11.20691137871769
 20
14.11025028814471
 30
0.0
 11
11.20691137871769
 21
14.05025028814471
 31
0.0
 12
11.38691137871769
 22
14.08025028814471
 32
0.0
 13
11.38691137871769
 23
14.08025028814471
 33
0.0
  0
MTEXT
  5
2DC
330
2D4
100
AcDbEntity
  8
ADPDIM
 62
     0
100
AcDbMText
 10
12.49308802826757
 20
14.08025028814471
 30
0.0
 40
0.18
 41
0.0
 71
     5
 72
     1
  1
\A1;1 5/16
 73
     1
 44
1.0
1001
ACAD
1000
MTEXTBEGIN
1070
    73
1070
     1
1070
    44
1040
1.0
1070
    74
1070
     0
1000
MTEXTEND
  0
POINT
  5
2DD
330
2D4
100
AcDbEntity
  8
DEFPOINTS
 62
     0
100
AcDbPoint
 10
10.07441137871769
 20
14.25889199073276
 30
0.0
  0
POINT
  5
2DE
330
2D4
100
AcDbEntity
  8
DEFPOINTS
 62
     0
100
AcDbPoint
 10
11.38691137871769
 20
14.25889199073276
 30
0.0
  0
POINT
  5
2DF
330
2D4
100
AcDbEntity
  8
DEFPOINTS
 62
     0
100
AcDbPoint
 10
11.38691137871769
 20
14.08025028814471
 30
0.0
  0
ENDBLK
  5
2E0
330
2D4
100
AcDbEntity
  8
0
 62
     3
100
AcDbBlockEnd
  0
BLOCK
  5
2E2
330
2E1
100
AcDbEntity
  8
0
100
AcDbBlockBegin
  2
*D6
 70
     1
 10
0.0
 20
0.0
 30
0.0
  3
*D6
  1

  0
LINE
  5
2E3
330
2E1
100
AcDbEntity
  8
ADPDIM
 62
     0
370
    -2
100
AcDbLine
 10
9.943362663700465
 20
14.01382726810779
 30
0.0
 11
9.943362663700465
 21
13.41869438150874
 31
0.0
  0
LINE
  5
2E4
330
2E1
100
AcDbEntity
  8
ADPDIM
 62
     0
370
    -2
100
AcDbLine
 10
11.5026058035207
 20
14.01382726810779
 30
0.0
 11
11.5026058035207
 21
13.41869438150874
 31
0.0
  0
LINE
  5
2E5
330
2E1
100
AcDbEntity
  8
ADPDIM
 62
     0
370
    -2
100
AcDbLine
 10
9.763362663700466
 20
13.59869438150874
 30
0.0
 11
9.583362663700466
 21
13.59869438150874
 31
0.0
  0
LINE
  5
2E6
330
2E1
100
AcDbEntity
  8
ADPDIM
 62
     0
370
    -2
100
AcDbLine
 10
11.6826058035207
 20
13.59869438150874
 30
0.0
 11
11.8626058035207
 21
13.59869438150874
 31
0.0
  0
SOLID
  5
2E7
330
2E1
100
AcDbEntity
  8
ADPDIM
 62
     0
100
AcDbTrace
 10
9.763362663700466
 20
13.62869438150874
 30
0.0
 11
9.763362663700466
 21
13.56869438150874
 31
0.0
 12
9.943362663700465
 22
13.59869438150874
 32
0.0
 13
9.943362663700465
 23
13.59869438150874
 33
0.0
  0
SOLID
  5
2E8
330
2E1
100
AcDbEntity
  8
ADPDIM
 62
     0
100
AcDbTrace
 10
11.6826058035207
 20
13.62869438150874
 30
0.0
 11
11.6826058035207
 21
13.56869438150874
 31
0.0
 12
11.5026058035207
 22
13.59869438150874
 32
0.0
 13
11.5026058035207
 23
13.59869438150874
 33
0.0
  0
MTEXT
  5
2E9
330
2E1
100
AcDbEntity
  8
ADPDIM
 62
     0
100
AcDbMText
 10
10.72298423361058
 20
13.59869438150874
 30
0.0
 40
0.18
 41
0.0
 71
     5
 72
     1
  1
\A1;1 9/16
 73
     1
 44
1.0
1001
ACAD
1000
MTEXTBEGIN
1070
    73
1070
     1
1070
    44
1040
1.0
1070
    74
1070
     0
1000
MTEXTEND
  0
POINT
  5
2EA
330
2E1
100
AcDbEntity
  8
DEFPOINTS
 62
     0
100
AcDbPoint
 10
9.943362663700465
 20
14.07632726810779
 30
0.0
  0
POINT
  5
2EB
330
2E1
100
AcDbEntity
  8
DEFPOINTS
 62
     0
100
AcDbPoint
 10
11.5026058035207
 20
14.07632726810779
 30
0.0
  0
POINT
  5
2EC
330
2E1
100
AcDbEntity
  8
DEFPOINTS
 62
     0
100
AcDbPoint
 10
11.5026058035207
 20
13.59869438150874
 30
0.0
  0
ENDBLK
  5
2ED
330
2E1
100
AcDbEntity
  8
0
100
AcDbBlockEnd
  0
BLOCK
  5
2EF
330
2EE
100
AcDbEntity
  8
0
 62
     7
100
AcDbBlockBegin
  2
AI9-BLK1
 70
     0
 10
0.0
 20
0.0
 30
0.0
  3
AI9-BLK1
  1

  0
SPLINE
  5
2F0
330
2EE
100
AcDbEntity
  8
0
 62
     7
100
AcDbSpline
210
0.0
220
0.0
230
1.0
 70
     8
 71
     3
 72
     8
 73
     4
 74
     0
 42
0.0000000001
 43
0.0000000001
 40
0.0
 40
0.0
 40
0.0
 40
0.0
 40
1.0
 40
1.0
 40
1.0
 40
1.0
 10
-3.96134304470486
 20
-0.9654880099826389
 30
0.0
 10
-3.96134304470486
 20
0.4373548719618056
 30
0.0
 10
-5.098913574218749
 20
1.574580891927083
 30
0.0
 10
-6.501756456163193
 20
1.574580891927083
 30
0.0
  0
SPLINE
  5
2F1
330
2EE
100
AcDbEntity
  8
0
 62
     7
100
AcDbSpline
210
0.0
220
0.0
230
1.0
 70
     8
 71
     3
 72
     8
 73
     4
 74
     0
 42
0.0000000001
 43
0.0000000001
 40
0.0
 40
0.0
 40
0.0
 40
0.0
 40
1.0
 40
1.0
 40
1.0
 40
1.0
 10
0.0446139865451389
 20
9.524827745225692
 30
0.0
 10
-7.53321804470486
 20
9.529650878906249
 30
0.0
 10
-15.05489501953125
 20
8.227404785156249
 30
0.0
 10
-22.19003228081597
 20
5.675278049045138
 30
0.0
  0
LINE
  5
2F2
330
2EE
100
AcDbEntity
  8
0
 62
     7
100
AcDbLine
 10
-19.83634304470486
 20
-5.816871473524305
 30
0.0
 11
-19.83634304470486
 21
-9.525172254774304
 31
0.0
  0
SPLINE
  5
2F3
330
2EE
100
AcDbEntity
  8
0
 62
     7
100
AcDbSpline
210
0.0
220
0.0
230
1.0
 70
     8
 71
     3
 72
    11
 73
     7
 74
     0
 42
0.0000000001
 43
0.0000000001
 40
0.0
 40
0.0
 40
0.0
 40
0.0
 40
1.0
 40
1.0
 40
1.0
 40
2.0
 40
2.0
 40
2.0
 40
2.0
 10
-22.19003228081597
 20
5.675278049045138
 30
0.0
 10
-26.20839165581597
 20
3.941016981336805
 30
0.0
 10
-28.05978597005208
 20
-0.7226087782118055
 30
0.0
 10
-26.32483588324653
 20
-4.741312662760416
 30
0.0
 10
-25.18450927734375
 20
-7.383700900607638
 30
0.0
 10
-22.70059543185764
 20
-9.199955240885415
 30
0.0
 10
-19.83634304470486
 20
-9.485898166232637
 30
0.0
  0
LINE
  5
2F4
330
2EE
100
AcDbEntity
  8
0
 62
     7
100
AcDbLine
 10
-16.91559109157986
 20
-5.562967936197916
 30
0.0
 11
-19.58243950737847
 21
-5.562967936197916
 31
0.0
  0
SPLINE
  5
2F5
330
2EE
100
AcDbEntity
  8
0
 62
     7
100
AcDbSpline
210
0.0
220
0.0
230
1.0
 70
     8
 71
     3
 72
     8
 73
     4
 74
     0
 42
0.0000000001
 43
0.0000000001
 40
0.0
 40
0.0
 40
0.0
 40
0.0
 40
1.0
 40
1.0
 40
1.0
 40
1.0
 10
-19.58243950737847
 20
-5.562967936197916
 30
0.0
 10
-19.72265489366319
 20
-5.562967936197916
 30
0.0
 10
-19.83634304470486
 20
-5.676656087239583
 30
0.0
 10
-19.83634304470486
 20
-5.816871473524305
 30
0.0
  0
SPLINE
  5
2F6
330
2EE
100
AcDbEntity
  8
0
 62
     7
100
AcDbSpline
210
0.0
220
0.0
230
1.0
 70
     8
 71
     3
 72
     8
 73
     4
 74
     0
 42
0.0000000001
 43
0.0000000001
 40
0.0
 40
0.0
 40
0.0
 40
0.0
 40
1.0
 40
1.0
 40
1.0
 40
1.0
 10
-11.91193440755208
 20
1.574580891927083
 30
0.0
 10
-12.78147650824652
 20
1.574580891927083
 30
0.0
 10
-13.48634304470486
 20
0.8693698459201387
 30
0.0
 10
-13.48634304470486
 20
-0.0001722547743056
 30
0.0
  0
SPLINE
  5
2F7
330
2EE
100
AcDbEntity
  8
0
 62
     7
100
AcDbSpline
210
0.0
220
0.0
230
1.0
 70
     8
 71
     3
 72
     8
 73
     4
 74
     0
 42
0.0000000001
 43
0.0000000001
 40
0.0
 40
0.0
 40
0.0
 40
0.0
 40
1.0
 40
1.0
 40
1.0
 40
1.0
 10
-13.74059109157986
 20
-1.600419108072916
 30
0.0
 10
-13.60003119574652
 20
-1.600419108072916
 30
0.0
 10
-13.48634304470486
 20
-1.486730957031249
 30
0.0
 10
-13.48634304470486
 20
-1.346515570746527
 30
0.0
  0
LINE
  5
2F8
330
2EE
100
AcDbEntity
  8
0
 62
     7
100
AcDbLine
 10
-13.48634304470486
 20
-0.0001722547743056
 30
0.0
 11
-13.48634304470486
 21
-1.346515570746527
 31
0.0
  0
SPLINE
  5
2F9
330
2EE
100
AcDbEntity
  8
0
 62
     7
100
AcDbSpline
210
0.0
220
0.0
230
1.0
 70
     8
 71
     3
 72
     8
 73
     4
 74
     0
 42
0.0000000001
 43
0.0000000001
 40
0.0
 40
0.0
 40
0.0
 40
0.0
 40
1.0
 40
1.0
 40
1.0
 40
1.0
 10
-16.40743950737847
 20
-1.600419108072916
 30
0.0
 10
-16.54765489366319
 20
-1.600419108072916
 30
0.0
 10
-16.66134304470486
 20
-1.714107259114583
 30
0.0
 10
-16.66134304470486
 20
-1.854322645399305
 30
0.0
  0
LINE
  5
2FA
330
2EE
100
AcDbEntity
  8
0
 62
     7
100
AcDbLine
 10
-13.74059109157986
 20
-1.600419108072916
 30
0.0
 11
-16.40743950737847
 21
-1.600419108072916
 31
0.0
  0
SPLINE
  5
2FB
330
2EE
100
AcDbEntity
  8
0
 62
     7
100
AcDbSpline
210
0.0
220
0.0
230
1.0
 70
     8
 71
     3
 72
     8
 73
     4
 74
     0
 42
0.0000000001
 43
0.0000000001
 40
0.0
 40
0.0
 40
0.0
 40
0.0
 40
1.0
 40
1.0
 40
1.0
 40
1.0
 10
-16.91559109157986
 20
-5.562967936197916
 30
0.0
 10
-16.77503119574652
 20
-5.562967936197916
 30
0.0
 10
-16.66134304470486
 20
-5.449279785156249
 30
0.0
 10
-16.66134304470486
 20
-5.308719889322916
 30
0.0
  0
LINE
  5
2FC
330
2EE
100
AcDbEntity
  8
0
 62
     7
100
AcDbLine
 10
-16.66134304470486
 20
-1.854322645399305
 30
0.0
 11
-16.66134304470486
 21
-5.308719889322916
 31
0.0
  0
LINE
  5
2FD
330
2EE
100
AcDbEntity
  8
0
 62
     7
100
AcDbLine
 10
-6.501756456163193
 20
1.574580891927083
 30
0.0
 11
-11.91193440755208
 21
1.574580891927083
 31
0.0
  0
LINE
  5
2FE
330
2EE
100
AcDbEntity
  8
0
 62
     7
100
AcDbLine
 10
19.83806559244791
 20
-5.816871473524305
 30
0.0
 11
19.83806559244791
 21
-9.525172254774304
 31
0.0
  0
SPLINE
  5
2FF
330
2EE
100
AcDbEntity
  8
0
 62
     7
100
AcDbSpline
210
0.0
220
0.0
230
1.0
 70
     8
 71
     3
 72
    11
 73
     7
 74
     0
 42
0.0000000001
 43
0.0000000001
 40
0.0
 40
0.0
 40
0.0
 40
0.0
 40
1.0
 40
1.0
 40
1.0
 40
2.0
 40
2.0
 40
2.0
 40
2.0
 10
19.83806559244791
 20
-9.485898166232637
 30
0.0
 10
24.19335530598958
 20
-9.051127115885416
 30
0.0
 10
27.37111138237847
 20
-5.168159993489583
 30
0.0
 10
26.93634033203125
 20
-0.8132147894965276
 30
0.0
 10
26.65039740668403
 20
2.051037597656249
 30
0.0
 10
24.83414306640625
 20
4.53460693359375
 30
0.0
 10
22.19175482855903
 20
5.675278049045138
 30
0.0
  0
LINE
  5
300
330
2EE
100
AcDbEntity
  8
0
 62
     7
100
AcDbLine
 10
6.503479003906249
 20
1.574580891927083
 30
0.0
 11
11.91365695529514
 21
1.574580891927083
 31
0.0
  0
SPLINE
  5
301
330
2EE
100
AcDbEntity
  8
0
 62
     7
100
AcDbSpline
210
0.0
220
0.0
230
1.0
 70
     8
 71
     3
 72
     8
 73
     4
 74
     0
 42
0.0000000001
 43
0.0000000001
 40
0.0
 40
0.0
 40
0.0
 40
0.0
 40
1.0
 40
1.0
 40
1.0
 40
1.0
 10
22.19175482855903
 20
5.675278049045138
 30
0.0
 10
15.0566175672743
 20
8.227404785156249
 30
0.0
 10
7.534940592447916
 20
9.529650878906249
 30
0.0
 10
-0.0428914388020833
 20
9.524827745225692
 30
0.0
  0
LINE
  5
302
330
2EE
100
AcDbEntity
  8
0
 62
     7
100
AcDbLine
 10
0.0008612738715278
 20
-1.600419108072916
 30
0.0
 11
3.709506564670138
 21
-1.600419108072916
 31
0.0
  0
LINE
  5
303
330
2EE
100
AcDbEntity
  8
0
 62
     7
100
AcDbLine
 10
0.0008612738715278
 20
-1.600419108072916
 30
0.0
 11
-3.707439507378472
 21
-1.600419108072916
 31
0.0
  0
LINE
  5
304
330
2EE
100
AcDbEntity
  8
0
 62
     7
100
AcDbLine
 10
-3.96134304470486
 20
-1.346515570746527
 30
0.0
 11
-3.96134304470486
 21
-0.9654880099826389
 31
0.0
  0
SPLINE
  5
305
330
2EE
100
AcDbEntity
  8
0
 62
     7
100
AcDbSpline
210
0.0
220
0.0
230
1.0
 70
     8
 71
     3
 72
     8
 73
     4
 74
     0
 42
0.0000000001
 43
0.0000000001
 40
0.0
 40
0.0
 40
0.0
 40
0.0
 40
1.0
 40
1.0
 40
1.0
 40
1.0
 10
-3.96134304470486
 20
-1.346515570746527
 30
0.0
 10
-3.96134304470486
 20
-1.486730957031249
 30
0.0
 10
-3.847654893663193
 20
-1.600419108072916
 30
0.0
 10
-3.707439507378472
 20
-1.600419108072916
 30
0.0
  0
SPLINE
  5
306
330
2EE
100
AcDbEntity
  8
0
 62
     7
100
AcDbSpline
210
0.0
220
0.0
230
1.0
 70
     8
 71
     3
 72
     8
 73
     4
 74
     0
 42
0.0000000001
 43
0.0000000001
 40
0.0
 40
0.0
 40
0.0
 40
0.0
 40
1.0
 40
1.0
 40
1.0
 40
1.0
 10
6.503479003906249
 20
1.574580891927083
 30
0.0
 10
5.100636121961804
 20
1.574580891927083
 30
0.0
 10
3.963065592447916
 20
0.4373548719618056
 30
0.0
 10
3.963065592447916
 20
-0.9654880099826389
 30
0.0
  0
LINE
  5
307
330
2EE
100
AcDbEntity
  8
0
 62
     7
100
AcDbLine
 10
3.963065592447916
 20
-1.346515570746527
 30
0.0
 11
3.963065592447916
 21
-0.9654880099826389
 31
0.0
  0
SPLINE
  5
308
330
2EE
100
AcDbEntity
  8
0
 62
     7
100
AcDbSpline
210
0.0
220
0.0
230
1.0
 70
     8
 71
     3
 72
     8
 73
     4
 74
     0
 42
0.0000000001
 43
0.0000000001
 40
0.0
 40
0.0
 40
0.0
 40
0.0
 40
1.0
 40
1.0
 40
1.0
 40
1.0
 10
3.709506564670138
 20
-1.600419108072916
 30
0.0
 10
3.849377441406249
 20
-1.600419108072916
 30
0.0
 10
3.963065592447916
 20
-1.486730957031249
 30
0.0
 10
3.963065592447916
 20
-1.346515570746527
 30
0.0
  0
SPLINE
  5
309
330
2EE
100
AcDbEntity
  8
0
 62
     7
100
AcDbSpline
210
0.0
220
0.0
230
1.0
 70
     8
 71
     3
 72
     8
 73
     4
 74
     0
 42
0.0000000001
 43
0.0000000001
 40
0.0
 40
0.0
 40
0.0
 40
0.0
 40
1.0
 40
1.0
 40
1.0
 40
1.0
 10
16.66306559244791
 20
-1.854322645399305
 30
0.0
 10
16.66306559244791
 20
-1.714107259114583
 30
0.0
 10
16.54937744140625
 20
-1.600419108072916
 30
0.0
 10
16.40950656467014
 20
-1.600419108072916
 30
0.0
  0
LINE
  5
30A
330
2EE
100
AcDbEntity
  8
0
 62
     7
100
AcDbLine
 10
13.48806559244791
 20
-0.0001722547743056
 30
0.0
 11
13.48806559244791
 21
-1.600419108072916
 31
0.0
  0
SPLINE
  5
30B
330
2EE
100
AcDbEntity
  8
0
 62
     7
100
AcDbSpline
210
0.0
220
0.0
230
1.0
 70
     8
 71
     3
 72
     8
 73
     4
 74
     0
 42
0.0000000001
 43
0.0000000001
 40
0.0
 40
0.0
 40
0.0
 40
0.0
 40
1.0
 40
1.0
 40
1.0
 40
1.0
 10
13.48806559244791
 20
-0.0001722547743056
 30
0.0
 10
13.48806559244791
 20
0.8693698459201387
 30
0.0
 10
12.78319905598958
 20
1.574580891927083
 30
0.0
 10
11.91365695529514
 20
1.574580891927083
 30
0.0
  0
LINE
  5
30C
330
2EE
100
AcDbEntity
  8
0
 62
     7
100
AcDbLine
 10
13.48806559244791
 20
-1.600419108072916
 30
0.0
 11
16.40950656467014
 21
-1.600419108072916
 31
0.0
  0
SPLINE
  5
30D
330
2EE
100
AcDbEntity
  8
0
 62
     7
100
AcDbSpline
210
0.0
220
0.0
230
1.0
 70
     8
 71
     3
 72
     8
 73
     4
 74
     0
 42
0.0000000001
 43
0.0000000001
 40
0.0
 40
0.0
 40
0.0
 40
0.0
 40
1.0
 40
1.0
 40
1.0
 40
1.0
 10
19.83806559244791
 20
-5.816871473524305
 30
0.0
 10
19.83806559244791
 20
-5.676656087239583
 30
0.0
 10
19.72437744140625
 20
-5.562967936197916
 30
0.0
 10
19.58450656467013
 20
-5.562967936197916
 30
0.0
  0
SPLINE
  5
30E
330
2EE
100
AcDbEntity
  8
0
 62
     7
100
AcDbSpline
210
0.0
220
0.0
230
1.0
 70
     8
 71
     3
 72
     8
 73
     4
 74
     0
 42
0.0000000001
 43
0.0000000001
 40
0.0
 40
0.0
 40
0.0
 40
0.0
 40
1.0
 40
1.0
 40
1.0
 40
1.0
 10
16.66306559244791
 20
-5.308719889322916
 30
0.0
 10
16.66306559244791
 20
-5.449279785156249
 30
0.0
 10
16.77709825303819
 20
-5.562967936197916
 30
0.0
 10
16.91731363932291
 20
-5.562967936197916
 30
0.0
  0
LINE
  5
30F
330
2EE
100
AcDbEntity
  8
0
 62
     7
100
AcDbLine
 10
16.91731363932291
 20
-5.562967936197916
 30
0.0
 11
19.58450656467013
 21
-5.562967936197916
 31
0.0
  0
LINE
  5
310
330
2EE
100
AcDbEntity
  8
0
 62
     7
100
AcDbLine
 10
16.66306559244791
 20
-1.854322645399305
 30
0.0
 11
16.66306559244791
 21
-5.308719889322916
 31
0.0
  0
ENDBLK
  5
311
330
2EE
100
AcDbEntity
  8
0
100
AcDbBlockEnd
  0
BLOCK
  5
313
330
312
100
AcDbEntity
  8
0
100
AcDbBlockBegin
  2
*D8
 70
     1
 10
0.0
 20
0.0
 30
0.0
  3
*D8
  1

  0
LINE
  5
314
330
312
100
AcDbEntity
  8
ADPDIM
 62
     0
370
    -2
100
AcDbLine
 10
9.66672286156125
 20
14.52647100220023
 30
0.0
 11
9.66672286156125
 21
15.28167519529209
 31
0.0
  0
LINE
  5
315
330
312
100
AcDbEntity
  8
ADPDIM
 62
     0
370
    -2
100
AcDbLine
 10
11.79182018631165
 20
14.52647100220023
 30
0.0
 11
11.79182018631165
 21
15.28167519529209
 31
0.0
  0
LINE
  5
316
330
312
100
AcDbEntity
  8
ADPDIM
 62
     0
370
    -2
100
AcDbLine
 10
9.84672286156125
 20
15.10167519529209
 30
0.0
 11
10.24927152393645
 21
15.10167519529209
 31
0.0
  0
LINE
  5
317
330
312
100
AcDbEntity
  8
ADPDIM
 62
     0
370
    -2
100
AcDbLine
 10
11.61182018631164
 20
15.10167519529209
 30
0.0
 11
11.20927152393645
 21
15.10167519529209
 31
0.0
  0
SOLID
  5
318
330
312
100
AcDbEntity
  8
ADPDIM
 62
     0
100
AcDbTrace
 10
9.84672286156125
 20
15.13167519529209
 30
0.0
 11
9.84672286156125
 21
15.07167519529209
 31
0.0
 12
9.66672286156125
 22
15.10167519529209
 32
0.0
 13
9.66672286156125
 23
15.10167519529209
 33
0.0
  0
SOLID
  5
319
330
312
100
AcDbEntity
  8
ADPDIM
 62
     0
100
AcDbTrace
 10
11.61182018631164
 20
15.13167519529209
 30
0.0
 11
11.61182018631164
 21
15.07167519529209
 31
0.0
 12
11.79182018631165
 22
15.10167519529209
 32
0.0
 13
11.79182018631165
 23
15.10167519529209
 33
0.0
  0
MTEXT
  5
31A
330
312
100
AcDbEntity
  8
ADPDIM
 62
     0
100
AcDbMText
 10
10.72927152393645
 20
15.10167519529209
 30
0.0
 40
0.18
 41
0.0
 71
     5
 72
     1
  1
\A1;2 1/8
 73
     1
 44
1.0
1001
ACAD
1000
MTEXTBEGIN
1070
    73
1070
     1
1070
    44
1040
1.0
1070
    74
1070
     0
1000
MTEXTEND
  0
POINT
  5
31B
330
312
100
AcDbEntity
  8
DEFPOINTS
 62
     0
100
AcDbPoint
 10
9.66672286156125
 20
14.46397100220023
 30
0.0
  0
POINT
  5
31C
330
312
100
AcDbEntity
  8
DEFPOINTS
 62
     0
100
AcDbPoint
 10
11.79182018631165
 20
14.46397100220023
 30
0.0
  0
POINT
  5
31D
330
312
100
AcDbEntity
  8
DEFPOINTS
 62
     0
100
AcDbPoint
 10
11.79182018631165
 20
15.10167519529209
 30
0.0
  0
ENDBLK
  5
31E
330
312
100
AcDbEntity
  8
0
100
AcDbBlockEnd
  0
BLOCK
  5
338
330
32D
100
AcDbEntity
  8
0
100
AcDbBlockBegin
  2
*D10
 70
     1
 10
0.0
 20
0.0
 30
0.0
  3
*D10
  1

  0
LINE
  5
354
330
32D
100
AcDbEntity
  8
ADPDIM
 62
     0
370
    -2
100
AcDbLine
 10
9.62253119555573
 20
13.88908078826165
 30
0.0
 11
9.62253119555573
 21
14.6442849813535
 31
0.0
  0
LINE
  5
355
330
32D
100
AcDbEntity
  8
ADPDIM
 62
     0
370
    -2
100
AcDbLine
 10
11.74762852030612
 20
13.88908078826165
 30
0.0
 11
11.74762852030612
 21
14.6442849813535
 31
0.0
  0
LINE
  5
356
330
32D
100
AcDbEntity
  8
ADPDIM
 62
     0
370
    -2
100
AcDbLine
 10
9.802531195555729
 20
14.4642849813535
 30
0.0
 11
10.20507985793092
 21
14.4642849813535
 31
0.0
  0
LINE
  5
357
330
32D
100
AcDbEntity
  8
ADPDIM
 62
     0
370
    -2
100
AcDbLine
 10
11.56762852030612
 20
14.4642849813535
 30
0.0
 11
11.16507985793093
 21
14.4642849813535
 31
0.0
  0
SOLID
  5
358
330
32D
100
AcDbEntity
  8
ADPDIM
 62
     0
100
AcDbTrace
 10
9.802531195555729
 20
14.4942849813535
 30
0.0
 11
9.802531195555729
 21
14.4342849813535
 31
0.0
 12
9.62253119555573
 22
14.4642849813535
 32
0.0
 13
9.62253119555573
 23
14.4642849813535
 33
0.0
  0
SOLID
  5
359
330
32D
100
AcDbEntity
  8
ADPDIM
 62
     0
100
AcDbTrace
 10
11.56762852030612
 20
14.4942849813535
 30
0.0
 11
11.56762852030612
 21
14.4342849813535
 31
0.0
 12
11.74762852030612
 22
14.4642849813535
 32
0.0
 13
11.74762852030612
 23
14.4642849813535
 33
0.0
  0
MTEXT
  5
35A
330
32D
100
AcDbEntity
  8
ADPDIM
 62
     0
100
AcDbMText
 10
10.68507985793093
 20
14.4642849813535
 30
0.0
 40
0.18
 41
0.0
 71
     5
 72
     1
  1
\A1;2 1/8
 73
     1
 44
1.0
1001
ACAD
1000
MTEXTBEGIN
1070
    73
1070
     1
1070
    44
1040
1.0
1070
    74
1070
     0
1000
MTEXTEND
  0
POINT
  5
35B
330
32D
100
AcDbEntity
  8
DEFPOINTS
 62
     0
100
AcDbPoint
 10
9.62253119555573
 20
13.82658078826165
 30
0.0
  0
POINT
  5
35C
330
32D
100
AcDbEntity
  8
DEFPOINTS
 62
     0
100
AcDbPoint
 10
11.74762852030612
 20
13.82658078826165
 30
0.0
  0
POINT
  5
35D
330
32D
100
AcDbEntity
  8
DEFPOINTS
 62
     0
100
AcDbPoint
 10
11.74762852030612
 20
14.4642849813535
 30
0.0
  0
ENDBLK
  5
339
330
32D
100
AcDbEntity
  8
0
100
AcDbBlockEnd
  0
BLOCK
  5
345
330
33A
100
AcDbEntity
  8
0
100
AcDbBlockBegin
  2
*D11
 70
     1
 10
0.0
 20
0.0
 30
0.0
  3
*D11
  1

  0
LINE
  5
35E
330
33A
100
AcDbEntity
  8
ADPDIM
 62
     0
370
    -2
100
AcDbLine
 10
9.899170997694945
 20
13.3764370541692
 30
0.0
 11
9.899170997694945
 21
12.78130416757015
 31
0.0
  0
LINE
  5
35F
330
33A
100
AcDbEntity
  8
ADPDIM
 62
     0
370
    -2
100
AcDbLine
 10
11.45841413751518
 20
13.3764370541692
 30
0.0
 11
11.45841413751518
 21
12.78130416757015
 31
0.0
  0
LINE
  5
360
330
33A
100
AcDbEntity
  8
ADPDIM
 62
     0
370
    -2
100
AcDbLine
 10
9.719170997694945
 20
12.96130416757015
 30
0.0
 11
9.539170997694945
 21
12.96130416757015
 31
0.0
  0
LINE
  5
361
330
33A
100
AcDbEntity
  8
ADPDIM
 62
     0
370
    -2
100
AcDbLine
 10
11.63841413751518
 20
12.96130416757015
 30
0.0
 11
11.81841413751518
 21
12.96130416757015
 31
0.0
  0
SOLID
  5
362
330
33A
100
AcDbEntity
  8
ADPDIM
 62
     0
100
AcDbTrace
 10
9.719170997694945
 20
12.99130416757015
 30
0.0
 11
9.719170997694945
 21
12.93130416757015
 31
0.0
 12
9.899170997694945
 22
12.96130416757015
 32
0.0
 13
9.899170997694945
 23
12.96130416757015
 33
0.0
  0
SOLID
  5
363
330
33A
100
AcDbEntity
  8
ADPDIM
 62
     0
100
AcDbTrace
 10
11.63841413751518
 20
12.99130416757015
 30
0.0
 11
11.63841413751518
 21
12.93130416757015
 31
0.0
 12
11.45841413751518
 22
12.96130416757015
 32
0.0
 13
11.45841413751518
 23
12.96130416757015
 33
0.0
  0
MTEXT
  5
364
330
33A
100
AcDbEntity
  8
ADPDIM
 62
     0
100
AcDbMText
 10
10.67879256760506
 20
12.96130416757015
 30
0.0
 40
0.18
 41
0.0
 71
     5
 72
     1
  1
\A1;1 9/16
 73
     1
 44
1.0
1001
ACAD
1000
MTEXTBEGIN
1070
    73
1070
     1
1070
    44
1040
1.0
1070
    74
1070
     0
1000
MTEXTEND
  0
POINT
  5
365
330
33A
100
AcDbEntity
  8
DEFPOINTS
 62
     0
100
AcDbPoint
 10
9.899170997694945
 20
13.4389370541692
 30
0.0
  0
POINT
  5
366
330
33A
100
AcDbEntity
  8
DEFPOINTS
 62
     0
100
AcDbPoint
 10
11.45841413751518
 20
13.4389370541692
 30
0.0
  0
POINT
  5
367
330
33A
100
AcDbEntity
  8
DEFPOINTS
 62
     0
100
AcDbPoint
 10
11.45841413751518
 20
12.96130416757015
 30
0.0
  0
ENDBLK
  5
346
330
33A
100
AcDbEntity
  8
0
100
AcDbBlockEnd
  0
BLOCK
  5
352
330
347
100
AcDbEntity
  8
0
100
AcDbBlockBegin
  2
*D12
 70
     1
 10
0.0
 20
0.0
 30
0.0
  3
*D12
  1

  0
LINE
  5
372
330
347
100
AcDbEntity
  8
ADPDIM
 62
     0
370
    -2
100
AcDbLine
 10
10.03021971271217
 20
13.55900177679417
 30
0.0
 11
10.03021971271217
 21
13.26286007420612
 31
0.0
  0
LINE
  5
373
330
347
100
AcDbEntity
  8
ADPDIM
 62
     0
370
    -2
100
AcDbLine
 10
11.34271971271217
 20
13.55900177679417
 30
0.0
 11
11.34271971271217
 21
13.26286007420612
 31
0.0
  0
LINE
  5
374
330
347
100
AcDbEntity
  8
ADPDIM
 62
     0
370
    -2
100
AcDbLine
 10
11.16271971271217
 20
13.44286007420612
 30
0.0
 11
10.21021971271217
 21
13.44286007420612
 31
0.0
  0
LINE
  5
375
330
347
100
AcDbEntity
  8
ADPDIM
 62
     0
370
    -2
100
AcDbLine
 10
10.03021971271217
 20
13.44286007420612
 30
0.0
 11
9.470040834398929
 21
13.44286007420612
 31
0.0
  0
SOLID
  5
376
330
347
100
AcDbEntity
  8
ADPDIM
 62
     0
100
AcDbTrace
 10
11.16271971271217
 20
13.47286007420612
 30
0.0
 11
11.16271971271217
 21
13.41286007420612
 31
0.0
 12
11.34271971271217
 22
13.44286007420612
 32
0.0
 13
11.34271971271217
 23
13.44286007420612
 33
0.0
  0
SOLID
  5
377
330
347
100
AcDbEntity
  8
ADPDIM
 62
     0
100
AcDbTrace
 10
10.21021971271217
 20
13.47286007420612
 30
0.0
 11
10.21021971271217
 21
13.41286007420612
 31
0.0
 12
10.03021971271217
 22
13.44286007420612
 32
0.0
 13
10.03021971271217
 23
13.44286007420612
 33
0.0
  0
MTEXT
  5
378
330
347
100
AcDbEntity
  8
ADPDIM
 62
     0
100
AcDbMText
 10
8.93004083439893
 20
13.44286007420612
 30
0.0
 40
0.18
 41
0.0
 71
     5
 72
     1
  1
\A1;1 5/16
 73
     1
 44
1.0
1001
ACAD
1000
MTEXTBEGIN
1070
    73
1070
     1
1070
    44
1040
1.0
1070
    74
1070
     0
1000
MTEXTEND
  0
POINT
  5
379
330
347
100
AcDbEntity
  8
DEFPOINTS
 62
     0
100
AcDbPoint
 10
10.03021971271217
 20
13.62150177679417
 30
0.0
  0
POINT
  5
37A
330
347
100
AcDbEntity
  8
DEFPOINTS
 62
     0
100
AcDbPoint
 10
11.34271971271217
 20
13.62150177679417
 30
0.0
  0
POINT
  5
37B
330
347
100
AcDbEntity
  8
DEFPOINTS
 62
     0
100
AcDbPoint
 10
11.34271971271217
 20
13.44286007420612
 30
0.0
  0
ENDBLK
  5
353
330
347
100
AcDbEntity
  8
0
100
AcDbBlockEnd
  0
ENDSEC
  0
SECTION
  2
ENTITIES
  0
DIMENSION
  5
1E
330
2
100
AcDbEntity
  8
ADPDIM
  6
Continuous
100
AcDbDimension
  2
*D1
 10
15.81787537248374
 20
13.29956321450654
 30
0.0
 11
14.00535443501933
 21
13.29956321450654
 31
0.0
 70
    32
 71
     5
 42
-1.0
  3
STANDARD
100
AcDbAlignedDimension
 13
12.19283349755493
 23
13.59050056963815
 33
0.0
 14
15.81787537248374
 24
13.96426533987726
 34
0.0
100
AcDbRotatedDimension
1001
ACAD
1000
DSTYLE
1002
{
1070
   270
1070
     7
1070
   270
1070
     7
1070
   270
1070
     7
1070
   270
1070
     7
1070
    41
1040
0.1875
1070
    43
1040
0.375
1070
    44
1040
0.1875
1070
    78
1070
     2
1070
   141
1040
0.09375
1070
   147
1040
0.09375
1070
   173
1070
     1
1070
   271
1070
     3
1070
   276
1070
     2
1070
   277
1070
     5
1070
     6
1000
OBLIQUE
1070
     7
1000
OBLIQUE
1002
}
  0
LINE
  5
31
330
2
100
AcDbEntity
  8
ADP1DETAIL
100
AcDbLine
 10
12.19283349755493
 20
14.31740770362545
 30
0.0
 11
14.81783349755493
 21
14.31740770362545
 31
0.0
  0
LINE
  5
33
330
2
100
AcDbEntity
  8
ADP1DETAIL
100
AcDbLine
 10
15.54283349755493
 20
13.59050056963815
 30
0.0
 11
12.19283349755493
 21
13.59050056963815
 31
0.0
  0
LINE
  5
34
330
2
100
AcDbEntity
  8
ADP1DETAIL
  6
Continuous
100
AcDbLine
 10
15.81783349755493
 20
14.68723762436862
 30
0.0
 11
12.19283349755493
 21
14.68723762436862
 31
0.0
  0
LINE
  5
35
330
2
100
AcDbEntity
  8
ADP1DETAIL
  6
Continuous
100
AcDbLine
 10
12.19283349755493
 20
16.81223762436862
 30
0.0
 11
15.81783349755493
 21
16.81223762436862
 31
0.0
  0
LINE
  5
36
330
2
100
AcDbEntity
  8
ADP2DETAIL
  6
HIDDEN2
100
AcDbLine
 10
12.19283349755493
 20
13.83280293532452
 30
0.0
 11
15.41783349755493
 21
13.83280293532451
 31
0.0
  0
LINE
  5
39
330
2
100
AcDbEntity
  8
ADP2DETAIL
  6
HIDDEN2
100
AcDbLine
 10
12.19283349755493
 20
13.96033049038131
 30
0.0
 11
15.31783349755493
 21
13.96033049038131
 31
0.0
  0
LINE
  5
3A
330
2
100
AcDbEntity
  8
ADP2DETAIL
  6
HIDDEN2
100
AcDbLine
 10
12.19283349755493
 20
13.70527538026772
 30
0.0
 11
15.54283349755493
 21
13.70527538026771
 31
0.0
  0
LINE
  5
3B
330
2
100
AcDbEntity
  8
ADP1DETAIL
  6
Continuous
100
AcDbLine
 10
12.19283349755493
 20
14.68723762436862
 30
0.0
 11
12.19283349755493
 21
16.81223762436862
 31
0.0
  0
LINE
  5
72
330
2
100
AcDbEntity
  8
ADP1DETAIL
100
AcDbLine
 10
12.19283349755493
 20
13.59050056963815
 30
0.0
 11
12.19283349755493
 21
14.31740770362545
 31
0.0
  0
LINE
  5
73
330
2
100
AcDbEntity
  8
ADP1DETAIL
  6
Continuous
100
AcDbLine
 10
15.81783349755493
 20
16.81223762436862
 30
0.0
 11
15.81783349755493
 21
14.68723762436862
 31
0.0
  0
ARC
  5
74
330
2
100
AcDbEntity
  8
ADP1DETAIL
  6
Continuous
100
AcDbCircle
 10
15.88228662255493
 20
15.74973762436862
 30
0.0
 40
1.064453125000003
100
AcDbArc
 50
93.47140917785676
 51
266.5285908221433
  0
LWPOLYLINE
  5
75
330
2
100
AcDbEntity
  8
ADP1DETAIL
  6
Continuous
100
AcDbPolyline
 90
        4
 70
     0
 43
0.0
 10
14.81783349755493
 20
14.31740770362545
 42
-0.1309294545738311
 10
15.75783349755494
 20
14.13803011011638
 42
-0.3455353743234627
 10
15.75783349755493
 20
13.79050056963815
 42
-0.3949349182824334
 10
15.54283349755493
 20
13.59050056963815
 42
-0.0998501853831555
  0
LINE
  5
7B
330
2
100
AcDbEntity
  8
ADP2DETAIL
  6
HIDDEN2
100
AcDbLine
 10
15.31783349755493
 20
13.83280293532452
 30
0.0
 11
15.31783349755493
 21
13.96033049038131
 31
0.0
  0
LINE
  5
7C
330
2
100
AcDbEntity
  8
ADP2DETAIL
  6
HIDDEN2
100
AcDbLine
 10
15.41783349755493
 20
13.70527538026771
 30
0.0
 11
15.41783349755493
 21
13.83280293532451
 31
0.0
  0
LINE
  5
7D
330
2
100
AcDbEntity
  8
ADP2DETAIL
  6
HIDDEN2
100
AcDbLine
 10
15.54283349755493
 20
13.59050056963815
 30
0.0
 11
15.54283349755493
 21
13.70527538026771
 31
0.0
  0
TEXT
  5
88
330
2
100
AcDbEntity
  8
ADPDIM
100
AcDbText
 10
5.949830555347244
 20
12.15339653666021
 30
0.0
 40
0.125
  1
J U L I U S  B L U M  &  C O . ,  I N C .      ( 8 0 0 )  5 2 6 - 6 2 9 3        W W W . J U L I U S B L U M . C O M        P A R T  N o .  5 2 3 5 - N
 41
1.25
  7
ARIAL_WIDE
 72
     1
 11
12.65136747553824
 21
12.27839653666021
 31
0.0
100
AcDbText
 73
     3
  0
DIMENSION
  5
329
330
2
100
AcDbEntity
  8
ADPDIM
100
AcDbDimension
  2
*D10
 10
11.74762852030612
 20
14.4642849813535
 30
0.0
 11
10.68507985793093
 21
14.4642849813535
 31
0.0
 70
    32
 71
     5
 42
2.125097324750395
  3
STANDARD
100
AcDbAlignedDimension
 13
9.62253119555573
 23
13.82658078826165
 33
0.0
 14
11.74762852030612
 24
13.82658078826165
 34
0.0
100
AcDbRotatedDimension
1001
ACAD
1000
DSTYLE
1002
{
1070
   276
1070
     2
1070
   277
1070
     5
1002
}
  0
DIMENSION
  5
32A
330
2
100
AcDbEntity
  8
ADPDIM
100
AcDbDimension
  2
*D11
 10
11.45841413751518
 20
12.96130416757015
 30
0.0
 11
10.67879256760506
 21
12.96130416757015
 31
0.0
 70
    32
 71
     5
 42
1.559243139820239
  3
STANDARD
100
AcDbAlignedDimension
 13
9.899170997694945
 23
13.4389370541692
 33
0.0
 14
11.45841413751518
 24
13.4389370541692
 34
0.0
100
AcDbRotatedDimension
1001
ACAD
1000
DSTYLE
1002
{
1070
   276
1070
     2
1070
   277
1070
     5
1002
}
  0
DIMENSION
  5
32B
330
2
100
AcDbEntity
  8
ADPDIM
 62
     3
100
AcDbDimension
  2
*D12
 10
11.34271971271217
 20
13.44286007420612
 30
0.0
 11
8.93004083439893
 21
13.44286007420612
 31
0.0
 70
   160
 71
     5
 42
1.3125
  3
STANDARD
100
AcDbAlignedDimension
 13
10.03021971271217
 23
13.62150177679417
 33
0.0
 14
11.34271971271217
 24
13.62150177679417
 34
0.0
100
AcDbRotatedDimension
1001
ACAD
1000
DSTYLE
1002
{
1070
   276
1070
     2
1070
   277
1070
     5
1002
}
  0
INSERT
  5
32C
330
2
100
AcDbEntity
  8
0
 62
     7
100
AcDbBlockReference
  2
AI9-BLK1
 10
10.68000475953969
 20
13.89883165254219
 30
0.0
 41
0.0393242362713124
 42
0.0393242362713124
 43
0.0393242362713124
  0
ENDSEC
  0
SECTION
  2
OBJECTS
  0
DICTIONARY
  5
1A
330
0
100
AcDbDictionary
281
     1
  3
ACAD_COLOR
350
2C8
  3
ACAD_GROUP
350
18
  3
ACAD_LAYOUT
350
81
  3
ACAD_MATERIAL
350
2B3
  3
ACAD_MLINESTYLE
350
19
  3
ACAD_PLOTSETTINGS
350
82
  3
ACAD_PLOTSTYLENAME
350
7F
  3
ACAD_TABLESTYLE
350
2C9
  3
ACAD_VISUALSTYLE
350
2B7
  3
AcDbVariableDictionary
350
132
  3
ASE_INDEX_DICTIONARY
350
387
  3
DWGPROPS
350
3A8
  0
DICTIONARY
  5
103
330
2
100
AcDbDictionary
280
     1
281
     1
  3
ACAD_LAYOUTSELFREF
360
28C
  0
DICTIONARY
  5
105
330
8
100
AcDbDictionary
280
     1
281
     1
  3
ACAD_LAYOUTSELFREF
360
28D
  0
DICTIONARY
  5
2C8
102
{ACAD_REACTORS
330
1A
102
}
330
1A
100
AcDbDictionary
281
     1
  0
DICTIONARY
  5
18
102
{ACAD_REACTORS
330
1A
102
}
330
1A
100
AcDbDictionary
281
     1
  0
DICTIONARY
  5
81
102
{ACAD_REACTORS
330
1A
102
}
330
1A
100
AcDbDictionary
281
     1
  3
Layout1
350
84
  3
Model
350
83
  0
DICTIONARY
  5
2B3
102
{ACAD_REACTORS
330
1A
102
}
330
1A
100
AcDbDictionary
281
     1
  3
ByBlock
350
2B5
  3
ByLayer
350
2B4
  3
Global
350
2B6
  0
DICTIONARY
  5
19
102
{ACAD_REACTORS
330
1A
102
}
330
1A
100
AcDbDictionary
281
     1
  3
STANDARD
350
1C
  0
DICTIONARY
  5
82
102
{ACAD_REACTORS
330
1A
102
}
330
1A
100
AcDbDictionary
281
     1
  0
ACDBDICTIONARYWDFLT
  5
7F
102
{ACAD_REACTORS
330
1A
102
}
330
1A
100
AcDbDictionary
281
     1
  3
Normal
350
80
100
AcDbDictionaryWithDefault
340
80
  0
DICTIONARY
  5
2C9
102
{ACAD_REACTORS
330
1A
102
}
330
1A
100
AcDbDictionary
281
     1
  3
Standard
350
2CA
  0
DICTIONARY
  5
2B7
102
{ACAD_REACTORS
330
1A
102
}
330
1A
100
AcDbDictionary
281
     1
  3
2dWireframe
350
2BD
  3
3D Hidden
350
2BF
  3
3dWireframe
350
2BE
  3
Basic
350
2BC
  3
Brighten
350
2C3
  3
ColorChange
350
2C7
  3
Conceptual
350
2C0
  3
Dim
350
2C2
  3
Facepattern
350
2C6
  3
Flat
350
2B8
  3
FlatWithEdges
350
2B9
  3
Gouraud
350
2BA
  3
GouraudWithEdges
350
2BB
  3
Linepattern
350
2C5
  3
Realistic
350
2C1
  3
Thicken
350
2C4
  0
DICTIONARY
  5
132
102
{ACAD_REACTORS
330
1A
102
}
330
1A
100
AcDbDictionary
281
     1
  3
CTABLESTYLE
350
3A5
  3
DIMASSOC
350
133
  3
INDEXCTL
350
3A7
  3
SORTENTS
350
3A6
  0
DICTIONARY
  5
387
102
{ACAD_REACTORS
330
1A
102
}
330
1A
100
AcDbDictionary
281
     1
  3
ASEBlockHierarchyIndexRecord
350
388
1001
DCO15
1040
1569005900.353
  0
XRECORD
  5
3A8
102
{ACAD_REACTORS
330
1A
102
}
330
1A
100
AcDbXrecord
280
     1
  1
DWGPROPS COOKIE
  2

  3

  4

  6

  7

  8
Yu Hu
  9

300
=
301
=
302
=
303
=
304
=
305
=
306
=
307
=
308
=
309
=
 40
0.0672237268518519
 41
2450358.97760301
 42
2453963.002365197
  1

 90
        0
  0
XRECORD
  5
28C
102
{ACAD_REACTORS
330
103
102
}
330
103
100
AcDbXrecord
280
     1
340
2
  0
XRECORD
  5
28D
102
{ACAD_REACTORS
330
105
102
}
330
105
100
AcDbXrecord
280
     1
340
8
  0
LAYOUT
  5
84
102
{ACAD_XDICTIONARY
360
3AB
102
}
102
{ACAD_REACTORS
330
81
102
}
330
81
100
AcDbPlotSettings
  1

  2
Fax
  4

  6

 40
0.0
 41
0.0
 42
0.0
 43
0.0
 44
0.0
 45
0.0
 46
0.0
 47
0.0
 48
0.0
 49
0.0
140
0.0
141
0.0
142
1.0
143
1.0
 70
   688
 72
     0
 73
     0
 74
     5
  7
Default R14 pen assignments.ctb
 75
    16
147
1.0
148
0.0
149
0.0
100
AcDbLayout
  1
Layout1
 70
     1
 71
     1
 10
-21.61579290080726
 20
-19.96805058542324
 11
-9.61579290080726
 21
-10.96805058542324
 12
0.0
 22
0.0
 32
0.0
 14
1.000000000000000E+20
 24
1.000000000000000E+20
 34
1.000000000000000E+20
 15
-1.000000000000000E+20
 25
-1.000000000000000E+20
 35
-1.000000000000000E+20
146
0.0
 13
0.0
 23
0.0
 33
0.0
 16
1.0
 26
0.0
 36
0.0
 17
0.0
 27
1.0
 37
0.0
 76
     0
330
8
  0
LAYOUT
  5
83
102
{ACAD_XDICTIONARY
360
3A9
102
}
102
{ACAD_REACTORS
330
81
102
}
330
81
100
AcDbPlotSettings
  1

  2
Fax
  4

  6

 40
0.0
 41
0.0
 42
0.0
 43
0.0
 44
0.0
 45
0.0
 46
0.0
 47
0.0
 48
0.0
 49
0.0
140
0.0
141
0.0
142
1.0
143
1.0
 70
  1712
 72
     0
 73
     0
 74
     0
  7
Default R14 pen assignments.ctb
 75
     0
147
1.0
148
0.0
149
0.0
100
AcDbLayout
  1
Model
 70
     1
 71
     0
 10
0.0
 20
0.0
 11
12.0
 21
9.0
 12
0.0
 22
0.0
 32
0.0
 14
0.0
 24
0.0
 34
0.0
 15
0.0
 25
0.0
 35
0.0
146
0.0
 13
0.0
 23
0.0
 33
0.0
 16
1.0
 26
0.0
 36
0.0
 17
0.0
 27
1.0
 37
0.0
 76
     0
330
2
331
268
  0
MATERIAL
  5
2B5
102
{ACAD_XDICTIONARY
360
3AF
102
}
102
{ACAD_REACTORS
330
2B3
102
}
330
2B3
100
AcDbMaterial
  1
ByBlock
  0
MATERIAL
  5
2B4
102
{ACAD_XDICTIONARY
360
3AD
102
}
102
{ACAD_REACTORS
330
2B3
102
}
330
2B3
100
AcDbMaterial
  1
ByLayer
  0
MATERIAL
  5
2B6
102
{ACAD_XDICTIONARY
360
3B1
102
}
102
{ACAD_REACTORS
330
2B3
102
}
330
2B3
100
AcDbMaterial
  1
Global
  0
MLINESTYLE
  5
1C
102
{ACAD_REACTORS
330
19
102
}
330
19
100
AcDbMlineStyle
  2
STANDARD
 70
     0
  3

 62
     0
 51
90.0
 52
90.0
 71
     2
 49
0.5
 62
   256
  6
BYLAYER
 49
-0.5
 62
   256
  6
BYLAYER
  0
ACDBPLACEHOLDER
  5
80
102
{ACAD_REACTORS
330
7F
102
}
330
7F
  0
TABLESTYLE
  5
2CA
102
{ACAD_XDICTIONARY
360
3B3
102
}
102
{ACAD_REACTORS
330
2C9
102
}
330
2C9
100
AcDbTableStyle
  3
Standard
 70
     0
 71
     0
 40
0.06
 41
0.06
280
     0
281
     0
  7
STANDARD
140
0.18
170
     2
 62
     0
 63
     7
283
     0
274
    -2
284
     1
 64
     0
275
    -2
285
     1
 65
     0
276
    -2
286
     1
 66
     0
277
    -2
287
     1
 67
     0
278
    -2
288
     1
 68
     0
279
    -2
289
     1
 69
     0
  7
STANDARD
140
0.25
170
     5
 62
     0
 63
     7
283
     0
274
    -2
284
     1
 64
     0
275
    -2
285
     1
 65
     0
276
    -2
286
     1
 66
     0
277
    -2
287
     1
 67
     0
278
    -2
288
     1
 68
     0
279
    -2
289
     1
 69
     0
  7
STANDARD
140
0.18
170
     5
 62
     0
 63
     7
283
     0
274
    -2
284
     1
 64
     0
275
    -2
285
     1
 65
     0
276
    -2
286
     1
 66
     0
277
    -2
287
     1
 67
     0
278
    -2
288
     1
 68
     0
279
    -2
289
     1
 69
     0
  0
VISUALSTYLE
  5
2BD
102
{ACAD_REACTORS
330
2B7
102
}
330
2B7
100
AcDbVisualStyle
  2
2dWireframe
 70
     4
 71
     0
 72
     2
 73
     0
 90
        0
 40
-0.6
 41
-30.0
 62
     5
 63
     7
 74
     1
 91
        4
 64
     7
 65
   257
 75
     1
175
     1
 42
1.0
 92
        0
 66
   257
 43
1.0
 76
     1
 77
     6
 78
     2
 67
     7
 79
     5
170
     0
171
     0
290
     0
174
     0
 93
        1
 44
0.0
173
     0
291
     0
 45
0.0
1001
ACAD
1000
AcDbSavedByObjectVersion
1070
     0
  0
VISUALSTYLE
  5
2BF
102
{ACAD_REACTORS
330
2B7
102
}
330
2B7
100
AcDbVisualStyle
  2
3D Hidden
 70
     6
 71
     1
 72
     2
 73
     2
 90
        0
 40
-0.6
 41
-30.0
 62
     5
 63
     7
 74
     2
 91
        2
 64
     7
 65
   257
 75
     2
175
     1
 42
40.0
 92
        0
 66
   257
 43
1.0
 76
     1
 77
     6
 78
     2
 67
     7
 79
     3
170
     0
171
     0
290
     0
174
     0
 93
        1
 44
0.0
173
     0
291
     0
 45
0.0
1001
ACAD
1000
AcDbSavedByObjectVersion
1070
     0
  0
VISUALSTYLE
  5
2BE
102
{ACAD_REACTORS
330
2B7
102
}
330
2B7
100
AcDbVisualStyle
  2
3dWireframe
 70
     5
 71
     0
 72
     2
 73
     0
 90
        0
 40
-0.6
 41
-30.0
 62
     5
 63
     7
 74
     1
 91
        4
 64
     7
 65
   257
 75
     1
175
     1
 42
1.0
 92
        0
 66
   257
 43
1.0
 76
     1
 77
     6
 78
     2
 67
     7
 79
     5
170
     0
171
     0
290
     0
174
     0
 93
        1
 44
0.0
173
     0
291
     0
 45
0.0
1001
ACAD
1000
AcDbSavedByObjectVersion
1070
     0
  0
VISUALSTYLE
  5
2BC
102
{ACAD_REACTORS
330
2B7
102
}
330
2B7
100
AcDbVisualStyle
  2
Basic
 70
     7
 71
     1
 72
     0
 73
     1
 90
        0
 40
-0.6
 41
-30.0
 62
     5
 63
     7
 74
     0
 91
        4
 64
     7
 65
   257
 75
     1
175
     1
 42
1.0
 92
        8
 66
     7
 43
1.0
 76
     1
 77
     6
 78
     2
 67
     7
 79
     5
170
     0
171
     0
290
     0
174
     0
 93
        1
 44
0.0
173
     0
291
     1
 45
0.0
1001
ACAD
1000
AcDbSavedByObjectVersion
1070
     0
  0
VISUALSTYLE
  5
2C3
102
{ACAD_REACTORS
330
2B7
102
}
330
2B7
100
AcDbVisualStyle
  2
Brighten
 70
    12
 71
     2
 72
     2
 73
     0
 90
        0
 40
-0.6
 41
-30.0
 62
     5
 63
     7
 74
     1
 91
        4
 64
     7
 65
   257
 75
     1
175
     1
 42
1.0
 92
        8
 66
     7
 43
1.0
 76
     1
 77
     6
 78
     2
 67
     7
 79
     5
170
     0
171
     0
290
     0
174
     0
 93
        1
 44
50.0
173
     0
291
     1
 45
0.0
1001
ACAD
1000
AcDbSavedByObjectVersion
1070
     0
  0
VISUALSTYLE
  5
2C7
102
{ACAD_REACTORS
330
2B7
102
}
330
2B7
100
AcDbVisualStyle
  2
ColorChange
 70
    16
 71
     2
 72
     2
 73
     3
 90
        0
 40
-0.6
 41
-30.0
 62
     5
 63
     8
 74
     1
 91
        4
 64
     7
 65
   257
 75
     1
175
     1
 42
1.0
 92
        8
 66
     8
 43
1.0
 76
     1
 77
     6
 78
     2
 67
     7
 79
     5
170
     0
171
     0
290
     0
174
     0
 93
        1
 44
0.0
173
     0
291
     1
 45
0.0
1001
ACAD
1000
AcDbSavedByObjectVersion
1070
     0
  0
VISUALSTYLE
  5
2C0
102
{ACAD_REACTORS
330
2B7
102
}
330
2B7
100
AcDbVisualStyle
  2
Conceptual
 70
     9
 71
     3
 72
     2
 73
     0
 90
        0
 40
-0.6
 41
-30.0
 62
     5
 63
     7
 74
     2
 91
        2
 64
     7
 65
   257
 75
     1
175
     1
 42
40.0
 92
        8
 66
     7
 43
1.0
 76
     1
 77
     6
 78
     2
 67
     7
 79
     3
170
     0
171
     0
290
     0
174
     0
 93
        1
 44
0.0
173
     0
291
     0
 45
0.0
1001
ACAD
1000
AcDbSavedByObjectVersion
1070
     0
  0
VISUALSTYLE
  5
2C2
102
{ACAD_REACTORS
330
2B7
102
}
330
2B7
100
AcDbVisualStyle
  2
Dim
 70
    11
 71
     2
 72
     2
 73
     0
 90
        0
 40
-0.6
 41
-30.0
 62
     5
 63
     7
 74
     1
 91
        4
 64
     7
 65
   257
 75
     1
175
     1
 42
1.0
 92
        8
 66
     7
 43
1.0
 76
     1
 77
     6
 78
     2
 67
     7
 79
     5
170
     0
171
     0
290
     0
174
     0
 93
        1
 44
-50.0
173
     0
291
     1
 45
0.0
1001
ACAD
1000
AcDbSavedByObjectVersion
1070
     0
  0
VISUALSTYLE
  5
2C6
102
{ACAD_REACTORS
330
2B7
102
}
330
2B7
100
AcDbVisualStyle
  2
Facepattern
 70
    15
 71
     2
 72
     2
 73
     0
 90
        0
 40
-0.6
 41
-30.0
 62
     5
 63
     7
 74
     1
 91
        4
 64
     7
 65
   257
 75
     1
175
     1
 42
1.0
 92
        8
 66
     7
 43
1.0
 76
     1
 77
     6
 78
     2
 67
     7
 79
     5
170
     0
171
     0
290
     0
174
     0
 93
        1
 44
0.0
173
     0
291
     1
 45
0.0
1001
ACAD
1000
AcDbSavedByObjectVersion
1070
     0
  0
VISUALSTYLE
  5
2B8
102
{ACAD_REACTORS
330
2B7
102
}
330
2B7
100
AcDbVisualStyle
  2
Flat
 70
     0
 71
     2
 72
     1
 73
     1
 90
        2
 40
-0.6
 41
30.0
 62
     5
 63
     7
 74
     0
 91
        4
 64
     7
 65
   257
 75
     1
175
     1
 42
1.0
 92
        8
 66
     7
 43
1.0
 76
     1
 77
     6
 78
     2
 67
     7
 79
     5
170
     0
171
     0
290
     0
174
     0
 93
       13
 44
0.0
173
     0
291
     1
 45
0.0
1001
ACAD
1000
AcDbSavedByObjectVersion
1070
     0
  0
VISUALSTYLE
  5
2B9
102
{ACAD_REACTORS
330
2B7
102
}
330
2B7
100
AcDbVisualStyle
  2
FlatWithEdges
 70
     1
 71
     2
 72
     1
 73
     1
 90
        2
 40
-0.6
 41
30.0
 62
     5
 63
     7
 74
     1
 91
        4
 64
     7
 65
   257
 75
     1
175
     1
 42
1.0
 92
        0
 66
   257
 43
1.0
 76
     1
 77
     6
 78
     2
 67
     7
 79
     5
170
     0
171
     0
290
     0
174
     0
 93
       13
 44
0.0
173
     0
291
     1
 45
0.0
1001
ACAD
1000
AcDbSavedByObjectVersion
1070
     0
  0
VISUALSTYLE
  5
2BA
102
{ACAD_REACTORS
330
2B7
102
}
330
2B7
100
AcDbVisualStyle
  2
Gouraud
 70
     2
 71
     2
 72
     2
 73
     1
 90
        2
 40
-0.6
 41
30.0
 62
     5
 63
     7
 74
     0
 91
        4
 64
     7
 65
   257
 75
     1
175
     1
 42
1.0
 92
        0
 66
     7
 43
1.0
 76
     1
 77
     6
 78
     2
 67
     7
 79
     5
170
     0
171
     0
290
     0
174
     0
 93
       13
 44
0.0
173
     0
291
     1
 45
0.0
1001
ACAD
1000
AcDbSavedByObjectVersion
1070
     0
  0
VISUALSTYLE
  5
2BB
102
{ACAD_REACTORS
330
2B7
102
}
330
2B7
100
AcDbVisualStyle
  2
GouraudWithEdges
 70
     3
 71
     2
 72
     2
 73
     1
 90
        2
 40
-0.6
 41
30.0
 62
     5
 63
     7
 74
     1
 91
        4
 64
     7
 65
   257
 75
     1
175
     1
 42
1.0
 92
        0
 66
   257
 43
1.0
 76
     1
 77
     6
 78
     2
 67
     7
 79
     5
170
     0
171
     0
290
     0
174
     0
 93
       13
 44
0.0
173
     0
291
     1
 45
0.0
1001
ACAD
1000
AcDbSavedByObjectVersion
1070
     0
  0
VISUALSTYLE
  5
2C5
102
{ACAD_REACTORS
330
2B7
102
}
330
2B7
100
AcDbVisualStyle
  2
Linepattern
 70
    14
 71
     2
 72
     2
 73
     0
 90
        0
 40
-0.6
 41
-30.0
 62
     5
 63
     7
 74
     1
 91
        4
 64
     7
 65
   257
 75
     7
175
     7
 42
1.0
 92
        8
 66
     7
 43
1.0
 76
     1
 77
     6
 78
     2
 67
     7
 79
     5
170
     0
171
     0
290
     0
174
     0
 93
        1
 44
0.0
173
     0
291
     1
 45
0.0
1001
ACAD
1000
AcDbSavedByObjectVersion
1070
     0
  0
VISUALSTYLE
  5
2C1
102
{ACAD_REACTORS
330
2B7
102
}
330
2B7
100
AcDbVisualStyle
  2
Realistic
 70
     8
 71
     2
 72
     2
 73
     0
 90
        0
 40
-0.6
 41
-30.0
 62
     5
 63
     7
 74
     1
 91
        0
 64
     7
 65
   257
 75
     1
175
     1
 42
1.0
 92
        8
 66
     8
 43
1.0
 76
     1
 77
     6
 78
     2
 67
     7
 79
     5
170
     0
171
     0
290
     0
174
     0
 93
       13
 44
0.0
173
     0
291
     0
 45
0.0
1001
ACAD
1000
AcDbSavedByObjectVersion
1070
     0
  0
VISUALSTYLE
  5
2C4
102
{ACAD_REACTORS
330
2B7
102
}
330
2B7
100
AcDbVisualStyle
  2
Thicken
 70
    13
 71
     2
 72
     2
 73
     0
 90
        0
 40
-0.6
 41
-30.0
 62
     5
 63
     7
 74
     1
 91
        4
 64
     7
 65
   257
 75
     1
175
     1
 42
1.0
 92
       12
 66
     7
 43
1.0
 76
     1
 77
     6
 78
     2
 67
     7
 79
     5
170
     0
171
     0
290
     0
174
     0
 93
        1
 44
0.0
173
     0
291
     1
 45
0.0
1001
ACAD
1000
AcDbSavedByObjectVersion
1070
     0
  0
DICTIONARYVAR
  5
3A5
102
{ACAD_REACTORS
330
132
102
}
330
132
100
DictionaryVariables
280
     0
  1
STANDARD
  0
DICTIONARYVAR
  5
133
102
{ACAD_REACTORS
330
132
102
}
330
132
100
DictionaryVariables
280
     0
  1
1
  0
DICTIONARYVAR
  5
3A7
102
{ACAD_REACTORS
330
132
102
}
330
132
100
DictionaryVariables
280
     0
  1
0
  0
DICTIONARYVAR
  5
3A6
102
{ACAD_REACTORS
330
132
102
}
330
132
100
DictionaryVariables
280
     0
  1
127
  0
XRECORD
  5
388
102
{ACAD_REACTORS
330
387
102
}
330
387
100
AcDbXrecord
280
     1
330
32C
330
294
330
295
330
2A0
330
2A1
330
2AA
330
2AB
  0
DICTIONARY
  5
3AB
330
84
100
AcDbDictionary
280
     1
281
     1
  3
ACAD_XREC_ROUNDTRIP
360
3AC
  0
DICTIONARY
  5
3A9
330
83
100
AcDbDictionary
280
     1
281
     1
  3
ACAD_XREC_ROUNDTRIP
360
3AA
  0
DICTIONARY
  5
3AF
330
2B5
100
AcDbDictionary
280
     1
281
     1
  3
ACAD_XREC_ROUNDTRIP
360
3B0
  0
DICTIONARY
  5
3AD
330
2B4
100
AcDbDictionary
280
     1
281
     1
  3
ACAD_XREC_ROUNDTRIP
360
3AE
  0
DICTIONARY
  5
3B1
330
2B6
100
AcDbDictionary
280
     1
281
     1
  3
ACAD_XREC_ROUNDTRIP
360
3B2
  0
DICTIONARY
  5
3B3
330
2CA
100
AcDbDictionary
280
     1
281
     1
  3
ACAD_XREC_ROUNDTRIP
360
3B4
  0
XRECORD
  5
3AC
102
{ACAD_REACTORS
330
3AB
102
}
330
3AB
100
AcDbXrecord
280
     1
102
SHADEPLOT
 70
     0
102
SHADEPLOTRESLEVEL
 70
     2
102
SHADEPLOTCUSTOMDPI
 70
   300
  0
XRECORD
  5
3AA
102
{ACAD_REACTORS
330
3A9
102
}
330
3A9
100
AcDbXrecord
280
     1
102
SHADEPLOT
 70
     0
102
SHADEPLOTRESLEVEL
 70
     2
102
SHADEPLOTCUSTOMDPI
 70
   300
  0
XRECORD
  5
3B0
102
{ACAD_REACTORS
330
3AF
102
}
330
3AF
100
AcDbXrecord
280
     1
102
MATERIAL
148
0.0
149
0.0
149
0.0
 93
        0
 94
       63
282
     0
 72
     1
 77
     1
171
     1
175
     1
179
     1
273
     0
  0
XRECORD
  5
3AE
102
{ACAD_REACTORS
330
3AD
102
}
330
3AD
100
AcDbXrecord
280
     1
102
MATERIAL
148
0.0
149
0.0
149
0.0
 93
        0
 94
       63
282
     0
 72
     1
 77
     1
171
     1
175
     1
179
     1
273
     0
  0
XRECORD
  5
3B2
102
{ACAD_REACTORS
330
3B1
102
}
330
3B1
100
AcDbXrecord
280
     1
102
MATERIAL
148
0.0
149
0.0
149
0.0
 93
        0
 94
       63
282
     0
 72
     1
 77
     1
171
     1
175
     1
179
     1
273
     0
  0
XRECORD
  5
3B4
102
{ACAD_REACTORS
330
3B3
102
}
330
3B3
100
AcDbXrecord
280
     1
102
ACAD_ROUNDTRIP_PRE2007_TABLESTYLE
 90
      512
 91
        0
  1

 92
      512
 93
        0
  2

 94
      512
 95
        0
  3

  0
ENDSEC
  0
EOF
