  0
SECTION
  2
HEADER
  9
$ACADVER
  1
AC1015
  9
$ACADMAINTVER
 70
    20
  9
$DWGCODEPAGE
  3
ANSI_1252
  9
$INSBASE
 10
-16.45330512332581
 20
1.07345156520011
 30
0.0
  9
$EXTMIN
 10
-25.09008402561025
 20
-2.174277267768663
 30
0.0
  9
$EXTMAX
 10
-4.985473265037263
 20
7.136451565200108
 30
0.0
  9
$LIMMIN
 10
0.0
 20
0.0
  9
$LIMMAX
 10
36.0
 20
36.0
  9
$ORTHOMODE
 70
     1
  9
$REGENMODE
 70
     1
  9
$FILLMODE
 70
     1
  9
$QTEXTMODE
 70
     0
  9
$MIRRTEXT
 70
     1
  9
$LTSCALE
 40
1.0
  9
$ATTMODE
 70
     1
  9
$TEXTSIZE
 40
0.2
  9
$TRACEWID
 40
0.05
  9
$TEXTSTYLE
  7
STANDARD
  9
$CLAYER
  8
ADP1DETAIL
  9
$CELTYPE
  6
BYLAYER
  9
$CECOLOR
 62
   256
  9
$CELTSCALE
 40
1.0
  9
$DISPSILH
 70
     0
  9
$DIMSCALE
 40
1.0
  9
$DIMASZ
 40
0.125
  9
$DIMEXO
 40
0.0625
  9
$DIMDLI
 40
0.38
  9
$DIMRND
 40
0.0
  9
$DIMDLE
 40
0.0
  9
$DIMEXE
 40
0.18
  9
$DIMTP
 40
0.0
  9
$DIMTM
 40
0.0
  9
$DIMTXT
 40
0.125
  9
$DIMCEN
 40
0.1875
  9
$DIMTSZ
 40
0.125
  9
$DIMTOL
 70
     0
  9
$DIMLIM
 70
     0
  9
$DIMTIH
 70
     0
  9
$DIMTOH
 70
     0
  9
$DIMSE1
 70
     0
  9
$DIMSE2
 70
     0
  9
$DIMTAD
 70
     0
  9
$DIMZIN
 70
     3
  9
$DIMBLK
  1

  9
$DIMASO
 70
     1
  9
$DIMSHO
 70
     1
  9
$DIMPOST
  1

  9
$DIMAPOST
  1

  9
$DIMALT
 70
     0
  9
$DIMALTD
 70
     1
  9
$DIMALTF
 40
25.4
  9
$DIMLFAC
 40
1.0
  9
$DIMTOFL
 70
     0
  9
$DIMTVP
 40
0.0
  9
$DIMTIX
 70
     0
  9
$DIMSOXD
 70
     0
  9
$DIMSAH
 70
     0
  9
$DIMBLK1
  1

  9
$DIMBLK2
  1

  9
$DIMSTYLE
  2
STANDARD
  9
$DIMCLRD
 70
     0
  9
$DIMCLRE
 70
     0
  9
$DIMCLRT
 70
     0
  9
$DIMTFAC
 40
1.0
  9
$DIMGAP
 40
0.125
  9
$DIMJUST
 70
     0
  9
$DIMSD1
 70
     0
  9
$DIMSD2
 70
     0
  9
$DIMTOLJ
 70
     1
  9
$DIMTZIN
 70
     0
  9
$DIMALTZ
 70
     0
  9
$DIMALTTZ
 70
     0
  9
$DIMUPT
 70
     0
  9
$DIMDEC
 70
     4
  9
$DIMTDEC
 70
     4
  9
$DIMALTU
 70
     2
  9
$DIMALTTD
 70
     2
  9
$DIMTXSTY
  7
STANDARD
  9
$DIMAUNIT
 70
     0
  9
$DIMADEC
 70
     0
  9
$DIMALTRND
 40
0.0
  9
$DIMAZIN
 70
     0
  9
$DIMDSEP
 70
    46
  9
$DIMATFIT
 70
     3
  9
$DIMFRAC
 70
     0
  9
$DIMLDRBLK
  1

  9
$DIMLUNIT
 70
     2
  9
$DIMLWD
 70
    -2
  9
$DIMLWE
 70
    -2
  9
$DIMTMOVE
 70
     0
  9
$LUNITS
 70
     5
  9
$LUPREC
 70
     4
  9
$SKETCHINC
 40
0.1
  9
$FILLETRAD
 40
0.062
  9
$AUNITS
 70
     0
  9
$AUPREC
 70
     0
  9
$MENU
  1
acad
  9
$ELEVATION
 40
0.0
  9
$PELEVATION
 40
0.0
  9
$THICKNESS
 40
0.0
  9
$LIMCHECK
 70
     0
  9
$CHAMFERA
 40
0.0
  9
$CHAMFERB
 40
0.0
  9
$CHAMFERC
 40
0.0
  9
$CHAMFERD
 40
0.0
  9
$SKPOLY
 70
     0
  9
$TDCREATE
 40
2450406.657913577
  9
$TDUCREATE
 40
2450406.824580243
  9
$TDUPDATE
 40
2453962.999068681
  9
$TDUUPDATE
 40
2453963.165735348
  9
$TDINDWG
 40
0.0672290509
  9
$TDUSRTIMER
 40
0.0672290509
  9
$USRTIMER
 70
     1
  9
$ANGBASE
 50
0.0
  9
$ANGDIR
 70
     0
  9
$PDMODE
 70
     0
  9
$PDSIZE
 40
0.0
  9
$PLINEWID
 40
0.0
  9
$SPLFRAME
 70
     0
  9
$SPLINETYPE
 70
     6
  9
$SPLINESEGS
 70
     8
  9
$HANDSEED
  5
3C5
  9
$SURFTAB1
 70
     6
  9
$SURFTAB2
 70
     6
  9
$SURFTYPE
 70
     6
  9
$SURFU
 70
     6
  9
$SURFV
 70
     6
  9
$UCSBASE
  2

  9
$UCSNAME
  2

  9
$UCSORG
 10
0.0
 20
0.0
 30
0.0
  9
$UCSXDIR
 10
1.0
 20
0.0
 30
0.0
  9
$UCSYDIR
 10
0.0
 20
1.0
 30
0.0
  9
$UCSORTHOREF
  2

  9
$UCSORTHOVIEW
 70
     0
  9
$UCSORGTOP
 10
0.0
 20
0.0
 30
0.0
  9
$UCSORGBOTTOM
 10
0.0
 20
0.0
 30
0.0
  9
$UCSORGLEFT
 10
0.0
 20
0.0
 30
0.0
  9
$UCSORGRIGHT
 10
0.0
 20
0.0
 30
0.0
  9
$UCSORGFRONT
 10
0.0
 20
0.0
 30
0.0
  9
$UCSORGBACK
 10
0.0
 20
0.0
 30
0.0
  9
$PUCSBASE
  2

  9
$PUCSNAME
  2

  9
$PUCSORG
 10
0.0
 20
0.0
 30
0.0
  9
$PUCSXDIR
 10
1.0
 20
0.0
 30
0.0
  9
$PUCSYDIR
 10
0.0
 20
1.0
 30
0.0
  9
$PUCSORTHOREF
  2

  9
$PUCSORTHOVIEW
 70
     0
  9
$PUCSORGTOP
 10
0.0
 20
0.0
 30
0.0
  9
$PUCSORGBOTTOM
 10
0.0
 20
0.0
 30
0.0
  9
$PUCSORGLEFT
 10
0.0
 20
0.0
 30
0.0
  9
$PUCSORGRIGHT
 10
0.0
 20
0.0
 30
0.0
  9
$PUCSORGFRONT
 10
0.0
 20
0.0
 30
0.0
  9
$PUCSORGBACK
 10
0.0
 20
0.0
 30
0.0
  9
$USERI1
 70
     0
  9
$USERI2
 70
     0
  9
$USERI3
 70
     0
  9
$USERI4
 70
     0
  9
$USERI5
 70
     0
  9
$USERR1
 40
0.0
  9
$USERR2
 40
0.0
  9
$USERR3
 40
0.0
  9
$USERR4
 40
0.0
  9
$USERR5
 40
0.0
  9
$WORLDVIEW
 70
     1
  9
$SHADEDGE
 70
     3
  9
$SHADEDIF
 70
    70
  9
$TILEMODE
 70
     1
  9
$MAXACTVP
 70
    15
  9
$PINSBASE
 10
0.0008545028977096
 20
1.250283272183907
 30
0.0
  9
$PLIMCHECK
 70
     0
  9
$PEXTMIN
 10
1.000000000000000E+20
 20
1.000000000000000E+20
 30
1.000000000000000E+20
  9
$PEXTMAX
 10
-1.000000000000000E+20
 20
-1.000000000000000E+20
 30
-1.000000000000000E+20
  9
$PLIMMIN
 10
0.0
 20
0.0
  9
$PLIMMAX
 10
12.0
 20
9.0
  9
$UNITMODE
 70
     0
  9
$VISRETAIN
 70
     0
  9
$PLINEGEN
 70
     0
  9
$PSLTSCALE
 70
     1
  9
$TREEDEPTH
 70
  3020
  9
$CMLSTYLE
  2
STANDARD
  9
$CMLJUST
 70
     0
  9
$CMLSCALE
 40
1.0
  9
$PROXYGRAPHICS
 70
     1
  9
$MEASUREMENT
 70
     0
  9
$CELWEIGHT
370
    -1
  9
$ENDCAPS
280
     0
  9
$JOINSTYLE
280
     0
  9
$LWDISPLAY
290
     0
  9
$INSUNITS
 70
     0
  9
$HYPERLINKBASE
  1

  9
$STYLESHEET
  1

  9
$XEDIT
290
     1
  9
$CEPSNTYPE
380
     0
  9
$PSTYLEMODE
290
     1
  9
$FINGERPRINTGUID
  2
{CBAE57CC-197B-43B2-B36B-08E3474D76AE}
  9
$VERSIONGUID
  2
{E19FE62C-AE84-4DB4-BF5B-0776E2726026}
  9
$EXTNAMES
290
     1
  9
$PSVPSCALE
 40
0.0
  9
$OLESTARTUP
290
     0
  0
ENDSEC
  0
SECTION
  2
CLASSES
  0
CLASS
  1
ACDBDICTIONARYWDFLT
  2
AcDbDictionaryWithDefault
  3
ObjectDBX Classes
 90
        0
280
     0
281
     0
  0
CLASS
  1
ACDBPLACEHOLDER
  2
AcDbPlaceHolder
  3
ObjectDBX Classes
 90
        0
280
     0
281
     0
  0
CLASS
  1
LAYOUT
  2
AcDbLayout
  3
ObjectDBX Classes
 90
        0
280
     0
281
     0
  0
CLASS
  1
DICTIONARYVAR
  2
AcDbDictionaryVar
  3
ObjectDBX Classes
 90
        0
280
     0
281
     0
  0
CLASS
  1
MATERIAL
  2
AcDbMaterial
  3
ObjectDBX Classes
 90
     1024
280
     0
281
     0
  0
CLASS
  1
VISUALSTYLE
  2
AcDbVisualStyle
  3
ObjectDBX Classes
 90
     4095
280
     0
281
     0
  0
CLASS
  1
TABLESTYLE
  2
AcDbTableStyle
  3
ObjectDBX Classes
 90
     4095
280
     0
281
     0
  0
ENDSEC
  0
SECTION
  2
TABLES
  0
TABLE
  2
VPORT
  5
8
330
0
100
AcDbSymbolTable
 70
     1
  0
VPORT
  5
2B1
330
8
100
AcDbSymbolTableRecord
100
AcDbViewportTableRecord
  2
*Active
 70
     0
 10
0.0
 20
0.0
 11
1.0
 21
1.0
 12
-12.63243161794753
 22
1.555917234598561
 13
0.0
 23
0.0
 14
0.5740882589684922
 24
0.5740882589684922
 15
0.5
 25
0.5
 16
0.0
 26
0.0
 36
1.0
 17
0.0
 27
0.0
 37
0.0
 40
10.21099568040171
 41
1.726930320150658
 42
50.0
 43
0.0
 44
0.0
 50
0.0
 51
0.0
 71
     0
 72
   100
 73
     1
 74
     0
 75
     0
 76
     0
 77
     0
 78
     0
281
     0
 65
     1
110
0.0
120
0.0
130
0.0
111
1.0
121
0.0
131
0.0
112
0.0
122
1.0
132
0.0
 79
     0
146
0.0
  0
ENDTAB
  0
TABLE
  2
LTYPE
  5
5
330
0
100
AcDbSymbolTable
 70
     2
  0
LTYPE
  5
12
330
5
100
AcDbSymbolTableRecord
100
AcDbLinetypeTableRecord
  2
BYBLOCK
 70
     0
  3

 72
    65
 73
     0
 40
0.0
  0
LTYPE
  5
13
330
5
100
AcDbSymbolTableRecord
100
AcDbLinetypeTableRecord
  2
BYLAYER
 70
     0
  3

 72
    65
 73
     0
 40
0.0
  0
LTYPE
  5
14
330
5
100
AcDbSymbolTableRecord
100
AcDbLinetypeTableRecord
  2
CONTINUOUS
 70
     0
  3
Solid line
 72
    65
 73
     0
 40
0.0
  0
LTYPE
  5
123
330
5
100
AcDbSymbolTableRecord
100
AcDbLinetypeTableRecord
  2
HIDDEN2
 70
     0
  3
_ _ _ _ _ _ _ _ _ _ _ _ _ _ _ _ _ _ _ _ _ _ _ _
 72
    65
 73
     2
 40
0.1875
 49
0.125
 74
     0
 49
-0.0625
 74
     0
  0
ENDTAB
  0
TABLE
  2
LAYER
  5
2
330
0
100
AcDbSymbolTable
 70
     5
  0
LAYER
  5
F
330
2
100
AcDbSymbolTableRecord
100
AcDbLayerTableRecord
  2
0
 70
     0
 62
     7
  6
CONTINUOUS
370
    -3
390
195
  0
LAYER
  5
127
330
2
100
AcDbSymbolTableRecord
100
AcDbLayerTableRecord
  2
ADP1DETAIL
 70
     0
 62
     7
  6
CONTINUOUS
370
    -3
390
195
  0
LAYER
  5
128
330
2
100
AcDbSymbolTableRecord
100
AcDbLayerTableRecord
  2
ADP3DETAIL
 70
     0
 62
     1
  6
CONTINUOUS
370
    -3
390
195
  0
LAYER
  5
129
330
2
100
AcDbSymbolTableRecord
100
AcDbLayerTableRecord
  2
DEFPOINTS
 70
     0
 62
     7
  6
CONTINUOUS
290
     0
370
    -3
390
195
  0
LAYER
  5
12C
330
2
100
AcDbSymbolTableRecord
100
AcDbLayerTableRecord
  2
ADPDIM
 70
     0
 62
     3
  6
CONTINUOUS
370
    -3
390
195
  0
ENDTAB
  0
TABLE
  2
STYLE
  5
3
330
0
100
AcDbSymbolTable
 70
     2
  0
STYLE
  5
10
330
3
100
AcDbSymbolTableRecord
100
AcDbTextStyleTableRecord
  2
STANDARD
 70
     0
 40
0.0
 41
1.0
 50
0.0
 71
     0
 42
0.2
  3
txt
  4

  0
STYLE
  5
19C
330
3
100
AcDbSymbolTableRecord
100
AcDbTextStyleTableRecord
  2
ARIAL_WIDE
 70
     0
 40
0.0
 41
1.25
 50
0.0
 71
     0
 42
0.2
  3
ARIAL.TTF
  4

1001
ACAD
1000
Arial
1071
       34
  0
ENDTAB
  0
TABLE
  2
VIEW
  5
6
330
0
100
AcDbSymbolTable
 70
     0
  0
ENDTAB
  0
TABLE
  2
UCS
  5
7
330
0
100
AcDbSymbolTable
 70
     0
  0
ENDTAB
  0
TABLE
  2
APPID
  5
9
330
0
100
AcDbSymbolTable
 70
     2
  0
APPID
  5
11
330
9
100
AcDbSymbolTableRecord
100
AcDbRegAppTableRecord
  2
ACAD
 70
     0
  0
APPID
  5
343
330
9
100
AcDbSymbolTableRecord
100
AcDbRegAppTableRecord
  2
DCO15
 70
     0
  0
ENDTAB
  0
TABLE
  2
DIMSTYLE
  5
A
330
0
100
AcDbSymbolTable
 70
     1
100
AcDbDimStyleTable
 71
     0
  0
DIMSTYLE
105
190
102
{ACAD_REACTORS
330
34D
330
34E
330
34F
102
}
330
A
100
AcDbSymbolTableRecord
100
AcDbDimStyleTableRecord
  2
STANDARD
 70
     0
340
10
  0
ENDTAB
  0
TABLE
  2
BLOCK_RECORD
  5
1
330
0
100
AcDbSymbolTable
 70
    13
  0
BLOCK_RECORD
  5
18
102
{ACAD_XDICTIONARY
360
1F1
102
}
330
1
100
AcDbSymbolTableRecord
100
AcDbBlockTableRecord
  2
*MODEL_SPACE
340
198
  0
BLOCK_RECORD
  5
15
102
{ACAD_XDICTIONARY
360
1EF
102
}
330
1
100
AcDbSymbolTableRecord
100
AcDbBlockTableRecord
  2
*PAPER_SPACE
340
199
  0
BLOCK_RECORD
  5
B9
330
1
100
AcDbSymbolTableRecord
100
AcDbBlockTableRecord
  2
6935
340
0
  0
BLOCK_RECORD
  5
11E
330
1
100
AcDbSymbolTableRecord
100
AcDbBlockTableRecord
  2
*D1
340
0
  0
BLOCK_RECORD
  5
11F
330
1
100
AcDbSymbolTableRecord
100
AcDbBlockTableRecord
  2
*D2
340
0
  0
BLOCK_RECORD
  5
120
330
1
100
AcDbSymbolTableRecord
100
AcDbBlockTableRecord
  2
*D3
340
0
  0
BLOCK_RECORD
  5
121
330
1
100
AcDbSymbolTableRecord
100
AcDbBlockTableRecord
  2
*D4
340
0
  0
BLOCK_RECORD
  5
2F8
330
1
100
AcDbSymbolTableRecord
100
AcDbBlockTableRecord
  2
*D5
340
0
  0
BLOCK_RECORD
  5
305
330
1
100
AcDbSymbolTableRecord
100
AcDbBlockTableRecord
  2
*D6
340
0
  0
BLOCK_RECORD
  5
312
330
1
100
AcDbSymbolTableRecord
100
AcDbBlockTableRecord
  2
AI9-BLK1
340
0
102
{BLKREFS
331
348
331
350
102
}
  0
BLOCK_RECORD
  5
336
330
1
100
AcDbSymbolTableRecord
100
AcDbBlockTableRecord
  2
*D8
340
0
  0
BLOCK_RECORD
  5
351
330
1
100
AcDbSymbolTableRecord
100
AcDbBlockTableRecord
  2
*D10
340
0
  0
BLOCK_RECORD
  5
35E
330
1
100
AcDbSymbolTableRecord
100
AcDbBlockTableRecord
  2
*D11
340
0
  0
BLOCK_RECORD
  5
36B
330
1
100
AcDbSymbolTableRecord
100
AcDbBlockTableRecord
  2
*D12
340
0
  0
ENDTAB
  0
ENDSEC
  0
SECTION
  2
BLOCKS
  0
BLOCK
  5
12F
330
18
100
AcDbEntity
  8
0
100
AcDbBlockBegin
  2
*MODEL_SPACE
 70
     0
 10
0.0
 20
0.0
 30
0.0
  3
*MODEL_SPACE
  1

  0
ENDBLK
  5
130
330
18
100
AcDbEntity
  8
0
100
AcDbBlockEnd
  0
BLOCK
  5
12D
330
15
100
AcDbEntity
 67
     1
  8
0
100
AcDbBlockBegin
  2
*PAPER_SPACE
 70
     0
 10
0.0
 20
0.0
 30
0.0
  3
*PAPER_SPACE
  1

  0
ENDBLK
  5
12E
330
15
100
AcDbEntity
 67
     1
  8
0
100
AcDbBlockEnd
  0
BLOCK
  5
132
330
B9
100
AcDbEntity
  8
0
100
AcDbBlockBegin
  2
6935
 70
     0
 10
0.0
 20
0.0
 30
0.0
  3
6935
  1

  0
ARC
  5
133
330
B9
100
AcDbEntity
  8
0
100
AcDbCircle
 10
0.8251505165084598
 20
0.3752574129362634
 30
0.0
 40
0.0999999999999997
100
AcDbArc
 50
359.9999999999995
 51
90.0
  0
ARC
  5
134
330
B9
100
AcDbEntity
  8
0
100
AcDbCircle
 10
1.08115051650846
 20
-1.805742587063736
 30
0.0
 40
2.593999999999999
100
AcDbArc
 50
89.96200675749017
 51
109.6817833868906
  0
LINE
  5
135
330
B9
100
AcDbEntity
  8
0
100
AcDbLine
 10
0.3001505165084595
 20
0.1842574129362635
 30
0.0
 11
0.3001505165084595
 21
0.0382574129362636
 31
0.0
  0
ARC
  5
136
330
B9
100
AcDbEntity
  8
0
100
AcDbCircle
 10
0.3311505165084601
 20
0.3502574129362639
 30
0.0
 40
0.312
100
AcDbArc
 50
113.3476747754214
 51
264.2977414232919
  0
LINE
  5
137
330
B9
100
AcDbEntity
  8
0
100
AcDbLine
 10
0.4151505165084597
 20
0.1942574129362642
 30
0.0
 11
0.3101505165084593
 21
0.1942574129362633
 31
0.0
  0
ARC
  5
138
330
B9
100
AcDbEntity
  8
0
100
AcDbCircle
 10
0.3101505165084593
 20
0.1842574129362635
 30
0.0
 40
0.0099999999999998
100
AcDbArc
 50
90.0
 51
180.0
  0
ARC
  5
139
330
B9
100
AcDbEntity
  8
0
100
AcDbCircle
 10
0.6121505165084589
 20
0.4132574129362637
 30
0.0
 40
0.0620000000000003
100
AcDbArc
 50
90.0
 51
180.0
  0
ARC
  5
13A
330
B9
100
AcDbEntity
  8
0
100
AcDbCircle
 10
0.5401505165084597
 20
0.3602574129362637
 30
0.0
 40
0.0099999999999998
100
AcDbArc
 50
270.0
 51
0.0
  0
LINE
  5
13B
330
B9
100
AcDbEntity
  8
0
100
AcDbLine
 10
0.5501505165084595
 20
0.4132574129362637
 30
0.0
 11
0.5501505165084595
 21
0.3602574129362637
 31
0.0
  0
ARC
  5
13C
330
B9
100
AcDbEntity
  8
0
100
AcDbCircle
 10
0.4351505165084593
 20
0.3402574129362641
 30
0.0
 40
0.0099999999999998
100
AcDbArc
 50
90.0
 51
180.0
  0
LINE
  5
13D
330
B9
100
AcDbEntity
  8
0
100
AcDbLine
 10
0.5401505165084597
 20
0.3502574129362639
 30
0.0
 11
0.4351505165084593
 21
0.3502574129362639
 31
0.0
  0
ARC
  5
13E
330
B9
100
AcDbEntity
  8
0
100
AcDbCircle
 10
0.4151505165084597
 20
0.204257412936264
 30
0.0
 40
0.0099999999999998
100
AcDbArc
 50
270.0
 51
0.0
  0
LINE
  5
13F
330
B9
100
AcDbEntity
  8
0
100
AcDbLine
 10
0.4251505165084595
 20
0.3402574129362641
 30
0.0
 11
0.4251505165084595
 21
0.204257412936264
 31
0.0
  0
LINE
  5
140
330
B9
100
AcDbEntity
  8
0
100
AcDbLine
 10
0.8251505165084598
 20
0.475257412936263
 30
0.0
 11
0.6121505165084589
 21
0.4752574129362639
 31
0.0
  0
LINE
  5
141
330
B9
100
AcDbEntity
  8
0
100
AcDbLine
 10
1.862150516508458
 20
0.1842574129362644
 30
0.0
 11
1.862150516508458
 21
0.0382574129362636
 31
0.0
  0
ARC
  5
142
330
B9
100
AcDbEntity
  8
0
100
AcDbCircle
 10
1.83115051650846
 20
0.3502574129362639
 30
0.0
 40
0.312
100
AcDbArc
 50
275.7022585767081
 51
66.65232522457856
  0
LINE
  5
143
330
B9
100
AcDbEntity
  8
0
100
AcDbLine
 10
1.337150516508458
 20
0.4752574129362639
 30
0.0
 11
1.550150516508457
 21
0.4752574129362639
 31
0.0
  0
ARC
  5
144
330
B9
100
AcDbEntity
  8
0
100
AcDbCircle
 10
1.08115051650846
 20
-1.805742587063736
 30
0.0
 40
2.593999999999999
100
AcDbArc
 50
70.31821661310944
 51
90.03799324250982
  0
LINE
  5
145
330
B9
100
AcDbEntity
  8
0
100
AcDbLine
 10
1.08115051650846
 20
0.3502574129362639
 30
0.0
 11
1.227150516508459
 21
0.3502574129362639
 31
0.0
  0
LINE
  5
146
330
B9
100
AcDbEntity
  8
0
100
AcDbLine
 10
1.08115051650846
 20
0.3502574129362639
 30
0.0
 11
0.9351505165084592
 21
0.3502574129362639
 31
0.0
  0
LINE
  5
147
330
B9
100
AcDbEntity
  8
0
100
AcDbLine
 10
0.9251505165084594
 20
0.3602574129362637
 30
0.0
 11
0.9251505165084594
 21
0.3752574129362625
 31
0.0
  0
ARC
  5
148
330
B9
100
AcDbEntity
  8
0
100
AcDbCircle
 10
0.9351505165084592
 20
0.3602574129362637
 30
0.0
 40
0.0099999999999998
100
AcDbArc
 50
180.0
 51
270.0
  0
ARC
  5
149
330
B9
100
AcDbEntity
  8
0
100
AcDbCircle
 10
1.337150516508458
 20
0.3752574129362642
 30
0.0
 40
0.0999999999999997
100
AcDbArc
 50
90.0
 51
180.0
  0
LINE
  5
14A
330
B9
100
AcDbEntity
  8
0
100
AcDbLine
 10
1.237150516508458
 20
0.3602574129362637
 30
0.0
 11
1.237150516508458
 21
0.3752574129362642
 31
0.0
  0
ARC
  5
14B
330
B9
100
AcDbEntity
  8
0
100
AcDbCircle
 10
1.227150516508459
 20
0.3602574129362637
 30
0.0
 40
0.0099999999999998
100
AcDbArc
 50
270.0
 51
0.0
  0
ARC
  5
14C
330
B9
100
AcDbEntity
  8
0
100
AcDbCircle
 10
1.727150516508459
 20
0.3402574129362641
 30
0.0
 40
0.0099999999999998
100
AcDbArc
 50
0.0
 51
90.0
  0
LINE
  5
14D
330
B9
100
AcDbEntity
  8
0
100
AcDbLine
 10
1.612150516508458
 20
0.4132574129362637
 30
0.0
 11
1.612150516508458
 21
0.3502574129362639
 31
0.0
  0
ARC
  5
14E
330
B9
100
AcDbEntity
  8
0
100
AcDbCircle
 10
1.550150516508457
 20
0.4132574129362637
 30
0.0
 40
0.0620000000000003
100
AcDbArc
 50
0.0
 51
90.0
  0
LINE
  5
14F
330
B9
100
AcDbEntity
  8
0
100
AcDbLine
 10
1.612150516508458
 20
0.3502574129362639
 30
0.0
 11
1.727150516508459
 21
0.3502574129362639
 31
0.0
  0
ARC
  5
150
330
B9
100
AcDbEntity
  8
0
100
AcDbCircle
 10
1.852150516508457
 20
0.1842574129362635
 30
0.0
 40
0.0100000000000007
100
AcDbArc
 50
0.0000000000050889
 51
90.0
  0
ARC
  5
151
330
B9
100
AcDbEntity
  8
0
100
AcDbCircle
 10
1.74715051650846
 20
0.2042574129362649
 30
0.0
 40
0.0100000000000016
100
AcDbArc
 50
180.000000000005
 51
270.0
  0
LINE
  5
152
330
B9
100
AcDbEntity
  8
0
100
AcDbLine
 10
1.74715051650846
 20
0.1942574129362642
 30
0.0
 11
1.852150516508457
 21
0.1942574129362642
 31
0.0
  0
LINE
  5
153
330
B9
100
AcDbEntity
  8
0
100
AcDbLine
 10
1.737150516508458
 20
0.3402574129362641
 30
0.0
 11
1.737150516508458
 21
0.204257412936264
 31
0.0
  0
ENDBLK
  5
154
330
B9
100
AcDbEntity
  8
0
100
AcDbBlockEnd
  0
BLOCK
  5
155
330
11E
100
AcDbEntity
  8
0
100
AcDbBlockBegin
  2
*D1
 70
     1
 10
0.0
 20
0.0
 30
0.0
  3
*D1
  1

  0
LINE
  5
156
330
11E
100
AcDbEntity
  8
0
  6
ByBlock
 62
     0
100
AcDbLine
 10
-18.29902522321249
 20
-1.198885845420462
 30
0.0
 11
-18.29902522321249
 21
-1.48793875796935
 31
0.0
  0
LINE
  5
157
330
11E
100
AcDbEntity
  8
0
  6
ByBlock
 62
     0
100
AcDbLine
 10
-16.73702522321249
 20
-1.127429729358948
 30
0.0
 11
-16.73702522321249
 21
-1.48793875796935
 31
0.0
  0
LINE
  5
158
330
11E
100
AcDbEntity
  8
0
  6
ByBlock
 62
     0
100
AcDbLine
 10
-18.29902522321249
 20
-1.30793875796935
 30
0.0
 11
-17.9555252232125
 21
-1.30793875796935
 31
0.0
  0
LINE
  5
159
330
11E
100
AcDbEntity
  8
0
  6
ByBlock
 62
     0
100
AcDbLine
 10
-16.73702522321249
 20
-1.30793875796935
 30
0.0
 11
-17.08052522321249
 21
-1.30793875796935
 31
0.0
  0
LINE
  5
15A
330
11E
100
AcDbEntity
  8
0
  6
ByBlock
 62
     0
100
AcDbLine
 10
-18.42402522321249
 20
-1.43293875796935
 30
0.0
 11
-18.17402522321249
 21
-1.18293875796935
 31
0.0
  0
LINE
  5
15B
330
11E
100
AcDbEntity
  8
0
  6
ByBlock
 62
     0
100
AcDbLine
 10
-16.86202522321249
 20
-1.43293875796935
 30
0.0
 11
-16.61202522321249
 21
-1.18293875796935
 31
0.0
  0
TEXT
  5
15C
330
11E
100
AcDbEntity
  8
0
  6
ByBlock
 62
     0
100
AcDbText
 10
-17.8305252232125
 20
-1.37043875796935
 30
0.0
 40
0.125
  1
1 9/16
 72
     1
 11
-17.5180252232125
 21
-1.30793875796935
 31
0.0
100
AcDbText
 73
     2
  0
POINT
  5
15D
330
11E
100
AcDbEntity
  8
DEFPOINTS
  6
ByBlock
 62
     0
100
AcDbPoint
 10
-18.29902522321249
 20
-1.136385845420462
 30
0.0
  0
POINT
  5
15E
330
11E
100
AcDbEntity
  8
DEFPOINTS
  6
ByBlock
 62
     0
100
AcDbPoint
 10
-16.73702522321249
 20
-1.064929729358948
 30
0.0
  0
POINT
  5
15F
330
11E
100
AcDbEntity
  8
DEFPOINTS
  6
ByBlock
 62
     0
100
AcDbPoint
 10
-16.73702522321249
 20
-1.30793875796935
 30
0.0
  0
ENDBLK
  5
160
330
11E
100
AcDbEntity
  8
0
100
AcDbBlockEnd
  0
BLOCK
  5
161
330
11F
100
AcDbEntity
  8
0
100
AcDbBlockBegin
  2
*D2
 70
     1
 10
0.0
 20
0.0
 30
0.0
  3
*D2
  1

  0
LINE
  5
162
330
11F
100
AcDbEntity
  8
0
  6
ByBlock
 62
     0
100
AcDbLine
 10
-18.58302439796776
 20
-0.6132490695567397
 30
0.0
 11
-18.58302439796776
 21
-0.0321433557882081
 31
0.0
  0
LINE
  5
163
330
11F
100
AcDbEntity
  8
0
  6
ByBlock
 62
     0
100
AcDbLine
 10
-16.45802439796776
 20
-0.6132490695567397
 30
0.0
 11
-16.45802439796776
 21
-0.0321433557882081
 31
0.0
  0
LINE
  5
164
330
11F
100
AcDbEntity
  8
0
  6
ByBlock
 62
     0
100
AcDbLine
 10
-18.58302439796776
 20
-0.212143355788208
 30
0.0
 11
-17.91635773130109
 21
-0.212143355788208
 31
0.0
  0
LINE
  5
165
330
11F
100
AcDbEntity
  8
0
  6
ByBlock
 62
     0
100
AcDbLine
 10
-16.45802439796776
 20
-0.212143355788208
 30
0.0
 11
-17.12469106463442
 21
-0.212143355788208
 31
0.0
  0
LINE
  5
166
330
11F
100
AcDbEntity
  8
0
  6
ByBlock
 62
     0
100
AcDbLine
 10
-18.70802439796776
 20
-0.337143355788208
 30
0.0
 11
-18.45802439796776
 21
-0.087143355788208
 31
0.0
  0
LINE
  5
167
330
11F
100
AcDbEntity
  8
0
  6
ByBlock
 62
     0
100
AcDbLine
 10
-16.58302439796776
 20
-0.337143355788208
 30
0.0
 11
-16.33302439796776
 21
-0.087143355788208
 31
0.0
  0
TEXT
  5
168
330
11F
100
AcDbEntity
  8
0
  6
ByBlock
 62
     0
100
AcDbText
 10
-17.79135773130109
 20
-0.274643355788208
 30
0.0
 40
0.125
  1
2 1/8
 72
     1
 11
-17.52052439796776
 21
-0.212143355788208
 31
0.0
100
AcDbText
 73
     2
  0
POINT
  5
169
330
11F
100
AcDbEntity
  8
DEFPOINTS
  6
ByBlock
 62
     0
100
AcDbPoint
 10
-18.58302439796776
 20
-0.6757490695567397
 30
0.0
  0
POINT
  5
16A
330
11F
100
AcDbEntity
  8
DEFPOINTS
  6
ByBlock
 62
     0
100
AcDbPoint
 10
-16.45802439796776
 20
-0.6757490695567397
 30
0.0
  0
POINT
  5
16B
330
11F
100
AcDbEntity
  8
DEFPOINTS
  6
ByBlock
 62
     0
100
AcDbPoint
 10
-16.45802439796776
 20
-0.212143355788208
 30
0.0
  0
ENDBLK
  5
16C
330
11F
100
AcDbEntity
  8
0
100
AcDbBlockEnd
  0
BLOCK
  5
16D
330
120
100
AcDbEntity
  8
0
100
AcDbBlockBegin
  2
*D3
 70
     1
 10
0.0
 20
0.0
 30
0.0
  3
*D3
  1

  0
LINE
  5
16E
330
120
100
AcDbEntity
  8
0
  6
ByBlock
 62
     0
100
AcDbLine
 10
-15.07741352401967
 20
3.572066263635155
 30
0.0
 11
-15.84265906901056
 21
3.572066263635155
 31
0.0
  0
LINE
  5
16F
330
120
100
AcDbEntity
  8
0
  6
ByBlock
 62
     0
100
AcDbLine
 10
-16.39080512332581
 20
1.07345156520011
 30
0.0
 11
-15.48265906901056
 21
1.073451565200109
 31
0.0
  0
LINE
  5
170
330
120
100
AcDbEntity
  8
0
  6
ByBlock
 62
     0
100
AcDbLine
 10
-15.66265906901056
 20
3.572066263635155
 30
0.0
 11
-15.66265906901056
 21
2.718592247750966
 31
0.0
  0
LINE
  5
171
330
120
100
AcDbEntity
  8
0
  6
ByBlock
 62
     0
100
AcDbLine
 10
-15.66265906901056
 20
1.073451565200109
 30
0.0
 11
-15.66265906901056
 21
1.926925581084299
 31
0.0
  0
LINE
  5
172
330
120
100
AcDbEntity
  8
0
  6
ByBlock
 62
     0
100
AcDbLine
 10
-15.53765906901056
 20
3.447066263635155
 30
0.0
 11
-15.78765906901056
 21
3.697066263635155
 31
0.0
  0
LINE
  5
173
330
120
100
AcDbEntity
  8
0
  6
ByBlock
 62
     0
100
AcDbLine
 10
-15.53765906901056
 20
0.94845156520011
 30
0.0
 11
-15.78765906901056
 21
1.198451565200109
 31
0.0
  0
TEXT
  5
174
330
120
100
AcDbEntity
  8
0
  6
ByBlock
 62
     0
100
AcDbText
 10
-15.60015906901056
 20
2.051925581084299
 30
0.0
 40
0.125
  1
2 1/2
 50
90.0
 72
     1
 11
-15.66265906901056
 21
2.322758914417632
 31
0.0
100
AcDbText
 73
     2
  0
POINT
  5
175
330
120
100
AcDbEntity
  8
DEFPOINTS
  6
ByBlock
 62
     0
100
AcDbPoint
 10
-15.01491352401967
 20
3.572066263635155
 30
0.0
  0
POINT
  5
176
330
120
100
AcDbEntity
  8
DEFPOINTS
  6
ByBlock
 62
     0
100
AcDbPoint
 10
-16.45330512332581
 20
1.07345156520011
 30
0.0
  0
POINT
  5
177
330
120
100
AcDbEntity
  8
DEFPOINTS
  6
ByBlock
 62
     0
100
AcDbPoint
 10
-15.66265906901056
 20
1.073451565200109
 30
0.0
  0
ENDBLK
  5
178
330
120
100
AcDbEntity
  8
0
100
AcDbBlockEnd
  0
BLOCK
  5
179
330
121
100
AcDbEntity
  8
0
100
AcDbBlockBegin
  2
*D4
 70
     1
 10
0.0
 20
0.0
 30
0.0
  3
*D4
  1

  0
LINE
  5
17A
330
121
100
AcDbEntity
  8
0
  6
ByBlock
 62
     0
100
AcDbLine
 10
-16.78807664341704
 20
5.337204858774242
 30
0.0
 11
-15.01491352401967
 21
3.572066263635152
 31
0.0
  0
LINE
  5
17B
330
121
100
AcDbEntity
  8
0
  6
ByBlock
 62
     0
100
AcDbLine
 10
-16.9648528841003
 20
5.336803947448387
 30
0.0
 11
-16.61130040273377
 21
5.337605770100097
 31
0.0
  0
TEXT
  5
17C
330
121
100
AcDbEntity
  8
0
  6
ByBlock
 62
     0
100
AcDbText
 10
-14.97041878035446
 20
3.439584310954164
 30
0.0
 40
0.125
  1
R2 1/2
 50
315.1299410342688
 72
     1
 11
-14.69008874533628
 21
3.248711493146561
 31
0.0
100
AcDbText
 73
     2
  0
POINT
  5
17D
330
121
100
AcDbEntity
  8
DEFPOINTS
  6
ByBlock
 62
     0
100
AcDbPoint
 10
-16.78807664341704
 20
5.337204858774242
 30
0.0
  0
POINT
  5
17E
330
121
100
AcDbEntity
  8
DEFPOINTS
  6
ByBlock
 62
     0
100
AcDbPoint
 10
-15.0163051233258
 20
3.573451565200109
 30
0.0
  0
ENDBLK
  5
17F
330
121
100
AcDbEntity
  8
0
100
AcDbBlockEnd
  0
BLOCK
  5
2F9
330
2F8
100
AcDbEntity
  8
0
 62
     3
100
AcDbBlockBegin
  2
*D5
 70
     1
 10
0.0
 20
0.0
 30
0.0
  3
*D5
  1

  0
LINE
  5
2FA
330
2F8
100
AcDbEntity
  8
ADPDIM
 62
     0
370
    -2
100
AcDbLine
 10
10.07441137871769
 20
14.19639199073276
 30
0.0
 11
10.07441137871769
 21
13.90025028814471
 31
0.0
  0
LINE
  5
2FB
330
2F8
100
AcDbEntity
  8
ADPDIM
 62
     0
370
    -2
100
AcDbLine
 10
11.38691137871769
 20
14.19639199073276
 30
0.0
 11
11.38691137871769
 21
13.90025028814471
 31
0.0
  0
LINE
  5
2FC
330
2F8
100
AcDbEntity
  8
ADPDIM
 62
     0
370
    -2
100
AcDbLine
 10
10.25441137871769
 20
14.08025028814471
 30
0.0
 11
11.20691137871769
 21
14.08025028814471
 31
0.0
  0
LINE
  5
2FD
330
2F8
100
AcDbEntity
  8
ADPDIM
 62
     0
370
    -2
100
AcDbLine
 10
11.38691137871769
 20
14.08025028814471
 30
0.0
 11
11.95308802826757
 21
14.08025028814471
 31
0.0
  0
SOLID
  5
2FE
330
2F8
100
AcDbEntity
  8
ADPDIM
 62
     0
100
AcDbTrace
 10
10.25441137871769
 20
14.11025028814471
 30
0.0
 11
10.25441137871769
 21
14.05025028814471
 31
0.0
 12
10.07441137871769
 22
14.08025028814471
 32
0.0
 13
10.07441137871769
 23
14.08025028814471
 33
0.0
  0
SOLID
  5
2FF
330
2F8
100
AcDbEntity
  8
ADPDIM
 62
     0
100
AcDbTrace
 10
11.20691137871769
 20
14.11025028814471
 30
0.0
 11
11.20691137871769
 21
14.05025028814471
 31
0.0
 12
11.38691137871769
 22
14.08025028814471
 32
0.0
 13
11.38691137871769
 23
14.08025028814471
 33
0.0
  0
MTEXT
  5
300
330
2F8
100
AcDbEntity
  8
ADPDIM
 62
     0
100
AcDbMText
 10
12.49308802826757
 20
14.08025028814471
 30
0.0
 40
0.18
 41
0.0
 71
     5
 72
     1
  1
\A1;1 5/16
 73
     1
 44
1.0
1001
ACAD
1000
MTEXTBEGIN
1070
    73
1070
     1
1070
    44
1040
1.0
1070
    74
1070
     0
1000
MTEXTEND
  0
POINT
  5
301
330
2F8
100
AcDbEntity
  8
DEFPOINTS
 62
     0
100
AcDbPoint
 10
10.07441137871769
 20
14.25889199073276
 30
0.0
  0
POINT
  5
302
330
2F8
100
AcDbEntity
  8
DEFPOINTS
 62
     0
100
AcDbPoint
 10
11.38691137871769
 20
14.25889199073276
 30
0.0
  0
POINT
  5
303
330
2F8
100
AcDbEntity
  8
DEFPOINTS
 62
     0
100
AcDbPoint
 10
11.38691137871769
 20
14.08025028814471
 30
0.0
  0
ENDBLK
  5
304
330
2F8
100
AcDbEntity
  8
0
 62
     3
100
AcDbBlockEnd
  0
BLOCK
  5
306
330
305
100
AcDbEntity
  8
0
100
AcDbBlockBegin
  2
*D6
 70
     1
 10
0.0
 20
0.0
 30
0.0
  3
*D6
  1

  0
LINE
  5
307
330
305
100
AcDbEntity
  8
ADPDIM
 62
     0
370
    -2
100
AcDbLine
 10
9.943362663700465
 20
14.01382726810779
 30
0.0
 11
9.943362663700465
 21
13.41869438150874
 31
0.0
  0
LINE
  5
308
330
305
100
AcDbEntity
  8
ADPDIM
 62
     0
370
    -2
100
AcDbLine
 10
11.5026058035207
 20
14.01382726810779
 30
0.0
 11
11.5026058035207
 21
13.41869438150874
 31
0.0
  0
LINE
  5
309
330
305
100
AcDbEntity
  8
ADPDIM
 62
     0
370
    -2
100
AcDbLine
 10
9.763362663700466
 20
13.59869438150874
 30
0.0
 11
9.583362663700466
 21
13.59869438150874
 31
0.0
  0
LINE
  5
30A
330
305
100
AcDbEntity
  8
ADPDIM
 62
     0
370
    -2
100
AcDbLine
 10
11.6826058035207
 20
13.59869438150874
 30
0.0
 11
11.8626058035207
 21
13.59869438150874
 31
0.0
  0
SOLID
  5
30B
330
305
100
AcDbEntity
  8
ADPDIM
 62
     0
100
AcDbTrace
 10
9.763362663700466
 20
13.62869438150874
 30
0.0
 11
9.763362663700466
 21
13.56869438150874
 31
0.0
 12
9.943362663700465
 22
13.59869438150874
 32
0.0
 13
9.943362663700465
 23
13.59869438150874
 33
0.0
  0
SOLID
  5
30C
330
305
100
AcDbEntity
  8
ADPDIM
 62
     0
100
AcDbTrace
 10
11.6826058035207
 20
13.62869438150874
 30
0.0
 11
11.6826058035207
 21
13.56869438150874
 31
0.0
 12
11.5026058035207
 22
13.59869438150874
 32
0.0
 13
11.5026058035207
 23
13.59869438150874
 33
0.0
  0
MTEXT
  5
30D
330
305
100
AcDbEntity
  8
ADPDIM
 62
     0
100
AcDbMText
 10
10.72298423361058
 20
13.59869438150874
 30
0.0
 40
0.18
 41
0.0
 71
     5
 72
     1
  1
\A1;1 9/16
 73
     1
 44
1.0
1001
ACAD
1000
MTEXTBEGIN
1070
    73
1070
     1
1070
    44
1040
1.0
1070
    74
1070
     0
1000
MTEXTEND
  0
POINT
  5
30E
330
305
100
AcDbEntity
  8
DEFPOINTS
 62
     0
100
AcDbPoint
 10
9.943362663700465
 20
14.07632726810779
 30
0.0
  0
POINT
  5
30F
330
305
100
AcDbEntity
  8
DEFPOINTS
 62
     0
100
AcDbPoint
 10
11.5026058035207
 20
14.07632726810779
 30
0.0
  0
POINT
  5
310
330
305
100
AcDbEntity
  8
DEFPOINTS
 62
     0
100
AcDbPoint
 10
11.5026058035207
 20
13.59869438150874
 30
0.0
  0
ENDBLK
  5
311
330
305
100
AcDbEntity
  8
0
100
AcDbBlockEnd
  0
BLOCK
  5
313
330
312
100
AcDbEntity
  8
0
 62
     7
100
AcDbBlockBegin
  2
AI9-BLK1
 70
     0
 10
0.0
 20
0.0
 30
0.0
  3
AI9-BLK1
  1

  0
SPLINE
  5
314
330
312
100
AcDbEntity
  8
0
 62
     7
100
AcDbSpline
210
0.0
220
0.0
230
1.0
 70
     8
 71
     3
 72
     8
 73
     4
 74
     0
 42
0.0000000001
 43
0.0000000001
 40
0.0
 40
0.0
 40
0.0
 40
0.0
 40
1.0
 40
1.0
 40
1.0
 40
1.0
 10
-3.96134304470486
 20
-0.9654880099826389
 30
0.0
 10
-3.96134304470486
 20
0.4373548719618056
 30
0.0
 10
-5.098913574218749
 20
1.574580891927083
 30
0.0
 10
-6.501756456163193
 20
1.574580891927083
 30
0.0
  0
SPLINE
  5
315
330
312
100
AcDbEntity
  8
0
 62
     7
100
AcDbSpline
210
0.0
220
0.0
230
1.0
 70
     8
 71
     3
 72
     8
 73
     4
 74
     0
 42
0.0000000001
 43
0.0000000001
 40
0.0
 40
0.0
 40
0.0
 40
0.0
 40
1.0
 40
1.0
 40
1.0
 40
1.0
 10
0.0446139865451389
 20
9.524827745225692
 30
0.0
 10
-7.53321804470486
 20
9.529650878906249
 30
0.0
 10
-15.05489501953125
 20
8.227404785156249
 30
0.0
 10
-22.19003228081597
 20
5.675278049045138
 30
0.0
  0
LINE
  5
316
330
312
100
AcDbEntity
  8
0
 62
     7
100
AcDbLine
 10
-19.83634304470486
 20
-5.816871473524305
 30
0.0
 11
-19.83634304470486
 21
-9.525172254774304
 31
0.0
  0
SPLINE
  5
317
330
312
100
AcDbEntity
  8
0
 62
     7
100
AcDbSpline
210
0.0
220
0.0
230
1.0
 70
     8
 71
     3
 72
    11
 73
     7
 74
     0
 42
0.0000000001
 43
0.0000000001
 40
0.0
 40
0.0
 40
0.0
 40
0.0
 40
1.0
 40
1.0
 40
1.0
 40
2.0
 40
2.0
 40
2.0
 40
2.0
 10
-22.19003228081597
 20
5.675278049045138
 30
0.0
 10
-26.20839165581597
 20
3.941016981336805
 30
0.0
 10
-28.05978597005208
 20
-0.7226087782118055
 30
0.0
 10
-26.32483588324653
 20
-4.741312662760416
 30
0.0
 10
-25.18450927734375
 20
-7.383700900607638
 30
0.0
 10
-22.70059543185764
 20
-9.199955240885415
 30
0.0
 10
-19.83634304470486
 20
-9.485898166232637
 30
0.0
  0
LINE
  5
318
330
312
100
AcDbEntity
  8
0
 62
     7
100
AcDbLine
 10
-16.91559109157986
 20
-5.562967936197916
 30
0.0
 11
-19.58243950737847
 21
-5.562967936197916
 31
0.0
  0
SPLINE
  5
319
330
312
100
AcDbEntity
  8
0
 62
     7
100
AcDbSpline
210
0.0
220
0.0
230
1.0
 70
     8
 71
     3
 72
     8
 73
     4
 74
     0
 42
0.0000000001
 43
0.0000000001
 40
0.0
 40
0.0
 40
0.0
 40
0.0
 40
1.0
 40
1.0
 40
1.0
 40
1.0
 10
-19.58243950737847
 20
-5.562967936197916
 30
0.0
 10
-19.72265489366319
 20
-5.562967936197916
 30
0.0
 10
-19.83634304470486
 20
-5.676656087239583
 30
0.0
 10
-19.83634304470486
 20
-5.816871473524305
 30
0.0
  0
SPLINE
  5
31A
330
312
100
AcDbEntity
  8
0
 62
     7
100
AcDbSpline
210
0.0
220
0.0
230
1.0
 70
     8
 71
     3
 72
     8
 73
     4
 74
     0
 42
0.0000000001
 43
0.0000000001
 40
0.0
 40
0.0
 40
0.0
 40
0.0
 40
1.0
 40
1.0
 40
1.0
 40
1.0
 10
-11.91193440755208
 20
1.574580891927083
 30
0.0
 10
-12.78147650824652
 20
1.574580891927083
 30
0.0
 10
-13.48634304470486
 20
0.8693698459201387
 30
0.0
 10
-13.48634304470486
 20
-0.0001722547743056
 30
0.0
  0
SPLINE
  5
31B
330
312
100
AcDbEntity
  8
0
 62
     7
100
AcDbSpline
210
0.0
220
0.0
230
1.0
 70
     8
 71
     3
 72
     8
 73
     4
 74
     0
 42
0.0000000001
 43
0.0000000001
 40
0.0
 40
0.0
 40
0.0
 40
0.0
 40
1.0
 40
1.0
 40
1.0
 40
1.0
 10
-13.74059109157986
 20
-1.600419108072916
 30
0.0
 10
-13.60003119574652
 20
-1.600419108072916
 30
0.0
 10
-13.48634304470486
 20
-1.486730957031249
 30
0.0
 10
-13.48634304470486
 20
-1.346515570746527
 30
0.0
  0
LINE
  5
31C
330
312
100
AcDbEntity
  8
0
 62
     7
100
AcDbLine
 10
-13.48634304470486
 20
-0.0001722547743056
 30
0.0
 11
-13.48634304470486
 21
-1.346515570746527
 31
0.0
  0
SPLINE
  5
31D
330
312
100
AcDbEntity
  8
0
 62
     7
100
AcDbSpline
210
0.0
220
0.0
230
1.0
 70
     8
 71
     3
 72
     8
 73
     4
 74
     0
 42
0.0000000001
 43
0.0000000001
 40
0.0
 40
0.0
 40
0.0
 40
0.0
 40
1.0
 40
1.0
 40
1.0
 40
1.0
 10
-16.40743950737847
 20
-1.600419108072916
 30
0.0
 10
-16.54765489366319
 20
-1.600419108072916
 30
0.0
 10
-16.66134304470486
 20
-1.714107259114583
 30
0.0
 10
-16.66134304470486
 20
-1.854322645399305
 30
0.0
  0
LINE
  5
31E
330
312
100
AcDbEntity
  8
0
 62
     7
100
AcDbLine
 10
-13.74059109157986
 20
-1.600419108072916
 30
0.0
 11
-16.40743950737847
 21
-1.600419108072916
 31
0.0
  0
SPLINE
  5
31F
330
312
100
AcDbEntity
  8
0
 62
     7
100
AcDbSpline
210
0.0
220
0.0
230
1.0
 70
     8
 71
     3
 72
     8
 73
     4
 74
     0
 42
0.0000000001
 43
0.0000000001
 40
0.0
 40
0.0
 40
0.0
 40
0.0
 40
1.0
 40
1.0
 40
1.0
 40
1.0
 10
-16.91559109157986
 20
-5.562967936197916
 30
0.0
 10
-16.77503119574652
 20
-5.562967936197916
 30
0.0
 10
-16.66134304470486
 20
-5.449279785156249
 30
0.0
 10
-16.66134304470486
 20
-5.308719889322916
 30
0.0
  0
LINE
  5
320
330
312
100
AcDbEntity
  8
0
 62
     7
100
AcDbLine
 10
-16.66134304470486
 20
-1.854322645399305
 30
0.0
 11
-16.66134304470486
 21
-5.308719889322916
 31
0.0
  0
LINE
  5
321
330
312
100
AcDbEntity
  8
0
 62
     7
100
AcDbLine
 10
-6.501756456163193
 20
1.574580891927083
 30
0.0
 11
-11.91193440755208
 21
1.574580891927083
 31
0.0
  0
LINE
  5
322
330
312
100
AcDbEntity
  8
0
 62
     7
100
AcDbLine
 10
19.83806559244791
 20
-5.816871473524305
 30
0.0
 11
19.83806559244791
 21
-9.525172254774304
 31
0.0
  0
SPLINE
  5
323
330
312
100
AcDbEntity
  8
0
 62
     7
100
AcDbSpline
210
0.0
220
0.0
230
1.0
 70
     8
 71
     3
 72
    11
 73
     7
 74
     0
 42
0.0000000001
 43
0.0000000001
 40
0.0
 40
0.0
 40
0.0
 40
0.0
 40
1.0
 40
1.0
 40
1.0
 40
2.0
 40
2.0
 40
2.0
 40
2.0
 10
19.83806559244791
 20
-9.485898166232637
 30
0.0
 10
24.19335530598958
 20
-9.051127115885416
 30
0.0
 10
27.37111138237847
 20
-5.168159993489583
 30
0.0
 10
26.93634033203125
 20
-0.8132147894965276
 30
0.0
 10
26.65039740668403
 20
2.051037597656249
 30
0.0
 10
24.83414306640625
 20
4.53460693359375
 30
0.0
 10
22.19175482855903
 20
5.675278049045138
 30
0.0
  0
LINE
  5
324
330
312
100
AcDbEntity
  8
0
 62
     7
100
AcDbLine
 10
6.503479003906249
 20
1.574580891927083
 30
0.0
 11
11.91365695529514
 21
1.574580891927083
 31
0.0
  0
SPLINE
  5
325
330
312
100
AcDbEntity
  8
0
 62
     7
100
AcDbSpline
210
0.0
220
0.0
230
1.0
 70
     8
 71
     3
 72
     8
 73
     4
 74
     0
 42
0.0000000001
 43
0.0000000001
 40
0.0
 40
0.0
 40
0.0
 40
0.0
 40
1.0
 40
1.0
 40
1.0
 40
1.0
 10
22.19175482855903
 20
5.675278049045138
 30
0.0
 10
15.0566175672743
 20
8.227404785156249
 30
0.0
 10
7.534940592447916
 20
9.529650878906249
 30
0.0
 10
-0.0428914388020833
 20
9.524827745225692
 30
0.0
  0
LINE
  5
326
330
312
100
AcDbEntity
  8
0
 62
     7
100
AcDbLine
 10
0.0008612738715278
 20
-1.600419108072916
 30
0.0
 11
3.709506564670138
 21
-1.600419108072916
 31
0.0
  0
LINE
  5
327
330
312
100
AcDbEntity
  8
0
 62
     7
100
AcDbLine
 10
0.0008612738715278
 20
-1.600419108072916
 30
0.0
 11
-3.707439507378472
 21
-1.600419108072916
 31
0.0
  0
LINE
  5
328
330
312
100
AcDbEntity
  8
0
 62
     7
100
AcDbLine
 10
-3.96134304470486
 20
-1.346515570746527
 30
0.0
 11
-3.96134304470486
 21
-0.9654880099826389
 31
0.0
  0
SPLINE
  5
329
330
312
100
AcDbEntity
  8
0
 62
     7
100
AcDbSpline
210
0.0
220
0.0
230
1.0
 70
     8
 71
     3
 72
     8
 73
     4
 74
     0
 42
0.0000000001
 43
0.0000000001
 40
0.0
 40
0.0
 40
0.0
 40
0.0
 40
1.0
 40
1.0
 40
1.0
 40
1.0
 10
-3.96134304470486
 20
-1.346515570746527
 30
0.0
 10
-3.96134304470486
 20
-1.486730957031249
 30
0.0
 10
-3.847654893663193
 20
-1.600419108072916
 30
0.0
 10
-3.707439507378472
 20
-1.600419108072916
 30
0.0
  0
SPLINE
  5
32A
330
312
100
AcDbEntity
  8
0
 62
     7
100
AcDbSpline
210
0.0
220
0.0
230
1.0
 70
     8
 71
     3
 72
     8
 73
     4
 74
     0
 42
0.0000000001
 43
0.0000000001
 40
0.0
 40
0.0
 40
0.0
 40
0.0
 40
1.0
 40
1.0
 40
1.0
 40
1.0
 10
6.503479003906249
 20
1.574580891927083
 30
0.0
 10
5.100636121961804
 20
1.574580891927083
 30
0.0
 10
3.963065592447916
 20
0.4373548719618056
 30
0.0
 10
3.963065592447916
 20
-0.9654880099826389
 30
0.0
  0
LINE
  5
32B
330
312
100
AcDbEntity
  8
0
 62
     7
100
AcDbLine
 10
3.963065592447916
 20
-1.346515570746527
 30
0.0
 11
3.963065592447916
 21
-0.9654880099826389
 31
0.0
  0
SPLINE
  5
32C
330
312
100
AcDbEntity
  8
0
 62
     7
100
AcDbSpline
210
0.0
220
0.0
230
1.0
 70
     8
 71
     3
 72
     8
 73
     4
 74
     0
 42
0.0000000001
 43
0.0000000001
 40
0.0
 40
0.0
 40
0.0
 40
0.0
 40
1.0
 40
1.0
 40
1.0
 40
1.0
 10
3.709506564670138
 20
-1.600419108072916
 30
0.0
 10
3.849377441406249
 20
-1.600419108072916
 30
0.0
 10
3.963065592447916
 20
-1.486730957031249
 30
0.0
 10
3.963065592447916
 20
-1.346515570746527
 30
0.0
  0
SPLINE
  5
32D
330
312
100
AcDbEntity
  8
0
 62
     7
100
AcDbSpline
210
0.0
220
0.0
230
1.0
 70
     8
 71
     3
 72
     8
 73
     4
 74
     0
 42
0.0000000001
 43
0.0000000001
 40
0.0
 40
0.0
 40
0.0
 40
0.0
 40
1.0
 40
1.0
 40
1.0
 40
1.0
 10
16.66306559244791
 20
-1.854322645399305
 30
0.0
 10
16.66306559244791
 20
-1.714107259114583
 30
0.0
 10
16.54937744140625
 20
-1.600419108072916
 30
0.0
 10
16.40950656467014
 20
-1.600419108072916
 30
0.0
  0
LINE
  5
32E
330
312
100
AcDbEntity
  8
0
 62
     7
100
AcDbLine
 10
13.48806559244791
 20
-0.0001722547743056
 30
0.0
 11
13.48806559244791
 21
-1.600419108072916
 31
0.0
  0
SPLINE
  5
32F
330
312
100
AcDbEntity
  8
0
 62
     7
100
AcDbSpline
210
0.0
220
0.0
230
1.0
 70
     8
 71
     3
 72
     8
 73
     4
 74
     0
 42
0.0000000001
 43
0.0000000001
 40
0.0
 40
0.0
 40
0.0
 40
0.0
 40
1.0
 40
1.0
 40
1.0
 40
1.0
 10
13.48806559244791
 20
-0.0001722547743056
 30
0.0
 10
13.48806559244791
 20
0.8693698459201387
 30
0.0
 10
12.78319905598958
 20
1.574580891927083
 30
0.0
 10
11.91365695529514
 20
1.574580891927083
 30
0.0
  0
LINE
  5
330
330
312
100
AcDbEntity
  8
0
 62
     7
100
AcDbLine
 10
13.48806559244791
 20
-1.600419108072916
 30
0.0
 11
16.40950656467014
 21
-1.600419108072916
 31
0.0
  0
SPLINE
  5
331
330
312
100
AcDbEntity
  8
0
 62
     7
100
AcDbSpline
210
0.0
220
0.0
230
1.0
 70
     8
 71
     3
 72
     8
 73
     4
 74
     0
 42
0.0000000001
 43
0.0000000001
 40
0.0
 40
0.0
 40
0.0
 40
0.0
 40
1.0
 40
1.0
 40
1.0
 40
1.0
 10
19.83806559244791
 20
-5.816871473524305
 30
0.0
 10
19.83806559244791
 20
-5.676656087239583
 30
0.0
 10
19.72437744140625
 20
-5.562967936197916
 30
0.0
 10
19.58450656467013
 20
-5.562967936197916
 30
0.0
  0
SPLINE
  5
332
330
312
100
AcDbEntity
  8
0
 62
     7
100
AcDbSpline
210
0.0
220
0.0
230
1.0
 70
     8
 71
     3
 72
     8
 73
     4
 74
     0
 42
0.0000000001
 43
0.0000000001
 40
0.0
 40
0.0
 40
0.0
 40
0.0
 40
1.0
 40
1.0
 40
1.0
 40
1.0
 10
16.66306559244791
 20
-5.308719889322916
 30
0.0
 10
16.66306559244791
 20
-5.449279785156249
 30
0.0
 10
16.77709825303819
 20
-5.562967936197916
 30
0.0
 10
16.91731363932291
 20
-5.562967936197916
 30
0.0
  0
LINE
  5
333
330
312
100
AcDbEntity
  8
0
 62
     7
100
AcDbLine
 10
16.91731363932291
 20
-5.562967936197916
 30
0.0
 11
19.58450656467013
 21
-5.562967936197916
 31
0.0
  0
LINE
  5
334
330
312
100
AcDbEntity
  8
0
 62
     7
100
AcDbLine
 10
16.66306559244791
 20
-1.854322645399305
 30
0.0
 11
16.66306559244791
 21
-5.308719889322916
 31
0.0
  0
ENDBLK
  5
335
330
312
100
AcDbEntity
  8
0
100
AcDbBlockEnd
  0
BLOCK
  5
337
330
336
100
AcDbEntity
  8
0
100
AcDbBlockBegin
  2
*D8
 70
     1
 10
0.0
 20
0.0
 30
0.0
  3
*D8
  1

  0
LINE
  5
338
330
336
100
AcDbEntity
  8
ADPDIM
 62
     0
370
    -2
100
AcDbLine
 10
9.66672286156125
 20
14.52647100220023
 30
0.0
 11
9.66672286156125
 21
15.28167519529209
 31
0.0
  0
LINE
  5
339
330
336
100
AcDbEntity
  8
ADPDIM
 62
     0
370
    -2
100
AcDbLine
 10
11.79182018631165
 20
14.52647100220023
 30
0.0
 11
11.79182018631165
 21
15.28167519529209
 31
0.0
  0
LINE
  5
33A
330
336
100
AcDbEntity
  8
ADPDIM
 62
     0
370
    -2
100
AcDbLine
 10
9.84672286156125
 20
15.10167519529209
 30
0.0
 11
10.24927152393645
 21
15.10167519529209
 31
0.0
  0
LINE
  5
33B
330
336
100
AcDbEntity
  8
ADPDIM
 62
     0
370
    -2
100
AcDbLine
 10
11.61182018631164
 20
15.10167519529209
 30
0.0
 11
11.20927152393645
 21
15.10167519529209
 31
0.0
  0
SOLID
  5
33C
330
336
100
AcDbEntity
  8
ADPDIM
 62
     0
100
AcDbTrace
 10
9.84672286156125
 20
15.13167519529209
 30
0.0
 11
9.84672286156125
 21
15.07167519529209
 31
0.0
 12
9.66672286156125
 22
15.10167519529209
 32
0.0
 13
9.66672286156125
 23
15.10167519529209
 33
0.0
  0
SOLID
  5
33D
330
336
100
AcDbEntity
  8
ADPDIM
 62
     0
100
AcDbTrace
 10
11.61182018631164
 20
15.13167519529209
 30
0.0
 11
11.61182018631164
 21
15.07167519529209
 31
0.0
 12
11.79182018631165
 22
15.10167519529209
 32
0.0
 13
11.79182018631165
 23
15.10167519529209
 33
0.0
  0
MTEXT
  5
33E
330
336
100
AcDbEntity
  8
ADPDIM
 62
     0
100
AcDbMText
 10
10.72927152393645
 20
15.10167519529209
 30
0.0
 40
0.18
 41
0.0
 71
     5
 72
     1
  1
\A1;2 1/8
 73
     1
 44
1.0
1001
ACAD
1000
MTEXTBEGIN
1070
    73
1070
     1
1070
    44
1040
1.0
1070
    74
1070
     0
1000
MTEXTEND
  0
POINT
  5
33F
330
336
100
AcDbEntity
  8
DEFPOINTS
 62
     0
100
AcDbPoint
 10
9.66672286156125
 20
14.46397100220023
 30
0.0
  0
POINT
  5
340
330
336
100
AcDbEntity
  8
DEFPOINTS
 62
     0
100
AcDbPoint
 10
11.79182018631165
 20
14.46397100220023
 30
0.0
  0
POINT
  5
341
330
336
100
AcDbEntity
  8
DEFPOINTS
 62
     0
100
AcDbPoint
 10
11.79182018631165
 20
15.10167519529209
 30
0.0
  0
ENDBLK
  5
342
330
336
100
AcDbEntity
  8
0
100
AcDbBlockEnd
  0
BLOCK
  5
35C
330
351
100
AcDbEntity
  8
0
100
AcDbBlockBegin
  2
*D10
 70
     1
 10
0.0
 20
0.0
 30
0.0
  3
*D10
  1

  0
LINE
  5
378
330
351
100
AcDbEntity
  8
ADPDIM
 62
     0
370
    -2
100
AcDbLine
 10
-18.53993334786947
 20
-0.4336716414446756
 30
0.0
 11
-18.53993334786947
 21
0.321532551647181
 31
0.0
  0
LINE
  5
379
330
351
100
AcDbEntity
  8
ADPDIM
 62
     0
370
    -2
100
AcDbLine
 10
-16.41483602311907
 20
-0.4336716414446756
 30
0.0
 11
-16.41483602311907
 21
0.321532551647181
 31
0.0
  0
LINE
  5
37A
330
351
100
AcDbEntity
  8
ADPDIM
 62
     0
370
    -2
100
AcDbLine
 10
-18.35993334786947
 20
0.141532551647181
 30
0.0
 11
-17.95738468549427
 21
0.141532551647181
 31
0.0
  0
LINE
  5
37B
330
351
100
AcDbEntity
  8
ADPDIM
 62
     0
370
    -2
100
AcDbLine
 10
-16.59483602311907
 20
0.141532551647181
 30
0.0
 11
-16.99738468549427
 21
0.141532551647181
 31
0.0
  0
SOLID
  5
37C
330
351
100
AcDbEntity
  8
ADPDIM
 62
     0
100
AcDbTrace
 10
-18.35993334786947
 20
0.171532551647181
 30
0.0
 11
-18.35993334786947
 21
0.111532551647181
 31
0.0
 12
-18.53993334786947
 22
0.141532551647181
 32
0.0
 13
-18.53993334786947
 23
0.141532551647181
 33
0.0
  0
SOLID
  5
37D
330
351
100
AcDbEntity
  8
ADPDIM
 62
     0
100
AcDbTrace
 10
-16.59483602311907
 20
0.171532551647181
 30
0.0
 11
-16.59483602311907
 21
0.111532551647181
 31
0.0
 12
-16.41483602311907
 22
0.141532551647181
 32
0.0
 13
-16.41483602311907
 23
0.141532551647181
 33
0.0
  0
MTEXT
  5
37E
330
351
100
AcDbEntity
  8
ADPDIM
 62
     0
100
AcDbMText
 10
-17.47738468549427
 20
0.141532551647181
 30
0.0
 40
0.18
 41
0.0
 71
     5
 72
     1
  1
\A1;2 1/8
 73
     1
 44
1.0
1001
ACAD
1000
MTEXTBEGIN
1070
    73
1070
     1
1070
    44
1040
1.0
1070
    74
1070
     0
1000
MTEXTEND
  0
POINT
  5
37F
330
351
100
AcDbEntity
  8
DEFPOINTS
 62
     0
100
AcDbPoint
 10
-18.53993334786947
 20
-0.4961716414446756
 30
0.0
  0
POINT
  5
380
330
351
100
AcDbEntity
  8
DEFPOINTS
 62
     0
100
AcDbPoint
 10
-16.41483602311907
 20
-0.4961716414446756
 30
0.0
  0
POINT
  5
381
330
351
100
AcDbEntity
  8
DEFPOINTS
 62
     0
100
AcDbPoint
 10
-16.41483602311907
 20
0.141532551647181
 30
0.0
  0
ENDBLK
  5
35D
330
351
100
AcDbEntity
  8
0
100
AcDbBlockEnd
  0
BLOCK
  5
369
330
35E
100
AcDbEntity
  8
0
100
AcDbBlockBegin
  2
*D11
 70
     1
 10
0.0
 20
0.0
 30
0.0
  3
*D11
  1

  0
LINE
  5
382
330
35E
100
AcDbEntity
  8
ADPDIM
 62
     0
370
    -2
100
AcDbLine
 10
-18.26329354573026
 20
-0.946315375537118
 30
0.0
 11
-18.26329354573026
 21
-1.541448262136171
 31
0.0
  0
LINE
  5
383
330
35E
100
AcDbEntity
  8
ADPDIM
 62
     0
370
    -2
100
AcDbLine
 10
-16.70405040591002
 20
-0.946315375537118
 30
0.0
 11
-16.70405040591002
 21
-1.541448262136171
 31
0.0
  0
LINE
  5
384
330
35E
100
AcDbEntity
  8
ADPDIM
 62
     0
370
    -2
100
AcDbLine
 10
-18.44329354573025
 20
-1.361448262136171
 30
0.0
 11
-18.62329354573025
 21
-1.361448262136171
 31
0.0
  0
LINE
  5
385
330
35E
100
AcDbEntity
  8
ADPDIM
 62
     0
370
    -2
100
AcDbLine
 10
-16.52405040591002
 20
-1.361448262136171
 30
0.0
 11
-16.34405040591001
 21
-1.361448262136171
 31
0.0
  0
SOLID
  5
386
330
35E
100
AcDbEntity
  8
ADPDIM
 62
     0
100
AcDbTrace
 10
-18.44329354573025
 20
-1.331448262136171
 30
0.0
 11
-18.44329354573025
 21
-1.391448262136171
 31
0.0
 12
-18.26329354573026
 22
-1.361448262136171
 32
0.0
 13
-18.26329354573026
 23
-1.361448262136171
 33
0.0
  0
SOLID
  5
387
330
35E
100
AcDbEntity
  8
ADPDIM
 62
     0
100
AcDbTrace
 10
-16.52405040591002
 20
-1.331448262136171
 30
0.0
 11
-16.52405040591002
 21
-1.391448262136171
 31
0.0
 12
-16.70405040591002
 22
-1.361448262136171
 32
0.0
 13
-16.70405040591002
 23
-1.361448262136171
 33
0.0
  0
MTEXT
  5
388
330
35E
100
AcDbEntity
  8
ADPDIM
 62
     0
100
AcDbMText
 10
-17.48367197582014
 20
-1.361448262136171
 30
0.0
 40
0.18
 41
0.0
 71
     5
 72
     1
  1
\A1;1 9/16
 73
     1
 44
1.0
1001
ACAD
1000
MTEXTBEGIN
1070
    73
1070
     1
1070
    44
1040
1.0
1070
    74
1070
     0
1000
MTEXTEND
  0
POINT
  5
389
330
35E
100
AcDbEntity
  8
DEFPOINTS
 62
     0
100
AcDbPoint
 10
-18.26329354573026
 20
-0.883815375537118
 30
0.0
  0
POINT
  5
38A
330
35E
100
AcDbEntity
  8
DEFPOINTS
 62
     0
100
AcDbPoint
 10
-16.70405040591002
 20
-0.883815375537118
 30
0.0
  0
POINT
  5
38B
330
35E
100
AcDbEntity
  8
DEFPOINTS
 62
     0
100
AcDbPoint
 10
-16.70405040591002
 20
-1.361448262136171
 30
0.0
  0
ENDBLK
  5
36A
330
35E
100
AcDbEntity
  8
0
100
AcDbBlockEnd
  0
BLOCK
  5
376
330
36B
100
AcDbEntity
  8
0
100
AcDbBlockBegin
  2
*D12
 70
     1
 10
0.0
 20
0.0
 30
0.0
  3
*D12
  1

  0
LINE
  5
38C
330
36B
100
AcDbEntity
  8
ADPDIM
 62
     0
370
    -2
100
AcDbLine
 10
-18.13224483071303
 20
-0.763750652912151
 30
0.0
 11
-18.13224483071303
 21
-1.059892355500203
 31
0.0
  0
LINE
  5
38D
330
36B
100
AcDbEntity
  8
ADPDIM
 62
     0
370
    -2
100
AcDbLine
 10
-16.81974483071303
 20
-0.763750652912151
 30
0.0
 11
-16.81974483071303
 21
-1.059892355500203
 31
0.0
  0
LINE
  5
38E
330
36B
100
AcDbEntity
  8
ADPDIM
 62
     0
370
    -2
100
AcDbLine
 10
-17.95224483071303
 20
-0.8798923555002033
 30
0.0
 11
-16.99974483071303
 21
-0.8798923555002033
 31
0.0
  0
LINE
  5
38F
330
36B
100
AcDbEntity
  8
ADPDIM
 62
     0
370
    -2
100
AcDbLine
 10
-16.81974483071303
 20
-0.8798923555002033
 30
0.0
 11
-16.25356818116315
 21
-0.8798923555002033
 31
0.0
  0
SOLID
  5
390
330
36B
100
AcDbEntity
  8
ADPDIM
 62
     0
100
AcDbTrace
 10
-17.95224483071303
 20
-0.8498923555002033
 30
0.0
 11
-17.95224483071303
 21
-0.9098923555002034
 31
0.0
 12
-18.13224483071303
 22
-0.8798923555002033
 32
0.0
 13
-18.13224483071303
 23
-0.8798923555002033
 33
0.0
  0
SOLID
  5
391
330
36B
100
AcDbEntity
  8
ADPDIM
 62
     0
100
AcDbTrace
 10
-16.99974483071303
 20
-0.8498923555002033
 30
0.0
 11
-16.99974483071303
 21
-0.9098923555002034
 31
0.0
 12
-16.81974483071303
 22
-0.8798923555002033
 32
0.0
 13
-16.81974483071303
 23
-0.8798923555002033
 33
0.0
  0
MTEXT
  5
392
330
36B
100
AcDbEntity
  8
ADPDIM
 62
     0
100
AcDbMText
 10
-15.71356818116315
 20
-0.8798923555002033
 30
0.0
 40
0.18
 41
0.0
 71
     5
 72
     1
  1
\A1;1 5/16
 73
     1
 44
1.0
1001
ACAD
1000
MTEXTBEGIN
1070
    73
1070
     1
1070
    44
1040
1.0
1070
    74
1070
     0
1000
MTEXTEND
  0
POINT
  5
393
330
36B
100
AcDbEntity
  8
DEFPOINTS
 62
     0
100
AcDbPoint
 10
-18.13224483071303
 20
-0.701250652912151
 30
0.0
  0
POINT
  5
394
330
36B
100
AcDbEntity
  8
DEFPOINTS
 62
     0
100
AcDbPoint
 10
-16.81974483071303
 20
-0.701250652912151
 30
0.0
  0
POINT
  5
395
330
36B
100
AcDbEntity
  8
DEFPOINTS
 62
     0
100
AcDbPoint
 10
-16.81974483071303
 20
-0.8798923555002033
 30
0.0
  0
ENDBLK
  5
377
330
36B
100
AcDbEntity
  8
0
100
AcDbBlockEnd
  0
ENDSEC
  0
SECTION
  2
ENTITIES
  0
ARC
  5
183
330
18
100
AcDbEntity
  8
ADP3DETAIL
  6
HIDDEN2
100
AcDbCircle
 10
-15.01630512332581
 20
3.573451565200108
 30
0.0
 40
2.5
100
AcDbArc
 50
90.0
 51
180.0
  0
DIMENSION
  5
184
330
18
100
AcDbEntity
  8
ADPDIM
100
AcDbDimension
  2
*D3
 10
-15.66265906901056
 20
1.073451565200109
 30
0.0
 11
-15.66265906901056
 21
2.322758914417632
 31
0.0
 71
     5
 42
-1.0
100
AcDbAlignedDimension
 13
-15.01491352401967
 23
3.572066263635155
 33
0.0
 14
-16.45330512332581
 24
1.07345156520011
 34
0.0
 50
90.0
100
AcDbRotatedDimension
  0
DIMENSION
  5
185
330
18
100
AcDbEntity
  8
ADPDIM
100
AcDbDimension
  2
*D4
 10
-15.0163051233258
 20
3.573451565200109
 30
0.0
 11
-14.69008874533628
 21
3.248711493146561
 31
0.0
 70
     4
 71
     5
 42
-1.0
100
AcDbRadialDimension
 15
-16.78807664341704
 25
5.337204858774242
 35
0.0
 40
-2.501963570486308
  0
ARC
  5
186
330
18
100
AcDbEntity
  8
ADP1DETAIL
100
AcDbCircle
 10
-15.01630512332581
 20
3.573451565200108
 30
0.0
 40
3.563
100
AcDbArc
 50
90.0
 51
180.0
  0
ARC
  5
187
330
18
100
AcDbEntity
  8
ADP1DETAIL
100
AcDbCircle
 10
-15.01630512332581
 20
3.573451565200108
 30
0.0
 40
1.437
100
AcDbArc
 50
90.0
 51
180.0
  0
LINE
  5
188
330
18
100
AcDbEntity
  8
ADP1DETAIL
100
AcDbLine
 10
-16.45330512332581
 20
1.07345156520011
 30
0.0
 11
-18.57930512332581
 21
1.07345156520011
 31
0.0
  0
LINE
  5
189
330
18
100
AcDbEntity
  8
ADP1DETAIL
100
AcDbLine
 10
-18.57930512332581
 20
1.07345156520011
 30
0.0
 11
-18.57930512332581
 21
3.573451565200108
 31
0.0
  0
LINE
  5
18A
330
18
100
AcDbEntity
  8
ADP3DETAIL
  6
HIDDEN2
100
AcDbLine
 10
-17.51630512332581
 20
0.6120697003357423
 30
0.0
 11
-17.51630512332581
 21
3.573451565200108
 31
0.0
  0
LINE
  5
18B
330
18
100
AcDbEntity
  8
ADP1DETAIL
100
AcDbLine
 10
-16.4533051233258
 20
3.573451565200108
 30
0.0
 11
-16.45330512332581
 21
1.07345156520011
 31
0.0
  0
LINE
  5
18C
330
18
100
AcDbEntity
  8
ADP3DETAIL
  6
HIDDEN2
100
AcDbLine
 10
-11.8056834228316
 20
6.073451565200108
 30
0.0
 11
-15.01630512332581
 21
6.073451565200108
 31
0.0
  0
LINE
  5
18D
330
18
100
AcDbEntity
  8
ADP1DETAIL
100
AcDbLine
 10
-15.01630512332581
 20
7.136451565200107
 30
0.0
 11
-12.51630512332581
 21
7.136451565200107
 31
0.0
  0
LINE
  5
18E
330
18
100
AcDbEntity
  8
ADP1DETAIL
100
AcDbLine
 10
-12.51630512332581
 20
5.010451565200107
 30
0.0
 11
-15.01630512332581
 21
5.010451565200107
 31
0.0
  0
LINE
  5
18F
330
18
100
AcDbEntity
  8
ADP1DETAIL
100
AcDbLine
 10
-12.51630512332581
 20
7.136451565200107
 30
0.0
 11
-12.51630512332581
 21
5.010451565200107
 31
0.0
  0
TEXT
  5
19D
330
18
100
AcDbEntity
  8
ADPDIM
100
AcDbText
 10
-25.09008402561025
 20
-2.118769082229782
 30
0.0
 40
0.1875
  1
J U L I U S  B L U M  &  C O . ,  I N C .      ( 8 0 0 )  5 2 6 - 6 2 9 3        W W W . J U L I U S B L U M . C O M        P A R T  N o .  5 2 3 5 - C
 41
1.25
  7
ARIAL_WIDE
 72
     1
 11
-15.03777864532375
 21
-1.931269082229782
 31
0.0
100
AcDbText
 73
     3
  0
DIMENSION
  5
34D
330
18
100
AcDbEntity
  8
ADPDIM
100
AcDbDimension
  2
*D10
 10
-16.41483602311907
 20
0.141532551647181
 30
0.0
 11
-17.47738468549427
 21
0.141532551647181
 31
0.0
 70
    32
 71
     5
 42
2.125097324750395
  3
STANDARD
100
AcDbAlignedDimension
 13
-18.53993334786947
 23
-0.4961716414446756
 33
0.0
 14
-16.41483602311907
 24
-0.4961716414446756
 34
0.0
100
AcDbRotatedDimension
1001
ACAD
1000
DSTYLE
1002
{
1070
   276
1070
     2
1070
   277
1070
     5
1002
}
  0
DIMENSION
  5
34E
330
18
100
AcDbEntity
  8
ADPDIM
100
AcDbDimension
  2
*D11
 10
-16.70405040591002
 20
-1.361448262136171
 30
0.0
 11
-17.48367197582014
 21
-1.361448262136171
 31
0.0
 70
    32
 71
     5
 42
1.559243139820239
  3
STANDARD
100
AcDbAlignedDimension
 13
-18.26329354573026
 23
-0.883815375537118
 33
0.0
 14
-16.70405040591002
 24
-0.883815375537118
 34
0.0
100
AcDbRotatedDimension
1001
ACAD
1000
DSTYLE
1002
{
1070
   276
1070
     2
1070
   277
1070
     5
1002
}
  0
DIMENSION
  5
34F
330
18
100
AcDbEntity
  8
ADPDIM
 62
     3
100
AcDbDimension
  2
*D12
 10
-16.81974483071303
 20
-0.8798923555002033
 30
0.0
 11
-15.71356818116315
 21
-0.8798923555002033
 31
0.0
 70
   160
 71
     5
 42
1.3125
  3
STANDARD
100
AcDbAlignedDimension
 13
-18.13224483071303
 23
-0.701250652912151
 33
0.0
 14
-16.81974483071303
 24
-0.701250652912151
 34
0.0
100
AcDbRotatedDimension
1001
ACAD
1000
DSTYLE
1002
{
1070
   276
1070
     2
1070
   277
1070
     5
1002
}
  0
INSERT
  5
350
330
18
100
AcDbEntity
  8
0
 62
     7
100
AcDbBlockReference
  2
AI9-BLK1
 10
-17.48245978388551
 20
-0.4239207771641276
 30
0.0
 41
0.0393242362713124
 42
0.0393242362713124
 43
0.0393242362713124
  0
ENDSEC
  0
SECTION
  2
OBJECTS
  0
DICTIONARY
  5
C
330
0
100
AcDbDictionary
281
     1
  3
ACAD_COLOR
350
2F2
  3
ACAD_GROUP
350
D
  3
ACAD_LAYOUT
350
196
  3
ACAD_MATERIAL
350
2DD
  3
ACAD_MLINESTYLE
350
E
  3
ACAD_PLOTSETTINGS
350
197
  3
ACAD_PLOTSTYLENAME
350
194
  3
ACAD_TABLESTYLE
350
2F3
  3
ACAD_VISUALSTYLE
350
2E1
  3
AcDbVariableDictionary
350
1F7
  3
ASE_INDEX_DICTIONARY
350
397
  3
DWGPROPS
350
3B8
  0
DICTIONARY
  5
1F1
330
18
100
AcDbDictionary
280
     1
281
     1
  3
ACAD_LAYOUTSELFREF
360
2D7
  0
DICTIONARY
  5
1EF
330
15
100
AcDbDictionary
280
     1
281
     1
  3
ACAD_LAYOUTSELFREF
360
2D6
  0
DICTIONARY
  5
2F2
102
{ACAD_REACTORS
330
C
102
}
330
C
100
AcDbDictionary
281
     1
  0
DICTIONARY
  5
D
102
{ACAD_REACTORS
330
C
102
}
330
C
100
AcDbDictionary
281
     1
  0
DICTIONARY
  5
196
102
{ACAD_REACTORS
330
C
102
}
330
C
100
AcDbDictionary
281
     1
  3
Layout1
350
199
  3
Model
350
198
  0
DICTIONARY
  5
2DD
102
{ACAD_REACTORS
330
C
102
}
330
C
100
AcDbDictionary
281
     1
  3
ByBlock
350
2DF
  3
ByLayer
350
2DE
  3
Global
350
2E0
  0
DICTIONARY
  5
E
102
{ACAD_REACTORS
330
C
102
}
330
C
100
AcDbDictionary
281
     1
  3
STANDARD
350
1B
  0
DICTIONARY
  5
197
102
{ACAD_REACTORS
330
C
102
}
330
C
100
AcDbDictionary
281
     1
  0
ACDBDICTIONARYWDFLT
  5
194
102
{ACAD_REACTORS
330
C
102
}
330
C
100
AcDbDictionary
281
     1
  3
Normal
350
195
100
AcDbDictionaryWithDefault
340
195
  0
DICTIONARY
  5
2F3
102
{ACAD_REACTORS
330
C
102
}
330
C
100
AcDbDictionary
281
     1
  3
Standard
350
2F4
  0
DICTIONARY
  5
2E1
102
{ACAD_REACTORS
330
C
102
}
330
C
100
AcDbDictionary
281
     1
  3
2dWireframe
350
2E7
  3
3D Hidden
350
2E9
  3
3dWireframe
350
2E8
  3
Basic
350
2E6
  3
Brighten
350
2ED
  3
ColorChange
350
2F1
  3
Conceptual
350
2EA
  3
Dim
350
2EC
  3
Facepattern
350
2F0
  3
Flat
350
2E2
  3
FlatWithEdges
350
2E3
  3
Gouraud
350
2E4
  3
GouraudWithEdges
350
2E5
  3
Linepattern
350
2EF
  3
Realistic
350
2EB
  3
Thicken
350
2EE
  0
DICTIONARY
  5
1F7
102
{ACAD_REACTORS
330
C
102
}
330
C
100
AcDbDictionary
281
     1
  3
CTABLESTYLE
350
3B5
  3
DIMASSOC
350
1F8
  3
INDEXCTL
350
3B7
  3
SORTENTS
350
3B6
  0
DICTIONARY
  5
397
102
{ACAD_REACTORS
330
C
102
}
330
C
100
AcDbDictionary
281
     1
  3
ASEBlockHierarchyIndexRecord
350
398
1001
DCO15
1040
1569005615.534
  0
XRECORD
  5
3B8
102
{ACAD_REACTORS
330
C
102
}
330
C
100
AcDbXrecord
280
     1
  1
DWGPROPS COOKIE
  2

  3

  4

  6

  7

  8
Yu Hu
  9

300
=
301
=
302
=
303
=
304
=
305
=
306
=
307
=
308
=
309
=
 40
0.0672289351851852
 41
2450406.657913577
 42
2453962.999068681
  1

 90
        0
  0
XRECORD
  5
2D7
102
{ACAD_REACTORS
330
1F1
102
}
330
1F1
100
AcDbXrecord
280
     1
340
18
  0
XRECORD
  5
2D6
102
{ACAD_REACTORS
330
1EF
102
}
330
1EF
100
AcDbXrecord
280
     1
340
15
  0
LAYOUT
  5
199
102
{ACAD_XDICTIONARY
360
3BB
102
}
102
{ACAD_REACTORS
330
196
102
}
330
196
100
AcDbPlotSettings
  1

  2
Fax
  4

  6

 40
0.0
 41
0.0
 42
0.0
 43
0.0
 44
0.0
 45
0.0
 46
0.0
 47
0.0
 48
0.0
 49
0.0
140
0.0
141
0.0
142
1.0
143
1.0
 70
   688
 72
     0
 73
     0
 74
     5
  7
Default R14 pen assignments.ctb
 75
    16
147
1.0
148
0.0
149
0.0
100
AcDbLayout
  1
Layout1
 70
     1
 71
     1
 10
0.0
 20
0.0
 11
12.0
 21
9.0
 12
0.0008545028977096
 22
1.250283272183907
 32
0.0
 14
1.000000000000000E+20
 24
1.000000000000000E+20
 34
1.000000000000000E+20
 15
-1.000000000000000E+20
 25
-1.000000000000000E+20
 35
-1.000000000000000E+20
146
0.0
 13
0.0
 23
0.0
 33
0.0
 16
1.0
 26
0.0
 36
0.0
 17
0.0
 27
1.0
 37
0.0
 76
     0
330
15
  0
LAYOUT
  5
198
102
{ACAD_XDICTIONARY
360
3B9
102
}
102
{ACAD_REACTORS
330
196
102
}
330
196
100
AcDbPlotSettings
  1

  2
Fax
  4

  6

 40
0.0
 41
0.0
 42
0.0
 43
0.0
 44
0.0
 45
0.0
 46
0.0
 47
0.0
 48
0.0
 49
0.0
140
0.0
141
0.0
142
1.0
143
1.0
 70
  1712
 72
     0
 73
     0
 74
     0
  7
Default R14 pen assignments.ctb
 75
     0
147
1.0
148
0.0
149
0.0
100
AcDbLayout
  1
Model
 70
     1
 71
     0
 10
0.0
 20
0.0
 11
12.0
 21
9.0
 12
0.0
 22
0.0
 32
0.0
 14
0.0
 24
0.0
 34
0.0
 15
0.0
 25
0.0
 35
0.0
146
0.0
 13
0.0
 23
0.0
 33
0.0
 16
1.0
 26
0.0
 36
0.0
 17
0.0
 27
1.0
 37
0.0
 76
     0
330
18
331
2B1
  0
MATERIAL
  5
2DF
102
{ACAD_XDICTIONARY
360
3BF
102
}
102
{ACAD_REACTORS
330
2DD
102
}
330
2DD
100
AcDbMaterial
  1
ByBlock
  0
MATERIAL
  5
2DE
102
{ACAD_XDICTIONARY
360
3BD
102
}
102
{ACAD_REACTORS
330
2DD
102
}
330
2DD
100
AcDbMaterial
  1
ByLayer
  0
MATERIAL
  5
2E0
102
{ACAD_XDICTIONARY
360
3C1
102
}
102
{ACAD_REACTORS
330
2DD
102
}
330
2DD
100
AcDbMaterial
  1
Global
  0
MLINESTYLE
  5
1B
102
{ACAD_REACTORS
330
E
102
}
330
E
100
AcDbMlineStyle
  2
STANDARD
 70
     0
  3

 62
     0
 51
90.0
 52
90.0
 71
     2
 49
0.5
 62
   256
  6
BYLAYER
 49
-0.5
 62
   256
  6
BYLAYER
  0
ACDBPLACEHOLDER
  5
195
102
{ACAD_REACTORS
330
194
102
}
330
194
  0
TABLESTYLE
  5
2F4
102
{ACAD_XDICTIONARY
360
3C3
102
}
102
{ACAD_REACTORS
330
2F3
102
}
330
2F3
100
AcDbTableStyle
  3
Standard
 70
     0
 71
     0
 40
0.06
 41
0.06
280
     0
281
     0
  7
STANDARD
140
0.18
170
     2
 62
     0
 63
     7
283
     0
274
    -2
284
     1
 64
     0
275
    -2
285
     1
 65
     0
276
    -2
286
     1
 66
     0
277
    -2
287
     1
 67
     0
278
    -2
288
     1
 68
     0
279
    -2
289
     1
 69
     0
  7
STANDARD
140
0.25
170
     5
 62
     0
 63
     7
283
     0
274
    -2
284
     1
 64
     0
275
    -2
285
     1
 65
     0
276
    -2
286
     1
 66
     0
277
    -2
287
     1
 67
     0
278
    -2
288
     1
 68
     0
279
    -2
289
     1
 69
     0
  7
STANDARD
140
0.18
170
     5
 62
     0
 63
     7
283
     0
274
    -2
284
     1
 64
     0
275
    -2
285
     1
 65
     0
276
    -2
286
     1
 66
     0
277
    -2
287
     1
 67
     0
278
    -2
288
     1
 68
     0
279
    -2
289
     1
 69
     0
  0
VISUALSTYLE
  5
2E7
102
{ACAD_REACTORS
330
2E1
102
}
330
2E1
100
AcDbVisualStyle
  2
2dWireframe
 70
     4
 71
     0
 72
     2
 73
     0
 90
        0
 40
-0.6
 41
-30.0
 62
     5
 63
     7
 74
     1
 91
        4
 64
     7
 65
   257
 75
     1
175
     1
 42
1.0
 92
        0
 66
   257
 43
1.0
 76
     1
 77
     6
 78
     2
 67
     7
 79
     5
170
     0
171
     0
290
     0
174
     0
 93
        1
 44
0.0
173
     0
291
     0
 45
0.0
1001
ACAD
1000
AcDbSavedByObjectVersion
1070
     0
  0
VISUALSTYLE
  5
2E9
102
{ACAD_REACTORS
330
2E1
102
}
330
2E1
100
AcDbVisualStyle
  2
3D Hidden
 70
     6
 71
     1
 72
     2
 73
     2
 90
        0
 40
-0.6
 41
-30.0
 62
     5
 63
     7
 74
     2
 91
        2
 64
     7
 65
   257
 75
     2
175
     1
 42
40.0
 92
        0
 66
   257
 43
1.0
 76
     1
 77
     6
 78
     2
 67
     7
 79
     3
170
     0
171
     0
290
     0
174
     0
 93
        1
 44
0.0
173
     0
291
     0
 45
0.0
1001
ACAD
1000
AcDbSavedByObjectVersion
1070
     0
  0
VISUALSTYLE
  5
2E8
102
{ACAD_REACTORS
330
2E1
102
}
330
2E1
100
AcDbVisualStyle
  2
3dWireframe
 70
     5
 71
     0
 72
     2
 73
     0
 90
        0
 40
-0.6
 41
-30.0
 62
     5
 63
     7
 74
     1
 91
        4
 64
     7
 65
   257
 75
     1
175
     1
 42
1.0
 92
        0
 66
   257
 43
1.0
 76
     1
 77
     6
 78
     2
 67
     7
 79
     5
170
     0
171
     0
290
     0
174
     0
 93
        1
 44
0.0
173
     0
291
     0
 45
0.0
1001
ACAD
1000
AcDbSavedByObjectVersion
1070
     0
  0
VISUALSTYLE
  5
2E6
102
{ACAD_REACTORS
330
2E1
102
}
330
2E1
100
AcDbVisualStyle
  2
Basic
 70
     7
 71
     1
 72
     0
 73
     1
 90
        0
 40
-0.6
 41
-30.0
 62
     5
 63
     7
 74
     0
 91
        4
 64
     7
 65
   257
 75
     1
175
     1
 42
1.0
 92
        8
 66
     7
 43
1.0
 76
     1
 77
     6
 78
     2
 67
     7
 79
     5
170
     0
171
     0
290
     0
174
     0
 93
        1
 44
0.0
173
     0
291
     1
 45
0.0
1001
ACAD
1000
AcDbSavedByObjectVersion
1070
     0
  0
VISUALSTYLE
  5
2ED
102
{ACAD_REACTORS
330
2E1
102
}
330
2E1
100
AcDbVisualStyle
  2
Brighten
 70
    12
 71
     2
 72
     2
 73
     0
 90
        0
 40
-0.6
 41
-30.0
 62
     5
 63
     7
 74
     1
 91
        4
 64
     7
 65
   257
 75
     1
175
     1
 42
1.0
 92
        8
 66
     7
 43
1.0
 76
     1
 77
     6
 78
     2
 67
     7
 79
     5
170
     0
171
     0
290
     0
174
     0
 93
        1
 44
50.0
173
     0
291
     1
 45
0.0
1001
ACAD
1000
AcDbSavedByObjectVersion
1070
     0
  0
VISUALSTYLE
  5
2F1
102
{ACAD_REACTORS
330
2E1
102
}
330
2E1
100
AcDbVisualStyle
  2
ColorChange
 70
    16
 71
     2
 72
     2
 73
     3
 90
        0
 40
-0.6
 41
-30.0
 62
     5
 63
     8
 74
     1
 91
        4
 64
     7
 65
   257
 75
     1
175
     1
 42
1.0
 92
        8
 66
     8
 43
1.0
 76
     1
 77
     6
 78
     2
 67
     7
 79
     5
170
     0
171
     0
290
     0
174
     0
 93
        1
 44
0.0
173
     0
291
     1
 45
0.0
1001
ACAD
1000
AcDbSavedByObjectVersion
1070
     0
  0
VISUALSTYLE
  5
2EA
102
{ACAD_REACTORS
330
2E1
102
}
330
2E1
100
AcDbVisualStyle
  2
Conceptual
 70
     9
 71
     3
 72
     2
 73
     0
 90
        0
 40
-0.6
 41
-30.0
 62
     5
 63
     7
 74
     2
 91
        2
 64
     7
 65
   257
 75
     1
175
     1
 42
40.0
 92
        8
 66
     7
 43
1.0
 76
     1
 77
     6
 78
     2
 67
     7
 79
     3
170
     0
171
     0
290
     0
174
     0
 93
        1
 44
0.0
173
     0
291
     0
 45
0.0
1001
ACAD
1000
AcDbSavedByObjectVersion
1070
     0
  0
VISUALSTYLE
  5
2EC
102
{ACAD_REACTORS
330
2E1
102
}
330
2E1
100
AcDbVisualStyle
  2
Dim
 70
    11
 71
     2
 72
     2
 73
     0
 90
        0
 40
-0.6
 41
-30.0
 62
     5
 63
     7
 74
     1
 91
        4
 64
     7
 65
   257
 75
     1
175
     1
 42
1.0
 92
        8
 66
     7
 43
1.0
 76
     1
 77
     6
 78
     2
 67
     7
 79
     5
170
     0
171
     0
290
     0
174
     0
 93
        1
 44
-50.0
173
     0
291
     1
 45
0.0
1001
ACAD
1000
AcDbSavedByObjectVersion
1070
     0
  0
VISUALSTYLE
  5
2F0
102
{ACAD_REACTORS
330
2E1
102
}
330
2E1
100
AcDbVisualStyle
  2
Facepattern
 70
    15
 71
     2
 72
     2
 73
     0
 90
        0
 40
-0.6
 41
-30.0
 62
     5
 63
     7
 74
     1
 91
        4
 64
     7
 65
   257
 75
     1
175
     1
 42
1.0
 92
        8
 66
     7
 43
1.0
 76
     1
 77
     6
 78
     2
 67
     7
 79
     5
170
     0
171
     0
290
     0
174
     0
 93
        1
 44
0.0
173
     0
291
     1
 45
0.0
1001
ACAD
1000
AcDbSavedByObjectVersion
1070
     0
  0
VISUALSTYLE
  5
2E2
102
{ACAD_REACTORS
330
2E1
102
}
330
2E1
100
AcDbVisualStyle
  2
Flat
 70
     0
 71
     2
 72
     1
 73
     1
 90
        2
 40
-0.6
 41
30.0
 62
     5
 63
     7
 74
     0
 91
        4
 64
     7
 65
   257
 75
     1
175
     1
 42
1.0
 92
        8
 66
     7
 43
1.0
 76
     1
 77
     6
 78
     2
 67
     7
 79
     5
170
     0
171
     0
290
     0
174
     0
 93
       13
 44
0.0
173
     0
291
     1
 45
0.0
1001
ACAD
1000
AcDbSavedByObjectVersion
1070
     0
  0
VISUALSTYLE
  5
2E3
102
{ACAD_REACTORS
330
2E1
102
}
330
2E1
100
AcDbVisualStyle
  2
FlatWithEdges
 70
     1
 71
     2
 72
     1
 73
     1
 90
        2
 40
-0.6
 41
30.0
 62
     5
 63
     7
 74
     1
 91
        4
 64
     7
 65
   257
 75
     1
175
     1
 42
1.0
 92
        0
 66
   257
 43
1.0
 76
     1
 77
     6
 78
     2
 67
     7
 79
     5
170
     0
171
     0
290
     0
174
     0
 93
       13
 44
0.0
173
     0
291
     1
 45
0.0
1001
ACAD
1000
AcDbSavedByObjectVersion
1070
     0
  0
VISUALSTYLE
  5
2E4
102
{ACAD_REACTORS
330
2E1
102
}
330
2E1
100
AcDbVisualStyle
  2
Gouraud
 70
     2
 71
     2
 72
     2
 73
     1
 90
        2
 40
-0.6
 41
30.0
 62
     5
 63
     7
 74
     0
 91
        4
 64
     7
 65
   257
 75
     1
175
     1
 42
1.0
 92
        0
 66
     7
 43
1.0
 76
     1
 77
     6
 78
     2
 67
     7
 79
     5
170
     0
171
     0
290
     0
174
     0
 93
       13
 44
0.0
173
     0
291
     1
 45
0.0
1001
ACAD
1000
AcDbSavedByObjectVersion
1070
     0
  0
VISUALSTYLE
  5
2E5
102
{ACAD_REACTORS
330
2E1
102
}
330
2E1
100
AcDbVisualStyle
  2
GouraudWithEdges
 70
     3
 71
     2
 72
     2
 73
     1
 90
        2
 40
-0.6
 41
30.0
 62
     5
 63
     7
 74
     1
 91
        4
 64
     7
 65
   257
 75
     1
175
     1
 42
1.0
 92
        0
 66
   257
 43
1.0
 76
     1
 77
     6
 78
     2
 67
     7
 79
     5
170
     0
171
     0
290
     0
174
     0
 93
       13
 44
0.0
173
     0
291
     1
 45
0.0
1001
ACAD
1000
AcDbSavedByObjectVersion
1070
     0
  0
VISUALSTYLE
  5
2EF
102
{ACAD_REACTORS
330
2E1
102
}
330
2E1
100
AcDbVisualStyle
  2
Linepattern
 70
    14
 71
     2
 72
     2
 73
     0
 90
        0
 40
-0.6
 41
-30.0
 62
     5
 63
     7
 74
     1
 91
        4
 64
     7
 65
   257
 75
     7
175
     7
 42
1.0
 92
        8
 66
     7
 43
1.0
 76
     1
 77
     6
 78
     2
 67
     7
 79
     5
170
     0
171
     0
290
     0
174
     0
 93
        1
 44
0.0
173
     0
291
     1
 45
0.0
1001
ACAD
1000
AcDbSavedByObjectVersion
1070
     0
  0
VISUALSTYLE
  5
2EB
102
{ACAD_REACTORS
330
2E1
102
}
330
2E1
100
AcDbVisualStyle
  2
Realistic
 70
     8
 71
     2
 72
     2
 73
     0
 90
        0
 40
-0.6
 41
-30.0
 62
     5
 63
     7
 74
     1
 91
        0
 64
     7
 65
   257
 75
     1
175
     1
 42
1.0
 92
        8
 66
     8
 43
1.0
 76
     1
 77
     6
 78
     2
 67
     7
 79
     5
170
     0
171
     0
290
     0
174
     0
 93
       13
 44
0.0
173
     0
291
     0
 45
0.0
1001
ACAD
1000
AcDbSavedByObjectVersion
1070
     0
  0
VISUALSTYLE
  5
2EE
102
{ACAD_REACTORS
330
2E1
102
}
330
2E1
100
AcDbVisualStyle
  2
Thicken
 70
    13
 71
     2
 72
     2
 73
     0
 90
        0
 40
-0.6
 41
-30.0
 62
     5
 63
     7
 74
     1
 91
        4
 64
     7
 65
   257
 75
     1
175
     1
 42
1.0
 92
       12
 66
     7
 43
1.0
 76
     1
 77
     6
 78
     2
 67
     7
 79
     5
170
     0
171
     0
290
     0
174
     0
 93
        1
 44
0.0
173
     0
291
     1
 45
0.0
1001
ACAD
1000
AcDbSavedByObjectVersion
1070
     0
  0
DICTIONARYVAR
  5
3B5
102
{ACAD_REACTORS
330
1F7
102
}
330
1F7
100
DictionaryVariables
280
     0
  1
STANDARD
  0
DICTIONARYVAR
  5
1F8
102
{ACAD_REACTORS
330
1F7
102
}
330
1F7
100
DictionaryVariables
280
     0
  1
1
  0
DICTIONARYVAR
  5
3B7
102
{ACAD_REACTORS
330
1F7
102
}
330
1F7
100
DictionaryVariables
280
     0
  1
0
  0
DICTIONARYVAR
  5
3B6
102
{ACAD_REACTORS
330
1F7
102
}
330
1F7
100
DictionaryVariables
280
     0
  1
127
  0
XRECORD
  5
398
102
{ACAD_REACTORS
330
397
102
}
330
397
100
AcDbXrecord
280
     1
330
350
  0
DICTIONARY
  5
3BB
330
199
100
AcDbDictionary
280
     1
281
     1
  3
ACAD_XREC_ROUNDTRIP
360
3BC
  0
DICTIONARY
  5
3B9
330
198
100
AcDbDictionary
280
     1
281
     1
  3
ACAD_XREC_ROUNDTRIP
360
3BA
  0
DICTIONARY
  5
3BF
330
2DF
100
AcDbDictionary
280
     1
281
     1
  3
ACAD_XREC_ROUNDTRIP
360
3C0
  0
DICTIONARY
  5
3BD
330
2DE
100
AcDbDictionary
280
     1
281
     1
  3
ACAD_XREC_ROUNDTRIP
360
3BE
  0
DICTIONARY
  5
3C1
330
2E0
100
AcDbDictionary
280
     1
281
     1
  3
ACAD_XREC_ROUNDTRIP
360
3C2
  0
DICTIONARY
  5
3C3
330
2F4
100
AcDbDictionary
280
     1
281
     1
  3
ACAD_XREC_ROUNDTRIP
360
3C4
  0
XRECORD
  5
3BC
102
{ACAD_REACTORS
330
3BB
102
}
330
3BB
100
AcDbXrecord
280
     1
102
SHADEPLOT
 70
     0
102
SHADEPLOTRESLEVEL
 70
     2
102
SHADEPLOTCUSTOMDPI
 70
   300
  0
XRECORD
  5
3BA
102
{ACAD_REACTORS
330
3B9
102
}
330
3B9
100
AcDbXrecord
280
     1
102
SHADEPLOT
 70
     0
102
SHADEPLOTRESLEVEL
 70
     2
102
SHADEPLOTCUSTOMDPI
 70
   300
  0
XRECORD
  5
3C0
102
{ACAD_REACTORS
330
3BF
102
}
330
3BF
100
AcDbXrecord
280
     1
102
MATERIAL
148
0.0
149
0.0
149
0.0
 93
        0
 94
       63
282
     0
 72
     1
 77
     1
171
     1
175
     1
179
     1
273
     0
  0
XRECORD
  5
3BE
102
{ACAD_REACTORS
330
3BD
102
}
330
3BD
100
AcDbXrecord
280
     1
102
MATERIAL
148
0.0
149
0.0
149
0.0
 93
        0
 94
       63
282
     0
 72
     1
 77
     1
171
     1
175
     1
179
     1
273
     0
  0
XRECORD
  5
3C2
102
{ACAD_REACTORS
330
3C1
102
}
330
3C1
100
AcDbXrecord
280
     1
102
MATERIAL
148
0.0
149
0.0
149
0.0
 93
        0
 94
       63
282
     0
 72
     1
 77
     1
171
     1
175
     1
179
     1
273
     0
  0
XRECORD
  5
3C4
102
{ACAD_REACTORS
330
3C3
102
}
330
3C3
100
AcDbXrecord
280
     1
102
ACAD_ROUNDTRIP_PRE2007_TABLESTYLE
 90
      512
 91
        0
  1

 92
      512
 93
        0
  2

 94
      512
 95
        0
  3

  0
ENDSEC
  0
EOF
