  0
SECTION
  2
HEADER
  9
$ACADVER
  1
AC1014
  9
$ACADMAINTVER
 70
     9
  9
$DWGCODEPAGE
  3
ANSI_1252
  9
$INSBASE
 10
-42.2478230790243
 20
66.07467938807771
 30
0.0
  9
$EXTMIN
 10
-63.62215006848497
 20
64.59903008225736
 30
0.0
  9
$EXTMAX
 10
-25.01390484338265
 20
87.15681288652964
 30
0.0
  9
$LIMMIN
 10
0.0
 20
0.0
  9
$LIMMAX
 10
36.0
 20
36.0
  9
$ORTHOMODE
 70
     1
  9
$REGENMODE
 70
     1
  9
$FILLMODE
 70
     1
  9
$QTEXTMODE
 70
     0
  9
$MIRRTEXT
 70
     1
  9
$DRAGMODE
 70
     0
  9
$LTSCALE
 40
1.0
  9
$OSMODE
 70
    37
  9
$ATTMODE
 70
     1
  9
$TEXTSIZE
 40
0.2
  9
$TRACEWID
 40
0.05
  9
$TEXTSTYLE
  7
STANDARD
  9
$CLAYER
  8
ADPDIM
  9
$CELTYPE
  6
BYLAYER
  9
$CECOLOR
 62
   256
  9
$CELTSCALE
 40
1.0
  9
$DELOBJ
 70
     1
  9
$DISPSILH
 70
     0
  9
$DIMSCALE
 40
1.0
  9
$DIMASZ
 40
0.125
  9
$DIMEXO
 40
0.0625
  9
$DIMDLI
 40
0.38
  9
$DIMRND
 40
0.0
  9
$DIMDLE
 40
0.0
  9
$DIMEXE
 40
0.18
  9
$DIMTP
 40
0.0
  9
$DIMTM
 40
0.0
  9
$DIMTXT
 40
0.125
  9
$DIMCEN
 40
0.1875
  9
$DIMTSZ
 40
0.125
  9
$DIMTOL
 70
     0
  9
$DIMLIM
 70
     0
  9
$DIMTIH
 70
     0
  9
$DIMTOH
 70
     0
  9
$DIMSE1
 70
     0
  9
$DIMSE2
 70
     0
  9
$DIMTAD
 70
     0
  9
$DIMZIN
 70
     3
  9
$DIMBLK
  1

  9
$DIMASO
 70
     1
  9
$DIMSHO
 70
     1
  9
$DIMPOST
  1

  9
$DIMAPOST
  1

  9
$DIMALT
 70
     0
  9
$DIMALTD
 70
     1
  9
$DIMALTF
 40
25.4
  9
$DIMLFAC
 40
1.0
  9
$DIMTOFL
 70
     0
  9
$DIMTVP
 40
0.0
  9
$DIMTIX
 70
     0
  9
$DIMSOXD
 70
     0
  9
$DIMSAH
 70
     0
  9
$DIMBLK1
  1

  9
$DIMBLK2
  1

  9
$DIMSTYLE
  2
STANDARD
  9
$DIMCLRD
 70
     0
  9
$DIMCLRE
 70
     0
  9
$DIMCLRT
 70
     0
  9
$DIMTFAC
 40
1.0
  9
$DIMGAP
 40
0.125
  9
$DIMJUST
 70
     0
  9
$DIMSD1
 70
     0
  9
$DIMSD2
 70
     0
  9
$DIMTOLJ
 70
     1
  9
$DIMTZIN
 70
     0
  9
$DIMALTZ
 70
     0
  9
$DIMALTTZ
 70
     0
  9
$DIMFIT
 70
     3
  9
$DIMUPT
 70
     0
  9
$DIMUNIT
 70
     2
  9
$DIMDEC
 70
     4
  9
$DIMTDEC
 70
     4
  9
$DIMALTU
 70
     2
  9
$DIMALTTD
 70
     2
  9
$DIMTXSTY
  7
STANDARD
  9
$DIMAUNIT
 70
     0
  9
$LUNITS
 70
     5
  9
$LUPREC
 70
     4
  9
$SKETCHINC
 40
0.1
  9
$FILLETRAD
 40
0.062
  9
$AUNITS
 70
     0
  9
$AUPREC
 70
     0
  9
$MENU
  1
acad
  9
$ELEVATION
 40
0.0
  9
$PELEVATION
 40
0.0
  9
$THICKNESS
 40
0.0
  9
$LIMCHECK
 70
     0
  9
$BLIPMODE
 70
     0
  9
$CHAMFERA
 40
0.0
  9
$CHAMFERB
 40
0.0
  9
$CHAMFERC
 40
0.0
  9
$CHAMFERD
 40
0.0
  9
$SKPOLY
 70
     0
  9
$TDCREATE
 40
2450407.567838923
  9
$TDUPDATE
 40
2452297.072038657
  9
$TDINDWG
 40
0.0283831019
  9
$TDUSRTIMER
 40
0.0283831019
  9
$USRTIMER
 70
     1
  9
$ANGBASE
 50
0.0
  9
$ANGDIR
 70
     0
  9
$PDMODE
 70
     0
  9
$PDSIZE
 40
0.0
  9
$PLINEWID
 40
0.0
  9
$COORDS
 70
     2
  9
$SPLFRAME
 70
     0
  9
$SPLINETYPE
 70
     6
  9
$SPLINESEGS
 70
     8
  9
$ATTDIA
 70
     0
  9
$ATTREQ
 70
     1
  9
$HANDLING
 70
 22529
  9
$HANDSEED
  5
383
  9
$SURFTAB1
 70
     6
  9
$SURFTAB2
 70
     6
  9
$SURFTYPE
 70
     6
  9
$SURFU
 70
     6
  9
$SURFV
 70
     6
  9
$UCSNAME
  2

  9
$UCSORG
 10
0.0
 20
0.0
 30
0.0
  9
$UCSXDIR
 10
1.0
 20
0.0
 30
0.0
  9
$UCSYDIR
 10
0.0
 20
1.0
 30
0.0
  9
$PUCSNAME
  2

  9
$PUCSORG
 10
0.0
 20
0.0
 30
0.0
  9
$PUCSXDIR
 10
1.0
 20
0.0
 30
0.0
  9
$PUCSYDIR
 10
0.0
 20
1.0
 30
0.0
  9
$USERI1
 70
     0
  9
$USERI2
 70
     0
  9
$USERI3
 70
     0
  9
$USERI4
 70
     0
  9
$USERI5
 70
     0
  9
$USERR1
 40
0.0
  9
$USERR2
 40
0.0
  9
$USERR3
 40
0.0
  9
$USERR4
 40
0.0
  9
$USERR5
 40
0.0
  9
$WORLDVIEW
 70
     1
  9
$SHADEDGE
 70
     3
  9
$SHADEDIF
 70
    70
  9
$TILEMODE
 70
     1
  9
$MAXACTVP
 70
    15
  9
$PINSBASE
 10
0.0008545038290322
 20
1.250283272183907
 30
0.0
  9
$PLIMCHECK
 70
     0
  9
$PEXTMIN
 10
1.000000000000000E+20
 20
1.000000000000000E+20
 30
1.000000000000000E+20
  9
$PEXTMAX
 10
-1.000000000000000E+20
 20
-1.000000000000000E+20
 30
-1.000000000000000E+20
  9
$PLIMMIN
 10
0.0
 20
0.0
  9
$PLIMMAX
 10
12.0
 20
9.0
  9
$UNITMODE
 70
     0
  9
$VISRETAIN
 70
     0
  9
$PLINEGEN
 70
     0
  9
$PSLTSCALE
 70
     1
  9
$TREEDEPTH
 70
  3020
  9
$PICKSTYLE
 70
     1
  9
$CMLSTYLE
  2
STANDARD
  9
$CMLJUST
 70
     0
  9
$CMLSCALE
 40
1.0
  9
$PROXYGRAPHICS
 70
     1
  9
$MEASUREMENT
 70
     0
  0
ENDSEC
  0
SECTION
  2
CLASSES
  0
CLASS
  1
ACDBDICTIONARYWDFLT
  2
AcDbDictionaryWithDefault
  3
AutoCAD 2000
 90
        0
280
     0
281
     0
  0
CLASS
  1
ACDBPLACEHOLDER
  2
AcDbPlaceHolder
  3
AutoCAD 2000
 90
        0
280
     0
281
     0
  0
CLASS
  1
LAYOUT
  2
AcDbLayout
  3
AutoCAD 2000
 90
        0
280
     0
281
     0
  0
CLASS
  1
DICTIONARYVAR
  2
AcDbDictionaryVar
  3
AutoCAD 2000
 90
        0
280
     0
281
     0
  0
CLASS
  1
LONG_TRANSACTION
  2
AcDbLongTransaction
  3
AutoCAD 2000
 90
        0
280
     0
281
     0
  0
CLASS
  1
LWPOLYLINE
  2
AcDbPolyline
  3
AutoCAD 2000
 90
        0
280
     0
281
     1
  0
CLASS
  1
HATCH
  2
AcDbHatch
  3
AutoCAD 2000
 90
        0
280
     0
281
     1
  0
CLASS
  1
XRECORD
  2
AcDbXrecord
  3
AutoCAD 2000
 90
        0
280
     0
281
     0
  0
CLASS
  1
LONG_TRANSACTION
  2
AcDbLongTransaction
  3
AutoCAD 2000
 90
        0
280
     0
281
     0
  0
CLASS
  1
LWPOLYLINE
  2
AcDbPolyline
  3
AutoCAD 2000
 90
        0
280
     0
281
     1
  0
CLASS
  1
HATCH
  2
AcDbHatch
  3
AutoCAD 2000
 90
        0
280
     0
281
     1
  0
CLASS
  1
XRECORD
  2
AcDbXrecord
  3
AutoCAD 2000
 90
        0
280
     0
281
     0
  0
CLASS
  1
LONG_TRANSACTION
  2
AcDbLongTransaction
  3
AutoCAD 2000
 90
        0
280
     0
281
     0
  0
CLASS
  1
LWPOLYLINE
  2
AcDbPolyline
  3
AutoCAD 2000
 90
        0
280
     0
281
     1
  0
CLASS
  1
HATCH
  2
AcDbHatch
  3
AutoCAD 2000
 90
        0
280
     0
281
     1
  0
CLASS
  1
XRECORD
  2
AcDbXrecord
  3
AutoCAD 2000
 90
        0
280
     0
281
     0
  0
CLASS
  1
LONG_TRANSACTION
  2
AcDbLongTransaction
  3
AutoCAD 2000
 90
        0
280
     0
281
     0
  0
CLASS
  1
LWPOLYLINE
  2
AcDbPolyline
  3
AutoCAD 2000
 90
        0
280
     0
281
     1
  0
CLASS
  1
HATCH
  2
AcDbHatch
  3
AutoCAD 2000
 90
        0
280
     0
281
     1
  0
CLASS
  1
XRECORD
  2
AcDbXrecord
  3
AutoCAD 2000
 90
        0
280
     0
281
     0
  0
CLASS
  1
LONG_TRANSACTION
  2
AcDbLongTransaction
  3
AutoCAD 2000
 90
        0
280
     0
281
     0
  0
CLASS
  1
LWPOLYLINE
  2
AcDbPolyline
  3
AutoCAD 2000
 90
        0
280
     0
281
     1
  0
CLASS
  1
HATCH
  2
AcDbHatch
  3
AutoCAD 2000
 90
        0
280
     0
281
     1
  0
CLASS
  1
XRECORD
  2
AcDbXrecord
  3
AutoCAD 2000
 90
        0
280
     0
281
     0
  0
CLASS
  1
LONG_TRANSACTION
  2
AcDbLongTransaction
  3
AutoCAD 2000
 90
        0
280
     0
281
     0
  0
CLASS
  1
LWPOLYLINE
  2
AcDbPolyline
  3
AutoCAD 2000
 90
        0
280
     0
281
     1
  0
CLASS
  1
HATCH
  2
AcDbHatch
  3
AutoCAD 2000
 90
        0
280
     0
281
     1
  0
CLASS
  1
XRECORD
  2
AcDbXrecord
  3
AutoCAD 2000
 90
        0
280
     0
281
     0
  0
ENDSEC
  0
SECTION
  2
TABLES
  0
TABLE
  2
VPORT
  5
8
330
0
100
AcDbSymbolTable
 70
     2
  0
VPORT
  5
360
330
8
100
AcDbSymbolTableRecord
100
AcDbViewportTableRecord
  2
*ACTIVE
 70
     0
 10
0.0
 20
0.0
 11
1.0
 21
1.0
 12
-44.28605873319756
 22
75.87756010745476
 13
0.0
 23
0.0
 14
0.5740882589684922
 24
0.5740882589684922
 15
0.5
 25
0.5
 16
0.0
 26
0.0
 36
1.0
 17
0.0
 27
0.0
 37
0.0
 40
24.7479126765468
 41
1.570528967254408
 42
50.0
 43
0.0
 44
0.0
 50
0.0
 51
0.0
 71
     0
 72
   100
 73
     1
 74
     0
 75
     0
 76
     0
 77
     0
 78
     0
  0
ENDTAB
  0
TABLE
  2
LTYPE
  5
5
330
0
100
AcDbSymbolTable
 70
     1
  0
LTYPE
  5
12
330
5
100
AcDbSymbolTableRecord
100
AcDbLinetypeTableRecord
  2
BYBLOCK
 70
     0
  3

 72
    65
 73
     0
 40
0.0
  0
LTYPE
  5
13
330
5
100
AcDbSymbolTableRecord
100
AcDbLinetypeTableRecord
  2
BYLAYER
 70
     0
  3

 72
    65
 73
     0
 40
0.0
  0
LTYPE
  5
14
330
5
100
AcDbSymbolTableRecord
100
AcDbLinetypeTableRecord
  2
CONTINUOUS
 70
     0
  3
Solid line
 72
    65
 73
     0
 40
0.0
  0
ENDTAB
  0
TABLE
  2
LAYER
  5
2
330
0
100
AcDbSymbolTable
 70
     3
  0
LAYER
  5
F
330
2
100
AcDbSymbolTableRecord
100
AcDbLayerTableRecord
  2
0
 70
     0
 62
     7
  6
CONTINUOUS
  0
LAYER
  5
93
330
2
100
AcDbSymbolTableRecord
100
AcDbLayerTableRecord
  2
DEFPOINTS
 70
     0
 62
     7
  6
CONTINUOUS
  0
LAYER
  5
96
330
2
100
AcDbSymbolTableRecord
100
AcDbLayerTableRecord
  2
ADPDIM
 70
     0
 62
     3
  6
CONTINUOUS
  0
ENDTAB
  0
TABLE
  2
STYLE
  5
3
330
0
100
AcDbSymbolTable
 70
     2
  0
STYLE
  5
10
330
3
100
AcDbSymbolTableRecord
100
AcDbTextStyleTableRecord
  2
STANDARD
 70
     0
 40
0.0
 41
1.0
 50
0.0
 71
     0
 42
0.2
  3
txt
  4

  0
STYLE
  5
218
330
3
100
AcDbSymbolTableRecord
100
AcDbTextStyleTableRecord
  2
ARIAL_WIDE
 70
     0
 40
0.0
 41
1.25
 50
0.0
 71
     0
 42
0.2
  3
ARIAL.TTF
  4

1001
ACAD
1000
Arial
1071
       34
  0
ENDTAB
  0
TABLE
  2
VIEW
  5
6
330
0
100
AcDbSymbolTable
 70
     0
  0
ENDTAB
  0
TABLE
  2
UCS
  5
7
330
0
100
AcDbSymbolTable
 70
     0
  0
ENDTAB
  0
TABLE
  2
APPID
  5
9
330
0
100
AcDbSymbolTable
 70
     1
  0
APPID
  5
11
330
9
100
AcDbSymbolTableRecord
100
AcDbRegAppTableRecord
  2
ACAD
 70
     0
  0
ENDTAB
  0
TABLE
  2
DIMSTYLE
  5
A
330
0
100
AcDbSymbolTable
 70
     1
  0
DIMSTYLE
105
20C
330
A
100
AcDbSymbolTableRecord
100
AcDbDimStyleTableRecord
  2
STANDARD
 70
     0
  3

  4

  5

  6

  7

 40
1.0
 41
0.18
 42
0.0625
 43
0.38
 44
0.18
 45
0.0
 46
0.0
 47
0.0
 48
0.0
140
0.18
141
0.09
142
0.0
143
25.4
144
1.0
145
0.0
146
1.0
147
0.09
 71
     0
 72
     0
 73
     1
 74
     1
 75
     0
 76
     0
 77
     0
 78
     0
170
     0
171
     2
172
     0
173
     0
174
     0
175
     0
176
     0
177
     0
178
     0
270
     2
271
     4
272
     4
273
     2
274
     2
340
10
275
     0
280
     0
281
     0
282
     0
283
     1
284
     0
285
     0
286
     0
287
     3
288
     0
  0
ENDTAB
  0
TABLE
  2
BLOCK_RECORD
  5
1
330
0
100
AcDbSymbolTable
 70
     2
  0
BLOCK_RECORD
  5
18
102
{ACAD_XDICTIONARY
360
26D
102
}
330
1
100
AcDbSymbolTableRecord
100
AcDbBlockTableRecord
  2
*MODEL_SPACE
  0
BLOCK_RECORD
  5
15
102
{ACAD_XDICTIONARY
360
26B
102
}
330
1
100
AcDbSymbolTableRecord
100
AcDbBlockTableRecord
  2
*PAPER_SPACE
  0
BLOCK_RECORD
  5
8A
330
1
100
AcDbSymbolTableRecord
100
AcDbBlockTableRecord
  2
*D0
  0
BLOCK_RECORD
  5
8D
330
1
100
AcDbSymbolTableRecord
100
AcDbBlockTableRecord
  2
*D1
  0
ENDTAB
  0
ENDSEC
  0
SECTION
  2
BLOCKS
  0
BLOCK
  5
99
330
18
100
AcDbEntity
  8
0
100
AcDbBlockBegin
  2
*MODEL_SPACE
 70
     0
 10
0.0
 20
0.0
 30
0.0
  3
*MODEL_SPACE
  1

  0
ENDBLK
  5
9A
330
18
100
AcDbEntity
  8
0
100
AcDbBlockEnd
  0
BLOCK
  5
97
330
15
100
AcDbEntity
 67
     1
  8
0
100
AcDbBlockBegin
  2
*PAPER_SPACE
 70
     0
 10
0.0
 20
0.0
 30
0.0
  3
*PAPER_SPACE
  1

  0
ENDBLK
  5
98
330
15
100
AcDbEntity
 67
     1
  8
0
100
AcDbBlockEnd
  0
BLOCK
  5
9C
330
8A
100
AcDbEntity
  8
0
100
AcDbBlockBegin
  2
*D0
 70
     1
 10
0.0
 20
0.0
 30
0.0
  3
*D0
  1

  0
LINE
  5
9D
330
8A
100
AcDbEntity
  8
0
  6
BYBLOCK
 62
     0
100
AcDbLine
 10
-42.1853230790243
 20
66.07467938807771
 30
0.0
 11
-40.79613449149671
 21
66.07467938807771
 31
0.0
  0
LINE
  5
9E
330
8A
100
AcDbEntity
  8
0
  6
BYBLOCK
 62
     0
100
AcDbLine
 10
-44.9340251135593
 20
86.32467938807771
 30
0.0
 11
-40.79613449149671
 21
86.32467938807771
 31
0.0
  0
LINE
  5
9F
330
8A
100
AcDbEntity
  8
0
  6
BYBLOCK
 62
     0
100
AcDbLine
 10
-40.97613449149672
 20
66.07467938807771
 30
0.0
 11
-40.97613449149672
 21
75.75176272141104
 31
0.0
  0
LINE
  5
A0
330
8A
100
AcDbEntity
  8
0
  6
BYBLOCK
 62
     0
100
AcDbLine
 10
-40.97613449149672
 20
86.32467938807771
 30
0.0
 11
-40.97613449149672
 21
76.64759605474438
 31
0.0
  0
LINE
  5
A1
330
8A
100
AcDbEntity
  8
0
  6
BYBLOCK
 62
     0
100
AcDbLine
 10
-40.85113449149671
 20
65.94967938807771
 30
0.0
 11
-41.10113449149671
 21
66.19967938807771
 31
0.0
  0
LINE
  5
A2
330
8A
100
AcDbEntity
  8
0
  6
BYBLOCK
 62
     0
100
AcDbLine
 10
-40.85113449149671
 20
86.19967938807771
 30
0.0
 11
-41.10113449149671
 21
86.44967938807772
 31
0.0
  0
TEXT
  5
A3
330
8A
100
AcDbEntity
  8
0
  6
BYBLOCK
 62
     0
100
AcDbText
 10
-40.91363449149671
 20
75.87676272141104
 30
0.0
 40
0.125
  1
20 1/4
 50
90.0
 72
     1
 11
-40.97613449149672
 21
76.19967938807771
 31
0.0
100
AcDbText
 73
     2
  0
POINT
  5
A4
330
8A
100
AcDbEntity
  8
DEFPOINTS
  6
BYBLOCK
 62
     0
100
AcDbPoint
 10
-42.2478230790243
 20
66.07467938807771
 30
0.0
  0
POINT
  5
A5
330
8A
100
AcDbEntity
  8
DEFPOINTS
  6
BYBLOCK
 62
     0
100
AcDbPoint
 10
-44.9965251135593
 20
86.32467938807771
 30
0.0
  0
POINT
  5
A6
330
8A
100
AcDbEntity
  8
DEFPOINTS
  6
BYBLOCK
 62
     0
100
AcDbPoint
 10
-40.97613449149672
 20
86.32467938807771
 30
0.0
  0
ENDBLK
  5
A7
330
8A
100
AcDbEntity
  8
0
100
AcDbBlockEnd
  0
BLOCK
  5
A8
330
8D
100
AcDbEntity
  8
0
100
AcDbBlockBegin
  2
*D1
 70
     1
 10
0.0
 20
0.0
 30
0.0
  3
*D1
  1

  0
LINE
  5
A9
330
8D
100
AcDbEntity
  8
0
  6
BYBLOCK
 62
     0
100
AcDbLine
 10
-47.6074362887545
 20
80.99026316998278
 30
0.0
 11
-47.6074362887545
 21
87.15681288652962
 31
0.0
  0
LINE
  5
AA
330
8D
100
AcDbEntity
  8
0
  6
BYBLOCK
 62
     0
100
AcDbLine
 10
-41.16993628875451
 20
85.14619278691011
 30
0.0
 11
-41.16993628875451
 21
87.15681288652964
 31
0.0
  0
LINE
  5
AB
330
8D
100
AcDbEntity
  8
0
  6
BYBLOCK
 62
     0
100
AcDbLine
 10
-47.6074362887545
 20
86.97681288652963
 30
0.0
 11
-44.84701962208784
 21
86.97681288652963
 31
0.0
  0
LINE
  5
AC
330
8D
100
AcDbEntity
  8
0
  6
BYBLOCK
 62
     0
100
AcDbLine
 10
-41.16993628875451
 20
86.97681288652963
 30
0.0
 11
-43.93035295542117
 21
86.97681288652963
 31
0.0
  0
LINE
  5
AD
330
8D
100
AcDbEntity
  8
0
  6
BYBLOCK
 62
     0
100
AcDbLine
 10
-47.73243628875451
 20
86.85181288652962
 30
0.0
 11
-47.4824362887545
 21
87.10181288652963
 31
0.0
  0
LINE
  5
AE
330
8D
100
AcDbEntity
  8
0
  6
BYBLOCK
 62
     0
100
AcDbLine
 10
-41.2949362887545
 20
86.85181288652962
 30
0.0
 11
-41.0449362887545
 21
87.10181288652963
 31
0.0
  0
TEXT
  5
AF
330
8D
100
AcDbEntity
  8
0
  6
BYBLOCK
 62
     0
100
AcDbText
 10
-44.72201962208784
 20
86.91431288652962
 30
0.0
 40
0.125
  1
6 7/16
 72
     1
 11
-44.3886862887545
 21
86.97681288652963
 31
0.0
100
AcDbText
 73
     2
  0
POINT
  5
B0
330
8D
100
AcDbEntity
  8
DEFPOINTS
  6
BYBLOCK
 62
     0
100
AcDbPoint
 10
-47.6074362887545
 20
80.92776316998278
 30
0.0
  0
POINT
  5
B1
330
8D
100
AcDbEntity
  8
DEFPOINTS
  6
BYBLOCK
 62
     0
100
AcDbPoint
 10
-41.16993628875451
 20
85.08369278691011
 30
0.0
  0
POINT
  5
B2
330
8D
100
AcDbEntity
  8
DEFPOINTS
  6
BYBLOCK
 62
     0
100
AcDbPoint
 10
-41.16993628875451
 20
86.97681288652963
 30
0.0
  0
ENDBLK
  5
B3
330
8D
100
AcDbEntity
  8
0
100
AcDbBlockEnd
  0
ENDSEC
  0
SECTION
  2
ENTITIES
  0
LWPOLYLINE
  5
B4
330
18
100
AcDbEntity
  8
0
100
AcDbPolyline
 90
       42
 70
     0
 43
0.0
 10
-42.21025599192151
 20
78.68573436495188
 42
-0.2797574204558075
 10
-41.95017619902342
 20
77.89140543793202
 42
-0.4321241369119836
 10
-42.39809160462693
 20
77.63144315945336
 42
-0.8406222246174188
 10
-42.36919379079664
 20
77.87696310266557
 42
0.584092087156064
 10
-42.52813158967176
 20
78.22357927090163
 42
0.0085216396696612
 10
-42.74486483901594
 20
78.23802172800937
 42
0.0411513105681509
 10
-43.62624692049937
 20
78.20913693563518
 42
-0.3962678575158986
 10
-44.24754885470163
 20
78.67129202968543
 42
0.1759419294109441
 10
-44.40648665357675
 20
78.94569652158925
 42
0.1581144377784462
 10
-45.79357959113276
 20
78.59908023151189
 42
0.1501006815187011
 10
-46.16925063935207
 20
78.16580992983585
 42
-0.3058213244062064
 10
-45.3890109062747
 20
77.77586663395914
 42
-0.292582423999122
 10
-45.40345981318985
 20
77.51590447732176
 42
-0.6433026711585549
 10
-45.62019306253403
 20
77.55923148312111
 42
0.4856228730798465
 10
-45.83692631187822
 20
77.66032795182754
 42
0.1029309008266933
 10
-46.89169492196039
 20
77.19817285777731
 42
0.2163734812525566
 10
-47.39740595522451
 20
75.63839967427049
 42
0.0937395910462729
 10
-47.13732598513487
 20
74.25193463580234
 42
0.6829874990040264
 10
-46.86279710813008
 20
74.25193463580234
 42
-0.2802519235082399
 10
-45.90917066926244
 20
75.30622584130085
 42
-0.1201074789153482
 10
-45.3312152786141
 20
75.33511051183376
 42
-0.1811097458656082
 10
-44.95554423039479
 20
76.36051692495809
 42
-0.6802529529073138
 10
-43.20722915153462
 20
75.33511051183376
 42
0.3122418239916395
 10
-43.0482913526595
 20
75.32066817656731
 42
-0.0320372250304881
 10
-42.25360271266697
 20
75.56618799793824
 42
0.7357231076730426
 10
-42.23915380575181
 20
75.78282314877625
 42
-0.6856087164581074
 10
-42.23915380575181
 20
75.98501596434783
 42
-0.4618650544185336
 10
-41.96462492874704
 20
75.50841865687243
 42
-0.1280087242054407
 10
-42.21025599192151
 20
75.14736003152863
 10
-41.90682947827797
 20
74.82962841198418
 10
-42.1669094483676
 20
74.42524278084102
 42
-0.4043313478304588
 10
-42.1669094483676
 20
73.60202918328827
 42
-0.7078257887134106
 10
-42.51368268275661
 20
73.76089499306049
 42
0.3943998635180889
 10
-42.29694943341242
 20
74.00641481443142
 42
0.2463479547436121
 10
-42.55702922631052
 20
74.20860763000298
 42
-0.3091207460515762
 10
-43.12053588723524
 20
74.45412745137392
 10
-43.32282022966428
 20
74.42524278084102
 42
-0.2497984701699338
 10
-43.68404237096844
 20
73.47204804404893
 42
-0.6218134154144383
 10
-45.37456199935955
 20
74.46856978664037
 42
0.4839806905595793
 10
-45.53349979823467
 20
74.81518607671772
 42
0.3167705930541911
 10
-46.34263734514235
 20
74.49745445717326
 42
0.1769455572903704
 10
-46.44377951635686
 20
73.29873989901026
 42
1.219781681569954
  0
ARC
  5
E0
330
18
100
AcDbEntity
  8
0
100
AcDbCircle
 10
-45.04127951147212
 20
75.52424065285798
 30
0.0
 40
2.872317376336413
100
AcDbArc
 50
113.1228682717874
 51
163.9744471056026
  0
LWPOLYLINE
  5
E1
330
18
100
AcDbEntity
  8
0
100
AcDbPolyline
 90
       25
 70
     0
 43
0.0
 10
-46.55359096084385
 20
79.02946216360769
 42
0.1320276569308566
 10
-47.89733735484595
 20
76.05433927109982
 42
0.2073764803905987
 10
-46.20681772645485
 20
72.3715414631708
 42
-0.0290024622811202
 10
-43.95279161433055
 20
69.58416905096807
 42
0.1347932085907264
 10
-44.83417369581398
 20
69.49751491752808
 42
-0.1850563531431888
 10
-45.38323127263202
 20
69.49751491752808
 42
-0.4501181824103677
 10
-45.46992453693138
 20
69.72859240363256
 42
-0.3850960730535883
 10
-45.31098691524781
 20
69.78636186653965
 42
0.4950147015616559
 10
-45.35433345880171
 20
70.59513312882595
 42
-0.1129472317630232
 10
-46.09122664832518
 20
71.38946205584581
 42
0.2994823558220128
 10
-46.65473313205837
 20
70.79732594439753
 42
0.1832426044420343
 10
-46.97260872980861
 20
72.32821445737146
 42
0.397301569618278
 10
-48.1574173249356
 20
72.42931080423659
 42
0.6028273010756973
 10
-48.11407060419014
 20
72.19823331813213
 42
-0.1362118274004562
 10
-47.91178626176111
 20
72.06825217889279
 42
0.0814183748845332
 10
-48.04182624680592
 20
70.99951875996911
 42
0.3138463860320338
 10
-47.44942194924243
 20
70.21963216821569
 42
0.1713184919084085
 10
-47.83954190437689
 20
69.65638072730031
 42
0.5277056830828766
 10
-47.59391084120241
 20
69.36753377828875
 42
-0.276042556086533
 10
-47.17489307223765
 20
69.36753377828875
 42
0.166735003191959
 10
-46.04787992757972
 20
69.04980228058558
 42
0.3275447678819204
 10
-45.80224904159678
 20
69.25199509615715
 42
0.1364991453862472
 10
-44.63188917619341
 20
69.30976443722295
 42
-0.2085785597686339
 10
-43.83720053620089
 20
69.23755276089071
 42
-0.1862006521538103
 10
-42.91247191116354
 20
67.87997239295546
 42
0.79307823789613
  0
DIMENSION
  5
FC
330
18
100
AcDbEntity
  8
ADPDIM
100
AcDbDimension
  2
*D0
 10
-40.97613449149672
 20
86.32467938807771
 30
0.0
 11
-40.97613449149672
 21
76.19967938807771
 31
0.0
100
AcDbAlignedDimension
 13
-42.2478230790243
 23
66.07467938807771
 33
0.0
 14
-44.9965251135593
 24
86.32467938807771
 34
0.0
 50
90.0
100
AcDbRotatedDimension
  0
CIRCLE
  5
FD
330
18
100
AcDbEntity
  8
0
100
AcDbCircle
 10
-44.89774877992572
 20
75.07514823335509
 30
0.0
 40
0.1235315461282086
  0
CIRCLE
  5
FE
330
18
100
AcDbEntity
  8
0
100
AcDbCircle
 10
-44.76770879488091
 20
75.3784375176331
 30
0.0
 40
0.1235315461282086
  0
CIRCLE
  5
FF
330
18
100
AcDbEntity
  8
0
100
AcDbCircle
 10
-44.82550424534997
 20
74.75741673565193
 30
0.0
 40
0.1235315461282086
  0
LWPOLYLINE
  5
100
330
18
100
AcDbEntity
  8
0
100
AcDbPolyline
 90
        9
 70
     0
 43
0.0
 10
-45.17227765693052
 20
75.27734104892667
 42
-0.2001065240555995
 10
-44.96999313730994
 20
75.50841865687243
 42
0.0597823891704259
 10
-44.68101553058153
 20
75.69616913717756
 42
-0.072194425241163
 10
-44.49317991787611
 20
75.81170781930916
 42
-0.1849101957283496
 10
-44.14640668348711
 20
75.82615015457562
 42
-0.1241648531591992
 10
-43.94412234105808
 20
75.69616913717756
 42
0.3807342130567427
 10
-43.78518454218296
 20
75.68172668006983
 42
-0.5575922909301591
 10
-43.64069565022298
 20
75.62395733900403
 42
-0.4173603804133614
 10
-43.40951349396365
 20
75.19068703732798
 42
1.356966541001804
  0
LWPOLYLINE
  5
10B
330
18
100
AcDbEntity
  8
0
100
AcDbPolyline
 90
        9
 70
     0
 43
0.0
 10
-45.17094247800584
 20
75.36804006721067
 42
-0.2001065240555995
 10
-44.96865795838526
 20
75.59911767515643
 42
0.0597823891704259
 10
-44.67968035165686
 20
75.78686815546156
 42
-0.072194425241163
 10
-44.49184473895144
 20
75.90240683759316
 42
-0.1849101957283496
 10
-44.14507150456244
 20
75.91684917285959
 42
-0.1241648531591992
 10
-43.9427871621334
 20
75.78686815546156
 42
0.3807342130567427
 10
-43.78384936325828
 20
75.77242569835383
 42
-0.5575922909301591
 10
-43.63936047129831
 20
75.71465635728803
 42
-0.4173603804133614
 10
-43.40817831503897
 20
75.28138605561197
 42
1.356966541001804
  0
ARC
  5
116
330
18
100
AcDbEntity
  8
0
100
AcDbCircle
 10
-44.17685014663632
 20
75.0452143927994
 30
0.0
 40
0.9508205083572804
100
AcDbArc
 50
189.5541358833402
 51
260.4718024099468
  0
ARC
  5
117
330
18
100
AcDbEntity
  8
0
100
AcDbCircle
 10
-44.17685014663633
 20
74.97300271646716
 30
0.0
 40
0.9508205083572804
100
AcDbArc
 50
189.5541358833402
 51
260.4718024099468
  0
LWPOLYLINE
  5
118
330
18
100
AcDbEntity
  8
0
100
AcDbPolyline
 90
        5
 70
     0
 43
0.0
 10
-43.51932511564218
 20
69.52639970990226
 42
-0.0716850791073421
 10
-44.60299153955465
 20
71.46167385401935
 42
-0.2342103233661205
 10
-44.54519591189405
 20
72.08269463600053
 42
0.2770913431445323
 10
-44.45850264759467
 20
72.42931092607789
 42
0.6823221805344449
 10
-45.00756022441271
 20
71.8949441556954
 42
0.6639417707796974
  0
LWPOLYLINE
  5
11F
330
18
100
AcDbEntity
  8
0
100
AcDbPolyline
 90
        7
 70
     0
 43
0.0
 10
-44.57409372572434
 20
70.86953774257107
 42
-0.1581921183539321
 10
-45.05090694515817
 20
72.313772122105
 42
-0.2940793978918501
 10
-44.84862260272914
 20
72.63150374164947
 42
0.4903666020576693
 10
-45.06535585207332
 20
72.90590823355329
 42
0.4085064823480888
 10
-45.65776014963681
 20
72.313772122105
 42
0.1827857720318809
 10
-45.49882235076169
 20
71.88050182042895
 42
0.014501738284967
 10
-45.18094693020299
 20
71.5338855303516
 42
0.4225705643188798
  0
LWPOLYLINE
  5
128
330
18
100
AcDbEntity
  8
0
100
AcDbPolyline
 90
       16
 70
     0
 43
0.0
 10
-45.18094693020299
 20
69.41086090592938
 42
-0.1498455076917561
 10
-45.70110669319072
 20
69.49751491752808
 42
-0.2641144535619102
 10
-45.77335122776648
 20
69.94522767631187
 42
0.2873304061390525
 10
-45.87449339898099
 20
70.43626731905373
 10
-46.17791991262454
 20
70.65290246989175
 42
-0.0908224558561105
 10
-45.91784011972644
 20
70.06076635844348
 42
-0.3478455582668453
 10
-46.01898229094096
 20
69.84413120760544
 42
-0.2799167690155046
 10
-47.29048415036731
 20
71.63498187721675
 42
0.2867716253347476
 10
-46.29351099075421
 20
69.71415006836611
 42
-0.8577689283193819
 10
-46.35130661841482
 20
69.56972671570162
 42
-0.0758034288722395
 10
-46.95815982289346
 20
69.74303486074029
 42
0.2458069706397422
 10
-47.23268869989825
 20
69.72859252547384
 42
-0.1046465181236707
 10
-46.914813102148
 20
69.59861138623451
 42
0.1966374203729231
 10
-46.16347118290093
 20
69.43974557646228
 42
-0.1969268630906322
 10
-45.68665796346711
 20
69.33864922959713
 42
0.2619255816872173
 10
-45.18094693020299
 20
69.2953221019565
 42
-0.216738642870266
  0
LWPOLYLINE
  5
13A
330
18
100
AcDbEntity
  8
0
100
AcDbPolyline
 90
        2
 70
     0
 43
0.0
 10
-46.45244878962933
 20
73.31029386469644
 42
0.1050503658266863
 10
-45.65776014963681
 20
72.313772122105
 42
0.3583970669436246
  0
LWPOLYLINE
  5
13E
330
18
100
AcDbEntity
  8
0
100
AcDbPolyline
 90
        3
 70
     0
 43
0.0
 10
-46.84256874476379
 20
72.08269463600053
 42
0.3557805227162087
 10
-48.01292843297563
 20
72.25600265919791
 42
-0.7775395915090464
 10
-48.1574173249356
 20
72.4004261337037
 42
-0.5690030251461005
  0
ARC
  5
143
330
18
100
AcDbEntity
  8
0
100
AcDbCircle
 10
-45.80785056475487
 20
74.20616020720648
 30
0.0
 40
1.151781160271222
100
AcDbArc
 50
182.8969324806922
 51
206.0562136210597
  0
LWPOLYLINE
  5
144
330
18
100
AcDbEntity
  8
0
100
AcDbPolyline
 90
        2
 70
     0
 43
0.0
 10
-46.98705763672376
 20
74.14794979751565
 42
0.075073518906347
 10
-46.84256874476379
 20
73.6857948253067
 42
0.6254992611968625
  0
LWPOLYLINE
  5
148
330
18
100
AcDbEntity
  8
0
100
AcDbPolyline
 90
       21
 70
     0
 43
0.0
 10
-42.91247191116354
 20
67.86553005768901
 42
-0.0768375154917571
 10
-42.71018739154296
 20
66.08912172334417
 42
0.2184474251444068
 10
-42.2478230790243
 20
66.07467938807771
 42
0.1671069906424234
 10
-43.05696062593197
 20
69.10757174349267
 42
-0.1751506275475989
 10
-43.14365406742288
 20
69.45418791172873
 42
-0.2668854498283275
 10
-42.89802300424839
 20
70.40738264852082
 42
0.0163065521090859
 10
-42.2767208928546
 20
71.08617289340909
 42
0.5078337750554202
 10
-42.56569867677454
 20
72.313772122105
 42
0.4606082303180826
 10
-43.31704059602161
 20
71.93827116149475
 42
0.2279053907861022
 10
-43.23034733172224
 20
71.51944319508515
 42
0.5653738904429697
 10
-42.9702673616326
 20
71.54832786561804
 42
0.8543704818558166
 10
-43.05696062593197
 20
71.60609720668384
 42
-0.2882102767515586
 10
-42.98471626854776
 20
72.05380996546764
 42
-0.4252690794264202
 10
-42.39231197098426
 20
71.66386666959093
 42
-0.2235798348085001
 10
-42.79688083303387
 20
71.02840343050201
 42
0.2211553720856917
 10
-43.40373403751251
 20
69.65638072730031
 42
-0.0745987145934234
 10
-44.03948487862992
 20
70.71067193279883
 42
-0.1341509858363199
 10
-43.98168942816085
 20
71.63498199905802
 42
0.3207343538280837
 10
-44.06838269246022
 20
71.9238288262283
 42
0.4701235906026481
 10
-44.50184919114859
 20
71.62053954195029
 42
0.1184220799845223
 10
-44.40070701993407
 20
70.9706340894362
 42
0.6700355472132327
  0
ARC
  5
15F
330
18
100
AcDbEntity
  8
0
100
AcDbCircle
 10
-42.0858367301806
 20
80.54225749105333
 30
0.0
 40
6.117551940979987
100
AcDbArc
 50
263.134630345738
 51
269.240666755192
  0
ARC
  5
160
330
18
100
AcDbEntity
  8
0
100
AcDbCircle
 10
-42.50432191426415
 20
73.72853116095774
 30
0.0
 40
1.434843652537672
100
AcDbArc
 50
78.17364347258958
 51
104.3712624163867
  0
ARC
  5
161
330
18
100
AcDbEntity
  8
0
100
AcDbCircle
 10
-42.25486436947231
 20
75.2042506547169
 30
0.0
 40
0.8543548085802983
100
AcDbArc
 50
175.0923243371989
 51
201.769162118905
  0
CIRCLE
  5
162
330
18
100
AcDbEntity
  8
0
100
AcDbCircle
 10
-44.14640668348711
 20
75.17624470206152
 30
0.0
 40
0.1235315461282086
  0
CIRCLE
  5
163
330
18
100
AcDbEntity
  8
0
100
AcDbCircle
 10
-43.62624692049937
 20
75.20512937259443
 30
0.0
 40
0.1235315461282086
  0
CIRCLE
  5
164
330
18
100
AcDbEntity
  8
0
100
AcDbCircle
 10
-44.4719441999466
 20
75.24016795392087
 30
0.0
 40
0.1235315461282086
  0
CIRCLE
  5
165
330
18
100
AcDbEntity
  8
0
100
AcDbCircle
 10
-43.56845129283877
 20
74.87295541778351
 30
0.0
 40
0.1235315461282086
  0
CIRCLE
  5
166
330
18
100
AcDbEntity
  8
0
100
AcDbCircle
 10
-43.71294018479875
 20
74.6274355964126
 30
0.0
 40
0.1235315461282086
  0
ARC
  5
167
330
18
100
AcDbEntity
  8
0
100
AcDbCircle
 10
-44.19462206294533
 20
74.93933374119169
 30
0.0
 40
0.8434587209552033
100
AcDbArc
 50
260.4718024099469
 51
341.4328139795443
  0
ARC
  5
168
330
18
100
AcDbEntity
  8
0
100
AcDbCircle
 10
-44.19462206294533
 20
74.86712206485944
 30
0.0
 40
0.8434587209552033
100
AcDbArc
 50
260.4718024099469
 51
341.4328139795443
  0
CIRCLE
  5
169
330
18
100
AcDbEntity
  8
0
100
AcDbCircle
 10
-43.97302015488838
 20
74.43968511610747
 30
0.0
 40
0.1235315461282086
  0
CIRCLE
  5
16A
330
18
100
AcDbEntity
  8
0
100
AcDbCircle
 10
-44.05971341918774
 20
74.71408960801129
 30
0.0
 40
0.1235315461282086
  0
CIRCLE
  5
16B
330
18
100
AcDbEntity
  8
0
100
AcDbCircle
 10
-43.88632671339748
 20
74.97405188648996
 30
0.0
 40
0.1235315461282086
  0
CIRCLE
  5
16C
330
18
100
AcDbEntity
  8
0
100
AcDbCircle
 10
-44.62321990292093
 20
74.52633924954745
 30
0.0
 40
0.1235315461282086
  0
CIRCLE
  5
16D
330
18
100
AcDbEntity
  8
0
100
AcDbCircle
 10
-44.59432208909063
 20
74.94516721595705
 30
0.0
 40
0.1235315461282086
  0
CIRCLE
  5
16E
330
18
100
AcDbEntity
  8
0
100
AcDbCircle
 10
-44.30534448236223
 20
74.84407074725062
 30
0.0
 40
0.1235315461282086
  0
CIRCLE
  5
16F
330
18
100
AcDbEntity
  8
0
100
AcDbCircle
 10
-44.26199776161678
 20
74.39635811030811
 30
0.0
 40
0.1235315461282086
  0
ARC
  5
170
330
18
100
AcDbEntity
  8
0
100
AcDbCircle
 10
-44.2150301063854
 20
75.37630787866253
 30
0.0
 40
0.8569798663702398
100
AcDbArc
 50
7.891975357306656
 51
85.40707226815271
  0
CIRCLE
  5
171
330
18
100
AcDbEntity
  8
0
100
AcDbCircle
 10
-44.17530449731741
 20
75.50841865687243
 30
0.0
 40
0.1235315461282086
  0
CIRCLE
  5
172
330
18
100
AcDbEntity
  8
0
100
AcDbCircle
 10
-43.82853126292841
 20
75.4650915292318
 30
0.0
 40
0.1235315461282086
  0
CIRCLE
  5
173
330
18
100
AcDbEntity
  8
0
100
AcDbCircle
 10
-44.47873101096097
 20
75.56618799793824
 30
0.0
 40
0.1235315461282086
  0
ARC
  5
174
330
18
100
AcDbEntity
  8
0
100
AcDbCircle
 10
-42.08744054893005
 20
73.23314744931927
 30
0.0
 40
0.6911968141456534
100
AcDbArc
 50
83.39793826466971
 51
111.4582167808485
  0
ARC
  5
175
330
18
100
AcDbEntity
  8
0
100
AcDbCircle
 10
-42.04271542813203
 20
75.82937075914668
 30
0.0
 40
0.1621918031813532
100
AcDbArc
 50
220.0286294029931
 51
304.7888871306806
  0
LWPOLYLINE
  5
176
330
18
100
AcDbEntity
  8
0
100
AcDbPolyline
 90
        3
 70
     0
 43
0.0
 10
-44.95280488422848
 20
84.39437528893742
 10
-44.7903081954618
 20
83.53314283847396
 42
-0.3331860747885969
 10
-45.5243706954618
 20
83.55845533847395
  0
LWPOLYLINE
  5
17B
330
18
100
AcDbEntity
  8
0
100
AcDbPolyline
 90
        3
 70
     0
 43
0.0
 10
-44.8694100687322
 20
85.37121820518807
 10
-44.59186462579474
 20
86.16309504423853
 42
-0.3831394311863983
 10
-44.00816848969724
 20
85.76469926880688
  0
LWPOLYLINE
  5
180
330
18
100
AcDbEntity
  8
0
100
AcDbPolyline
 90
        3
 70
     0
 43
0.0
 10
-45.13845963721018
 20
85.38945932227381
 10
-45.29655819546181
 20
86.21626783847395
 42
-0.3831394311863966
 10
-44.59186462579474
 20
86.16309504423853
  0
CIRCLE
  5
185
330
18
100
AcDbEntity
  8
0
100
AcDbCircle
 10
-45.04169091786707
 20
84.89394488748549
 30
0.0
 40
0.507415520820429
  0
LWPOLYLINE
  5
186
330
18
100
AcDbEntity
  8
0
100
AcDbPolyline
 90
       10
 70
     0
 43
0.0
 10
-45.50460198440436
 20
79.35008215273241
 10
-44.72436207413545
 20
79.33563981746596
 42
0.1232219073343299
 10
-44.16085559040226
 20
79.46562095670529
 42
-0.1553204886115531
 10
-43.78518454218296
 20
79.91333359364779
 42
-0.1395456514595502
 10
-43.16388243078916
 20
79.91333359364779
 42
0.1501332051253366
 10
-42.455887055096
 20
79.74002544860912
 42
0.5688125666465952
 10
-42.18135835528275
 20
79.94221826418069
 42
0.0496026872800406
 10
-42.22470489883667
 20
80.15885341501871
 42
-0.6471915159302311
 10
-42.109113820707
 20
80.25994988372515
 42
-0.5320753588525675
 10
-42.19580708500637
 20
79.26342814113372
 42
3.867362276860605
  0
LWPOLYLINE
  5
192
330
18
100
AcDbEntity
  8
0
100
AcDbPolyline
 90
       21
 70
     0
 43
0.0
 10
-44.43538446740705
 20
80.73654719120055
 42
0.1369878034955487
 10
-43.58290019975392
 20
81.73306893379198
 42
0.584501873046742
 10
-44.05971341918774
 20
82.39741672157251
 42
0.5622393645188611
 10
-44.16085559040226
 20
82.18078157073449
 42
-0.2901809115754737
 10
-44.14640668348711
 20
81.54531845348685
 42
-0.1065109350593347
 10
-45.44680635674376
 20
79.84112179547427
 10
-46.01031301766849
 20
79.4078514937982
 10
-46.01031301766849
 20
80.40437323638965
 42
0.5546703990866869
 10
-45.3312152786141
 20
80.40437323638965
 42
0.6151323696741322
 10
-45.46125526365891
 20
81.50199144768752
 42
0.3459248915547703
 10
-46.25594408084298
 20
81.24202916920884
 42
0.3769158946885671
 10
-46.47267733018717
 20
83.30728445256525
 42
0.2531377405421217
 10
-47.20957051971062
 20
83.4950349328704
 42
0.7796486356694925
 10
-47.20957051971062
 20
83.11953397226012
 42
-0.4039142426200172
 10
-47.09397944158095
 20
82.49851319027895
 42
0.3939045194755995
 10
-47.10842817130457
 20
80.96762467730503
 42
0.6091879730947741
 10
-47.25291706326454
 20
79.91333359364779
 42
0.3541565841767345
 10
-46.61716622214713
 20
79.95666059944714
 42
-0.542195843797301
 10
-46.32818843822719
 20
79.88444892311489
 42
-0.2382870160676131
 10
-46.37153515897264
 20
79.56671730357044
 10
-46.55937059448652
 20
79.03235053318795
  0
LWPOLYLINE
  5
1A9
330
18
100
AcDbEntity
  8
0
100
AcDbPolyline
 90
       10
 70
     0
 43
0.0
 10
-43.71294018479875
 20
85.18478925561655
 10
-43.00494480910558
 20
85.18478925561655
 42
-0.2068695980659357
 10
-42.47033596201116
 20
84.95371164767078
 42
0.0637192107826862
 10
-41.97907383566218
 20
84.54932601652762
 42
0.3528889901477675
 10
-41.73344277248769
 20
84.57821080890182
 10
-41.58895405771926
 20
85.09813512217656
 10
-41.16993628875451
 20
85.08369278691011
 42
-0.0980453367812809
 10
-41.34332299454477
 20
84.07272870905222
 42
-0.0711049939193758
 10
-42.42698941845724
 20
82.12301222966869
 42
-0.0943620843818047
 10
-45.50460198440436
 20
79.35008215273241
 42
3.577054926970503
  0
DIMENSION
  5
1B5
330
18
100
AcDbEntity
  8
ADPDIM
100
AcDbDimension
  2
*D1
 10
-41.16993628875451
 20
86.97681288652963
 30
0.0
 11
-44.3886862887545
 21
86.97681288652963
 31
0.0
100
AcDbAlignedDimension
 13
-47.6074362887545
 23
80.92776316998278
 33
0.0
 14
-41.16993628875451
 24
85.08369278691011
 34
0.0
100
AcDbRotatedDimension
  0
LWPOLYLINE
  5
1B6
330
18
100
AcDbEntity
  8
0
100
AcDbPolyline
 90
        3
 70
     0
 43
0.0
 10
-45.20506401828099
 20
84.41354948697606
 10
-45.49500176512886
 20
83.58631563270941
 42
-0.3831394311863879
 10
-46.07869790122636
 20
83.98471140814102
  0
LWPOLYLINE
  5
1BB
330
18
100
AcDbEntity
  8
0
100
AcDbPolyline
 90
        3
 70
     0
 43
0.0
 10
-45.41756145717629
 20
84.55307563330014
 10
-46.07869790122636
 20
83.98471140814102
 42
-0.3831394311863985
 10
-46.38499569546179
 20
84.62158033847396
  0
LWPOLYLINE
  5
1C0
330
18
100
AcDbEntity
  8
0
100
AcDbPolyline
 90
        3
 70
     0
 43
0.0
 10
-46.02413810860561
 20
80.40515332786515
 10
-46.02413810860561
 20
80.73421582786513
 42
-1.618033988749888
 10
-45.56851310860561
 20
80.50640332786514
 42
2.063384739074439
  0
LWPOLYLINE
  5
1C5
330
18
100
AcDbEntity
  8
0
100
AcDbPolyline
 90
        4
 70
     0
 43
0.0
 10
-46.37153515897264
 20
80.23106509135095
 42
0.4409447072017441
 10
-47.10842817130457
 20
80.56323904616187
 42
0.4796161699864479
 10
-47.22401924943423
 20
80.14441107975228
 42
0.3926772485782423
 10
-46.93504164270584
 20
80.08664173868647
 42
0.559194121086701
  0
LWPOLYLINE
  5
1CB
330
18
100
AcDbEntity
  8
0
100
AcDbPolyline
 90
        3
 70
     0
 43
0.0
 10
-46.79055275074587
 20
81.19870216340951
 42
-0.1604821641243519
 10
-46.6460638587859
 20
82.5996095371441
 42
0.1693235789715034
 10
-46.53047278065623
 20
80.86652833043988
 42
0.6614270344946487
  0
LWPOLYLINE
  5
1D0
330
18
100
AcDbEntity
  8
0
100
AcDbPolyline
 90
        3
 70
     0
 43
0.0
 10
-45.382863687779
 20
85.26953995113794
 10
-45.93342712579473
 20
85.90997004423853
 42
-0.3831394311863923
 10
-45.29655819546181
 20
86.21626783847395
  0
LWPOLYLINE
  5
1D5
330
18
100
AcDbEntity
  8
0
100
AcDbPolyline
 90
        3
 70
     0
 43
0.0
 10
-45.53652877937074
 20
84.78166843584963
 10
-46.38499569546179
 20
84.62158033847396
 42
-0.3831394311863969
 10
-46.33182290122635
 20
85.32627390814102
  0
LWPOLYLINE
  5
1DA
330
18
100
AcDbEntity
  8
0
100
AcDbPolyline
 90
        3
 70
     0
 43
0.0
 10
-45.52641570096782
 20
85.04398619985444
 10
-46.33182290122635
 20
85.32627390814102
 42
-0.3831394311863934
 10
-45.93342712579473
 20
85.90997004423853
  0
LWPOLYLINE
  5
1DF
330
18
100
AcDbEntity
  8
0
100
AcDbPolyline
 90
        3
 70
     0
 43
0.0
 10
-44.7215435738856
 20
84.50027473505953
 10
-44.15343926512887
 20
83.83944063270941
 42
-0.38313943118638
 10
-44.7903081954618
 20
83.53314283847396
  0
LWPOLYLINE
  5
1E4
330
18
100
AcDbEntity
  8
0
100
AcDbPolyline
 90
        3
 70
     0
 43
0.0
 10
-44.56935843867674
 20
84.70854655990033
 10
-43.75504348969724
 20
84.4231367688069
 42
-0.3831394311864034
 10
-44.15343926512887
 20
83.83944063270941
  0
LWPOLYLINE
  5
1E9
330
18
100
AcDbEntity
  8
0
100
AcDbPolyline
 90
        6
 70
     0
 43
0.0
 10
-43.62624692049937
 20
84.75151883209921
 10
-43.06274025957464
 20
84.76596128920695
 42
-0.2359724501246107
 10
-42.70151811827049
 20
84.67930715576697
 42
-0.1378219222622852
 10
-42.23915380575181
 20
84.00051703271998
 42
-0.1634583331642314
 10
-42.23915380575181
 20
83.14841864279303
 42
-0.0291226485776122
 10
-43.71294018479875
 20
81.4442221066217
 42
2.366724417831518
  0
LWPOLYLINE
  5
1F1
330
18
100
AcDbEntity
  8
0
100
AcDbPolyline
 90
       10
 70
     0
 43
0.0
 10
-43.29392241583398
 20
79.48006329197174
 42
0.0533953325961015
 10
-43.59734910666907
 20
79.52339029777109
 42
0.9999999999999996
 10
-43.42396240087881
 20
79.39340915853176
 42
-0.3877938508805039
 10
-42.15246054145246
 20
79.17677400769372
 42
0.1220442415295134
 10
-41.95017619902342
 20
79.01790831976279
 42
0.1293913532655208
 10
-42.22470489883667
 20
78.67129202968543
 42
-0.293577198977297
 10
-43.13498479415041
 20
78.5413108904461
 42
0.046403389728177
 10
-43.42396240087881
 20
78.64240735915252
 42
0.3331887055140079
 10
-43.69849127788358
 20
78.61352256677834
 42
0.5997278435957814
 10
-43.40951349396365
 20
78.61352256677834
 42
-0.5997278435957823
  0
LWPOLYLINE
  5
1FD
330
18
100
AcDbEntity
  8
0
100
AcDbPolyline
 90
        3
 70
     0
 43
0.0
 10
-44.16085559040226
 20
79.46562095670529
 42
0.3078564825504875
 10
-43.64069565022298
 20
79.09011999609504
 42
0.1012423437766095
 10
-44.26199776161678
 20
78.64240735915252
 42
2.281374115986348
  0
LWPOLYLINE
  5
202
330
18
100
AcDbEntity
  8
0
100
AcDbPolyline
 90
        3
 70
     0
 43
0.0
 10
-44.64827950781685
 20
85.21441013242128
 10
-44.00816848969724
 20
85.76469926880688
 42
-0.3831394311863963
 10
-43.7018706954618
 20
85.12783033847396
  0
LWPOLYLINE
  5
207
330
18
100
AcDbEntity
  8
0
100
AcDbPolyline
 90
        3
 70
     0
 43
0.0
 10
-44.53996221193807
 20
84.96969986366712
 10
-43.7018706954618
 20
85.12783033847396
 42
-0.3831394311863961
 10
-43.75504348969724
 20
84.4231367688069
  0
TEXT
  5
219
330
18
100
AcDbEntity
  8
ADPDIM
100
AcDbText
 10
-63.62215006848497
 20
64.71004645333512
 30
0.0
 40
0.375
  1
J U L I U S  B L U M  &  C O . ,  I N C .      ( 8 0 0 )  5 2 6 - 6 2 9 3        W W W . J U L I U S B L U M . C O M        P A R T  N o .  5 2 3
 41
1.25
  7
ARIAL_WIDE
 72
     1
 11
-44.31802745593381
 21
65.08504645333513
 31
0.0
100
AcDbText
 73
     3
  0
ENDSEC
  0
SECTION
  2
OBJECTS
  0
DICTIONARY
  5
C
330
0
100
AcDbDictionary
  3
ACAD_GROUP
350
D
  3
ACAD_LAYOUT
350
212
  3
ACAD_MLINESTYLE
350
E
  3
ACAD_PLOTSETTINGS
350
213
  3
ACAD_PLOTSTYLENAME
350
210
  3
ACDBHEADERROUNDTRIPXREC
350
361
  3
ACDBVARIABLEDICTIONARY
350
273
  0
DICTIONARY
  5
26D
330
18
100
AcDbDictionary
280
     1
  3
ACAD_LAYOUTSELFREF
360
382
  0
DICTIONARY
  5
26B
330
15
100
AcDbDictionary
280
     1
  3
ACAD_LAYOUTSELFREF
360
381
  0
DICTIONARY
  5
D
102
{ACAD_REACTORS
330
C
102
}
330
C
100
AcDbDictionary
  0
DICTIONARY
  5
212
102
{ACAD_REACTORS
330
C
102
}
330
C
100
AcDbDictionary
  0
DICTIONARY
  5
E
102
{ACAD_REACTORS
330
C
102
}
330
C
100
AcDbDictionary
  3
STANDARD
350
1B
  0
DICTIONARY
  5
213
102
{ACAD_REACTORS
330
C
102
}
330
C
100
AcDbDictionary
  0
ACDBDICTIONARYWDFLT
  5
210
102
{ACAD_REACTORS
330
C
102
}
330
C
100
AcDbDictionary
281
     1
  3
Normal
350
211
100
AcDbDictionaryWithDefault
340
211
  0
DICTIONARY
  5
361
102
{ACAD_REACTORS
330
C
102
}
330
C
100
AcDbDictionary
  3
CEPSNTYPE
350
36B
  3
FINGERPRINTGUID
350
36C
  3
HYPERLINKBASE
350
364
  3
INSUNITS
350
36A
  3
LAYOUTDICT
350
366
  3
LWETCUNION
350
369
  3
PLOTSETDICT
350
367
  3
PLOTSTYLNAMDICT
350
368
  3
PSVPSCALE
350
36E
  3
PUCSBASE
350
371
  3
PUCSORGBACK
350
377
  3
PUCSORGBOTTOM
350
373
  3
PUCSORGFRONT
350
376
  3
PUCSORGLEFT
350
374
  3
PUCSORGRIGHT
350
375
  3
PUCSORGTOP
350
372
  3
PUCSORTHOREF
350
36F
  3
PUCSORTHOVIEW
350
370
  3
STYLESHEET
350
365
  3
TSTACKALIGN
350
362
  3
TSTACKSIZE
350
363
  3
UCSBASE
350
37A
  3
UCSORGBACK
350
380
  3
UCSORGBOTTOM
350
37C
  3
UCSORGFRONT
350
37F
  3
UCSORGLEFT
350
37D
  3
UCSORGRIGHT
350
37E
  3
UCSORGTOP
350
37B
  3
UCSORTHOREF
350
378
  3
UCSORTHOVIEW
350
379
  3
VERSIONGUID
350
36D
  0
DICTIONARY
  5
273
102
{ACAD_REACTORS
330
C
102
}
330
C
100
AcDbDictionary
  3
DIMASSOC
350
274
  0
XRECORD
  5
382
102
{ACAD_REACTORS
330
26D
102
}
330
26D
100
AcDbXrecord
340
18
  0
XRECORD
  5
381
102
{ACAD_REACTORS
330
26B
102
}
330
26B
100
AcDbXrecord
340
15
  0
MLINESTYLE
  5
1B
102
{ACAD_REACTORS
330
E
102
}
330
E
100
AcDbMlineStyle
  2
STANDARD
 70
     0
  3

 62
     0
 51
90.0
 52
90.0
 71
     2
 49
0.5
 62
   256
  6
BYLAYER
 49
-0.5
 62
   256
  6
BYLAYER
  0
ACDBPLACEHOLDER
  5
211
102
{ACAD_REACTORS
330
210
102
}
330
210
100
AcDbPlaceHolder
280
     0
  0
XRECORD
  5
36B
102
{ACAD_REACTORS
330
361
102
}
330
361
100
AcDbXrecord
 90
        0
  0
XRECORD
  5
36C
102
{ACAD_REACTORS
330
361
102
}
330
361
100
AcDbXrecord
  1
{BDDAAC78-DAAC-46DB-9559-282D27B570D1}
  0
XRECORD
  5
364
102
{ACAD_REACTORS
330
361
102
}
330
361
100
AcDbXrecord
  1

  0
XRECORD
  5
36A
102
{ACAD_REACTORS
330
361
102
}
330
361
100
AcDbXrecord
 90
        0
  0
XRECORD
  5
366
102
{ACAD_REACTORS
330
361
102
}
330
361
100
AcDbXrecord
340
212
  0
XRECORD
  5
369
102
{ACAD_REACTORS
330
361
102
}
330
361
100
AcDbXrecord
 90
    14877
  0
XRECORD
  5
367
102
{ACAD_REACTORS
330
361
102
}
330
361
100
AcDbXrecord
340
213
  0
XRECORD
  5
368
102
{ACAD_REACTORS
330
361
102
}
330
361
100
AcDbXrecord
340
210
  0
XRECORD
  5
36E
102
{ACAD_REACTORS
330
361
102
}
330
361
100
AcDbXrecord
 40
0.0
  0
XRECORD
  5
371
102
{ACAD_REACTORS
330
361
102
}
330
361
100
AcDbXrecord
340
0
  0
XRECORD
  5
377
102
{ACAD_REACTORS
330
361
102
}
330
361
100
AcDbXrecord
 10
0.0
 20
0.0
 30
0.0
  0
XRECORD
  5
373
102
{ACAD_REACTORS
330
361
102
}
330
361
100
AcDbXrecord
 10
0.0
 20
0.0
 30
0.0
  0
XRECORD
  5
376
102
{ACAD_REACTORS
330
361
102
}
330
361
100
AcDbXrecord
 10
0.0
 20
0.0
 30
0.0
  0
XRECORD
  5
374
102
{ACAD_REACTORS
330
361
102
}
330
361
100
AcDbXrecord
 10
0.0
 20
0.0
 30
0.0
  0
XRECORD
  5
375
102
{ACAD_REACTORS
330
361
102
}
330
361
100
AcDbXrecord
 10
0.0
 20
0.0
 30
0.0
  0
XRECORD
  5
372
102
{ACAD_REACTORS
330
361
102
}
330
361
100
AcDbXrecord
 10
0.0
 20
0.0
 30
0.0
  0
XRECORD
  5
36F
102
{ACAD_REACTORS
330
361
102
}
330
361
100
AcDbXrecord
340
0
  0
XRECORD
  5
370
102
{ACAD_REACTORS
330
361
102
}
330
361
100
AcDbXrecord
 70
     0
  0
XRECORD
  5
365
102
{ACAD_REACTORS
330
361
102
}
330
361
100
AcDbXrecord
  1

  0
XRECORD
  5
362
102
{ACAD_REACTORS
330
361
102
}
330
361
100
AcDbXrecord
 90
        1
  0
XRECORD
  5
363
102
{ACAD_REACTORS
330
361
102
}
330
361
100
AcDbXrecord
 90
       70
  0
XRECORD
  5
37A
102
{ACAD_REACTORS
330
361
102
}
330
361
100
AcDbXrecord
340
0
  0
XRECORD
  5
380
102
{ACAD_REACTORS
330
361
102
}
330
361
100
AcDbXrecord
 10
0.0
 20
0.0
 30
0.0
  0
XRECORD
  5
37C
102
{ACAD_REACTORS
330
361
102
}
330
361
100
AcDbXrecord
 10
0.0
 20
0.0
 30
0.0
  0
XRECORD
  5
37F
102
{ACAD_REACTORS
330
361
102
}
330
361
100
AcDbXrecord
 10
0.0
 20
0.0
 30
0.0
  0
XRECORD
  5
37D
102
{ACAD_REACTORS
330
361
102
}
330
361
100
AcDbXrecord
 10
0.0
 20
0.0
 30
0.0
  0
XRECORD
  5
37E
102
{ACAD_REACTORS
330
361
102
}
330
361
100
AcDbXrecord
 10
0.0
 20
0.0
 30
0.0
  0
XRECORD
  5
37B
102
{ACAD_REACTORS
330
361
102
}
330
361
100
AcDbXrecord
 10
0.0
 20
0.0
 30
0.0
  0
XRECORD
  5
378
102
{ACAD_REACTORS
330
361
102
}
330
361
100
AcDbXrecord
340
0
  0
XRECORD
  5
379
102
{ACAD_REACTORS
330
361
102
}
330
361
100
AcDbXrecord
 70
     0
  0
XRECORD
  5
36D
102
{ACAD_REACTORS
330
361
102
}
330
361
100
AcDbXrecord
  1
{4EBF01CF-0B2F-49F5-9D13-F46DCF80CB78}
  0
DICTIONARYVAR
  5
274
102
{ACAD_REACTORS
330
273
102
}
330
273
100
DictionaryVariables
280
     0
  1
1
  0
ENDSEC
  0
EOF
