  0
SECTION
  2
HEADER
  9
$ACADVER
  1
AC1014
  9
$ACADMAINTVER
 70
     9
  9
$DWGCODEPAGE
  3
ANSI_1252
  9
$INSBASE
 10
-15.50839747431921
 20
-5.146729969934011
 30
0.0
  9
$EXTMIN
 10
-47.70243905030894
 20
-7.499687059706618
 30
0.0
  9
$EXTMAX
 10
16.64463632486159
 20
29.50425057154793
 30
0.0
  9
$LIMMIN
 10
0.0
 20
0.0
  9
$LIMMAX
 10
36.0
 20
36.0
  9
$ORTHOMODE
 70
     1
  9
$REGENMODE
 70
     1
  9
$FILLMODE
 70
     1
  9
$QTEXTMODE
 70
     0
  9
$MIRRTEXT
 70
     1
  9
$DRAGMODE
 70
     0
  9
$LTSCALE
 40
1.0
  9
$OSMODE
 70
    37
  9
$ATTMODE
 70
     1
  9
$TEXTSIZE
 40
0.2
  9
$TRACEWID
 40
0.05
  9
$TEXTSTYLE
  7
STANDARD
  9
$CLAYER
  8
ADPDIM
  9
$CELTYPE
  6
BYLAYER
  9
$CECOLOR
 62
   256
  9
$CELTSCALE
 40
1.0
  9
$DELOBJ
 70
     1
  9
$DISPSILH
 70
     0
  9
$DIMSCALE
 40
1.0
  9
$DIMASZ
 40
0.125
  9
$DIMEXO
 40
0.0625
  9
$DIMDLI
 40
0.38
  9
$DIMRND
 40
0.0
  9
$DIMDLE
 40
0.0
  9
$DIMEXE
 40
0.18
  9
$DIMTP
 40
0.0
  9
$DIMTM
 40
0.0
  9
$DIMTXT
 40
0.125
  9
$DIMCEN
 40
0.1875
  9
$DIMTSZ
 40
0.125
  9
$DIMTOL
 70
     0
  9
$DIMLIM
 70
     0
  9
$DIMTIH
 70
     0
  9
$DIMTOH
 70
     0
  9
$DIMSE1
 70
     0
  9
$DIMSE2
 70
     0
  9
$DIMTAD
 70
     0
  9
$DIMZIN
 70
     3
  9
$DIMBLK
  1

  9
$DIMASO
 70
     1
  9
$DIMSHO
 70
     1
  9
$DIMPOST
  1

  9
$DIMAPOST
  1

  9
$DIMALT
 70
     0
  9
$DIMALTD
 70
     1
  9
$DIMALTF
 40
25.4
  9
$DIMLFAC
 40
1.0
  9
$DIMTOFL
 70
     0
  9
$DIMTVP
 40
0.0
  9
$DIMTIX
 70
     0
  9
$DIMSOXD
 70
     0
  9
$DIMSAH
 70
     0
  9
$DIMBLK1
  1

  9
$DIMBLK2
  1

  9
$DIMSTYLE
  2
STANDARD
  9
$DIMCLRD
 70
     0
  9
$DIMCLRE
 70
     0
  9
$DIMCLRT
 70
     0
  9
$DIMTFAC
 40
1.0
  9
$DIMGAP
 40
0.125
  9
$DIMJUST
 70
     0
  9
$DIMSD1
 70
     0
  9
$DIMSD2
 70
     0
  9
$DIMTOLJ
 70
     1
  9
$DIMTZIN
 70
     0
  9
$DIMALTZ
 70
     0
  9
$DIMALTTZ
 70
     0
  9
$DIMFIT
 70
     3
  9
$DIMUPT
 70
     0
  9
$DIMUNIT
 70
     2
  9
$DIMDEC
 70
     4
  9
$DIMTDEC
 70
     4
  9
$DIMALTU
 70
     2
  9
$DIMALTTD
 70
     2
  9
$DIMTXSTY
  7
STANDARD
  9
$DIMAUNIT
 70
     0
  9
$LUNITS
 70
     5
  9
$LUPREC
 70
     4
  9
$SKETCHINC
 40
0.1
  9
$FILLETRAD
 40
0.062
  9
$AUNITS
 70
     0
  9
$AUPREC
 70
     0
  9
$MENU
  1
acad
  9
$ELEVATION
 40
0.0
  9
$PELEVATION
 40
0.0
  9
$THICKNESS
 40
0.0
  9
$LIMCHECK
 70
     0
  9
$BLIPMODE
 70
     0
  9
$CHAMFERA
 40
0.0
  9
$CHAMFERB
 40
0.0
  9
$CHAMFERC
 40
0.0
  9
$CHAMFERD
 40
0.0
  9
$SKPOLY
 70
     0
  9
$TDCREATE
 40
2450407.453772372
  9
$TDUPDATE
 40
2452297.071879872
  9
$TDINDWG
 40
0.0305722222
  9
$TDUSRTIMER
 40
0.0305722222
  9
$USRTIMER
 70
     1
  9
$ANGBASE
 50
0.0
  9
$ANGDIR
 70
     0
  9
$PDMODE
 70
     0
  9
$PDSIZE
 40
0.0
  9
$PLINEWID
 40
0.0
  9
$COORDS
 70
     2
  9
$SPLFRAME
 70
     0
  9
$SPLINETYPE
 70
     6
  9
$SPLINESEGS
 70
     8
  9
$ATTDIA
 70
     0
  9
$ATTREQ
 70
     1
  9
$HANDLING
 70
 22529
  9
$HANDSEED
  5
617
  9
$SURFTAB1
 70
     6
  9
$SURFTAB2
 70
     6
  9
$SURFTYPE
 70
     6
  9
$SURFU
 70
     6
  9
$SURFV
 70
     6
  9
$UCSNAME
  2

  9
$UCSORG
 10
0.0
 20
0.0
 30
0.0
  9
$UCSXDIR
 10
1.0
 20
0.0
 30
0.0
  9
$UCSYDIR
 10
0.0
 20
1.0
 30
0.0
  9
$PUCSNAME
  2

  9
$PUCSORG
 10
0.0
 20
0.0
 30
0.0
  9
$PUCSXDIR
 10
1.0
 20
0.0
 30
0.0
  9
$PUCSYDIR
 10
0.0
 20
1.0
 30
0.0
  9
$USERI1
 70
     0
  9
$USERI2
 70
     0
  9
$USERI3
 70
     0
  9
$USERI4
 70
     0
  9
$USERI5
 70
     0
  9
$USERR1
 40
0.0
  9
$USERR2
 40
0.0
  9
$USERR3
 40
0.0
  9
$USERR4
 40
0.0
  9
$USERR5
 40
0.0
  9
$WORLDVIEW
 70
     1
  9
$SHADEDGE
 70
     3
  9
$SHADEDIF
 70
    70
  9
$TILEMODE
 70
     1
  9
$MAXACTVP
 70
    15
  9
$PINSBASE
 10
0.0008545038290322
 20
1.250283272183907
 30
0.0
  9
$PLIMCHECK
 70
     0
  9
$PEXTMIN
 10
1.000000000000000E+20
 20
1.000000000000000E+20
 30
1.000000000000000E+20
  9
$PEXTMAX
 10
-1.000000000000000E+20
 20
-1.000000000000000E+20
 30
-1.000000000000000E+20
  9
$PLIMMIN
 10
0.0
 20
0.0
  9
$PLIMMAX
 10
12.0
 20
9.0
  9
$UNITMODE
 70
     0
  9
$VISRETAIN
 70
     0
  9
$PLINEGEN
 70
     0
  9
$PSLTSCALE
 70
     1
  9
$TREEDEPTH
 70
  3020
  9
$PICKSTYLE
 70
     1
  9
$CMLSTYLE
  2
STANDARD
  9
$CMLJUST
 70
     0
  9
$CMLSCALE
 40
1.0
  9
$PROXYGRAPHICS
 70
     1
  9
$MEASUREMENT
 70
     0
  0
ENDSEC
  0
SECTION
  2
CLASSES
  0
CLASS
  1
ACDBDICTIONARYWDFLT
  2
AcDbDictionaryWithDefault
  3
AutoCAD 2000
 90
        0
280
     0
281
     0
  0
CLASS
  1
ACDBPLACEHOLDER
  2
AcDbPlaceHolder
  3
AutoCAD 2000
 90
        0
280
     0
281
     0
  0
CLASS
  1
LAYOUT
  2
AcDbLayout
  3
AutoCAD 2000
 90
        0
280
     0
281
     0
  0
CLASS
  1
DICTIONARYVAR
  2
AcDbDictionaryVar
  3
AutoCAD 2000
 90
        0
280
     0
281
     0
  0
CLASS
  1
LONG_TRANSACTION
  2
AcDbLongTransaction
  3
AutoCAD 2000
 90
        0
280
     0
281
     0
  0
CLASS
  1
LWPOLYLINE
  2
AcDbPolyline
  3
AutoCAD 2000
 90
        0
280
     0
281
     1
  0
CLASS
  1
HATCH
  2
AcDbHatch
  3
AutoCAD 2000
 90
        0
280
     0
281
     1
  0
CLASS
  1
XRECORD
  2
AcDbXrecord
  3
AutoCAD 2000
 90
        0
280
     0
281
     0
  0
CLASS
  1
LONG_TRANSACTION
  2
AcDbLongTransaction
  3
AutoCAD 2000
 90
        0
280
     0
281
     0
  0
CLASS
  1
LWPOLYLINE
  2
AcDbPolyline
  3
AutoCAD 2000
 90
        0
280
     0
281
     1
  0
CLASS
  1
HATCH
  2
AcDbHatch
  3
AutoCAD 2000
 90
        0
280
     0
281
     1
  0
CLASS
  1
XRECORD
  2
AcDbXrecord
  3
AutoCAD 2000
 90
        0
280
     0
281
     0
  0
CLASS
  1
LONG_TRANSACTION
  2
AcDbLongTransaction
  3
AutoCAD 2000
 90
        0
280
     0
281
     0
  0
CLASS
  1
LWPOLYLINE
  2
AcDbPolyline
  3
AutoCAD 2000
 90
        0
280
     0
281
     1
  0
CLASS
  1
HATCH
  2
AcDbHatch
  3
AutoCAD 2000
 90
        0
280
     0
281
     1
  0
CLASS
  1
XRECORD
  2
AcDbXrecord
  3
AutoCAD 2000
 90
        0
280
     0
281
     0
  0
CLASS
  1
LONG_TRANSACTION
  2
AcDbLongTransaction
  3
AutoCAD 2000
 90
        0
280
     0
281
     0
  0
CLASS
  1
LWPOLYLINE
  2
AcDbPolyline
  3
AutoCAD 2000
 90
        0
280
     0
281
     1
  0
CLASS
  1
HATCH
  2
AcDbHatch
  3
AutoCAD 2000
 90
        0
280
     0
281
     1
  0
CLASS
  1
XRECORD
  2
AcDbXrecord
  3
AutoCAD 2000
 90
        0
280
     0
281
     0
  0
CLASS
  1
LONG_TRANSACTION
  2
AcDbLongTransaction
  3
AutoCAD 2000
 90
        0
280
     0
281
     0
  0
CLASS
  1
LWPOLYLINE
  2
AcDbPolyline
  3
AutoCAD 2000
 90
        0
280
     0
281
     1
  0
CLASS
  1
HATCH
  2
AcDbHatch
  3
AutoCAD 2000
 90
        0
280
     0
281
     1
  0
CLASS
  1
XRECORD
  2
AcDbXrecord
  3
AutoCAD 2000
 90
        0
280
     0
281
     0
  0
CLASS
  1
LONG_TRANSACTION
  2
AcDbLongTransaction
  3
AutoCAD 2000
 90
        0
280
     0
281
     0
  0
CLASS
  1
LWPOLYLINE
  2
AcDbPolyline
  3
AutoCAD 2000
 90
        0
280
     0
281
     1
  0
CLASS
  1
HATCH
  2
AcDbHatch
  3
AutoCAD 2000
 90
        0
280
     0
281
     1
  0
CLASS
  1
XRECORD
  2
AcDbXrecord
  3
AutoCAD 2000
 90
        0
280
     0
281
     0
  0
ENDSEC
  0
SECTION
  2
TABLES
  0
TABLE
  2
VPORT
  5
8
330
0
100
AcDbSymbolTable
 70
     2
  0
VPORT
  5
5F4
330
8
100
AcDbSymbolTableRecord
100
AcDbViewportTableRecord
  2
*ACTIVE
 70
     0
 10
0.0
 20
0.0
 11
1.0
 21
1.0
 12
-15.47890474375255
 22
11.00182154093504
 13
0.0
 23
0.0
 14
0.5740882589684922
 24
0.5740882589684922
 15
0.5
 25
0.5
 16
0.0
 26
0.0
 36
1.0
 17
0.0
 27
0.0
 37
0.0
 40
41.23916855969355
 41
1.570528967254407
 42
50.0
 43
0.0
 44
0.0
 50
0.0
 51
0.0
 71
     0
 72
   100
 73
     1
 74
     0
 75
     0
 76
     0
 77
     0
 78
     0
  0
ENDTAB
  0
TABLE
  2
LTYPE
  5
5
330
0
100
AcDbSymbolTable
 70
     1
  0
LTYPE
  5
12
330
5
100
AcDbSymbolTableRecord
100
AcDbLinetypeTableRecord
  2
BYBLOCK
 70
     0
  3

 72
    65
 73
     0
 40
0.0
  0
LTYPE
  5
13
330
5
100
AcDbSymbolTableRecord
100
AcDbLinetypeTableRecord
  2
BYLAYER
 70
     0
  3

 72
    65
 73
     0
 40
0.0
  0
LTYPE
  5
14
330
5
100
AcDbSymbolTableRecord
100
AcDbLinetypeTableRecord
  2
CONTINUOUS
 70
     0
  3
Solid line
 72
    65
 73
     0
 40
0.0
  0
ENDTAB
  0
TABLE
  2
LAYER
  5
2
330
0
100
AcDbSymbolTable
 70
     4
  0
LAYER
  5
F
330
2
100
AcDbSymbolTableRecord
100
AcDbLayerTableRecord
  2
0
 70
     0
 62
     7
  6
CONTINUOUS
  0
LAYER
  5
43
330
2
100
AcDbSymbolTableRecord
100
AcDbLayerTableRecord
  2
ADP1DETAIL
 70
     0
 62
     7
  6
CONTINUOUS
  0
LAYER
  5
45
330
2
100
AcDbSymbolTableRecord
100
AcDbLayerTableRecord
  2
DEFPOINTS
 70
     0
 62
     7
  6
CONTINUOUS
  0
LAYER
  5
46
330
2
100
AcDbSymbolTableRecord
100
AcDbLayerTableRecord
  2
ADPDIM
 70
     0
 62
     3
  6
CONTINUOUS
  0
ENDTAB
  0
TABLE
  2
STYLE
  5
3
330
0
100
AcDbSymbolTable
 70
     2
  0
STYLE
  5
10
330
3
100
AcDbSymbolTableRecord
100
AcDbTextStyleTableRecord
  2
STANDARD
 70
     0
 40
0.0
 41
1.0
 50
0.0
 71
     0
 42
0.2
  3
txt
  4

  0
STYLE
  5
4AC
330
3
100
AcDbSymbolTableRecord
100
AcDbTextStyleTableRecord
  2
ARIAL_WIDE
 70
     0
 40
0.0
 41
1.25
 50
0.0
 71
     0
 42
0.2
  3
ARIAL.TTF
  4

1001
ACAD
1000
Arial
1071
       34
  0
ENDTAB
  0
TABLE
  2
VIEW
  5
6
330
0
100
AcDbSymbolTable
 70
     0
  0
ENDTAB
  0
TABLE
  2
UCS
  5
7
330
0
100
AcDbSymbolTable
 70
     0
  0
ENDTAB
  0
TABLE
  2
APPID
  5
9
330
0
100
AcDbSymbolTable
 70
     1
  0
APPID
  5
11
330
9
100
AcDbSymbolTableRecord
100
AcDbRegAppTableRecord
  2
ACAD
 70
     0
  0
ENDTAB
  0
TABLE
  2
DIMSTYLE
  5
A
330
0
100
AcDbSymbolTable
 70
     1
  0
DIMSTYLE
105
4A0
330
A
100
AcDbSymbolTableRecord
100
AcDbDimStyleTableRecord
  2
STANDARD
 70
     0
  3

  4

  5

  6

  7

 40
1.0
 41
0.18
 42
0.0625
 43
0.38
 44
0.18
 45
0.0
 46
0.0
 47
0.0
 48
0.0
140
0.18
141
0.09
142
0.0
143
25.4
144
1.0
145
0.0
146
1.0
147
0.09
 71
     0
 72
     0
 73
     1
 74
     1
 75
     0
 76
     0
 77
     0
 78
     0
170
     0
171
     2
172
     0
173
     0
174
     0
175
     0
176
     0
177
     0
178
     0
270
     2
271
     4
272
     4
273
     2
274
     2
340
10
275
     0
280
     0
281
     0
282
     0
283
     1
284
     0
285
     0
286
     0
287
     3
288
     0
  0
ENDTAB
  0
TABLE
  2
BLOCK_RECORD
  5
1
330
0
100
AcDbSymbolTable
 70
     2
  0
BLOCK_RECORD
  5
18
102
{ACAD_XDICTIONARY
360
501
102
}
330
1
100
AcDbSymbolTableRecord
100
AcDbBlockTableRecord
  2
*MODEL_SPACE
  0
BLOCK_RECORD
  5
15
102
{ACAD_XDICTIONARY
360
4FF
102
}
330
1
100
AcDbSymbolTableRecord
100
AcDbBlockTableRecord
  2
*PAPER_SPACE
  0
BLOCK_RECORD
  5
33
330
1
100
AcDbSymbolTableRecord
100
AcDbBlockTableRecord
  2
*D0
  0
BLOCK_RECORD
  5
3F
330
1
100
AcDbSymbolTableRecord
100
AcDbBlockTableRecord
  2
*D1
  0
ENDTAB
  0
ENDSEC
  0
SECTION
  2
BLOCKS
  0
BLOCK
  5
49
330
18
100
AcDbEntity
  8
0
100
AcDbBlockBegin
  2
*MODEL_SPACE
 70
     0
 10
0.0
 20
0.0
 30
0.0
  3
*MODEL_SPACE
  1

  0
ENDBLK
  5
4A
330
18
100
AcDbEntity
  8
0
100
AcDbBlockEnd
  0
BLOCK
  5
47
330
15
100
AcDbEntity
 67
     1
  8
0
100
AcDbBlockBegin
  2
*PAPER_SPACE
 70
     0
 10
0.0
 20
0.0
 30
0.0
  3
*PAPER_SPACE
  1

  0
ENDBLK
  5
48
330
15
100
AcDbEntity
 67
     1
  8
0
100
AcDbBlockEnd
  0
BLOCK
  5
4C
330
33
100
AcDbEntity
  8
0
100
AcDbBlockBegin
  2
*D0
 70
     1
 10
0.0
 20
0.0
 30
0.0
  3
*D0
  1

  0
LINE
  5
4D
330
33
100
AcDbEntity
  8
0
  6
BYBLOCK
 62
     0
100
AcDbLine
 10
-15.32046126124213
 20
-5.146729969934011
 30
0.0
 11
-10.57020158999173
 21
-5.146729969934011
 31
0.0
  0
LINE
  5
4E
330
33
100
AcDbEntity
  8
0
  6
BYBLOCK
 62
     0
100
AcDbLine
 10
-15.43059196672584
 20
29.37925057154793
 30
0.0
 11
-10.57020158999173
 21
29.37925057154793
 31
0.0
  0
LINE
  5
4F
330
33
100
AcDbEntity
  8
0
  6
BYBLOCK
 62
     0
100
AcDbLine
 10
-10.75020158999173
 20
-5.146729969934011
 30
0.0
 11
-10.75020158999173
 21
11.65792696747362
 31
0.0
  0
LINE
  5
50
330
33
100
AcDbEntity
  8
0
  6
BYBLOCK
 62
     0
100
AcDbLine
 10
-10.75020158999173
 20
29.37925057154793
 30
0.0
 11
-10.75020158999173
 21
12.57459363414029
 31
0.0
  0
LINE
  5
51
330
33
100
AcDbEntity
  8
0
  6
BYBLOCK
 62
     0
100
AcDbLine
 10
-10.62520158999173
 20
-5.271729969934011
 30
0.0
 11
-10.87520158999173
 21
-5.021729969934011
 31
0.0
  0
LINE
  5
52
330
33
100
AcDbEntity
  8
0
  6
BYBLOCK
 62
     0
100
AcDbLine
 10
-10.62520158999173
 20
29.25425057154793
 30
0.0
 11
-10.87520158999173
 21
29.50425057154793
 31
0.0
  0
TEXT
  5
53
330
33
100
AcDbEntity
  8
0
  6
BYBLOCK
 62
     0
100
AcDbText
 10
-10.68770158999173
 20
11.78292696747362
 30
0.0
 40
0.125
  1
34 1/2
 50
90.0
 72
     1
 11
-10.75020158999173
 21
12.11626030080696
 31
0.0
100
AcDbText
 73
     2
  0
POINT
  5
54
330
33
100
AcDbEntity
  8
DEFPOINTS
  6
BYBLOCK
 62
     0
100
AcDbPoint
 10
-15.38296126124213
 20
-5.146729969934011
 30
0.0
  0
POINT
  5
55
330
33
100
AcDbEntity
  8
DEFPOINTS
  6
BYBLOCK
 62
     0
100
AcDbPoint
 10
-15.49309196672584
 20
29.37925057154793
 30
0.0
  0
POINT
  5
56
330
33
100
AcDbEntity
  8
DEFPOINTS
  6
BYBLOCK
 62
     0
100
AcDbPoint
 10
-10.75020158999173
 20
29.37925057154793
 30
0.0
  0
ENDBLK
  5
57
330
33
100
AcDbEntity
  8
0
100
AcDbBlockEnd
  0
BLOCK
  5
58
330
3F
100
AcDbEntity
  8
0
100
AcDbBlockBegin
  2
*D1
 70
     1
 10
0.0
 20
0.0
 30
0.0
  3
*D1
  1

  0
LINE
  5
59
330
3F
100
AcDbEntity
  8
0
  6
BYBLOCK
 62
     0
100
AcDbLine
 10
-19.26204300491772
 20
-1.814653037909723
 30
0.0
 11
-19.26204300491772
 21
-5.705244883930017
 31
0.0
  0
LINE
  5
5A
330
3F
100
AcDbEntity
  8
0
  6
BYBLOCK
 62
     0
100
AcDbLine
 10
-11.63704300491772
 20
-1.814653037909723
 30
0.0
 11
-11.63704300491772
 21
-5.705244883930017
 31
0.0
  0
LINE
  5
5B
330
3F
100
AcDbEntity
  8
0
  6
BYBLOCK
 62
     0
100
AcDbLine
 10
-19.26204300491772
 20
-5.525244883930017
 30
0.0
 11
-15.97521851436621
 21
-5.525244883930017
 31
0.0
  0
LINE
  5
5C
330
3F
100
AcDbEntity
  8
0
  6
BYBLOCK
 62
     0
100
AcDbLine
 10
-11.63704300491772
 20
-5.525244883930017
 30
0.0
 11
-15.14188518103288
 21
-5.525244883930017
 31
0.0
  0
LINE
  5
5D
330
3F
100
AcDbEntity
  8
0
  6
BYBLOCK
 62
     0
100
AcDbLine
 10
-19.38704300491772
 20
-5.650244883930017
 30
0.0
 11
-19.13704300491772
 21
-5.400244883930017
 31
0.0
  0
LINE
  5
5E
330
3F
100
AcDbEntity
  8
0
  6
BYBLOCK
 62
     0
100
AcDbLine
 10
-11.76204300491772
 20
-5.650244883930017
 30
0.0
 11
-11.51204300491772
 21
-5.400244883930017
 31
0.0
  0
TEXT
  5
5F
330
3F
100
AcDbEntity
  8
0
  6
BYBLOCK
 62
     0
100
AcDbText
 10
-15.85021851436621
 20
-5.587744883930017
 30
0.0
 40
0.125
  1
7 5/8
 72
     1
 11
-15.55855184769955
 21
-5.525244883930017
 31
0.0
100
AcDbText
 73
     2
  0
POINT
  5
60
330
3F
100
AcDbEntity
  8
DEFPOINTS
  6
BYBLOCK
 62
     0
100
AcDbPoint
 10
-19.26204300491772
 20
-1.752153037909723
 30
0.0
  0
POINT
  5
61
330
3F
100
AcDbEntity
  8
DEFPOINTS
  6
BYBLOCK
 62
     0
100
AcDbPoint
 10
-11.63704300491772
 20
-1.752153037909723
 30
0.0
  0
POINT
  5
62
330
3F
100
AcDbEntity
  8
DEFPOINTS
  6
BYBLOCK
 62
     0
100
AcDbPoint
 10
-11.63704300491772
 20
-5.525244883930017
 30
0.0
  0
ENDBLK
  5
63
330
3F
100
AcDbEntity
  8
0
100
AcDbBlockEnd
  0
ENDSEC
  0
SECTION
  2
ENTITIES
  0
DIMENSION
  5
64
330
18
100
AcDbEntity
  8
ADPDIM
100
AcDbDimension
  2
*D0
 10
-10.75020158999173
 20
29.37925057154793
 30
0.0
 11
-10.75020158999173
 21
12.11626030080696
 31
0.0
100
AcDbAlignedDimension
 13
-15.38296126124213
 23
-5.146729969934011
 33
0.0
 14
-15.49309196672584
 24
29.37925057154793
 34
0.0
 50
90.0
100
AcDbRotatedDimension
  0
LWPOLYLINE
  5
65
330
18
100
AcDbEntity
  8
ADP1DETAIL
100
AcDbPolyline
 90
        3
 70
     0
 43
0.0
 10
-13.64398322726067
 20
14.82231272276652
 42
-0.4687991483750919
 10
-13.86064586440831
 20
14.69693333629497
 42
-0.0083223216584232
 10
-13.83783928021248
 20
15.26683973665436
 42
-0.9449045610769307
  0
LWPOLYLINE
  5
6A
330
18
100
AcDbEntity
  8
ADP1DETAIL
100
AcDbPolyline
 90
        5
 70
     0
 43
0.0
 10
-13.51854710147083
 20
15.31243218626141
 10
-13.46153055369402
 20
14.9818864764538
 10
-13.45012734888334
 20
14.73112770351069
 42
-0.6177552526386757
 10
-13.5641602698625
 20
14.75392386829335
 42
-0.3107054142860094
 10
-13.68959639565233
 20
15.28963590143702
 42
-2.395599932408693
  0
LWPOLYLINE
  5
71
330
18
100
AcDbEntity
  8
ADP1DETAIL
100
AcDbPolyline
 90
        5
 70
     0
 43
0.0
 10
-13.51854710147083
 20
14.7083314186863
 42
-0.1152681609424283
 10
-13.48433713788985
 20
14.26380440479846
 42
-0.631659497976049
 10
-13.59837005886901
 20
14.22961003758273
 42
-0.1366161974804414
 10
-13.65538660664582
 20
14.34359134166296
 42
-0.1754394855510162
 10
-13.59837005886901
 20
14.7083314186863
 42
-0.5915634486671087
  0
ARC
  5
78
330
18
100
AcDbEntity
  8
ADP1DETAIL
100
AcDbCircle
 10
-8.795160322238432
 20
14.21018573313966
 30
0.0
 40
6.522945296565139
100
AcDbArc
 50
160.9545473395366
 51
176.117852289177
  0
LWPOLYLINE
  5
79
330
18
100
AcDbEntity
  8
ADP1DETAIL
100
AcDbPolyline
 90
        3
 70
     0
 43
0.0
 10
-17.34220070619101
 20
14.82231272276652
 42
0.4687991483750919
 10
-17.12553806904337
 20
14.69693333629497
 42
0.0083223216584232
 10
-17.1483446532392
 20
15.26683973665436
 42
0.9449045610769307
  0
LWPOLYLINE
  5
7E
330
18
100
AcDbEntity
  8
ADP1DETAIL
100
AcDbPolyline
 90
        5
 70
     0
 43
0.0
 10
-17.46763683198085
 20
15.31243218626141
 10
-17.52465337975767
 20
14.9818864764538
 10
-17.53605658456835
 20
14.73112770351069
 42
0.6177552526386757
 10
-17.42202366358919
 20
14.75392386829335
 42
0.3107054142860094
 10
-17.29658753779935
 20
15.28963590143702
 42
2.395599932408693
  0
LWPOLYLINE
  5
85
330
18
100
AcDbEntity
  8
ADP1DETAIL
100
AcDbPolyline
 90
        5
 70
     0
 43
0.0
 10
-17.46763683198085
 20
14.7083314186863
 42
0.1152681609424283
 10
-17.50184679556183
 20
14.26380440479846
 42
0.631659497976049
 10
-17.38781387458268
 20
14.22961003758273
 42
0.1366161974804414
 10
-17.33079732680586
 20
14.34359134166296
 42
0.1754394855510162
 10
-17.38781387458268
 20
14.7083314186863
 42
0.5915634486671087
  0
ARC
  5
8C
330
18
100
AcDbEntity
  8
ADP1DETAIL
100
AcDbCircle
 10
-22.19102361121325
 20
14.21018573313966
 30
0.0
 40
6.522945296565139
100
AcDbArc
 50
3.882147710822964
 51
19.04545266046334
  0
LWPOLYLINE
  5
8D
330
18
100
AcDbEntity
  8
ADP1DETAIL
100
AcDbPolyline
 90
       31
 70
     0
 43
0.0
 10
-14.57332769686458
 20
9.71870836144553
 42
0.4055841784170342
 10
-14.68736061784374
 20
10.32280912902064
 42
0.4076361537089031
 10
-15.20050867496272
 20
10.42539223066781
 42
0.6409958196746062
 10
-15.1434921271859
 20
10.03785586882008
 42
-0.4864230197798741
 10
-15.05226596497705
 20
9.809893380701364
 42
-0.0632597123053446
 10
-15.28033163236089
 20
9.171598245910525
 10
-15.28033163236089
 20
13.86762691764857
 42
-0.0470043405691154
 10
-14.90402308041691
 20
15.62293856833382
 42
-0.2562859611865064
 10
-14.63034407006692
 20
15.88509554370999
 42
0.1091438641479014
 10
-14.09438942875211
 20
15.97628056296582
 10
-13.96895330296228
 20
16.1358543166531
 10
-14.45929477588542
 20
16.27263190555772
 42
0.3191463323660718
 10
-14.59613428106041
 20
16.44360374163632
 42
0.0084136827120092
 10
-14.9724428330044
 20
16.3296224375561
 42
-0.4174782414501283
 10
-15.23471846396923
 20
16.53478876089216
 42
-0.0580675876925258
 10
-15.23471846396923
 20
16.6829644321881
 42
-0.1016615763965393
 10
-14.83560332782941
 20
17.24147275015617
 42
0.4403742514268526
 10
-15.16629871138173
 20
17.68599976404401
 42
-0.3263099849500382
 10
-14.58473090167526
 20
18.70955154817093
 42
0.4965286508224463
 10
-14.09438942875211
 20
18.6753571809552
 42
0.6369547293676233
 10
-14.45929477588542
 20
19.11988419484305
 42
0.2013968024980257
 10
-15.15489550657106
 20
18.78933848503543
 42
-0.0662776756471291
 10
-14.91542645980206
 20
19.8949569185385
 42
-0.2196145055309601
 10
-13.86632376136827
 20
20.7384183766654
 42
-0.2934200579532678
 10
-13.09089989870999
 20
20.47626140128923
 42
0.4425587692552293
 10
-13.11370648290582
 20
20.00893822261873
 42
0.0434021719183781
 10
-13.20493281968915
 20
19.88355883614717
 42
0.4284989965272782
 10
-13.49001503484981
 20
19.88355883614717
 42
0.3713614390714407
 10
-13.50141841423496
 20
19.65559622798672
 42
0.180389317196424
 10
-13.18212623549332
 20
19.22246741653194
 42
0.0399192361705491
 10
-13.02248014612249
 20
19.18827292927449
 42
0.0656968056138877
  0
LWPOLYLINE
  5
AE
330
18
100
AcDbEntity
  8
ADP1DETAIL
100
AcDbPolyline
 90
       31
 70
     0
 43
0.0
 10
-16.4128562365871
 20
9.71870836144553
 42
-0.4055841784170342
 10
-16.29882331560794
 20
10.32280912902064
 42
-0.4076361537089031
 10
-15.78567525848897
 20
10.42539223066781
 42
-0.6409958196746062
 10
-15.84269180626578
 20
10.03785586882008
 42
0.4864230197798741
 10
-15.93391796847464
 20
9.809893380701364
 42
0.0632597123053446
 10
-15.70585230109079
 20
9.171598245910525
 10
-15.70585230109079
 20
13.86762691764857
 42
0.0470043405691154
 10
-16.08216085303478
 20
15.62293856833382
 42
0.2562859611865064
 10
-16.35583986338476
 20
15.88509554370999
 42
-0.1091438641479014
 10
-16.89179450469957
 20
15.97628056296582
 10
-17.01723063048941
 20
16.1358543166531
 10
-16.52688915756626
 20
16.27263190555772
 42
-0.3191463323660718
 10
-16.39004965239127
 20
16.44360374163632
 42
-0.0084136827120092
 10
-16.01374110044728
 20
16.3296224375561
 42
0.4174782414501283
 10
-15.75146546948245
 20
16.53478876089216
 42
0.0580675876925258
 10
-15.75146546948245
 20
16.6829644321881
 42
0.1016615763965393
 10
-16.15058060562227
 20
17.24147275015617
 42
-0.4403742514268526
 10
-15.81988522206995
 20
17.68599976404401
 42
0.3263099849500382
 10
-16.40145303177642
 20
18.70955154817093
 42
-0.4965286508224463
 10
-16.89179450469957
 20
18.6753571809552
 42
-0.6369547293676233
 10
-16.52688915756626
 20
19.11988419484305
 42
-0.2013968024980257
 10
-15.83128842688063
 20
18.78933848503543
 42
0.0662776756471291
 10
-16.07075747364962
 20
19.8949569185385
 42
0.2196145055309601
 10
-17.11986017208341
 20
20.7384183766654
 42
0.2934200579532678
 10
-17.8952840347417
 20
20.47626140128923
 42
-0.4425587692552293
 10
-17.87247745054586
 20
20.00893822261873
 42
-0.0434021719183781
 10
-17.78125111376254
 20
19.88355883614717
 42
-0.4284989965272782
 10
-17.49616889860187
 20
19.88355883614717
 42
-0.3713614390714407
 10
-17.48476551921672
 20
19.65559622798672
 42
-0.180389317196424
 10
-17.80405769795837
 20
19.22246741653194
 42
-0.0399192361705491
 10
-17.96370378732919
 20
19.18827292927449
 42
-0.0656968056138877
  0
LWPOLYLINE
  5
CF
330
18
100
AcDbEntity
  8
ADP1DETAIL
100
AcDbPolyline
 90
        5
 70
     0
 43
0.0
 10
-12.87423743613683
 20
1.580445002726706
 10
-12.86283405675167
 20
1.363880596999316
 42
-0.5863868076299173
 10
-12.99967356192666
 20
1.22710312813643
 42
-0.2129610001440392
 10
-13.07949669389931
 20
1.67163002198254
 42
-0.1748672291603312
 10
-13.01107694131182
 20
1.774213243671435
 42
-0.3293659186465469
  0
LWPOLYLINE
  5
D6
330
18
100
AcDbEntity
  8
ADP1DETAIL
100
AcDbPolyline
 90
        5
 70
     0
 43
0.0
 10
-18.11194649731486
 20
1.580445002726706
 10
-18.12334987670001
 20
1.363880596999316
 42
0.5863868076299173
 10
-17.98651037152502
 20
1.22710312813643
 42
0.2129610001440392
 10
-17.90668723955237
 20
1.67163002198254
 42
0.1748672291603312
 10
-17.97510699213987
 20
1.774213243671435
 42
0.3293659186465469
  0
LWPOLYLINE
  5
DD
330
18
100
AcDbEntity
  8
ADP1DETAIL
100
AcDbPolyline
 90
        8
 70
     0
 43
0.0
 10
-15.28033163236089
 20
-1.476532794834523
 10
-15.28033163236089
 20
0.1078070197721095
 42
-0.1573351092306041
 10
-14.59613428106041
 20
1.555369245474126
 42
-0.2864351373491573
 10
-13.47861183003913
 20
1.851720588066019
 42
0.7832510360616566
 10
-13.37598211387065
 20
2.022692424144627
 42
0.1386896462691908
 10
-13.88913017098963
 20
2.30764568434519
 42
0.1585021984696405
 10
-14.2996486865146
 20
2.273451317129469
 42
0.1131900433186865
 10
-15.49699426950853
 20
1.270415985273562
 42
2.011440809381755
  0
LWPOLYLINE
  5
E7
330
18
100
AcDbEntity
  8
ADP1DETAIL
100
AcDbPolyline
 90
        8
 70
     0
 43
0.0
 10
-15.70585230109079
 20
-1.476532794834523
 10
-15.70585230109079
 20
0.1078070197721095
 42
0.1573351092306041
 10
-16.39004965239127
 20
1.555369245474126
 42
0.2864351373491573
 10
-17.50757210341255
 20
1.851720588066019
 42
-0.7832510360616566
 10
-17.61020181958103
 20
2.022692424144627
 42
-0.1386896462691908
 10
-17.09705376246206
 20
2.30764568434519
 42
-0.1585021984696405
 10
-16.68653524693708
 20
2.273451317129469
 42
-0.1131900433186865
 10
-15.48918966394315
 20
1.270415985273562
 42
-2.011440809381755
  0
DIMENSION
  5
F1
330
18
100
AcDbEntity
  8
ADPDIM
100
AcDbDimension
  2
*D1
 10
-11.69582863073541
 20
-5.525244883930017
 30
0.0
 11
-15.61733747351724
 21
-5.525244883930017
 31
0.0
 12
-0.0587856258176913
 22
0.0
 32
0.0
 70
   128
100
AcDbAlignedDimension
 13
-19.32082863073541
 23
-1.752153037909723
 33
0.0
 14
-11.69582863073541
 24
-1.752153037909723
 34
0.0
100
AcDbRotatedDimension
  0
LWPOLYLINE
  5
F2
330
18
100
AcDbEntity
  8
ADP1DETAIL
100
AcDbPolyline
 90
        6
 70
     0
 43
0.0
 10
-15.70585230109079
 20
-3.60798260493443
 42
0.1083614516335541
 10
-16.19619377401394
 20
-1.579115896481687
 42
0.1975177504819625
 10
-16.72074503594359
 20
-1.111792597769455
 42
0.2750573708152078
 10
-18.05493012411251
 20
-1.066200148162404
 42
0.1723000231579628
 10
-18.32860895988802
 20
-1.373949573145628
 42
-0.6956789554971681
 10
-18.54527159703566
 20
-1.123190800202516
 42
1.691686129783892
  0
LWPOLYLINE
  5
FA
330
18
100
AcDbEntity
  8
ADP1DETAIL
100
AcDbPolyline
 90
       12
 70
     0
 43
0.0
 10
-17.7584445295667
 20
-1.84127287185786
 42
-0.0421946015923602
 10
-17.19968330405606
 20
-1.795680302209077
 42
-0.7113738703262228
 10
-17.07424717826623
 20
-2.160420379232414
 42
-0.0631894989495332
 10
-17.33652280923105
 20
-2.536558658688811
 42
-0.2103147945057427
 10
-17.41634576662922
 20
-3.152057508655259
 42
-0.1856063876336127
 10
-18.02072016053153
 20
-2.992483754967982
 42
-0.352350941224747
 10
-18.70491768640649
 20
-2.810113716456314
 42
-0.3273829528325695
 10
-18.70491768640649
 20
-2.525160456255751
 42
-0.3270011439546555
 10
-18.36281892346901
 20
-2.285799765703969
 42
-0.1497017471415576
 10
-18.39702871247552
 20
-1.601912181306079
 42
-0.5274535485400284
 10
-18.18036624990235
 20
-1.522125244441574
 42
-0.0603777665189431
 10
-17.74704115018155
 20
-1.84127287185786
 42
-0.9816318762940372
  0
CIRCLE
  5
108
330
18
100
AcDbEntity
  8
ADP1DETAIL
100
AcDbCircle
 10
-17.88746593832245
 20
-2.387822611319065
 30
0.0
 40
0.2554272352843039
  0
LINE
  5
109
330
18
100
AcDbEntity
  8
ADP1DETAIL
100
AcDbLine
 10
-17.59879844019588
 20
-2.832910001280705
 30
0.0
 11
-17.7584445295667
 21
-2.627743677944645
 31
0.0
  0
LWPOLYLINE
  5
10A
330
18
100
AcDbEntity
  8
ADP1DETAIL
100
AcDbPolyline
 90
        9
 70
     0
 43
0.0
 10
-15.47778645913247
 20
-1.966652258329415
 42
0.3105791255915062
 10
-17.48476551921672
 20
-0.4620993805872864
 42
0.3243675251590036
 10
-19.25227553253197
 20
-1.6361065485218
 42
-0.0356849753903689
 10
-19.22946894833614
 20
-2.559354823471472
 42
0.3703488497915851
 10
-18.86456377577731
 20
-2.206012948881196
 42
-0.2376693937307065
 10
-18.75053085479815
 20
-2.023642910369528
 42
0.3045051202511194
 10
-18.71632089121716
 20
-1.522125244441574
 42
-0.0579120205154669
 10
-18.39702871247552
 20
-0.8838301096507361
 42
-0.1626365810590688
 10
-17.90668723955237
 20
-0.4962937478030085
 42
5.716280984379356
  0
LWPOLYLINE
  5
115
330
18
100
AcDbEntity
  8
ADP1DETAIL
100
AcDbPolyline
 90
        3
 70
     0
 43
0.0
 10
-18.57948138604217
 20
-2.376984784959804
 42
-0.2491407000004027
 10
-18.98999990156714
 20
-1.670300915737521
 42
-0.1846418209613911
 10
-18.62509455443383
 20
-0.8268394576106237
 42
2.374115595134052
  0
LINE
  5
11A
330
18
100
AcDbEntity
  8
ADP1DETAIL
100
AcDbLine
 10
-17.96370378732919
 20
-2.171818581665475
 30
0.0
 11
-18.11194649731486
 21
-1.921059688680633
 31
0.0
  0
ARC
  5
11B
330
18
100
AcDbEntity
  8
ADP1DETAIL
100
AcDbCircle
 10
-18.33120018862929
 20
-2.199796799435188
 30
0.0
 40
0.8117709030153061
100
AcDbArc
 50
204.5097697936027
 51
262.1093909901052
  0
ARC
  5
11C
330
18
100
AcDbEntity
  8
ADP1DETAIL
100
AcDbCircle
 10
-17.5068620131125
 20
-2.958289387752261
 30
0.0
 40
0.5056766790860729
100
AcDbArc
 50
151.7482026849813
 51
186.4710837985809
  0
LINE
  5
11D
330
18
100
AcDbEntity
  8
ADP1DETAIL
100
AcDbLine
 10
-18.08913991311903
 20
-2.536558658688811
 30
0.0
 11
-18.38562550766484
 21
-2.661938045160367
 31
0.0
  0
LINE
  5
11E
330
18
100
AcDbEntity
  8
ADP1DETAIL
100
AcDbLine
 10
-13.3873854932558
 20
-2.832910001280705
 30
0.0
 11
-13.22773940388498
 21
-2.627743677944645
 31
0.0
  0
LINE
  5
11F
330
18
100
AcDbEntity
  8
ADP1DETAIL
100
AcDbLine
 10
-13.31896574066831
 20
-2.217411031272527
 30
0.0
 11
-13.6268545400248
 21
-2.103429727192301
 31
0.0
  0
LWPOLYLINE
  5
120
330
18
100
AcDbEntity
  8
ADP1DETAIL
100
AcDbPolyline
 90
       12
 70
     0
 43
0.0
 10
-13.22773940388498
 20
-1.84127287185786
 42
0.0421946015923602
 10
-13.78650062939562
 20
-1.795680302209077
 42
0.7113738703262228
 10
-13.91193675518546
 20
-2.160420379232414
 42
0.0631894989495332
 10
-13.64966112422063
 20
-2.536558658688811
 42
0.2103147945057427
 10
-13.56983816682246
 20
-3.152057508655259
 42
0.1856063876336127
 10
-12.96546377292015
 20
-2.992483754967982
 42
0.352350941224747
 10
-12.2812662470452
 20
-2.810113716456314
 42
0.3273829528325695
 10
-12.2812662470452
 20
-2.525160456255751
 42
0.3270011439546555
 10
-12.62336500998268
 20
-2.285799765703969
 42
0.1497017471415576
 10
-12.58915522097617
 20
-1.601912181306079
 42
0.5274535485400284
 10
-12.80581768354933
 20
-1.522125244441574
 42
0.0603777665189431
 10
-13.23914278327014
 20
-1.84127287185786
 42
0.9816318762940372
  0
LWPOLYLINE
  5
12E
330
18
100
AcDbEntity
  8
ADP1DETAIL
100
AcDbPolyline
 90
        6
 70
     0
 43
0.0
 10
-15.28033163236089
 20
-3.60798260493443
 42
-0.1083614516335541
 10
-14.78999015943775
 20
-1.579115896481687
 42
-0.1975177504819625
 10
-14.26543889750809
 20
-1.111792597769455
 42
-0.2750573708152078
 10
-12.93125380933917
 20
-1.066200148162404
 42
-0.1723000231579628
 10
-12.65757497356366
 20
-1.373949573145628
 42
0.6956789554971681
 10
-12.44091233641602
 20
-1.123190800202516
 42
-1.691686129783892
  0
LWPOLYLINE
  5
136
330
18
100
AcDbEntity
  8
ADP1DETAIL
100
AcDbPolyline
 90
        9
 70
     0
 43
0.0
 10
-15.50839747431921
 20
-1.966652258329415
 42
-0.3105791255915062
 10
-13.50141841423496
 20
-0.4620993805872864
 42
-0.3243675251590036
 10
-11.73390840091971
 20
-1.6361065485218
 42
0.0356849753903689
 10
-11.75671498511554
 20
-2.559354823471472
 42
-0.3703488497915851
 10
-12.12162015767438
 20
-2.206012948881196
 42
0.2376693937307065
 10
-12.23565307865354
 20
-2.023642910369528
 42
-0.3045051202511194
 10
-12.26986304223452
 20
-1.522125244441574
 42
0.0579120205154669
 10
-12.58915522097617
 20
-0.8838301096507361
 42
0.1626365810590688
 10
-13.07949669389931
 20
-0.4962937478030085
 42
-5.716280984379356
  0
LWPOLYLINE
  5
141
330
18
100
AcDbEntity
  8
ADP1DETAIL
100
AcDbPolyline
 90
        5
 70
     0
 43
0.0
 10
-15.47778645913247
 20
-5.146729969934011
 10
-15.72865888528662
 20
-5.146729969934011
 42
-0.0754729883907817
 10
-16.02514430525796
 20
-4.873174912166509
 42
-0.1958631832488738
 10
-15.77427205367829
 20
-3.664973256974543
 42
-0.1394951956425977
 10
-15.47778645913247
 20
-3.414214484031432
 42
4.636725362637149
  0
LWPOLYLINE
  5
148
330
18
100
AcDbEntity
  8
ADP1DETAIL
100
AcDbPolyline
 90
        7
 70
     0
 43
0.0
 10
-16.02514430525796
 20
-4.25767594215833
 42
0.3384942770195476
 10
-16.32162989980377
 20
-3.687769541798934
 42
0.2227350758256867
 10
-16.61811549434959
 20
-3.687769541798934
 42
0.6356772939137643
 10
-16.61811549434959
 20
-3.778954561054768
 42
-0.5238779362571187
 10
-16.83477795692275
 20
-3.642177092191882
 42
-0.2664187271637237
 10
-16.39004965239127
 20
-3.277436895126815
 42
-0.3884536442647814
 10
-15.77427205367829
 20
-3.676371459407604
 42
-2.816319276054676
  0
LINE
  5
151
330
18
100
AcDbEntity
  8
ADP1DETAIL
100
AcDbLine
 10
-17.66721819278338
 20
-2.217411031272527
 30
0.0
 11
-17.35932939342688
 21
-2.103429727192301
 31
0.0
  0
LWPOLYLINE
  5
152
330
18
100
AcDbEntity
  8
ADP1DETAIL
100
AcDbPolyline
 90
        5
 70
     0
 43
0.0
 10
-15.50839747431921
 20
-5.146729969934011
 10
-15.25752504816506
 20
-5.146729969934011
 42
0.0754729883907817
 10
-14.96103962819372
 20
-4.873174912166509
 42
0.1958631832488738
 10
-15.2119118797734
 20
-3.664973256974543
 42
0.1394951956425977
 10
-15.50839747431921
 20
-3.414214484031432
 42
-4.636725362637149
  0
LWPOLYLINE
  5
159
330
18
100
AcDbEntity
  8
ADP1DETAIL
100
AcDbPolyline
 90
        7
 70
     0
 43
0.0
 10
-14.96103962819372
 20
-4.25767594215833
 42
-0.3384942770195476
 10
-14.66455403364791
 20
-3.687769541798934
 42
-0.2227350758256867
 10
-14.36806843910209
 20
-3.687769541798934
 42
-0.6356772939137643
 10
-14.36806843910209
 20
-3.778954561054768
 42
0.5238779362571187
 10
-14.15140597652893
 20
-3.642177092191882
 42
0.2664187271637237
 10
-14.59613428106041
 20
-3.277436895126815
 42
0.3884536442647814
 10
-15.2119118797734
 20
-3.676371459407604
 42
2.816319276054676
  0
ARC
  5
162
330
18
100
AcDbEntity
  8
ADP1DETAIL
100
AcDbCircle
 10
-17.60778968294208
 20
0.2884609481519513
 30
0.0
 40
2.33360419064941
100
AcDbArc
 50
355.8406963828964
 51
24.57630278439828
  0
LINE
  5
163
330
18
100
AcDbEntity
  8
ADP1DETAIL
100
AcDbLine
 10
-13.02248014612249
 20
-2.171818581665475
 30
0.0
 11
-12.87423743613683
 21
-1.921059688680633
 31
0.0
  0
LWPOLYLINE
  5
164
330
18
100
AcDbEntity
  8
ADP1DETAIL
100
AcDbPolyline
 90
        3
 70
     0
 43
0.0
 10
-12.40670254740951
 20
-2.376984784959804
 42
0.2491407000004027
 10
-11.99618403188454
 20
-1.670300915737521
 42
0.1846418209613911
 10
-12.36108937901785
 20
-0.8268394576106237
 42
-2.374115595134052
  0
ARC
  5
169
330
18
100
AcDbEntity
  8
ADP1DETAIL
100
AcDbCircle
 10
-12.6549837448224
 20
-2.199796799435188
 30
0.0
 40
0.8117709030153061
100
AcDbArc
 50
277.8906090098946
 51
335.4902302063972
  0
ARC
  5
16A
330
18
100
AcDbEntity
  8
ADP1DETAIL
100
AcDbCircle
 10
-13.47932192033918
 20
-2.958289387752261
 30
0.0
 40
0.5056766790860729
100
AcDbArc
 50
353.5289162014191
 51
28.25179731501865
  0
LINE
  5
16B
330
18
100
AcDbEntity
  8
ADP1DETAIL
100
AcDbLine
 10
-12.89704402033266
 20
-2.536558658688811
 30
0.0
 11
-12.60055842578684
 21
-2.661938045160367
 31
0.0
  0
CIRCLE
  5
16C
330
18
100
AcDbEntity
  8
ADP1DETAIL
100
AcDbCircle
 10
-13.09871799512923
 20
-2.387822611319065
 30
0.0
 40
0.2554272352843039
  0
LWPOLYLINE
  5
16D
330
18
100
AcDbEntity
  8
ADP1DETAIL
100
AcDbPolyline
 90
       13
 70
     0
 43
0.0
 10
-17.79265431857321
 20
8.008989280409071
 42
-0.1130485814617616
 10
-17.24529647244773
 20
8.043183647624793
 42
-0.5106212110582084
 10
-17.0856503830769
 20
7.724036020208508
 42
-0.1062752900341773
 10
-17.41634576662922
 20
7.325101575969449
 42
-0.0344574213879825
 10
-17.39353918243339
 20
6.800787625217106
 42
-0.6221843445474067
 10
-17.69002477697921
 20
6.664010156354219
 42
-0.085369213753644
 10
-18.10054329250418
 20
6.846380194865888
 42
-0.2991435487589256
 10
-18.70491768640649
 20
6.960361498946113
 42
-0.2749735490538577
 10
-18.80754722800049
 20
7.33649965836078
 42
-0.225631536080816
 10
-18.38562550766484
 20
7.55306406408817
 42
-0.0949930176490022
 10
-18.499658428644
 20
8.168563034096349
 42
-0.6151069383890082
 10
-18.16896304509167
 20
8.305340502959234
 42
-0.0272492943914587
 10
-17.78125111376254
 20
8.008989280409071
  0
LWPOLYLINE
  5
17C
330
18
100
AcDbEntity
  8
ADP1DETAIL
100
AcDbPolyline
 90
        3
 70
     0
 43
0.0
 10
-15.70585230109079
 20
6.185288775250658
 42
0.1291816623270916
 10
-16.43566282078293
 20
8.065979932449184
 42
0.4511482646900638
 10
-18.23738279767917
 20
8.350933072608016
 42
-0.3815749267741603
  0
LWPOLYLINE
  5
181
330
18
100
AcDbEntity
  8
ADP1DETAIL
100
AcDbPolyline
 90
       11
 70
     0
 43
0.0
 10
-18.4312386760565
 20
6.812185707608435
 42
-0.2142241176069386
 10
-19.1040328225463
 20
7.11993513259166
 42
-0.7208622831239939
 10
-19.27508211672781
 20
7.313703373536389
 42
0.0805909650428766
 10
-19.3435018693153
 20
7.97479479315162
 42
-0.2338094570717279
 10
-18.61369134962315
 20
8.898043068101291
 42
-0.3552157078286442
 10
-16.02514430525796
 20
8.088775977190113
 42
0.3709447336865117
 10
-15.93391796847464
 20
8.487710541470903
 42
0.0962458547876247
 10
-16.34443648399961
 20
9.251385062733298
 42
0.6979504798317303
 10
-16.78916478853109
 20
9.274181347557689
 42
-0.4775783859147099
 10
-17.18827992467091
 20
9.616125139756634
 42
-0.5648622479199795
 10
-16.4812759891746
 20
10.01505970403742
 42
-3.80007092863319
  0
LWPOLYLINE
  5
18E
330
18
100
AcDbEntity
  8
ADP1DETAIL
100
AcDbPolyline
 90
        5
 70
     0
 43
0.0
 10
-18.14615646089585
 20
6.322066244113543
 42
0.0679534734005344
 10
-18.20317283409819
 20
5.866141147834373
 42
0.3619444393510433
 10
-17.94089720313336
 20
6.01431681913032
 42
0.8213431615253401
 10
-17.7584445295667
 20
5.83194678061865
 42
0.2597914916607551
 10
-17.64441160858754
 20
6.2536775096821
 42
0.7813487951478147
  0
LWPOLYLINE
  5
195
330
18
100
AcDbEntity
  8
ADP1DETAIL
100
AcDbPolyline
 90
        5
 70
     0
 43
0.0
 10
-18.02072016053153
 20
5.774956128578539
 42
0.3444991911142119
 10
-17.9294938237482
 20
5.478604785986645
 42
-0.073250771167138
 10
-17.73563794537087
 20
5.296234747474976
 42
0.19135142829851
 10
-17.72423456598572
 20
5.490002988419705
 42
-0.0744057492896135
 10
-17.78125111376254
 20
5.820548698227321
 42
1.419455005698312
  0
LWPOLYLINE
  5
19C
330
18
100
AcDbEntity
  8
ADP1DETAIL
100
AcDbPolyline
 90
        4
 70
     0
 43
0.0
 10
-17.90668723955237
 20
4.737726549548641
 42
0.6264358606658182
 10
-17.67862157216853
 20
4.612347043035354
 42
0.5169218900114681
 10
-17.67862157216853
 20
4.737726549548641
 42
-0.0163538652502019
 10
-17.73563794537087
 20
5.284836665083647
 42
0.7650486095327956
  0
LWPOLYLINE
  5
1A2
330
18
100
AcDbEntity
  8
ADP1DETAIL
100
AcDbPolyline
 90
        5
 70
     0
 43
0.0
 10
-18.02072016053153
 20
4.52116202377952
 10
-17.98651037152502
 20
4.236208883620689
 10
-17.79265431857321
 20
3.962653825853186
 42
0.9069072653405035
 10
-17.71283136117504
 20
4.008246275460237
 42
0.0913991936575484
 10
-17.73563794537087
 20
4.578152675819634
 42
0.7992014336810874
  0
LWPOLYLINE
  5
1A9
330
18
100
AcDbEntity
  8
ADP1DETAIL
100
AcDbPolyline
 90
        3
 70
     0
 43
0.0
 10
-17.9294938237482
 20
3.43833987510084
 42
0.7236998139994197
 10
-17.70142815636436
 20
3.381349223060729
 42
0.0327536525288205
 10
-17.78125111376254
 20
3.962653825853186
 42
0.8160054918708336
  0
CIRCLE
  5
1AE
330
18
100
AcDbEntity
  8
ADP1DETAIL
100
AcDbCircle
 10
-17.94136544324037
 20
7.478064855412588
 30
0.0
 40
0.2584195171500414
  0
LWPOLYLINE
  5
1AF
330
18
100
AcDbEntity
  8
ADP1DETAIL
100
AcDbPolyline
 90
        7
 70
     0
 43
0.0
 10
-17.55318527180422
 20
6.618417586705437
 42
-0.0949714530373508
 10
-17.61020181958103
 20
6.287871876897822
 42
-0.6919532860783956
 10
-17.71283136117504
 20
6.287871876897822
 42
-0.3234279108919973
 10
-17.88388065535654
 20
6.618417586705437
 42
-0.0662384024546355
 10
-18.10054329250418
 20
6.344862528937934
 42
-0.6805536989534499
 10
-18.22597941829402
 20
6.401853180978047
 42
-0.0586477781593603
 10
-18.20317283409819
 20
6.823583910041497
 42
-7.820252795711771
  0
LINE
  5
1B8
330
18
100
AcDbEntity
  8
ADP1DETAIL
100
AcDbLine
 10
-17.64441160858754
 20
6.994555866161835
 30
0.0
 11
-17.80405769795837
 21
7.222518354280555
 31
0.0
  0
LWPOLYLINE
  5
1B9
330
18
100
AcDbEntity
  8
ADP1DETAIL
100
AcDbPolyline
 90
        5
 70
     0
 43
0.0
 10
-18.13475308151069
 20
5.273438462650585
 10
-18.20317283409819
 20
4.94289275284297
 42
0.4443459892788734
 10
-18.12334987670001
 20
4.600948960644025
 42
0.342762314622009
 10
-17.94089720313336
 20
4.783318999155692
 42
-0.0173942040301917
 10
-17.88388065535654
 20
5.1366609937877
 42
1.216542376501735
  0
LWPOLYLINE
  5
1C0
330
18
100
AcDbEntity
  8
ADP1DETAIL
100
AcDbPolyline
 90
        5
 70
     0
 43
0.0
 10
-18.13475308151069
 20
3.255969836589173
 10
-18.23738279767917
 20
2.777248455485611
 42
1.000000000000006
 10
-18.13475308151069
 20
2.720257803445498
 42
0.2557224326743631
 10
-17.98651037152502
 20
2.914026044390228
 42
0.0449817486429522
 10
-17.97510699213987
 20
3.096396082901895
 42
2.742568165056145
  0
LWPOLYLINE
  5
1C7
330
18
100
AcDbEntity
  8
ADP1DETAIL
100
AcDbPolyline
 90
        4
 70
     0
 43
0.0
 10
-17.97510699213987
 20
2.879831677174506
 42
0.1623013990490169
 10
-17.83826748696488
 20
2.686063436229776
 42
0.6114486523723071
 10
-17.74704115018155
 20
2.731656005878559
 42
0.0675595082920552
 10
-17.79265431857321
 20
3.312960488629286
 42
0.8066586536995137
  0
LWPOLYLINE
  5
1CD
330
18
100
AcDbEntity
  8
ADP1DETAIL
100
AcDbPolyline
 90
        5
 70
     0
 43
0.0
 10
-18.13475308151069
 20
2.708859721054167
 10
-18.1917696292875
 20
2.378314011246553
 10
-18.20317283409819
 20
2.127555238303441
 42
0.6177552526386757
 10
-18.08913991311903
 20
2.150351403086101
 42
0.3107054142860094
 10
-17.96370378732919
 20
2.686063436229776
 42
2.395599932408693
  0
LWPOLYLINE
  5
1D4
330
18
100
AcDbEntity
  8
ADP1DETAIL
100
AcDbPolyline
 90
        3
 70
     0
 43
0.0
 10
-18.00931695572085
 20
2.218740257559275
 42
0.4687991483750919
 10
-17.79265431857321
 20
2.09336087108772
 42
0.0083223216584232
 10
-17.81546090276904
 20
2.663267271447116
 42
0.9449045610769307
  0
LWPOLYLINE
  5
1D9
330
18
100
AcDbEntity
  8
ADP1DETAIL
100
AcDbPolyline
 90
        5
 70
     0
 43
0.0
 10
-18.13475308151069
 20
2.10475895347905
 42
0.1152681609424283
 10
-18.16896304509167
 20
1.660231939591209
 42
0.631659497976049
 10
-18.05493012411251
 20
1.626037572375488
 42
0.1366161974804414
 10
-17.9979135763357
 20
1.740018876455714
 42
0.1754394855510162
 10
-18.05493012411251
 20
2.10475895347905
 42
0.5915634486671087
  0
LWPOLYLINE
  5
1E0
330
18
100
AcDbEntity
  8
ADP1DETAIL
100
AcDbPolyline
 90
        3
 70
     0
 43
0.0
 10
-17.90668723955237
 20
1.67163002198254
 42
-1.424482287840024
 10
-17.87247745054586
 20
1.694426306806931
 42
0.1261738666928187
 10
-17.81546090276904
 20
2.081962668654659
 42
-0.0525199986491303
  0
LWPOLYLINE
  5
1E5
330
18
100
AcDbEntity
  8
ADP1DETAIL
100
AcDbPolyline
 90
        5
 70
     0
 43
0.0
 10
-18.13475308151069
 20
3.951255623420124
 10
-18.23738279767917
 20
3.40414550788512
 42
0.6141147990149102
 10
-18.13475308151069
 20
3.267368039022233
 42
0.1693711346192225
 10
-17.87247745054586
 20
3.609311831221178
 42
0.2971519840071102
 10
-17.88388065535654
 20
3.803079952124178
 42
2.18435311789276
  0
LWPOLYLINE
  5
1EC
330
18
100
AcDbEntity
  8
ADP1DETAIL
100
AcDbPolyline
 90
        4
 70
     0
 43
0.0
 10
-18.13475308151069
 20
4.578152675819634
 42
0.1226618690255677
 10
-18.1917696292875
 20
3.962653825853186
 42
1.013431110615172
 10
-18.12334987670001
 20
3.974051908244515
 42
0.2586163196738298
 10
-17.98651037152502
 20
4.236208883620689
 42
79.7721439988492
  0
LWPOLYLINE
  5
1F2
330
18
100
AcDbEntity
  8
ADP1DETAIL
100
AcDbPolyline
 90
        4
 70
     0
 43
0.0
 10
-18.14615646089585
 20
5.854743065443042
 10
-18.1917696292875
 20
5.59258609006687
 42
0.0828000385088505
 10
-18.18036624990235
 20
5.273438462650585
 42
0.4549649941451161
 10
-17.94089720313336
 20
5.478604785986645
 42
1.008479206456131
  0
LWPOLYLINE
  5
1F8
330
18
100
AcDbEntity
  8
ADP1DETAIL
100
AcDbPolyline
 90
        2
 70
     0
 43
0.0
 10
-17.94089720313336
 20
6.02571502156338
 42
-0.2466557094692578
 10
-17.90668723955237
 20
6.333464446546605
 42
-0.2466557094692578
  0
LINE
  5
1FC
330
18
100
AcDbEntity
  8
ADP1DETAIL
100
AcDbLine
 10
-18.16896304509167
 20
7.325101575969449
 30
0.0
 11
-18.4312386760565
 21
7.142731537457782
 31
0.0
  0
ARC
  5
1FD
330
18
100
AcDbEntity
  8
ADP1DETAIL
100
AcDbCircle
 10
-17.79384132680276
 20
6.914768989318197
 30
0.0
 40
0.3058875623441514
100
AcDbArc
 50
137.8769980858926
 51
195.1197486047218
  0
LINE
  5
1FE
330
18
100
AcDbEntity
  8
ADP1DETAIL
100
AcDbLine
 10
-18.04352674472736
 20
7.701239735384117
 30
0.0
 11
-18.15755966570652
 21
7.895007976328846
 31
0.0
  0
LWPOLYLINE
  5
1FF
330
18
100
AcDbEntity
  8
ADP1DETAIL
100
AcDbPolyline
 90
       11
 70
     0
 43
0.0
 10
-12.55494525739518
 20
6.812185707608435
 42
0.2142241176069386
 10
-11.88215111090538
 20
7.11993513259166
 42
0.7208622831239939
 10
-11.71110181672388
 20
7.313703373536389
 42
-0.0805909650428766
 10
-11.64268206413638
 20
7.97479479315162
 42
0.2338094570717279
 10
-12.37249258382853
 20
8.898043068101291
 42
0.3552157078286442
 10
-14.96103962819372
 20
8.088775977190113
 42
-0.3709447336865117
 10
-15.05226596497705
 20
8.487710541470903
 42
-0.0962458547876247
 10
-14.64174744945208
 20
9.251385062733298
 42
-0.6979504798317303
 10
-14.19701914492059
 20
9.274181347557689
 42
0.4775783859147099
 10
-13.79790400878078
 20
9.616125139756634
 42
0.5648622479199795
 10
-14.50490794427708
 20
10.01505970403742
 42
3.80007092863319
  0
LWPOLYLINE
  5
20C
330
18
100
AcDbEntity
  8
ADP1DETAIL
100
AcDbPolyline
 90
        3
 70
     0
 43
0.0
 10
-15.28033163236089
 20
6.185288775250658
 42
-0.1291816623270916
 10
-14.55052111266875
 20
8.065979932449184
 42
-0.4511482646900638
 10
-12.74880113577251
 20
8.350933072608016
 42
0.3815749267741603
  0
LWPOLYLINE
  5
211
330
18
100
AcDbEntity
  8
ADP1DETAIL
100
AcDbPolyline
 90
       13
 70
     0
 43
0.0
 10
-13.19352961487847
 20
8.008989280409071
 42
0.1130485814617616
 10
-13.74088746100396
 20
8.043183647624793
 42
0.5106212110582084
 10
-13.90053355037478
 20
7.724036020208508
 42
0.1062752900341773
 10
-13.56983816682246
 20
7.325101575969449
 42
0.0344574213879825
 10
-13.59264475101829
 20
6.800787625217106
 42
0.6221843445474067
 10
-13.29615915647248
 20
6.664010156354219
 42
0.085369213753644
 10
-12.8856406409475
 20
6.846380194865888
 42
0.2991435487589256
 10
-12.2812662470452
 20
6.960361498946113
 42
0.2749735490538577
 10
-12.17863670545119
 20
7.33649965836078
 42
0.225631536080816
 10
-12.60055842578684
 20
7.55306406408817
 42
0.0949930176490022
 10
-12.48652550480769
 20
8.168563034096349
 42
0.6151069383890082
 10
-12.81722088836001
 20
8.305340502959234
 42
0.0272492943914587
 10
-13.20493281968915
 20
8.008989280409071
  0
LINE
  5
220
330
18
100
AcDbEntity
  8
ADP1DETAIL
100
AcDbLine
 10
-13.55843478743731
 20
7.701239735384117
 30
0.0
 11
-13.28475577708732
 21
7.632851000952674
 31
0.0
  0
LWPOLYLINE
  5
221
330
18
100
AcDbEntity
  8
ADP1DETAIL
100
AcDbPolyline
 90
        5
 70
     0
 43
0.0
 10
-12.84002747255584
 20
6.322066244113543
 42
-0.0679534734005344
 10
-12.7830110993535
 20
5.866141147834373
 42
-0.3619444393510433
 10
-13.04528673031833
 20
6.01431681913032
 42
-0.8213431615253401
 10
-13.22773940388498
 20
5.83194678061865
 42
-0.2597914916607551
 10
-13.34177232486414
 20
6.2536775096821
 42
-0.7813487951478147
  0
LWPOLYLINE
  5
228
330
18
100
AcDbEntity
  8
ADP1DETAIL
100
AcDbPolyline
 90
        7
 70
     0
 43
0.0
 10
-13.43299866164747
 20
6.618417586705437
 42
0.0949714530373508
 10
-13.37598211387065
 20
6.287871876897822
 42
0.6919532860783956
 10
-13.27335257227664
 20
6.287871876897822
 42
0.3234279108919973
 10
-13.10230327809514
 20
6.618417586705437
 42
0.0662384024546355
 10
-12.8856406409475
 20
6.344862528937934
 42
0.6805536989534499
 10
-12.76020451515767
 20
6.401853180978047
 42
0.0586477781593603
 10
-12.7830110993535
 20
6.823583910041497
 42
7.820252795711771
  0
LWPOLYLINE
  5
231
330
18
100
AcDbEntity
  8
ADP1DETAIL
100
AcDbPolyline
 90
       12
 70
     0
 43
0.0
 10
-15.28033163236089
 20
1.543971163082795
 42
0.1082535602157273
 10
-14.82420012301873
 20
2.512812007681249
 42
0.1590569819094511
 10
-14.75578037043123
 20
3.914781783776215
 42
0.0053898533928196
 10
-15.41717113753588
 20
4.71265067225433
 42
-0.1574706886142593
 10
-15.43997772173171
 20
5.282557072613727
 42
0.0000001402074874
 10
-14.76718357524191
 20
4.610067570607165
 42
-0.418805081594274
 10
-14.49350456489193
 20
4.564475000958383
 42
-0.1491297372925233
 10
-14.28824548170392
 20
3.937577948558875
 42
-0.576327206706486
 10
-14.01456647135394
 20
3.880587296518761
 42
-0.1093939779194478
 10
-14.16280918133961
 20
3.037125838391864
 42
-1.048549210588949
 10
-14.04877626036045
 20
2.945940819136028
 42
-0.065988022472315
 10
-14.27684210231877
 20
2.273451317129469
 42
1.609208013136599
  0
LWPOLYLINE
  5
23F
330
18
100
AcDbEntity
  8
ADP1DETAIL
100
AcDbPolyline
 90
       12
 70
     0
 43
0.0
 10
-15.70585230109079
 20
1.543971163082795
 42
-0.1082535602157273
 10
-16.16198381043295
 20
2.512812007681249
 42
-0.1590569819094511
 10
-16.23040356302045
 20
3.914781783776215
 42
-0.0053898533928196
 10
-15.5690127959158
 20
4.71265067225433
 42
0.1574706886142593
 10
-15.54620621171997
 20
5.282557072613727
 42
-0.0000001402074874
 10
-16.21900035820977
 20
4.610067570607165
 42
0.418805081594274
 10
-16.49267936855975
 20
4.564475000958383
 42
0.1491297372925233
 10
-16.69793845174776
 20
3.937577948558875
 42
0.576327206706486
 10
-16.97161746209774
 20
3.880587296518761
 42
0.1093939779194478
 10
-16.82337475211207
 20
3.037125838391864
 42
1.048549210588949
 10
-16.93740767309123
 20
2.945940819136028
 42
0.065988022472315
 10
-16.70934183113292
 20
2.273451317129469
 42
-1.609208013136599
  0
LINE
  5
24D
330
18
100
AcDbEntity
  8
ADP1DETAIL
100
AcDbLine
 10
-15.70585230109079
 20
4.55042495632459
 30
0.0
 11
-15.70585230109079
 21
1.532572960649734
 31
0.0
  0
ARC
  5
24E
330
18
100
AcDbEntity
  8
ADP1DETAIL
100
AcDbCircle
 10
-16.95512486214604
 20
2.407218406978367
 30
0.0
 40
0.6392589960039617
100
AcDbArc
 50
59.37949908746479
 51
80.18766870305848
  0
LINE
  5
24F
330
18
100
AcDbEntity
  8
ADP1DETAIL
100
AcDbLine
 10
-15.28033163236089
 20
4.55042495632459
 30
0.0
 11
-15.28033163236089
 21
1.532572960649734
 31
0.0
  0
ARC
  5
250
330
18
100
AcDbEntity
  8
ADP1DETAIL
100
AcDbCircle
 10
-14.03105907130564
 20
2.407218406978367
 30
0.0
 40
0.6392589960039617
100
AcDbArc
 50
99.81233129694153
 51
120.6205009125352
  0
LINE
  5
251
330
18
100
AcDbEntity
  8
ADP1DETAIL
100
AcDbLine
 10
-15.70585230109079
 20
6.183009182780738
 30
0.0
 11
-15.70585230109079
 21
5.12298327177373
 31
0.0
  0
LINE
  5
252
330
18
100
AcDbEntity
  8
ADP1DETAIL
100
AcDbLine
 10
-17.42774914601438
 20
7.701239735384117
 30
0.0
 11
-17.70142815636436
 21
7.632851000952674
 31
0.0
  0
LINE
  5
253
330
18
100
AcDbEntity
  8
ADP1DETAIL
100
AcDbLine
 10
-15.28033163236089
 20
6.183009182780738
 30
0.0
 11
-15.28033163236089
 21
5.12298327177373
 31
0.0
  0
LWPOLYLINE
  5
254
330
18
100
AcDbEntity
  8
ADP1DETAIL
100
AcDbPolyline
 90
        5
 70
     0
 43
0.0
 10
-12.85143085194099
 20
5.273438462650585
 10
-12.7830110993535
 20
4.94289275284297
 42
-0.4443459892788734
 10
-12.86283405675167
 20
4.600948960644025
 42
-0.342762314622009
 10
-13.04528673031833
 20
4.783318999155692
 42
0.0173942040301917
 10
-13.10230327809514
 20
5.1366609937877
 42
-1.216542376501735
  0
LWPOLYLINE
  5
25B
330
18
100
AcDbEntity
  8
ADP1DETAIL
100
AcDbPolyline
 90
        4
 70
     0
 43
0.0
 10
-13.07949669389931
 20
4.737726549548641
 42
-0.6264358606658182
 10
-13.30756236128315
 20
4.612347043035354
 42
-0.5169218900114681
 10
-13.30756236128315
 20
4.737726549548641
 42
0.0163538652502019
 10
-13.25054598808081
 20
5.284836665083647
 42
-0.7650486095327956
  0
LWPOLYLINE
  5
261
330
18
100
AcDbEntity
  8
ADP1DETAIL
100
AcDbPolyline
 90
        5
 70
     0
 43
0.0
 10
-12.85143085194099
 20
3.255969836589173
 10
-12.74880113577251
 20
2.777248455485611
 42
-1.000000000000006
 10
-12.85143085194099
 20
2.720257803445498
 42
-0.2557224326743631
 10
-12.99967356192666
 20
2.914026044390228
 42
-0.0449817486429522
 10
-13.01107694131182
 20
3.096396082901895
 42
-2.742568165056145
  0
LWPOLYLINE
  5
268
330
18
100
AcDbEntity
  8
ADP1DETAIL
100
AcDbPolyline
 90
        4
 70
     0
 43
0.0
 10
-13.01107694131182
 20
2.879831677174506
 42
-0.1623013990490169
 10
-13.14791644648681
 20
2.686063436229776
 42
-0.6114486523723071
 10
-13.23914278327014
 20
2.731656005878559
 42
-0.0675595082920552
 10
-13.19352961487847
 20
3.312960488629286
 42
-0.8066586536995137
  0
LWPOLYLINE
  5
26E
330
18
100
AcDbEntity
  8
ADP1DETAIL
100
AcDbPolyline
 90
        3
 70
     0
 43
0.0
 10
-12.97686697773083
 20
2.218740257559275
 42
-0.4687991483750919
 10
-13.19352961487847
 20
2.09336087108772
 42
-0.0083223216584232
 10
-13.17072303068264
 20
2.663267271447116
 42
-0.9449045610769307
  0
LWPOLYLINE
  5
273
330
18
100
AcDbEntity
  8
ADP1DETAIL
100
AcDbPolyline
 90
        5
 70
     0
 43
0.0
 10
-12.85143085194099
 20
2.708859721054167
 10
-12.79441430416418
 20
2.378314011246553
 10
-12.7830110993535
 20
2.127555238303441
 42
-0.6177552526386757
 10
-12.89704402033266
 20
2.150351403086101
 42
-0.3107054142860094
 10
-13.02248014612249
 20
2.686063436229776
 42
-2.395599932408693
  0
LWPOLYLINE
  5
27A
330
18
100
AcDbEntity
  8
ADP1DETAIL
100
AcDbPolyline
 90
        5
 70
     0
 43
0.0
 10
-12.85143085194099
 20
2.10475895347905
 42
-0.1152681609424283
 10
-12.81722088836001
 20
1.660231939591209
 42
-0.631659497976049
 10
-12.93125380933917
 20
1.626037572375488
 42
-0.1366161974804414
 10
-12.98827035711599
 20
1.740018876455714
 42
-0.1754394855510162
 10
-12.93125380933917
 20
2.10475895347905
 42
-0.5915634486671087
  0
LWPOLYLINE
  5
281
330
18
100
AcDbEntity
  8
ADP1DETAIL
100
AcDbPolyline
 90
        3
 70
     0
 43
0.0
 10
-13.07949669389931
 20
1.67163002198254
 42
1.424482287840024
 10
-13.11370648290582
 20
1.694426306806931
 42
-0.1261738666928187
 10
-13.17072303068264
 20
2.081962668654659
 42
0.0525199986491303
  0
LWPOLYLINE
  5
286
330
18
100
AcDbEntity
  8
ADP1DETAIL
100
AcDbPolyline
 90
        3
 70
     0
 43
0.0
 10
-13.05669010970348
 20
3.43833987510084
 42
-0.7236998139994197
 10
-13.28475577708732
 20
3.381349223060729
 42
-0.0327536525288205
 10
-13.20493281968915
 20
3.962653825853186
 42
-0.8160054918708336
  0
LWPOLYLINE
  5
28B
330
18
100
AcDbEntity
  8
ADP1DETAIL
100
AcDbPolyline
 90
        5
 70
     0
 43
0.0
 10
-12.85143085194099
 20
3.951255623420124
 10
-12.74880113577251
 20
3.40414550788512
 42
-0.6141147990149102
 10
-12.85143085194099
 20
3.267368039022233
 42
-0.1693711346192225
 10
-13.11370648290582
 20
3.609311831221178
 42
-0.2971519840071102
 10
-13.10230327809514
 20
3.803079952124178
 42
-2.18435311789276
  0
LWPOLYLINE
  5
292
330
18
100
AcDbEntity
  8
ADP1DETAIL
100
AcDbPolyline
 90
        4
 70
     0
 43
0.0
 10
-12.85143085194099
 20
4.578152675819634
 42
-0.1226618690255677
 10
-12.79441430416418
 20
3.962653825853186
 42
-1.013431110615172
 10
-12.86283405675167
 20
3.974051908244515
 42
-0.2586163196738298
 10
-12.99967356192666
 20
4.236208883620689
 42
-79.7721439988492
  0
LWPOLYLINE
  5
298
330
18
100
AcDbEntity
  8
ADP1DETAIL
100
AcDbPolyline
 90
        5
 70
     0
 43
0.0
 10
-12.96546377292015
 20
4.52116202377952
 10
-12.99967356192666
 20
4.236208883620689
 10
-13.19352961487847
 20
3.962653825853186
 42
-0.9069072653405035
 10
-13.27335257227664
 20
4.008246275460237
 42
-0.0913991936575484
 10
-13.25054598808081
 20
4.578152675819634
 42
-0.7992014336810874
  0
LWPOLYLINE
  5
29F
330
18
100
AcDbEntity
  8
ADP1DETAIL
100
AcDbPolyline
 90
        5
 70
     0
 43
0.0
 10
-12.96546377292015
 20
5.774956128578539
 42
-0.3444991911142119
 10
-13.05669010970348
 20
5.478604785986645
 42
0.073250771167138
 10
-13.25054598808081
 20
5.296234747474976
 42
-0.19135142829851
 10
-13.26194936746597
 20
5.490002988419705
 42
0.0744057492896135
 10
-13.20493281968915
 20
5.820548698227321
 42
-1.419455005698312
  0
LWPOLYLINE
  5
2A6
330
18
100
AcDbEntity
  8
ADP1DETAIL
100
AcDbPolyline
 90
        4
 70
     0
 43
0.0
 10
-12.84002747255584
 20
5.854743065443042
 10
-12.79441430416418
 20
5.59258609006687
 42
-0.0828000385088505
 10
-12.80581768354933
 20
5.273438462650585
 42
-0.4549649941451161
 10
-13.04528673031833
 20
5.478604785986645
 42
-1.008479206456131
  0
LWPOLYLINE
  5
2AC
330
18
100
AcDbEntity
  8
ADP1DETAIL
100
AcDbPolyline
 90
        2
 70
     0
 43
0.0
 10
-13.04528673031833
 20
6.02571502156338
 42
0.2466557094692578
 10
-13.07949669389931
 20
6.333464446546605
 42
0.2466557094692578
  0
LINE
  5
2B0
330
18
100
AcDbEntity
  8
ADP1DETAIL
100
AcDbLine
 10
-12.81722088836001
 20
7.325101575969449
 30
0.0
 11
-12.55494525739518
 21
7.142731537457782
 31
0.0
  0
LINE
  5
2B1
330
18
100
AcDbEntity
  8
ADP1DETAIL
100
AcDbLine
 10
-13.34177232486414
 20
6.994555866161835
 30
0.0
 11
-13.18212623549332
 21
7.222518354280555
 31
0.0
  0
ARC
  5
2B2
330
18
100
AcDbEntity
  8
ADP1DETAIL
100
AcDbCircle
 10
-13.19234260664893
 20
6.914768989318197
 30
0.0
 40
0.3058875623441514
100
AcDbArc
 50
344.8802513952781
 51
42.1230019141074
  0
LINE
  5
2B3
330
18
100
AcDbEntity
  8
ADP1DETAIL
100
AcDbLine
 10
-12.94265718872432
 20
7.701239735384117
 30
0.0
 11
-12.82862426774516
 21
7.895007976328846
 31
0.0
  0
CIRCLE
  5
2B4
330
18
100
AcDbEntity
  8
ADP1DETAIL
100
AcDbCircle
 10
-13.04481849021131
 20
7.478064855412588
 30
0.0
 40
0.2584195171500414
  0
LWPOLYLINE
  5
2B5
330
18
100
AcDbEntity
  8
ADP1DETAIL
100
AcDbPolyline
 90
       19
 70
     0
 43
0.0
 10
-14.26543889750809
 20
10.08116872595721
 42
0.1129626954310732
 10
-13.51282161904564
 20
11.5173328692679
 42
0.0393942449954154
 10
-13.58124137163314
 20
12.72553440441813
 42
-0.1115058212536517
 10
-13.55843478743731
 20
12.98769137979431
 42
-0.1360348845987886
 10
-13.36457890905997
 20
13.2840427223862
 42
0.6468517364301411
 10
-13.41019207745164
 20
13.43221839368214
 42
0.1260453396536692
 10
-13.94614671876644
 20
13.3638296592507
 42
0.2330245185970508
 10
-14.67595723845859
 20
13.77416218588109
 42
0.3721412477813776
 10
-15.28033163236089
 20
13.30683900721059
 42
1.098854950554986
 10
-14.74437699104608
 20
13.24984835517048
 42
-0.2121266973266716
 10
-14.10579280813727
 20
13.06747831665881
 42
0.2549384549106381
 10
-14.44789157107474
 20
12.86231199332275
 42
-0.2456613093290151
 10
-13.99175988715811
 20
11.82508229425112
 42
-0.0827791670730353
 10
-14.09438942875211
 20
11.39195348279634
 42
0.2678593851298529
 10
-14.71016720203957
 20
12.00745233276279
 42
0.5195054205088232
 10
-15.26892842755021
 20
11.54012915409229
 42
0.8334412394358736
 10
-14.8013935388229
 20
11.49453658444351
 42
-0.5091571266731991
 10
-14.40227840268308
 20
11.19818524185161
 42
-0.2483756817329801
 10
-14.67595723845859
 20
10.2977331316846
 42
2.402528545386757
  0
ARC
  5
2CA
330
18
100
AcDbEntity
  8
ADP1DETAIL
100
AcDbCircle
 10
-16.13860923940324
 20
11.56199290859037
 30
0.0
 40
2.051279610531654
100
AcDbArc
 50
340.2146293488133
 51
355.2450491705992
  0
ARC
  5
2CB
330
18
100
AcDbEntity
  8
ADP1DETAIL
100
AcDbCircle
 10
-14.84757469404844
 20
11.56199290859037
 30
0.0
 40
2.051279610531654
100
AcDbArc
 50
184.7549508294008
 51
199.7853706511867
  0
LWPOLYLINE
  5
2CC
330
18
100
AcDbEntity
  8
ADP1DETAIL
100
AcDbPolyline
 90
       19
 70
     0
 43
0.0
 10
-16.72074503594359
 20
10.08116872595721
 42
-0.1129626954310732
 10
-17.47336231440604
 20
11.5173328692679
 42
-0.0393942449954154
 10
-17.40494256181855
 20
12.72553440441813
 42
0.1115058212536517
 10
-17.42774914601438
 20
12.98769137979431
 42
0.1360348845987886
 10
-17.62160502439171
 20
13.2840427223862
 42
-0.6468517364301411
 10
-17.57599185600005
 20
13.43221839368214
 42
-0.1260453396536692
 10
-17.04003721468524
 20
13.3638296592507
 42
-0.2330245185970508
 10
-16.3102266949931
 20
13.77416218588109
 42
-0.3721412477813776
 10
-15.70585230109079
 20
13.30683900721059
 42
-1.098854950554986
 10
-16.2418069424056
 20
13.24984835517048
 42
0.2121266973266716
 10
-16.88039112531442
 20
13.06747831665881
 42
-0.2549384549106381
 10
-16.53829236237694
 20
12.86231199332275
 42
0.2456613093290151
 10
-16.99442404629357
 20
11.82508229425112
 42
0.0827791670730353
 10
-16.89179450469957
 20
11.39195348279634
 42
-0.2678593851298529
 10
-16.27601673141211
 20
12.00745233276279
 42
-0.5195054205088232
 10
-15.71725550590147
 20
11.54012915409229
 42
-0.8334412394358736
 10
-16.18479039462878
 20
11.49453658444351
 42
0.5091571266731991
 10
-16.5839055307686
 20
11.19818524185161
 42
0.2483756817329801
 10
-16.3102266949931
 20
10.2977331316846
 42
-2.402528545386757
  0
ARC
  5
2E1
330
18
100
AcDbEntity
  8
ADP1DETAIL
100
AcDbCircle
 10
-17.84709556597092
 20
13.5764229236717
 30
0.0
 40
1.092493518787413
100
AcDbArc
 50
322.2715488478622
 51
341.3496444168262
  0
ARC
  5
2E2
330
18
100
AcDbEntity
  8
ADP1DETAIL
100
AcDbCircle
 10
17.74227522436324
 20
11.77823839438813
 30
0.0
 40
34.81895509033591
100
AcDbArc
 50
177.3711772638664
 51
179.3227087388211
  0
ARC
  5
2E3
330
18
100
AcDbEntity
  8
ADP1DETAIL
100
AcDbCircle
 10
-16.40203431196504
 20
12.95797231730642
 30
0.0
 40
0.4903593654473968
100
AcDbArc
 50
49.28290587025737
 51
146.719391732224
  0
LWPOLYLINE
  5
2E4
330
18
100
AcDbEntity
  8
ADP1DETAIL
100
AcDbPolyline
 90
        5
 70
     0
 43
0.0
 10
-17.44483024778502
 20
14.18401746793395
 10
-17.45623362717017
 20
13.96745306220656
 42
0.5863868076299173
 10
-17.31939412199518
 20
13.83067559334368
 42
0.2129610001440392
 10
-17.23957099002253
 20
14.27520248718979
 42
0.1748672291603312
 10
-17.30799074261003
 20
14.37778570887868
 42
0.3293659186465469
  0
LWPOLYLINE
  5
2EB
330
18
100
AcDbEntity
  8
ADP1DETAIL
100
AcDbPolyline
 90
        3
 70
     0
 43
0.0
 10
-17.23957099002253
 20
14.27520248718979
 42
-1.424482287840024
 10
-17.20536120101602
 20
14.29799877201418
 42
0.1261738666928187
 10
-17.1483446532392
 20
14.68553513386191
 42
-0.0525199986491303
  0
ARC
  5
2F0
330
18
100
AcDbEntity
  8
ADP1DETAIL
100
AcDbCircle
 10
-16.13347562383178
 20
13.23413057726473
 30
0.0
 40
0.1084174031980439
100
AcDbArc
 50
61.7507909476584
 51
177.71661226367
  0
ARC
  5
2F1
330
18
100
AcDbEntity
  8
ADP1DETAIL
100
AcDbCircle
 10
-13.13908836748077
 20
13.5764229236717
 30
0.0
 40
1.092493518787413
100
AcDbArc
 50
198.6503555831738
 51
217.7284511521377
  0
ARC
  5
2F2
330
18
100
AcDbEntity
  8
ADP1DETAIL
100
AcDbCircle
 10
-48.72845915781493
 20
11.77823839438813
 30
0.0
 40
34.81895509033591
100
AcDbArc
 50
0.677291261178894
 51
2.628822736133571
  0
ARC
  5
2F3
330
18
100
AcDbEntity
  8
ADP1DETAIL
100
AcDbCircle
 10
-14.58414962148664
 20
12.95797231730642
 30
0.0
 40
0.4903593654473968
100
AcDbArc
 50
33.28060826777597
 51
130.7170941297426
  0
ARC
  5
2F4
330
18
100
AcDbEntity
  8
ADP1DETAIL
100
AcDbCircle
 10
-14.8527083096199
 20
13.23413057726473
 30
0.0
 40
0.1084174031980439
100
AcDbArc
 50
2.283387736329931
 51
118.2492090523415
  0
LWPOLYLINE
  5
2F5
330
18
100
AcDbEntity
  8
ADP1DETAIL
100
AcDbPolyline
 90
        5
 70
     0
 43
0.0
 10
-13.54135368566667
 20
14.18401746793395
 10
-13.52995030628151
 20
13.96745306220656
 42
-0.5863868076299173
 10
-13.6667898114565
 20
13.83067559334368
 42
-0.2129610001440392
 10
-13.74661294342915
 20
14.27520248718979
 42
-0.1748672291603312
 10
-13.67819319084166
 20
14.37778570887868
 42
-0.3293659186465469
  0
LWPOLYLINE
  5
2FC
330
18
100
AcDbEntity
  8
ADP1DETAIL
100
AcDbPolyline
 90
        3
 70
     0
 43
0.0
 10
-13.74661294342915
 20
14.27520248718979
 42
1.424482287840024
 10
-13.78082273243566
 20
14.29799877201418
 42
-0.1261738666928187
 10
-13.83783928021248
 20
14.68553513386191
 42
0.0525199986491303
  0
LINE
  5
301
330
18
100
AcDbEntity
  8
ADP1DETAIL
100
AcDbLine
 10
-15.67462291886667
 20
27.51435946946802
 30
0.0
 11
-15.4729218017289
 21
28.25023547066903
 31
0.0
  0
LWPOLYLINE
  5
302
330
18
100
AcDbEntity
  8
ADP1DETAIL
100
AcDbPolyline
 90
        5
 70
     0
 43
0.0
 10
-15.82589880112263
 20
26.81880547104966
 10
-15.82589880112263
 20
27.08089836700748
 42
-0.8676840332797034
 10
-15.8359838836211
 20
27.51435946946802
 42
-0.1925213915212687
 10
-16.05785516575582
 20
28.24015490890866
 42
-0.1244224854926559
 10
-15.49309196672584
 20
29.37925057154793
 42
2.172011894657578
  0
LWPOLYLINE
  5
309
330
18
100
AcDbEntity
  8
ADP1DETAIL
100
AcDbPolyline
 90
        5
 70
     0
 43
0.0
 10
-15.16028513232905
 20
26.81880547104966
 10
-15.16028513232905
 20
27.08089836700748
 42
0.8676840332797034
 10
-15.15020004983058
 20
27.51435946946802
 42
0.1925213915212687
 10
-14.92832876769586
 20
28.24015490890866
 42
0.1244224854926559
 10
-15.49309196672584
 20
29.37925057154793
 42
-2.172011894657578
  0
LINE
  5
310
330
18
100
AcDbEntity
  8
ADP1DETAIL
100
AcDbLine
 10
-15.31156101458502
 20
27.51435946946802
 30
0.0
 11
-15.51326213172278
 21
28.25023547066903
 31
0.0
  0
LWPOLYLINE
  5
311
330
18
100
AcDbEntity
  8
ADP1DETAIL
100
AcDbPolyline
 90
        6
 70
     0
 43
0.0
 10
-17.74039451770547
 20
19.26753763221462
 10
-17.08363401411077
 20
18.71206880548569
 42
-0.6699929851749391
 10
-17.03311401637512
 20
18.44275061238156
 42
0.2359730115601995
 10
-17.18467400958206
 20
18.40908573134026
 42
-0.604039766106861
 10
-17.30255424120137
 20
18.45958293072703
 42
-0.0476191803819107
 10
-17.65619440302799
 20
18.81306320425923
 42
0.4709873194445063
  0
LWPOLYLINE
  5
319
330
18
100
AcDbEntity
  8
ADP1DETAIL
100
AcDbPolyline
 90
       15
 70
     0
 43
0.0
 10
-17.79091451544112
 20
19.21704055500303
 10
-17.63935452223418
 20
19.13287859675014
 42
-0.9172122116907416
 10
-17.65619440302799
 20
18.91405748085759
 42
0.071099128267176
 10
-17.63935452223418
 20
18.71206880548569
 42
-0.1728401348521539
 10
-17.67303446149891
 20
18.42591817186091
 42
-0.6209317053102997
 10
-17.84143469085387
 20
18.42591817186091
 42
-0.8726603523827069
 10
-18.00983474253172
 20
18.37542097247414
 42
-0.0232339756107886
 10
-18.07719479873828
 20
18.54374488897992
 42
-0.1850280044059338
 10
-19.08759564183672
 20
19.28437007273527
 42
-0.3850909274310914
 10
-18.21191491115141
 20
21.16959779098976
 42
-0.3562419864768133
 10
-15.78695288771516
 20
20.46263736610054
 42
0.0334896940993065
 10
-16.00587311480577
 20
21.65773709998645
 42
0.3133238540931342
 10
-16.64579355992956
 20
21.77556381710546
 42
0.6775923897001607
 10
-16.62895367913575
 20
21.40525122522778
 42
-0.2655793280525648
 10
-16.74683373307796
 20
21.23692730872201
 42
-0.2239784946533712
  0
LWPOLYLINE
  5
32A
330
18
100
AcDbEntity
  8
ADP1DETAIL
100
AcDbPolyline
 90
        4
 70
     0
 43
0.0
 10
-16.9152337847558
 20
22.5936178851653
 42
-0.0660778327782589
 10
-18.44767519671293
 20
23.8728795773041
 42
-0.3458151633844506
 10
-18.11087491568012
 20
25.77493961390407
 42
-0.5333832167685656
 10
-16.66263361840048
 20
25.4046270220264
 42
-1.415163061056343
  0
LWPOLYLINE
  5
330
330
18
100
AcDbEntity
  8
ADP1DETAIL
100
AcDbPolyline
 90
        4
 70
     0
 43
0.0
 10
-16.44371339130987
 20
22.96393047704297
 10
-17.47095429287922
 20
23.53623174429255
 42
-0.3434106473481034
 10
-18.16139491341576
 20
24.78182867756523
 42
-0.408774097432867
 10
-17.40359423667266
 20
25.6066156973983
 42
38.74701830877073
  0
LWPOLYLINE
  5
336
330
18
100
AcDbEntity
  8
ADP1DETAIL
100
AcDbPolyline
 90
       12
 70
     0
 43
0.0
 10
-17.48779435135014
 20
25.43829178089252
 42
0.4536328429644588
 10
-17.75723457617639
 20
25.30363274542803
 42
0.1222623572758044
 10
-17.75723457617639
 20
24.74816379652393
 42
0.3548844316609981
 10
-17.53831434908578
 20
24.74816379652393
 42
0.2770913012785186
 10
-17.43727435361449
 20
24.44518084455368
 42
0.3311902419798977
 10
-16.89839390396199
 20
24.4788456034198
 42
0.0710679649590109
 10
-16.76367379154887
 20
24.63033707940493
 42
0.6177588057647295
 10
-16.59527356219391
 20
24.63033707940493
 42
0.2216581059489589
 10
-16.57843350372299
 20
25.23630310552062
 42
0.2655496297838662
 10
-16.78051367234268
 20
25.43829178089252
 42
0.433312224182961
 10
-16.94891390169764
 20
25.64028057843959
 42
0.4954879083983115
 10
-17.48779435135014
 20
25.43829178089252
 42
-0.8811191881947063
  0
LWPOLYLINE
  5
344
330
18
100
AcDbEntity
  8
ADP1DETAIL
100
AcDbPolyline
 90
        4
 70
     0
 43
0.0
 10
-17.7740746346473
 20
19.89033609885096
 42
-0.37986037378131
 10
-17.97615480326699
 20
19.20020811448238
 42
-0.2474039489959808
 10
-18.64975536533262
 20
19.14971091509561
 42
-0.1170513567962297
 10
-18.98655564636543
 20
19.40219678985428
 42
-4.775223063985276
  0
LWPOLYLINE
  5
34A
330
18
100
AcDbEntity
  8
ADP1DETAIL
100
AcDbPolyline
 90
        2
 70
     0
 43
0.0
 10
-17.52147429061487
 20
18.20709705596836
 10
-17.84143469085387
 20
18.37542097247414
  0
LWPOLYLINE
  5
34E
330
18
100
AcDbEntity
  8
ADP1DETAIL
100
AcDbPolyline
 90
        4
 70
     0
 43
0.0
 10
-18.73395530233299
 20
19.82300658111872
 42
0.3517592629283248
 10
-18.24559502809324
 20
19.67151510513359
 42
-0.4892580046991814
 10
-18.12771479647393
 20
19.94083329823773
 42
0.0367313720757717
 10
-17.92563462785424
 20
20.00816281596997
 42
-1.408865254731264
  0
LWPOLYLINE
  5
354
330
18
100
AcDbEntity
  8
ADP1DETAIL
100
AcDbPolyline
 90
        4
 70
     0
 43
0.0
 10
-18.36347508203545
 20
20.36164308950217
 42
-0.5738342675482309
 10
-18.44767519671293
 20
19.85667133998484
 42
-0.567974739108136
 10
-18.8518355339523
 20
20.17648673247575
 42
-0.2953867679899029
 10
-18.29611502582889
 20
21.10226827325753
 42
4.312257959628159
  0
LWPOLYLINE
  5
35A
330
18
100
AcDbEntity
  8
ADP1DETAIL
100
AcDbPolyline
 90
        3
 70
     0
 43
0.0
 10
-17.89195468858951
 20
20.00816281596997
 42
-0.4599798399248916
 10
-18.26243490888705
 20
20.42897260723441
 42
-0.1458046424605083
 10
-18.07719479873828
 20
20.83294995797821
 42
2.205739117465958
  0
LWPOLYLINE
  5
35F
330
18
100
AcDbEntity
  8
ADP1DETAIL
100
AcDbPolyline
 90
        4
 70
     0
 43
0.0
 10
-13.93623003628275
 20
21.28742450810877
 42
0.1897750617054883
 10
-13.73414986766307
 20
21.72506661771869
 42
0.7821935438729799
 10
-13.54890957983719
 20
21.99438493299801
 42
0.3097997013849785
 10
-14.22251014190281
 20
22.16270884950378
 42
5.558938178104686
  0
LWPOLYLINE
  5
365
330
18
100
AcDbEntity
  8
ADP1DETAIL
100
AcDbPolyline
 90
        4
 70
     0
 43
0.0
 10
-17.04995389716893
 20
21.28742450810877
 42
-0.1897750617054883
 10
-17.25203406578862
 20
21.72506661771869
 42
-0.7821935438729799
 10
-17.43727435361449
 20
21.99438493299801
 42
-0.3097997013849785
 10
-16.76367379154887
 20
22.16270884950378
 42
-5.558938178104686
  0
LWPOLYLINE
  5
36B
330
18
100
AcDbEntity
  8
ADP1DETAIL
100
AcDbPolyline
 90
       15
 70
     0
 43
0.0
 10
-13.19526941801057
 20
19.21704055500303
 10
-13.3468294112175
 20
19.13287859675014
 42
0.9172122116907416
 10
-13.32998953042369
 20
18.91405748085759
 42
-0.071099128267176
 10
-13.3468294112175
 20
18.71206880548569
 42
0.1728401348521539
 10
-13.31314947195277
 20
18.42591817186091
 42
0.6209317053102997
 10
-13.14474924259781
 20
18.42591817186091
 42
0.8726603523827069
 10
-12.97634919091996
 20
18.37542097247414
 42
0.0232339756107886
 10
-12.9089891347134
 20
18.54374488897992
 42
0.1850280044059338
 10
-11.89858829161496
 20
19.28437007273527
 42
0.3850909274310914
 10
-12.77426902230027
 20
21.16959779098976
 42
0.3562419864768133
 10
-15.19923104573652
 20
20.46263736610054
 42
-0.0334896940993065
 10
-14.98031081864591
 20
21.65773709998645
 42
-0.3133238540931342
 10
-14.34039037352213
 20
21.77556381710546
 42
-0.6775923897001607
 10
-14.35723025431594
 20
21.40525122522778
 42
0.2655793280525648
 10
-14.23935020037373
 20
21.23692730872201
 42
0.2239784946533712
  0
LWPOLYLINE
  5
37C
330
18
100
AcDbEntity
  8
ADP1DETAIL
100
AcDbPolyline
 90
        2
 70
     0
 43
0.0
 10
-13.46470964283682
 20
18.20709705596836
 10
-13.14474924259781
 20
18.37542097247414
  0
LWPOLYLINE
  5
380
330
18
100
AcDbEntity
  8
ADP1DETAIL
100
AcDbPolyline
 90
        6
 70
     0
 43
0.0
 10
-13.24578941574621
 20
19.26753763221462
 10
-13.90254991934092
 20
18.71206880548569
 42
0.6699929851749391
 10
-13.95306991707656
 20
18.44275061238156
 42
-0.2359730115601995
 10
-13.80150992386963
 20
18.40908573134026
 42
0.604039766106861
 10
-13.68362969225031
 20
18.45958293072703
 42
0.0476191803819107
 10
-13.32998953042369
 20
18.81306320425923
 42
-0.4709873194445063
  0
LWPOLYLINE
  5
388
330
18
100
AcDbEntity
  8
ADP1DETAIL
100
AcDbPolyline
 90
        5
 70
     0
 43
0.0
 10
-13.51854710147083
 20
17.87701092785783
 10
-13.45012734888334
 20
17.54646521805022
 42
-0.4443459892788734
 10
-13.52995030628151
 20
17.20452142585127
 42
-0.342762314622009
 10
-13.71240297984817
 20
17.38689146436294
 42
0.0173942040301917
 10
-13.76941952762498
 20
17.74023345899495
 42
-1.216542376501735
  0
LWPOLYLINE
  5
38F
330
18
100
AcDbEntity
  8
ADP1DETAIL
100
AcDbPolyline
 90
        5
 70
     0
 43
0.0
 10
-13.51854710147083
 20
16.55482808862737
 10
-13.41591738530235
 20
16.00771797309237
 42
-0.6141147990149102
 10
-13.51854710147083
 20
15.87094050422948
 42
-0.1693711346192225
 10
-13.78082273243566
 20
16.21288429642842
 42
-0.2971519840071102
 10
-13.76941952762498
 20
16.40665241733143
 42
-2.18435311789276
  0
LWPOLYLINE
  5
396
330
18
100
AcDbEntity
  8
ADP1DETAIL
100
AcDbPolyline
 90
        5
 70
     0
 43
0.0
 10
-13.63258002244999
 20
18.37852859378578
 42
-0.3444991911142119
 10
-13.72380635923332
 20
18.08217725119389
 42
0.073250771167138
 10
-13.91766223761065
 20
17.89980721268222
 42
-0.19135142829851
 10
-13.92906561699581
 20
18.09357545362695
 42
0.0744057492896135
 10
-13.87204906921899
 20
18.42412116343457
 42
-1.419455005698312
  0
LWPOLYLINE
  5
39D
330
18
100
AcDbEntity
  8
ADP1DETAIL
100
AcDbPolyline
 90
        4
 70
     0
 43
0.0
 10
-13.50714372208568
 20
18.45831553065029
 10
-13.46153055369402
 20
18.19615855527412
 42
-0.0828000385088505
 10
-13.47293393307917
 20
17.87701092785783
 42
-0.4549649941451161
 10
-13.71240297984817
 20
18.08217725119389
 42
-1.008479206456131
  0
LWPOLYLINE
  5
3A3
330
18
100
AcDbEntity
  8
ADP1DETAIL
100
AcDbPolyline
 90
        5
 70
     0
 43
0.0
 10
-17.35360391100169
 20
18.37852859378578
 42
0.3444991911142119
 10
-17.26237757421836
 20
18.08217725119389
 42
-0.073250771167138
 10
-17.06852169584103
 20
17.89980721268222
 42
0.19135142829851
 10
-17.05711831645588
 20
18.09357545362695
 42
-0.0744057492896135
 10
-17.11413486423269
 20
18.42412116343457
 42
1.419455005698312
  0
LWPOLYLINE
  5
3AA
330
18
100
AcDbEntity
  8
ADP1DETAIL
100
AcDbPolyline
 90
        4
 70
     0
 43
0.0
 10
-17.47904021136601
 20
18.45831553065029
 10
-17.52465337975767
 20
18.19615855527412
 42
0.0828000385088505
 10
-17.51325000037251
 20
17.87701092785783
 42
0.4549649941451161
 10
-17.27378095360352
 20
18.08217725119389
 42
1.008479206456131
  0
LINE
  5
3B0
330
18
100
AcDbEntity
  8
ADP1DETAIL
100
AcDbLine
 10
-15.47778645913247
 20
16.65788855489379
 30
0.0
 11
-15.8084818426848
 21
16.41852786434201
 31
0.0
  0
ARC
  5
3B1
330
18
100
AcDbEntity
  8
ADP1DETAIL
100
AcDbCircle
 10
-15.69634867751095
 20
18.59109954050826
 30
0.0
 40
1.393804721110135
100
AcDbArc
 50
250.9802825311256
 51
279.4967267711052
  0
LWPOLYLINE
  5
3B2
330
18
100
AcDbEntity
  8
ADP1DETAIL
100
AcDbPolyline
 90
        3
 70
     0
 43
0.0
 10
-17.26237757421836
 20
16.04191234030809
 42
0.7236998139994197
 10
-17.03431190683452
 20
15.98492168826798
 42
0.0327536525288205
 10
-17.11413486423269
 20
16.56622629106044
 42
0.8160054918708336
  0
LWPOLYLINE
  5
3B7
330
18
100
AcDbEntity
  8
ADP1DETAIL
100
AcDbPolyline
 90
        5
 70
     0
 43
0.0
 10
-17.46763683198085
 20
16.55482808862737
 10
-17.57026654814933
 20
16.00771797309237
 42
0.6141147990149102
 10
-17.46763683198085
 20
15.87094050422948
 42
0.1693711346192225
 10
-17.20536120101602
 20
16.21288429642842
 42
0.2971519840071102
 10
-17.2167644058267
 20
16.40665241733143
 42
2.18435311789276
  0
LWPOLYLINE
  5
3BE
330
18
100
AcDbEntity
  8
ADP1DETAIL
100
AcDbPolyline
 90
        4
 70
     0
 43
0.0
 10
-17.30799074261003
 20
15.48340414238175
 42
0.1623013990490169
 10
-17.17115123743504
 20
15.28963590143702
 42
0.6114486523723071
 10
-17.07992490065171
 20
15.33522847108581
 42
0.0675595082920552
 10
-17.12553806904337
 20
15.91653295383653
 42
0.8066586536995137
  0
LWPOLYLINE
  5
3C4
330
18
100
AcDbEntity
  8
ADP1DETAIL
100
AcDbPolyline
 90
        5
 70
     0
 43
0.0
 10
-17.46763683198085
 20
15.85954230179642
 10
-17.57026654814933
 20
15.38082092069286
 42
1.000000000000006
 10
-17.46763683198085
 20
15.32383026865274
 42
0.2557224326743631
 10
-17.31939412199518
 20
15.51759850959747
 42
0.0449817486429522
 10
-17.30799074261003
 20
15.69996854810914
 42
2.742568165056145
  0
LWPOLYLINE
  5
3CB
330
18
100
AcDbEntity
  8
ADP1DETAIL
100
AcDbPolyline
 90
        4
 70
     0
 43
0.0
 10
-17.23957099002253
 20
17.34129901475589
 42
0.6264358606658182
 10
-17.01150532263869
 20
17.2159195082426
 42
0.5169218900114681
 10
-17.01150532263869
 20
17.34129901475589
 42
-0.0163538652502019
 10
-17.06852169584103
 20
17.88840913029089
 42
0.7650486095327956
  0
LWPOLYLINE
  5
3D1
330
18
100
AcDbEntity
  8
ADP1DETAIL
100
AcDbPolyline
 90
        5
 70
     0
 43
0.0
 10
-17.46763683198085
 20
17.87701092785783
 10
-17.53605658456835
 20
17.54646521805022
 42
0.4443459892788734
 10
-17.45623362717017
 20
17.20452142585127
 42
0.342762314622009
 10
-17.27378095360352
 20
17.38689146436294
 42
-0.0173942040301917
 10
-17.2167644058267
 20
17.74023345899495
 42
1.216542376501735
  0
LWPOLYLINE
  5
3D8
330
18
100
AcDbEntity
  8
ADP1DETAIL
100
AcDbPolyline
 90
        5
 70
     0
 43
0.0
 10
-17.35360391100169
 20
17.12473448898677
 10
-17.31939412199518
 20
16.83978134882794
 10
-17.12553806904337
 20
16.56622629106044
 42
0.9069072653405035
 10
-17.0457151116452
 20
16.61181874066748
 42
0.0913991936575484
 10
-17.06852169584103
 20
17.18172514102688
 42
0.7992014336810874
  0
LWPOLYLINE
  5
3DF
330
18
100
AcDbEntity
  8
ADP1DETAIL
100
AcDbPolyline
 90
        4
 70
     0
 43
0.0
 10
-17.46763683198085
 20
17.18172514102688
 42
0.1226618690255677
 10
-17.52465337975767
 20
16.56622629106044
 42
1.013431110615172
 10
-17.45623362717017
 20
16.57762437345176
 42
0.2586163196738298
 10
-17.31939412199518
 20
16.83978134882794
 42
79.7721439988492
  0
LWPOLYLINE
  5
3E5
330
18
100
AcDbEntity
  8
ADP1DETAIL
100
AcDbPolyline
 90
        3
 70
     0
 43
0.0
 10
-13.72380635923332
 20
16.04191234030809
 42
-0.7236998139994197
 10
-13.95187202661716
 20
15.98492168826798
 42
-0.0327536525288205
 10
-13.87204906921899
 20
16.56622629106044
 42
-0.8160054918708336
  0
LWPOLYLINE
  5
3EA
330
18
100
AcDbEntity
  8
ADP1DETAIL
100
AcDbPolyline
 90
        4
 70
     0
 43
0.0
 10
-13.67819319084166
 20
15.48340414238175
 42
-0.1623013990490169
 10
-13.81503269601665
 20
15.28963590143702
 42
-0.6114486523723071
 10
-13.90625903279997
 20
15.33522847108581
 42
-0.0675595082920552
 10
-13.86064586440831
 20
15.91653295383653
 42
-0.8066586536995137
  0
LWPOLYLINE
  5
3F0
330
18
100
AcDbEntity
  8
ADP1DETAIL
100
AcDbPolyline
 90
        5
 70
     0
 43
0.0
 10
-13.51854710147083
 20
15.85954230179642
 10
-13.41591738530235
 20
15.38082092069286
 42
-1.000000000000006
 10
-13.51854710147083
 20
15.32383026865274
 42
-0.2557224326743631
 10
-13.6667898114565
 20
15.51759850959747
 42
-0.0449817486429522
 10
-13.67819319084166
 20
15.69996854810914
 42
-2.742568165056145
  0
ARC
  5
3F7
330
18
100
AcDbEntity
  8
ADP1DETAIL
100
AcDbCircle
 10
-15.28983525594073
 20
18.59109954050826
 30
0.0
 40
1.393804721110135
100
AcDbArc
 50
260.5032732288947
 51
289.0197174688743
  0
LINE
  5
3F8
330
18
100
AcDbEntity
  8
ADP1DETAIL
100
AcDbLine
 10
-15.50839747431921
 20
16.65788855489379
 30
0.0
 11
-15.17770209076688
 21
16.41852786434201
 31
0.0
  0
LWPOLYLINE
  5
3F9
330
18
100
AcDbEntity
  8
ADP1DETAIL
100
AcDbPolyline
 90
        4
 70
     0
 43
0.0
 10
-13.74661294342915
 20
17.34129901475589
 42
-0.6264358606658182
 10
-13.97467861081299
 20
17.2159195082426
 42
-0.5169218900114681
 10
-13.97467861081299
 20
17.34129901475589
 42
0.0163538652502019
 10
-13.91766223761065
 20
17.88840913029089
 42
-0.7650486095327956
  0
LWPOLYLINE
  5
3FF
330
18
100
AcDbEntity
  8
ADP1DETAIL
100
AcDbPolyline
 90
        5
 70
     0
 43
0.0
 10
-13.63258002244999
 20
17.12473448898677
 10
-13.6667898114565
 20
16.83978134882794
 10
-13.86064586440831
 20
16.56622629106044
 42
-0.9069072653405035
 10
-13.94046882180648
 20
16.61181874066748
 42
-0.0913991936575484
 10
-13.91766223761065
 20
17.18172514102688
 42
-0.7992014336810874
  0
LWPOLYLINE
  5
406
330
18
100
AcDbEntity
  8
ADP1DETAIL
100
AcDbPolyline
 90
        4
 70
     0
 43
0.0
 10
-13.51854710147083
 20
17.18172514102688
 42
-0.1226618690255677
 10
-13.46153055369402
 20
16.56622629106044
 42
-1.013431110615172
 10
-13.52995030628151
 20
16.57762437345176
 42
-0.2586163196738298
 10
-13.6667898114565
 20
16.83978134882794
 42
-79.7721439988492
  0
LWPOLYLINE
  5
40C
330
18
100
AcDbEntity
  8
ADP1DETAIL
100
AcDbPolyline
 90
        2
 70
     0
 43
0.0
 10
-15.70275277303768
 20
19.09921383788402
 42
0.3327539728745521
 10
-16.96575396016856
 20
20.7151232408592
 42
0.1332378802032646
  0
LWPOLYLINE
  5
410
330
18
100
AcDbEntity
  8
ADP1DETAIL
100
AcDbPolyline
 90
        3
 70
     0
 43
0.0
 10
-16.41003345204515
 20
18.67840404661958
 42
0.0990637385938627
 10
-16.42687351051606
 20
18.8298955226047
 42
-0.3633862047688506
 10
-15.85431294392173
 20
18.03877313946259
 42
-0.9317578414031631
  0
LWPOLYLINE
  5
415
330
18
100
AcDbEntity
  8
ADP1DETAIL
100
AcDbPolyline
 90
        2
 70
     0
 43
0.0
 10
-15.283431160414
 20
19.09921383788402
 42
-0.3327539728745521
 10
-14.02042997328313
 20
20.7151232408592
 42
-0.1332378802032646
  0
LWPOLYLINE
  5
419
330
18
100
AcDbEntity
  8
ADP1DETAIL
100
AcDbPolyline
 90
        3
 70
     0
 43
0.0
 10
-14.57615048140654
 20
18.67840404661958
 42
-0.0990637385938627
 10
-14.55931042293562
 20
18.8298955226047
 42
0.3633862047688506
 10
-15.13187098952996
 20
18.03877313946259
 42
0.9317578414031631
  0
LWPOLYLINE
  5
41E
330
18
100
AcDbEntity
  8
ADP1DETAIL
100
AcDbPolyline
 90
        4
 70
     0
 43
0.0
 10
-13.21210929880438
 20
19.89033609885096
 42
0.37986037378131
 10
-13.01002913018469
 20
19.20020811448238
 42
0.2474039489959808
 10
-12.33642856811907
 20
19.14971091509561
 42
0.1170513567962297
 10
-11.99962828708626
 20
19.40219678985428
 42
4.775223063985276
  0
LWPOLYLINE
  5
424
330
18
100
AcDbEntity
  8
ADP1DETAIL
100
AcDbPolyline
 90
        4
 70
     0
 43
0.0
 10
-12.25222863111869
 20
19.82300658111872
 42
-0.3517592629283248
 10
-12.74058890535844
 20
19.67151510513359
 42
0.4892580046991814
 10
-12.85846913697775
 20
19.94083329823773
 42
-0.0367313720757717
 10
-13.06054930559744
 20
20.00816281596997
 42
1.408865254731264
  0
LWPOLYLINE
  5
42A
330
18
100
AcDbEntity
  8
ADP1DETAIL
100
AcDbPolyline
 90
        4
 70
     0
 43
0.0
 10
-12.62270885141623
 20
20.36164308950217
 42
0.5738342675482309
 10
-12.53850873673876
 20
19.85667133998484
 42
0.567974739108136
 10
-12.13434839949938
 20
20.17648673247575
 42
0.2953867679899029
 10
-12.6900689076228
 20
21.10226827325753
 42
-4.312257959628159
  0
LWPOLYLINE
  5
430
330
18
100
AcDbEntity
  8
ADP1DETAIL
100
AcDbPolyline
 90
        3
 70
     0
 43
0.0
 10
-13.09422924486217
 20
20.00816281596997
 42
0.4599798399248916
 10
-12.72374902456463
 20
20.42897260723441
 42
0.1458046424605083
 10
-12.9089891347134
 20
20.83294995797821
 42
-2.205739117465958
  0
LWPOLYLINE
  5
435
330
18
100
AcDbEntity
  8
ADP1DETAIL
100
AcDbPolyline
 90
       12
 70
     0
 43
0.0
 10
-13.49838958210154
 20
25.43829178089252
 42
-0.4536328429644588
 10
-13.22894935727529
 20
25.30363274542803
 42
-0.1222623572758044
 10
-13.22894935727529
 20
24.74816379652393
 42
-0.3548844316609981
 10
-13.4478695843659
 20
24.74816379652393
 42
-0.2770913012785186
 10
-13.54890957983719
 20
24.44518084455368
 42
-0.3311902419798977
 10
-14.08779002948969
 20
24.4788456034198
 42
-0.0710679649590109
 10
-14.22251014190281
 20
24.63033707940493
 42
-0.6177588057647295
 10
-14.39091037125777
 20
24.63033707940493
 42
-0.2216581059489589
 10
-14.40775042972869
 20
25.23630310552062
 42
-0.2655496297838662
 10
-14.205670261109
 20
25.43829178089252
 42
-0.433312224182961
 10
-14.03727003175404
 20
25.64028057843959
 42
-0.4954879083983115
 10
-13.49838958210154
 20
25.43829178089252
 42
0.8811191881947063
  0
LWPOLYLINE
  5
443
330
18
100
AcDbEntity
  8
ADP1DETAIL
100
AcDbPolyline
 90
        4
 70
     0
 43
0.0
 10
-14.54247054214181
 20
22.96393047704297
 10
-13.51522964057246
 20
23.53623174429255
 42
0.3434106473481034
 10
-12.82478902003592
 20
24.78182867756523
 42
0.408774097432867
 10
-13.58258969677902
 20
25.6066156973983
 42
-38.74701830877073
  0
LWPOLYLINE
  5
449
330
18
100
AcDbEntity
  8
ADP1DETAIL
100
AcDbPolyline
 90
        4
 70
     0
 43
0.0
 10
-14.07095014869588
 20
22.5936178851653
 42
0.0660778327782589
 10
-12.53850873673876
 20
23.8728795773041
 42
0.3458151633844506
 10
-12.87530901777157
 20
25.77493961390407
 42
0.5333832167685656
 10
-14.32355031505121
 20
25.4046270220264
 42
1.415163061056343
  0
LWPOLYLINE
  5
44F
330
18
100
AcDbEntity
  8
ADP1DETAIL
100
AcDbPolyline
 90
        6
 70
     0
 43
0.0
 10
-15.24096561470627
 20
22.54064260406026
 10
-15.24096561470627
 20
24.2583603705514
 42
-0.3302092328783929
 10
-14.78713796793837
 20
24.77246547857724
 42
0.297220034866623
 10
-14.95858401519128
 20
25.18576570177587
 42
0.3092097768335884
 10
-15.14011496733211
 20
25.18576570177587
 42
-0.021906462829806
 10
-15.51326213172278
 20
24.95391436896975
 42
-3.203447867263645
  0
LWPOLYLINE
  5
457
330
18
100
AcDbEntity
  8
ADP1DETAIL
100
AcDbPolyline
 90
        6
 70
     0
 43
0.0
 10
-15.74521831874541
 20
22.54064260406026
 10
-15.74521831874541
 20
24.2583603705514
 42
0.3302092328783929
 10
-16.19904596551331
 20
24.77246547857724
 42
-0.297220034866623
 10
-16.0275999182604
 20
25.18576570177587
 42
-0.3092097768335884
 10
-15.84606896611958
 20
25.18576570177587
 42
0.021906462829806
 10
-15.4729218017289
 20
24.95391436896975
 42
3.203447867263645
  0
ARC
  5
45F
330
18
100
AcDbEntity
  8
ADP1DETAIL
100
AcDbCircle
 10
-15.2952671664333
 20
24.48636747733337
 30
0.0
 40
0.5177785324631236
100
AcDbArc
 50
111.0117540104426
 51
189.102780019006
  0
LWPOLYLINE
  5
460
330
18
100
AcDbEntity
  8
ADP1DETAIL
100
AcDbPolyline
 90
        5
 70
     0
 43
0.0
 10
-17.13415401184641
 20
22.1963736083699
 42
-1.000381407105223
 10
-16.86471378702016
 20
22.58351851859305
 42
-0.1285205028119974
 10
-16.19111322495454
 20
22.24687080775667
 42
-0.3124793122408001
 10
-16.44371339130987
 20
22.95383111047073
 42
-0.2782852421505737
 10
-15.500672604418
 20
22.09537920959637
 42
-1.34126437093435
  0
LWPOLYLINE
  5
467
330
18
100
AcDbEntity
  8
ADP1DETAIL
100
AcDbPolyline
 90
        5
 70
     0
 43
0.0
 10
-13.85202992160527
 20
22.1963736083699
 42
1.000381407105223
 10
-14.12147014643152
 20
22.58351851859305
 42
0.1285205028119974
 10
-14.79507070849714
 20
22.24687080775667
 42
0.3124793122408001
 10
-14.54247054214181
 20
22.95383111047073
 42
0.2782852421505737
 10
-15.48551132903368
 20
22.09537920959637
 42
1.34126437093435
  0
LINE
  5
46E
330
18
100
AcDbEntity
  8
ADP1DETAIL
100
AcDbLine
 10
-15.8359838836211
 20
27.50427902983707
 30
0.0
 11
-15.4729218017289
 21
27.50427902983707
 31
0.0
  0
LINE
  5
46F
330
18
100
AcDbEntity
  8
ADP1DETAIL
100
AcDbLine
 10
-15.82589880112263
 20
27.08089836700748
 30
0.0
 11
-15.4729218017289
 21
27.08089836700748
 31
0.0
  0
LWPOLYLINE
  5
470
330
18
100
AcDbEntity
  8
ADP1DETAIL
100
AcDbPolyline
 90
        7
 70
     0
 43
0.0
 10
-15.70487816636208
 20
25.09504125657961
 42
0.0847736954119152
 10
-15.92674944849679
 20
26.10309059336939
 42
0.3772829012554276
 10
-16.0275999182604
 20
26.153493035783
 42
-0.2608162731879742
 10
-16.24947120039512
 20
26.46598825202501
 42
0.0122963289132829
 10
-16.47134248252983
 20
26.59300058622245
 42
-0.3159396840393966
 10
-15.95700451838166
 20
26.84904703420135
 42
-0.1853627797018716
 10
-15.50317687161376
 20
26.59703470000391
 42
-2.142250517916157
  0
ARC
  5
479
330
18
100
AcDbEntity
  8
ADP1DETAIL
100
AcDbCircle
 10
-16.66205395748287
 20
25.36337522545128
 30
0.0
 40
1.245912430845762
100
AcDbArc
 50
33.59091224795429
 51
80.7255193972692
  0
CIRCLE
  5
47A
330
18
100
AcDbEntity
  8
ADP1DETAIL
100
AcDbCircle
 10
-17.13709780902388
 20
25.06290319024016
 30
0.0
 40
0.2247694794686785
  0
ARC
  5
47B
330
18
100
AcDbEntity
  8
ADP1DETAIL
100
AcDbCircle
 10
-2.117697298941212
 20
25.83474479358835
 30
0.0
 40
13.41726258610871
100
AcDbArc
 50
176.8897195652661
 51
181.1338543776545
  0
LWPOLYLINE
  5
47C
330
18
100
AcDbEntity
  8
ADP1DETAIL
100
AcDbPolyline
 90
        7
 70
     0
 43
0.0
 10
-15.2813057670896
 20
25.09504125657961
 42
-0.0847736954119152
 10
-15.05943448495489
 20
26.10309059336939
 42
-0.3772829012554276
 10
-14.95858401519128
 20
26.153493035783
 42
0.2608162731879742
 10
-14.73671273305657
 20
26.46598825202501
 42
-0.0122963289132829
 10
-14.51484145092185
 20
26.59300058622245
 42
0.3159396840393964
 10
-15.02917941507003
 20
26.84904703420135
 42
0.1853627797018716
 10
-15.48300706183792
 20
26.59703470000391
 42
2.142250517916157
  0
ARC
  5
485
330
18
100
AcDbEntity
  8
ADP1DETAIL
100
AcDbCircle
 10
-14.32412997596881
 20
25.36337522545128
 30
0.0
 40
1.245912430845763
100
AcDbArc
 50
99.27448060273087
 51
146.4090877520457
  0
CIRCLE
  5
486
330
18
100
AcDbEntity
  8
ADP1DETAIL
100
AcDbCircle
 10
-13.8490861244278
 20
25.06290319024016
 30
0.0
 40
0.2247694794686785
  0
LINE
  5
487
330
18
100
AcDbEntity
  8
ADP1DETAIL
100
AcDbLine
 10
-15.16028513232905
 20
27.08089836700748
 30
0.0
 11
-15.51326213172278
 21
27.08089836700748
 31
0.0
  0
LINE
  5
488
330
18
100
AcDbEntity
  8
ADP1DETAIL
100
AcDbLine
 10
-15.15020004983058
 20
27.50427902983707
 30
0.0
 11
-15.51326213172278
 21
27.50427902983707
 31
0.0
  0
ARC
  5
489
330
18
100
AcDbEntity
  8
ADP1DETAIL
100
AcDbCircle
 10
-7.265456554969663
 20
29.27386444582363
 30
0.0
 40
8.318418129640447
100
AcDbArc
 50
179.6784446408006
 51
187.3676462054267
  0
LWPOLYLINE
  5
48A
330
18
100
AcDbEntity
  8
ADP1DETAIL
100
AcDbPolyline
 90
        9
 70
     0
 43
0.0
 10
-16.05785516575582
 20
28.10910858305917
 42
-0.7387687535747089
 10
-16.08811041325123
 20
28.18975246649505
 42
0.0426922816042742
 10
-16.13853564813304
 20
28.66353569386766
 42
0.496238945347397
 10
-16.38057709526469
 20
28.78046746630474
 42
0.4388018789308892
 10
-16.51168281252371
 20
28.64942101832582
 42
-0.4997734266767563
 10
-16.81423457703565
 20
28.63934057869487
 42
-0.307271584707446
 10
-16.84448964692051
 20
29.01231879911085
 42
-0.3002544487044707
 10
-16.11836548313609
 20
29.23812368393806
 42
-0.1775854309070528
 10
-15.81581371862416
 20
28.9155480280651
 42
-1.511566410048738
  0
LWPOLYLINE
  5
495
330
18
100
AcDbEntity
  8
ADP1DETAIL
100
AcDbPolyline
 90
        9
 70
     0
 43
0.0
 10
-14.92832876769586
 20
28.10910858305917
 42
0.7387687535747089
 10
-14.89807352020045
 20
28.18975246649505
 42
-0.0426922816042742
 10
-14.84764828531864
 20
28.66353569386766
 42
-0.3897846832389409
 10
-14.60560683818699
 20
28.90546746630473
 42
-0.28276580918317
 10
-14.47450112092797
 20
28.64942101832582
 42
0.4997734266767563
 10
-14.17194935641603
 20
28.63934057869487
 42
0.307271584707446
 10
-14.14169428653117
 20
29.01231879911085
 42
0.3002544487044707
 10
-14.86781845031559
 20
29.23812368393806
 42
0.1775854309070528
 10
-15.17037021482752
 20
28.9155480280651
 42
1.511566410048738
  0
TEXT
  5
4AD
330
18
100
AcDbEntity
  8
ADPDIM
100
AcDbText
 10
-47.70243905030894
 20
-7.314659774577013
 30
0.0
 40
0.625
  1
J U L I U S  B L U M  &  C O . ,  I N C .      ( 8 0 0 )  5 2 6 - 6 2 9 3        W W W . J U L I U S B L U M . C O M        P A R T  N o .  5 1 7
 41
1.25
  7
ARIAL_WIDE
 72
     1
 11
-15.52890136272367
 21
-6.689659774577013
 31
0.0
100
AcDbText
 73
     3
  0
ENDSEC
  0
SECTION
  2
OBJECTS
  0
DICTIONARY
  5
C
330
0
100
AcDbDictionary
  3
ACAD_GROUP
350
D
  3
ACAD_LAYOUT
350
4A6
  3
ACAD_MLINESTYLE
350
E
  3
ACAD_PLOTSETTINGS
350
4A7
  3
ACAD_PLOTSTYLENAME
350
4A4
  3
ACDBHEADERROUNDTRIPXREC
350
5F5
  3
ACDBVARIABLEDICTIONARY
350
507
  0
DICTIONARY
  5
501
330
18
100
AcDbDictionary
280
     1
  3
ACAD_LAYOUTSELFREF
360
616
  0
DICTIONARY
  5
4FF
330
15
100
AcDbDictionary
280
     1
  3
ACAD_LAYOUTSELFREF
360
615
  0
DICTIONARY
  5
D
102
{ACAD_REACTORS
330
C
102
}
330
C
100
AcDbDictionary
  0
DICTIONARY
  5
4A6
102
{ACAD_REACTORS
330
C
102
}
330
C
100
AcDbDictionary
  0
DICTIONARY
  5
E
102
{ACAD_REACTORS
330
C
102
}
330
C
100
AcDbDictionary
  3
STANDARD
350
1B
  0
DICTIONARY
  5
4A7
102
{ACAD_REACTORS
330
C
102
}
330
C
100
AcDbDictionary
  0
ACDBDICTIONARYWDFLT
  5
4A4
102
{ACAD_REACTORS
330
C
102
}
330
C
100
AcDbDictionary
281
     1
  3
Normal
350
4A5
100
AcDbDictionaryWithDefault
340
4A5
  0
DICTIONARY
  5
5F5
102
{ACAD_REACTORS
330
C
102
}
330
C
100
AcDbDictionary
  3
CEPSNTYPE
350
5FF
  3
FINGERPRINTGUID
350
600
  3
HYPERLINKBASE
350
5F8
  3
INSUNITS
350
5FE
  3
LAYOUTDICT
350
5FA
  3
LWETCUNION
350
5FD
  3
PLOTSETDICT
350
5FB
  3
PLOTSTYLNAMDICT
350
5FC
  3
PSVPSCALE
350
602
  3
PUCSBASE
350
605
  3
PUCSORGBACK
350
60B
  3
PUCSORGBOTTOM
350
607
  3
PUCSORGFRONT
350
60A
  3
PUCSORGLEFT
350
608
  3
PUCSORGRIGHT
350
609
  3
PUCSORGTOP
350
606
  3
PUCSORTHOREF
350
603
  3
PUCSORTHOVIEW
350
604
  3
STYLESHEET
350
5F9
  3
TSTACKALIGN
350
5F6
  3
TSTACKSIZE
350
5F7
  3
UCSBASE
350
60E
  3
UCSORGBACK
350
614
  3
UCSORGBOTTOM
350
610
  3
UCSORGFRONT
350
613
  3
UCSORGLEFT
350
611
  3
UCSORGRIGHT
350
612
  3
UCSORGTOP
350
60F
  3
UCSORTHOREF
350
60C
  3
UCSORTHOVIEW
350
60D
  3
VERSIONGUID
350
601
  0
DICTIONARY
  5
507
102
{ACAD_REACTORS
330
C
102
}
330
C
100
AcDbDictionary
  3
DIMASSOC
350
508
  0
XRECORD
  5
616
102
{ACAD_REACTORS
330
501
102
}
330
501
100
AcDbXrecord
340
18
  0
XRECORD
  5
615
102
{ACAD_REACTORS
330
4FF
102
}
330
4FF
100
AcDbXrecord
340
15
  0
MLINESTYLE
  5
1B
102
{ACAD_REACTORS
330
E
102
}
330
E
100
AcDbMlineStyle
  2
STANDARD
 70
     0
  3

 62
     0
 51
90.0
 52
90.0
 71
     2
 49
0.5
 62
   256
  6
BYLAYER
 49
-0.5
 62
   256
  6
BYLAYER
  0
ACDBPLACEHOLDER
  5
4A5
102
{ACAD_REACTORS
330
4A4
102
}
330
4A4
100
AcDbPlaceHolder
280
     0
  0
XRECORD
  5
5FF
102
{ACAD_REACTORS
330
5F5
102
}
330
5F5
100
AcDbXrecord
 90
        0
  0
XRECORD
  5
600
102
{ACAD_REACTORS
330
5F5
102
}
330
5F5
100
AcDbXrecord
  1
{B3CC39D1-EF65-4D6B-8335-4831ED085B96}
  0
XRECORD
  5
5F8
102
{ACAD_REACTORS
330
5F5
102
}
330
5F5
100
AcDbXrecord
  1

  0
XRECORD
  5
5FE
102
{ACAD_REACTORS
330
5F5
102
}
330
5F5
100
AcDbXrecord
 90
        0
  0
XRECORD
  5
5FA
102
{ACAD_REACTORS
330
5F5
102
}
330
5F5
100
AcDbXrecord
340
4A6
  0
XRECORD
  5
5FD
102
{ACAD_REACTORS
330
5F5
102
}
330
5F5
100
AcDbXrecord
 90
    14877
  0
XRECORD
  5
5FB
102
{ACAD_REACTORS
330
5F5
102
}
330
5F5
100
AcDbXrecord
340
4A7
  0
XRECORD
  5
5FC
102
{ACAD_REACTORS
330
5F5
102
}
330
5F5
100
AcDbXrecord
340
4A4
  0
XRECORD
  5
602
102
{ACAD_REACTORS
330
5F5
102
}
330
5F5
100
AcDbXrecord
 40
0.0
  0
XRECORD
  5
605
102
{ACAD_REACTORS
330
5F5
102
}
330
5F5
100
AcDbXrecord
340
0
  0
XRECORD
  5
60B
102
{ACAD_REACTORS
330
5F5
102
}
330
5F5
100
AcDbXrecord
 10
0.0
 20
0.0
 30
0.0
  0
XRECORD
  5
607
102
{ACAD_REACTORS
330
5F5
102
}
330
5F5
100
AcDbXrecord
 10
0.0
 20
0.0
 30
0.0
  0
XRECORD
  5
60A
102
{ACAD_REACTORS
330
5F5
102
}
330
5F5
100
AcDbXrecord
 10
0.0
 20
0.0
 30
0.0
  0
XRECORD
  5
608
102
{ACAD_REACTORS
330
5F5
102
}
330
5F5
100
AcDbXrecord
 10
0.0
 20
0.0
 30
0.0
  0
XRECORD
  5
609
102
{ACAD_REACTORS
330
5F5
102
}
330
5F5
100
AcDbXrecord
 10
0.0
 20
0.0
 30
0.0
  0
XRECORD
  5
606
102
{ACAD_REACTORS
330
5F5
102
}
330
5F5
100
AcDbXrecord
 10
0.0
 20
0.0
 30
0.0
  0
XRECORD
  5
603
102
{ACAD_REACTORS
330
5F5
102
}
330
5F5
100
AcDbXrecord
340
0
  0
XRECORD
  5
604
102
{ACAD_REACTORS
330
5F5
102
}
330
5F5
100
AcDbXrecord
 70
     0
  0
XRECORD
  5
5F9
102
{ACAD_REACTORS
330
5F5
102
}
330
5F5
100
AcDbXrecord
  1

  0
XRECORD
  5
5F6
102
{ACAD_REACTORS
330
5F5
102
}
330
5F5
100
AcDbXrecord
 90
        1
  0
XRECORD
  5
5F7
102
{ACAD_REACTORS
330
5F5
102
}
330
5F5
100
AcDbXrecord
 90
       70
  0
XRECORD
  5
60E
102
{ACAD_REACTORS
330
5F5
102
}
330
5F5
100
AcDbXrecord
340
0
  0
XRECORD
  5
614
102
{ACAD_REACTORS
330
5F5
102
}
330
5F5
100
AcDbXrecord
 10
0.0
 20
0.0
 30
0.0
  0
XRECORD
  5
610
102
{ACAD_REACTORS
330
5F5
102
}
330
5F5
100
AcDbXrecord
 10
0.0
 20
0.0
 30
0.0
  0
XRECORD
  5
613
102
{ACAD_REACTORS
330
5F5
102
}
330
5F5
100
AcDbXrecord
 10
0.0
 20
0.0
 30
0.0
  0
XRECORD
  5
611
102
{ACAD_REACTORS
330
5F5
102
}
330
5F5
100
AcDbXrecord
 10
0.0
 20
0.0
 30
0.0
  0
XRECORD
  5
612
102
{ACAD_REACTORS
330
5F5
102
}
330
5F5
100
AcDbXrecord
 10
0.0
 20
0.0
 30
0.0
  0
XRECORD
  5
60F
102
{ACAD_REACTORS
330
5F5
102
}
330
5F5
100
AcDbXrecord
 10
0.0
 20
0.0
 30
0.0
  0
XRECORD
  5
60C
102
{ACAD_REACTORS
330
5F5
102
}
330
5F5
100
AcDbXrecord
340
0
  0
XRECORD
  5
60D
102
{ACAD_REACTORS
330
5F5
102
}
330
5F5
100
AcDbXrecord
 70
     0
  0
XRECORD
  5
601
102
{ACAD_REACTORS
330
5F5
102
}
330
5F5
100
AcDbXrecord
  1
{76C993B5-7F53-4B0D-B17B-B2F3B047CB2A}
  0
DICTIONARYVAR
  5
508
102
{ACAD_REACTORS
330
507
102
}
330
507
100
DictionaryVariables
280
     0
  1
1
  0
ENDSEC
  0
EOF
