  0
SECTION
  2
HEADER
  9
$ACADVER
  1
AC1014
  9
$ACADMAINTVER
 70
     9
  9
$DWGCODEPAGE
  3
ANSI_1252
  9
$INSBASE
 10
1.972960227348814
 20
7.583008039828955
 30
0.0
  9
$EXTMIN
 10
-0.4523250223039153
 20
5.853890529646474
 30
0.0
  9
$EXTMAX
 10
12.59913302680931
 20
8.303447851431595
 30
0.0
  9
$LIMMIN
 10
0.0
 20
0.0
  9
$LIMMAX
 10
36.0
 20
36.0
  9
$ORTHOMODE
 70
     1
  9
$REGENMODE
 70
     1
  9
$FILLMODE
 70
     1
  9
$QTEXTMODE
 70
     0
  9
$MIRRTEXT
 70
     1
  9
$DRAGMODE
 70
     0
  9
$LTSCALE
 40
1.0
  9
$OSMODE
 70
    37
  9
$ATTMODE
 70
     1
  9
$TEXTSIZE
 40
0.2
  9
$TRACEWID
 40
0.05
  9
$TEXTSTYLE
  7
STANDARD
  9
$CLAYER
  8
ADPDIM
  9
$CELTYPE
  6
BYLAYER
  9
$CECOLOR
 62
   256
  9
$CELTSCALE
 40
1.0
  9
$DELOBJ
 70
     1
  9
$DISPSILH
 70
     0
  9
$DIMSCALE
 40
1.0
  9
$DIMASZ
 40
0.125
  9
$DIMEXO
 40
0.0625
  9
$DIMDLI
 40
0.38
  9
$DIMRND
 40
0.0
  9
$DIMDLE
 40
0.0
  9
$DIMEXE
 40
0.18
  9
$DIMTP
 40
0.0
  9
$DIMTM
 40
0.0
  9
$DIMTXT
 40
0.125
  9
$DIMCEN
 40
0.1875
  9
$DIMTSZ
 40
0.125
  9
$DIMTOL
 70
     0
  9
$DIMLIM
 70
     0
  9
$DIMTIH
 70
     0
  9
$DIMTOH
 70
     0
  9
$DIMSE1
 70
     0
  9
$DIMSE2
 70
     0
  9
$DIMTAD
 70
     0
  9
$DIMZIN
 70
     3
  9
$DIMBLK
  1

  9
$DIMASO
 70
     1
  9
$DIMSHO
 70
     1
  9
$DIMPOST
  1

  9
$DIMAPOST
  1

  9
$DIMALT
 70
     0
  9
$DIMALTD
 70
     1
  9
$DIMALTF
 40
25.4
  9
$DIMLFAC
 40
1.0
  9
$DIMTOFL
 70
     0
  9
$DIMTVP
 40
0.0
  9
$DIMTIX
 70
     0
  9
$DIMSOXD
 70
     0
  9
$DIMSAH
 70
     0
  9
$DIMBLK1
  1

  9
$DIMBLK2
  1

  9
$DIMSTYLE
  2
STANDARD
  9
$DIMCLRD
 70
     0
  9
$DIMCLRE
 70
     0
  9
$DIMCLRT
 70
     0
  9
$DIMTFAC
 40
1.0
  9
$DIMGAP
 40
0.125
  9
$DIMJUST
 70
     0
  9
$DIMSD1
 70
     0
  9
$DIMSD2
 70
     0
  9
$DIMTOLJ
 70
     1
  9
$DIMTZIN
 70
     0
  9
$DIMALTZ
 70
     0
  9
$DIMALTTZ
 70
     0
  9
$DIMFIT
 70
     3
  9
$DIMUPT
 70
     0
  9
$DIMUNIT
 70
     2
  9
$DIMDEC
 70
     4
  9
$DIMTDEC
 70
     4
  9
$DIMALTU
 70
     2
  9
$DIMALTTD
 70
     2
  9
$DIMTXSTY
  7
STANDARD
  9
$DIMAUNIT
 70
     0
  9
$LUNITS
 70
     5
  9
$LUPREC
 70
     4
  9
$SKETCHINC
 40
0.1
  9
$FILLETRAD
 40
0.0
  9
$AUNITS
 70
     0
  9
$AUPREC
 70
     0
  9
$MENU
  1
acad
  9
$ELEVATION
 40
0.0
  9
$PELEVATION
 40
0.0
  9
$THICKNESS
 40
0.0
  9
$LIMCHECK
 70
     0
  9
$BLIPMODE
 70
     0
  9
$CHAMFERA
 40
0.0
  9
$CHAMFERB
 40
0.0
  9
$CHAMFERC
 40
0.0
  9
$CHAMFERD
 40
0.0
  9
$SKPOLY
 70
     0
  9
$TDCREATE
 40
2450295.679439236
  9
$TDUPDATE
 40
2452297.089612801
  9
$TDINDWG
 40
0.0683349884
  9
$TDUSRTIMER
 40
0.0683349884
  9
$USRTIMER
 70
     1
  9
$ANGBASE
 50
0.0
  9
$ANGDIR
 70
     0
  9
$PDMODE
 70
     0
  9
$PDSIZE
 40
0.0
  9
$PLINEWID
 40
0.0
  9
$COORDS
 70
     2
  9
$SPLFRAME
 70
     0
  9
$SPLINETYPE
 70
     6
  9
$SPLINESEGS
 70
     8
  9
$ATTDIA
 70
     0
  9
$ATTREQ
 70
     1
  9
$HANDLING
 70
 22529
  9
$HANDSEED
  5
2DE
  9
$SURFTAB1
 70
     6
  9
$SURFTAB2
 70
     6
  9
$SURFTYPE
 70
     6
  9
$SURFU
 70
     6
  9
$SURFV
 70
     6
  9
$UCSNAME
  2

  9
$UCSORG
 10
0.0
 20
0.0
 30
0.0
  9
$UCSXDIR
 10
1.0
 20
0.0
 30
0.0
  9
$UCSYDIR
 10
0.0
 20
1.0
 30
0.0
  9
$PUCSNAME
  2

  9
$PUCSORG
 10
0.0
 20
0.0
 30
0.0
  9
$PUCSXDIR
 10
1.0
 20
0.0
 30
0.0
  9
$PUCSYDIR
 10
0.0
 20
1.0
 30
0.0
  9
$USERI1
 70
     0
  9
$USERI2
 70
     0
  9
$USERI3
 70
     0
  9
$USERI4
 70
     0
  9
$USERI5
 70
     0
  9
$USERR1
 40
0.0
  9
$USERR2
 40
0.0
  9
$USERR3
 40
0.0
  9
$USERR4
 40
0.0
  9
$USERR5
 40
0.0
  9
$WORLDVIEW
 70
     1
  9
$SHADEDGE
 70
     3
  9
$SHADEDIF
 70
    70
  9
$TILEMODE
 70
     1
  9
$MAXACTVP
 70
    15
  9
$PINSBASE
 10
0.0004882947541773
 20
0.7501380653138911
 30
0.0
  9
$PLIMCHECK
 70
     0
  9
$PEXTMIN
 10
1.000000000000000E+20
 20
1.000000000000000E+20
 30
1.000000000000000E+20
  9
$PEXTMAX
 10
-1.000000000000000E+20
 20
-1.000000000000000E+20
 30
-1.000000000000000E+20
  9
$PLIMMIN
 10
0.0
 20
0.0
  9
$PLIMMAX
 10
12.0
 20
9.0
  9
$UNITMODE
 70
     0
  9
$VISRETAIN
 70
     0
  9
$PLINEGEN
 70
     0
  9
$PSLTSCALE
 70
     1
  9
$TREEDEPTH
 70
  3020
  9
$PICKSTYLE
 70
     1
  9
$CMLSTYLE
  2
STANDARD
  9
$CMLJUST
 70
     0
  9
$CMLSCALE
 40
1.0
  9
$PROXYGRAPHICS
 70
     1
  9
$MEASUREMENT
 70
     0
  0
ENDSEC
  0
SECTION
  2
CLASSES
  0
CLASS
  1
ACDBDICTIONARYWDFLT
  2
AcDbDictionaryWithDefault
  3
AutoCAD 2000
 90
        0
280
     0
281
     0
  0
CLASS
  1
ACDBPLACEHOLDER
  2
AcDbPlaceHolder
  3
AutoCAD 2000
 90
        0
280
     0
281
     0
  0
CLASS
  1
LAYOUT
  2
AcDbLayout
  3
AutoCAD 2000
 90
        0
280
     0
281
     0
  0
CLASS
  1
DICTIONARYVAR
  2
AcDbDictionaryVar
  3
AutoCAD 2000
 90
        0
280
     0
281
     0
  0
CLASS
  1
LONG_TRANSACTION
  2
AcDbLongTransaction
  3
AutoCAD 2000
 90
        0
280
     0
281
     0
  0
CLASS
  1
LWPOLYLINE
  2
AcDbPolyline
  3
AutoCAD 2000
 90
        0
280
     0
281
     1
  0
CLASS
  1
HATCH
  2
AcDbHatch
  3
AutoCAD 2000
 90
        0
280
     0
281
     1
  0
CLASS
  1
XRECORD
  2
AcDbXrecord
  3
AutoCAD 2000
 90
        0
280
     0
281
     0
  0
CLASS
  1
LONG_TRANSACTION
  2
AcDbLongTransaction
  3
AutoCAD 2000
 90
        0
280
     0
281
     0
  0
CLASS
  1
LWPOLYLINE
  2
AcDbPolyline
  3
AutoCAD 2000
 90
        0
280
     0
281
     1
  0
CLASS
  1
HATCH
  2
AcDbHatch
  3
AutoCAD 2000
 90
        0
280
     0
281
     1
  0
CLASS
  1
XRECORD
  2
AcDbXrecord
  3
AutoCAD 2000
 90
        0
280
     0
281
     0
  0
CLASS
  1
LONG_TRANSACTION
  2
AcDbLongTransaction
  3
AutoCAD 2000
 90
        0
280
     0
281
     0
  0
CLASS
  1
LWPOLYLINE
  2
AcDbPolyline
  3
AutoCAD 2000
 90
        0
280
     0
281
     1
  0
CLASS
  1
HATCH
  2
AcDbHatch
  3
AutoCAD 2000
 90
        0
280
     0
281
     1
  0
CLASS
  1
XRECORD
  2
AcDbXrecord
  3
AutoCAD 2000
 90
        0
280
     0
281
     0
  0
CLASS
  1
LONG_TRANSACTION
  2
AcDbLongTransaction
  3
AutoCAD 2000
 90
        0
280
     0
281
     0
  0
CLASS
  1
LWPOLYLINE
  2
AcDbPolyline
  3
AutoCAD 2000
 90
        0
280
     0
281
     1
  0
CLASS
  1
HATCH
  2
AcDbHatch
  3
AutoCAD 2000
 90
        0
280
     0
281
     1
  0
CLASS
  1
XRECORD
  2
AcDbXrecord
  3
AutoCAD 2000
 90
        0
280
     0
281
     0
  0
CLASS
  1
LONG_TRANSACTION
  2
AcDbLongTransaction
  3
AutoCAD 2000
 90
        0
280
     0
281
     0
  0
CLASS
  1
LWPOLYLINE
  2
AcDbPolyline
  3
AutoCAD 2000
 90
        0
280
     0
281
     1
  0
CLASS
  1
HATCH
  2
AcDbHatch
  3
AutoCAD 2000
 90
        0
280
     0
281
     1
  0
CLASS
  1
XRECORD
  2
AcDbXrecord
  3
AutoCAD 2000
 90
        0
280
     0
281
     0
  0
ENDSEC
  0
SECTION
  2
TABLES
  0
TABLE
  2
VPORT
  5
8
330
0
100
AcDbSymbolTable
 70
     2
  0
VPORT
  5
2BB
330
8
100
AcDbSymbolTableRecord
100
AcDbViewportTableRecord
  2
*ACTIVE
 70
     0
 10
0.0
 20
0.0
 11
1.0
 21
1.0
 12
6.083655281512685
 22
7.078216623838781
 13
0.0
 23
0.0
 14
0.5740882589684922
 24
0.5740882589684922
 15
0.5
 25
0.5
 16
0.0
 26
0.0
 36
1.0
 17
0.0
 27
0.0
 37
0.0
 40
8.365743455075785
 41
1.570528967254408
 42
50.0
 43
0.0
 44
0.0
 50
0.0
 51
0.0
 71
     0
 72
   100
 73
     1
 74
     0
 75
     0
 76
     0
 77
     0
 78
     0
  0
ENDTAB
  0
TABLE
  2
LTYPE
  5
5
330
0
100
AcDbSymbolTable
 70
     1
  0
LTYPE
  5
12
330
5
100
AcDbSymbolTableRecord
100
AcDbLinetypeTableRecord
  2
BYBLOCK
 70
     0
  3

 72
    65
 73
     0
 40
0.0
  0
LTYPE
  5
13
330
5
100
AcDbSymbolTableRecord
100
AcDbLinetypeTableRecord
  2
BYLAYER
 70
     0
  3

 72
    65
 73
     0
 40
0.0
  0
LTYPE
  5
14
330
5
100
AcDbSymbolTableRecord
100
AcDbLinetypeTableRecord
  2
CONTINUOUS
 70
     0
  3
Solid line
 72
    65
 73
     0
 40
0.0
  0
ENDTAB
  0
TABLE
  2
LAYER
  5
2
330
0
100
AcDbSymbolTable
 70
     4
  0
LAYER
  5
F
330
2
100
AcDbSymbolTableRecord
100
AcDbLayerTableRecord
  2
0
 70
     0
 62
     7
  6
CONTINUOUS
  0
LAYER
  5
2D
330
2
100
AcDbSymbolTableRecord
100
AcDbLayerTableRecord
  2
ADPDIM
 70
     0
 62
     3
  6
CONTINUOUS
  0
LAYER
  5
2E
330
2
100
AcDbSymbolTableRecord
100
AcDbLayerTableRecord
  2
ADP1DETAIL
 70
     0
 62
     7
  6
CONTINUOUS
  0
LAYER
  5
2F
330
2
100
AcDbSymbolTableRecord
100
AcDbLayerTableRecord
  2
DEFPOINTS
 70
     0
 62
     7
  6
CONTINUOUS
  0
ENDTAB
  0
TABLE
  2
STYLE
  5
3
330
0
100
AcDbSymbolTable
 70
     2
  0
STYLE
  5
10
330
3
100
AcDbSymbolTableRecord
100
AcDbTextStyleTableRecord
  2
STANDARD
 70
     0
 40
0.0
 41
1.0
 50
0.0
 71
     0
 42
0.2
  3
txt
  4

  0
STYLE
  5
177
330
3
100
AcDbSymbolTableRecord
100
AcDbTextStyleTableRecord
  2
ARIAL_WIDE
 70
     0
 40
0.0
 41
1.25
 50
0.0
 71
     0
 42
0.2
  3
ARIAL.TTF
  4

1001
ACAD
1000
Arial
1071
       34
  0
ENDTAB
  0
TABLE
  2
VIEW
  5
6
330
0
100
AcDbSymbolTable
 70
     0
  0
ENDTAB
  0
TABLE
  2
UCS
  5
7
330
0
100
AcDbSymbolTable
 70
     0
  0
ENDTAB
  0
TABLE
  2
APPID
  5
9
330
0
100
AcDbSymbolTable
 70
     1
  0
APPID
  5
11
330
9
100
AcDbSymbolTableRecord
100
AcDbRegAppTableRecord
  2
ACAD
 70
     0
  0
ENDTAB
  0
TABLE
  2
DIMSTYLE
  5
A
330
0
100
AcDbSymbolTable
 70
     1
  0
DIMSTYLE
105
16B
330
A
100
AcDbSymbolTableRecord
100
AcDbDimStyleTableRecord
  2
STANDARD
 70
     0
  3

  4

  5

  6

  7

 40
1.0
 41
0.18
 42
0.0625
 43
0.38
 44
0.18
 45
0.0
 46
0.0
 47
0.0
 48
0.0
140
0.18
141
0.09
142
0.0
143
25.4
144
1.0
145
0.0
146
1.0
147
0.09
 71
     0
 72
     0
 73
     1
 74
     1
 75
     0
 76
     0
 77
     0
 78
     0
170
     0
171
     2
172
     0
173
     0
174
     0
175
     0
176
     0
177
     0
178
     0
270
     2
271
     4
272
     4
273
     2
274
     2
340
10
275
     0
280
     0
281
     0
282
     0
283
     1
284
     0
285
     0
286
     0
287
     3
288
     0
  0
ENDTAB
  0
TABLE
  2
BLOCK_RECORD
  5
1
330
0
100
AcDbSymbolTable
 70
     3
  0
BLOCK_RECORD
  5
18
102
{ACAD_XDICTIONARY
360
1CC
102
}
330
1
100
AcDbSymbolTableRecord
100
AcDbBlockTableRecord
  2
*MODEL_SPACE
  0
BLOCK_RECORD
  5
15
102
{ACAD_XDICTIONARY
360
1CA
102
}
330
1
100
AcDbSymbolTableRecord
100
AcDbBlockTableRecord
  2
*PAPER_SPACE
  0
BLOCK_RECORD
  5
1C
330
1
100
AcDbSymbolTableRecord
100
AcDbBlockTableRecord
  2
*D0
  0
BLOCK_RECORD
  5
1D
330
1
100
AcDbSymbolTableRecord
100
AcDbBlockTableRecord
  2
*D1
  0
BLOCK_RECORD
  5
2B
330
1
100
AcDbSymbolTableRecord
100
AcDbBlockTableRecord
  2
*D2
  0
ENDTAB
  0
ENDSEC
  0
SECTION
  2
BLOCKS
  0
BLOCK
  5
32
330
18
100
AcDbEntity
  8
0
100
AcDbBlockBegin
  2
*MODEL_SPACE
 70
     0
 10
0.0
 20
0.0
 30
0.0
  3
*MODEL_SPACE
  1

  0
ENDBLK
  5
33
330
18
100
AcDbEntity
  8
0
100
AcDbBlockEnd
  0
BLOCK
  5
30
330
15
100
AcDbEntity
 67
     1
  8
0
100
AcDbBlockBegin
  2
*PAPER_SPACE
 70
     0
 10
0.0
 20
0.0
 30
0.0
  3
*PAPER_SPACE
  1

  0
ENDBLK
  5
31
330
15
100
AcDbEntity
 67
     1
  8
0
100
AcDbBlockEnd
  0
BLOCK
  5
34
330
1C
100
AcDbEntity
  8
0
100
AcDbBlockBegin
  2
*D0
 70
     1
 10
0.0
 20
0.0
 30
0.0
  3
*D0
  1

  0
LINE
  5
35
330
1C
100
AcDbEntity
  8
0
  6
BYBLOCK
 62
     0
100
AcDbLine
 10
4.95655497815488
 20
7.65809623027998
 30
0.0
 11
4.95655497815488
 21
8.303447851431595
 31
0.0
  0
LINE
  5
36
330
1C
100
AcDbEntity
  8
0
  6
BYBLOCK
 62
     0
100
AcDbLine
 10
1.963300969085923
 20
7.65809623027998
 30
0.0
 11
1.963300969085923
 21
8.303447851431595
 31
0.0
  0
LINE
  5
37
330
1C
100
AcDbEntity
  8
0
  6
BYBLOCK
 62
     0
100
AcDbLine
 10
4.95655497815488
 20
8.123447851431595
 30
0.0
 11
3.626594640287068
 21
8.123447851431595
 31
0.0
  0
LINE
  5
38
330
1C
100
AcDbEntity
  8
0
  6
BYBLOCK
 62
     0
100
AcDbLine
 10
1.963300969085923
 20
8.123447851431595
 30
0.0
 11
3.293261306953735
 21
8.123447851431595
 31
0.0
  0
LINE
  5
39
330
1C
100
AcDbEntity
  8
0
  6
BYBLOCK
 62
     0
100
AcDbLine
 10
4.83155497815488
 20
7.998447851431595
 30
0.0
 11
5.08155497815488
 21
8.248447851431595
 31
0.0
  0
LINE
  5
3A
330
1C
100
AcDbEntity
  8
0
  6
BYBLOCK
 62
     0
100
AcDbLine
 10
1.838300969085923
 20
7.998447851431595
 30
0.0
 11
2.088300969085923
 21
8.248447851431595
 31
0.0
  0
TEXT
  5
3B
330
1C
100
AcDbEntity
  8
0
  6
BYBLOCK
 62
     0
100
AcDbText
 10
3.418261306953735
 20
8.060947851431595
 30
0.0
 40
0.125
  1
3
 72
     1
 11
3.459927973620402
 21
8.123447851431595
 31
0.0
100
AcDbText
 73
     2
  0
POINT
  5
3C
330
1C
100
AcDbEntity
  8
DEFPOINTS
  6
BYBLOCK
 62
     0
100
AcDbPoint
 10
4.95655497815488
 20
7.59559623027998
 30
0.0
  0
POINT
  5
3D
330
1C
100
AcDbEntity
  8
DEFPOINTS
  6
BYBLOCK
 62
     0
100
AcDbPoint
 10
1.963300969085923
 20
7.59559623027998
 30
0.0
  0
POINT
  5
3E
330
1C
100
AcDbEntity
  8
DEFPOINTS
  6
BYBLOCK
 62
     0
100
AcDbPoint
 10
1.963300969085923
 20
8.123447851431595
 30
0.0
  0
ENDBLK
  5
3F
330
1C
100
AcDbEntity
  8
0
100
AcDbBlockEnd
  0
BLOCK
  5
40
330
1D
100
AcDbEntity
  8
0
100
AcDbBlockBegin
  2
*D1
 70
     1
 10
0.0
 20
0.0
 30
0.0
  3
*D1
  1

  0
LINE
  5
41
330
1D
100
AcDbEntity
  8
0
  6
BYBLOCK
 62
     0
100
AcDbLine
 10
3.522427973620404
 20
7.896008039828954
 30
0.0
 11
5.342308609832462
 21
7.896008039828954
 31
0.0
  0
LINE
  5
42
330
1D
100
AcDbEntity
  8
0
  6
BYBLOCK
 62
     0
100
AcDbLine
 10
4.950427973620402
 20
7.521008039828954
 30
0.0
 11
5.342308609832462
 21
7.521008039828954
 31
0.0
  0
LINE
  5
43
330
1D
100
AcDbEntity
  8
0
  6
BYBLOCK
 62
     0
100
AcDbLine
 10
5.162308609832463
 20
7.896008039828954
 30
0.0
 11
5.162308609832463
 21
8.146008039828954
 31
0.0
  0
LINE
  5
44
330
1D
100
AcDbEntity
  8
0
  6
BYBLOCK
 62
     0
100
AcDbLine
 10
5.162308609832463
 20
7.521008039828954
 30
0.0
 11
5.162308609832463
 21
7.271008039828954
 31
0.0
  0
LINE
  5
45
330
1D
100
AcDbEntity
  8
0
  6
BYBLOCK
 62
     0
100
AcDbLine
 10
5.287308609832463
 20
7.771008039828954
 30
0.0
 11
5.037308609832463
 21
8.021008039828954
 31
0.0
  0
LINE
  5
46
330
1D
100
AcDbEntity
  8
0
  6
BYBLOCK
 62
     0
100
AcDbLine
 10
5.287308609832463
 20
7.396008039828954
 30
0.0
 11
5.037308609832463
 21
7.646008039828954
 31
0.0
  0
TEXT
  5
47
330
1D
100
AcDbEntity
  8
0
  6
BYBLOCK
 62
     0
100
AcDbText
 10
5.224808609832462
 20
6.81267470649562
 30
0.0
 40
0.125
  1
3/8
 50
90.0
 72
     1
 11
5.162308609832462
 21
6.979341373162287
 31
0.0
100
AcDbText
 73
     2
  0
POINT
  5
48
330
1D
100
AcDbEntity
  8
DEFPOINTS
  6
BYBLOCK
 62
     0
100
AcDbPoint
 10
3.459927973620404
 20
7.896008039828954
 30
0.0
  0
POINT
  5
49
330
1D
100
AcDbEntity
  8
DEFPOINTS
  6
BYBLOCK
 62
     0
100
AcDbPoint
 10
4.887927973620402
 20
7.521008039828954
 30
0.0
  0
POINT
  5
4A
330
1D
100
AcDbEntity
  8
DEFPOINTS
  6
BYBLOCK
 62
     0
100
AcDbPoint
 10
5.162308609832463
 20
7.521008039828954
 30
0.0
  0
ENDBLK
  5
4B
330
1D
100
AcDbEntity
  8
0
100
AcDbBlockEnd
  0
BLOCK
  5
11F
330
2B
100
AcDbEntity
  8
0
100
AcDbBlockBegin
  2
*D2
 70
     1
 10
0.0
 20
0.0
 30
0.0
  3
*D2
  1

  0
LINE
  5
120
330
2B
100
AcDbEntity
  8
0
  6
BYBLOCK
 62
     0
100
AcDbLine
 10
9.800414104635104
 20
7.95944794870919
 30
0.0
 11
9.800414104635104
 21
8.238976903048992
 31
0.0
  0
LINE
  5
121
330
2B
100
AcDbEntity
  8
0
  6
BYBLOCK
 62
     0
100
AcDbLine
 10
5.800414104635102
 20
7.95944794870919
 30
0.0
 11
5.800414104635102
 21
8.238976903048992
 31
0.0
  0
LINE
  5
122
330
2B
100
AcDbEntity
  8
0
  6
BYBLOCK
 62
     0
100
AcDbLine
 10
9.800414104635104
 20
8.058976903048993
 30
0.0
 11
7.96708077130177
 21
8.058976903048993
 31
0.0
  0
LINE
  5
123
330
2B
100
AcDbEntity
  8
0
  6
BYBLOCK
 62
     0
100
AcDbLine
 10
5.800414104635102
 20
8.058976903048993
 30
0.0
 11
7.633747437968436
 21
8.058976903048993
 31
0.0
  0
LINE
  5
124
330
2B
100
AcDbEntity
  8
0
  6
BYBLOCK
 62
     0
100
AcDbLine
 10
9.675414104635104
 20
7.933976903048993
 30
0.0
 11
9.925414104635104
 21
8.183976903048993
 31
0.0
  0
LINE
  5
125
330
2B
100
AcDbEntity
  8
0
  6
BYBLOCK
 62
     0
100
AcDbLine
 10
5.675414104635102
 20
7.933976903048993
 30
0.0
 11
5.925414104635102
 21
8.183976903048993
 31
0.0
  0
TEXT
  5
126
330
2B
100
AcDbEntity
  8
0
  6
BYBLOCK
 62
     0
100
AcDbText
 10
7.758747437968436
 20
7.996476903048993
 30
0.0
 40
0.125
  1
4
 72
     1
 11
7.800414104635103
 21
8.058976903048993
 31
0.0
100
AcDbText
 73
     2
  0
POINT
  5
127
330
2B
100
AcDbEntity
  8
DEFPOINTS
  6
BYBLOCK
 62
     0
100
AcDbPoint
 10
9.800414104635104
 20
7.89694794870919
 30
0.0
  0
POINT
  5
128
330
2B
100
AcDbEntity
  8
DEFPOINTS
  6
BYBLOCK
 62
     0
100
AcDbPoint
 10
5.800414104635102
 20
7.89694794870919
 30
0.0
  0
POINT
  5
129
330
2B
100
AcDbEntity
  8
DEFPOINTS
  6
BYBLOCK
 62
     0
100
AcDbPoint
 10
5.800414104635102
 20
8.058976903048993
 30
0.0
  0
ENDBLK
  5
12A
330
2B
100
AcDbEntity
  8
0
100
AcDbBlockEnd
  0
ENDSEC
  0
SECTION
  2
ENTITIES
  0
DIMENSION
  5
12B
330
18
100
AcDbEntity
  8
ADPDIM
100
AcDbDimension
  2
*D1
 10
5.162308609832463
 20
7.521008039828954
 30
0.0
 11
5.162308609832462
 21
6.979341373162287
 31
0.0
100
AcDbAlignedDimension
 13
3.459927973620404
 23
7.896008039828954
 33
0.0
 14
4.887927973620402
 24
7.521008039828954
 34
0.0
 50
90.0
100
AcDbRotatedDimension
  0
ARC
  5
12C
330
18
100
AcDbEntity
  8
ADP1DETAIL
100
AcDbCircle
 10
3.459927973620401
 20
-2.478991960171045
 30
0.0
 40
10.375
100
AcDbArc
 50
82.0591578905047
 51
97.94084210949527
  0
DIMENSION
  5
12D
330
18
100
AcDbEntity
  8
ADPDIM
100
AcDbDimension
  2
*D0
 10
1.963300969085923
 20
8.123447851431595
 30
0.0
 11
3.459927973620402
 21
8.123447851431595
 31
0.0
100
AcDbAlignedDimension
 13
4.95655497815488
 23
7.59559623027998
 33
0.0
 14
1.963300969085923
 24
7.59559623027998
 34
0.0
100
AcDbRotatedDimension
  0
LINE
  5
12E
330
18
100
AcDbEntity
  8
ADP1DETAIL
100
AcDbLine
 10
1.972960227348814
 20
7.583008039828955
 30
0.0
 11
4.94689571989199
 21
7.583008039828955
 31
0.0
  0
LINE
  5
12F
330
18
100
AcDbEntity
  8
ADP1DETAIL
100
AcDbLine
 10
2.031927973620401
 20
7.521008039828954
 30
0.0
 11
4.887927973620402
 21
7.521008039828954
 31
0.0
  0
ARC
  5
130
330
18
100
AcDbEntity
  8
ADP1DETAIL
100
AcDbCircle
 10
2.240927973620402
 20
7.021008039828954
 30
0.0
 40
0.125
100
AcDbArc
 50
270.0
 51
0.0
  0
LINE
  5
131
330
18
100
AcDbEntity
  8
ADP1DETAIL
100
AcDbLine
 10
2.240927973620402
 20
6.945008039828954
 30
0.0
 11
2.195927973620402
 21
6.990008039828954
 31
0.0
  0
LINE
  5
132
330
18
100
AcDbEntity
  8
ADP1DETAIL
100
AcDbLine
 10
2.240927973620402
 20
6.896008039828954
 30
0.0
 11
2.130927973620402
 21
6.896008039828954
 31
0.0
  0
ARC
  5
133
330
18
100
AcDbEntity
  8
ADP1DETAIL
100
AcDbCircle
 10
2.028688014450656
 20
7.781668456160634
 30
0.0
 40
0.015
100
AcDbArc
 50
97.94084210948064
 51
165.0000000000043
  0
LINE
  5
134
330
18
100
AcDbEntity
  8
ADP1DETAIL
100
AcDbLine
 10
1.963300969085923
 20
7.59559623027998
 30
0.0
 11
2.01419912705632
 21
7.78555074183717
 31
0.0
  0
LINE
  5
135
330
18
100
AcDbEntity
  8
ADP1DETAIL
100
AcDbLine
 10
2.099927973620402
 20
6.927008039828954
 30
0.0
 11
2.099927973620402
 21
6.959008039828954
 31
0.0
  0
LINE
  5
136
330
18
100
AcDbEntity
  8
ADP1DETAIL
100
AcDbLine
 10
2.130927973620402
 20
6.990008039828953
 30
0.0
 11
2.195927973620402
 21
6.990008039828954
 31
0.0
  0
ARC
  5
137
330
18
100
AcDbEntity
  8
ADP1DETAIL
100
AcDbCircle
 10
1.972960227348814
 20
7.593008039828955
 30
0.0
 40
0.01
100
AcDbArc
 50
165.0
 51
270.0
  0
LINE
  5
138
330
18
100
AcDbEntity
  8
ADP1DETAIL
100
AcDbLine
 10
2.021927973620401
 20
7.583008039828954
 30
0.0
 11
2.021927973620401
 21
7.531008039828954
 31
0.0
  0
ARC
  5
139
330
18
100
AcDbEntity
  8
ADP1DETAIL
100
AcDbCircle
 10
2.031927973620401
 20
7.531008039828954
 30
0.0
 40
0.01
100
AcDbArc
 50
180.0
 51
270.0
  0
ARC
  5
13A
330
18
100
AcDbEntity
  8
ADP1DETAIL
100
AcDbCircle
 10
2.130927973620402
 20
6.927008039828954
 30
0.0
 40
0.031
100
AcDbArc
 50
180.0
 51
270.0
  0
ARC
  5
13B
330
18
100
AcDbEntity
  8
ADP1DETAIL
100
AcDbCircle
 10
2.130927973620402
 20
6.959008039828954
 30
0.0
 40
0.031
100
AcDbArc
 50
90.0
 51
180.0
  0
LWPOLYLINE
  5
13C
330
18
100
AcDbEntity
  8
ADP1DETAIL
100
AcDbPolyline
 90
        2
 70
     0
 43
0.0
 10
2.265927973620402
 20
7.209008039828954
 10
2.240927973620401
 20
7.234008039828954
  0
LWPOLYLINE
  5
140
330
18
100
AcDbEntity
  8
ADP1DETAIL
100
AcDbPolyline
 90
        2
 70
     0
 43
0.0
 10
2.240927973620401
 20
7.184008039828953
 10
2.265927973620402
 20
7.209008039828954
  0
LINE
  5
144
330
18
100
AcDbEntity
  8
ADP1DETAIL
100
AcDbLine
 10
2.240927973620401
 20
7.184008039828953
 30
0.0
 11
2.240927973620402
 21
6.945008039828954
 31
0.0
  0
LINE
  5
145
330
18
100
AcDbEntity
  8
ADP1DETAIL
100
AcDbLine
 10
2.365927973620402
 20
7.021008039828954
 30
0.0
 11
2.365927973620402
 21
7.521008039828954
 31
0.0
  0
LINE
  5
146
330
18
100
AcDbEntity
  8
ADP1DETAIL
100
AcDbLine
 10
2.240927973620402
 20
7.521008039828954
 30
0.0
 11
2.240927973620401
 21
7.234008039828954
 31
0.0
  0
ARC
  5
147
330
18
100
AcDbEntity
  8
ADP1DETAIL
100
AcDbCircle
 10
4.678927973620401
 20
7.021008039828954
 30
0.0
 40
0.125
100
AcDbArc
 50
180.0
 51
270.0
  0
LINE
  5
148
330
18
100
AcDbEntity
  8
ADP1DETAIL
100
AcDbLine
 10
4.788927973620401
 20
6.990008039828953
 30
0.0
 11
4.723927973620401
 21
6.990008039828954
 31
0.0
  0
LINE
  5
149
330
18
100
AcDbEntity
  8
ADP1DETAIL
100
AcDbLine
 10
4.678927973620401
 20
6.896008039828954
 30
0.0
 11
4.788927973620401
 21
6.896008039828954
 31
0.0
  0
LINE
  5
14A
330
18
100
AcDbEntity
  8
ADP1DETAIL
100
AcDbLine
 10
4.678927973620401
 20
7.184008039828953
 30
0.0
 11
4.678927973620401
 21
6.945008039828954
 31
0.0
  0
LINE
  5
14B
330
18
100
AcDbEntity
  8
ADP1DETAIL
100
AcDbLine
 10
4.678927973620401
 20
6.945008039828954
 30
0.0
 11
4.723927973620401
 21
6.990008039828954
 31
0.0
  0
LWPOLYLINE
  5
14C
330
18
100
AcDbEntity
  8
ADP1DETAIL
100
AcDbPolyline
 90
        2
 70
     0
 43
0.0
 10
4.653927973620401
 20
7.209008039828954
 10
4.678927973620401
 20
7.234008039828954
  0
LWPOLYLINE
  5
150
330
18
100
AcDbEntity
  8
ADP1DETAIL
100
AcDbPolyline
 90
        2
 70
     0
 43
0.0
 10
4.678927973620401
 20
7.184008039828953
 10
4.653927973620401
 20
7.209008039828954
  0
LINE
  5
154
330
18
100
AcDbEntity
  8
ADP1DETAIL
100
AcDbLine
 10
4.678927973620401
 20
7.521008039828954
 30
0.0
 11
4.678927973620401
 21
7.234008039828954
 31
0.0
  0
LINE
  5
155
330
18
100
AcDbEntity
  8
ADP1DETAIL
100
AcDbLine
 10
4.553927973620401
 20
7.021008039828954
 30
0.0
 11
4.553927973620401
 21
7.521008039828954
 31
0.0
  0
ARC
  5
156
330
18
100
AcDbEntity
  8
ADP1DETAIL
100
AcDbCircle
 10
4.891167932790147
 20
7.781668456160632
 30
0.0
 40
0.015
100
AcDbArc
 50
14.99999999999894
 51
82.05915789050639
  0
LINE
  5
157
330
18
100
AcDbEntity
  8
ADP1DETAIL
100
AcDbLine
 10
4.95655497815488
 20
7.59559623027998
 30
0.0
 11
4.905656820184483
 21
7.78555074183717
 31
0.0
  0
LINE
  5
158
330
18
100
AcDbEntity
  8
ADP1DETAIL
100
AcDbLine
 10
4.897927973620402
 20
7.583008039828954
 30
0.0
 11
4.897927973620402
 21
7.531008039828954
 31
0.0
  0
ARC
  5
159
330
18
100
AcDbEntity
  8
ADP1DETAIL
100
AcDbCircle
 10
4.887927973620402
 20
7.531008039828954
 30
0.0
 40
0.01
100
AcDbArc
 50
270.0
 51
0.000000000000007
  0
ARC
  5
15A
330
18
100
AcDbEntity
  8
ADP1DETAIL
100
AcDbCircle
 10
4.94689571989199
 20
7.593008039828955
 30
0.0
 40
0.01
100
AcDbArc
 50
270.0
 51
14.99999999999994
  0
LINE
  5
15B
330
18
100
AcDbEntity
  8
ADP1DETAIL
100
AcDbLine
 10
4.819927973620401
 20
6.927008039828954
 30
0.0
 11
4.819927973620401
 21
6.959008039828954
 31
0.0
  0
ARC
  5
15C
330
18
100
AcDbEntity
  8
ADP1DETAIL
100
AcDbCircle
 10
4.788927973620401
 20
6.959008039828954
 30
0.0
 40
0.031
100
AcDbArc
 50
0.000000000000007
 51
90.0
  0
ARC
  5
15D
330
18
100
AcDbEntity
  8
ADP1DETAIL
100
AcDbCircle
 10
4.788927973620401
 20
6.927008039828954
 30
0.0
 40
0.031
100
AcDbArc
 50
270.0
 51
0.000000000000007
  0
LINE
  5
15E
330
18
100
AcDbEntity
  8
ADP1DETAIL
100
AcDbLine
 10
5.800414104635102
 20
7.89694794870919
 30
0.0
 11
5.800414104635102
 21
7.578493486729127
 31
0.0
  0
LINE
  5
15F
330
18
100
AcDbEntity
  8
ADP1DETAIL
100
AcDbLine
 10
5.800414104635102
 20
7.578493486729127
 30
0.0
 11
9.800414104635104
 21
7.578493486729127
 31
0.0
  0
LINE
  5
160
330
18
100
AcDbEntity
  8
ADP1DETAIL
100
AcDbLine
 10
5.862914104635102
 20
7.52194794870919
 30
0.0
 11
9.737914104635104
 21
7.521947948709189
 31
0.0
  0
LINE
  5
161
330
18
100
AcDbEntity
  8
ADP1DETAIL
100
AcDbLine
 10
5.862914104635102
 20
7.235428233482936
 30
0.0
 11
9.737914104635104
 21
7.235428233482936
 31
0.0
  0
LINE
  5
162
330
18
100
AcDbEntity
  8
ADP1DETAIL
100
AcDbLine
 10
5.862914104635102
 20
6.896008039828954
 30
0.0
 11
9.737914104635104
 21
6.896008039828954
 31
0.0
  0
LINE
  5
163
330
18
100
AcDbEntity
  8
ADP1DETAIL
100
AcDbLine
 10
5.862914104635102
 20
6.988850078243919
 30
0.0
 11
9.737914104635104
 21
6.988850078243919
 31
0.0
  0
LINE
  5
164
330
18
100
AcDbEntity
  8
ADP1DETAIL
100
AcDbLine
 10
5.862914104635102
 20
7.173153051221372
 30
0.0
 11
9.737914104635104
 21
7.173153051221372
 31
0.0
  0
LINE
  5
165
330
18
100
AcDbEntity
  8
ADP1DETAIL
100
AcDbLine
 10
5.862914104635102
 20
7.20657668396266
 30
0.0
 11
9.737914104635104
 21
7.20657668396266
 31
0.0
  0
LINE
  5
166
330
18
100
AcDbEntity
  8
ADP1DETAIL
100
AcDbLine
 10
9.737914104635104
 20
7.578493486729127
 30
0.0
 11
9.737914104635104
 21
6.896008039828954
 31
0.0
  0
LINE
  5
167
330
18
100
AcDbEntity
  8
ADP1DETAIL
100
AcDbLine
 10
5.862914104635102
 20
7.578493486729127
 30
0.0
 11
5.862914104635102
 21
6.896008039828954
 31
0.0
  0
DIMENSION
  5
168
330
18
100
AcDbEntity
  8
ADPDIM
100
AcDbDimension
  2
*D2
 10
5.800414104635102
 20
8.058976903048993
 30
0.0
 11
7.800414104635103
 21
8.058976903048993
 31
0.0
100
AcDbAlignedDimension
 13
9.800414104635104
 23
7.89694794870919
 33
0.0
 14
5.800414104635102
 24
7.89694794870919
 34
0.0
100
AcDbRotatedDimension
  0
LINE
  5
169
330
18
100
AcDbEntity
  8
ADP1DETAIL
100
AcDbLine
 10
9.800414104635104
 20
7.578493486729127
 30
0.0
 11
9.800414104635104
 21
7.896947948709189
 31
0.0
  0
LINE
  5
16A
330
18
100
AcDbEntity
  8
ADP1DETAIL
100
AcDbLine
 10
5.800414104635102
 20
7.89694794870919
 30
0.0
 11
9.800414104635104
 21
7.896947948709189
 31
0.0
  0
TEXT
  5
178
330
18
100
AcDbEntity
  8
ADPDIM
100
AcDbText
 10
-0.4523250223039153
 20
5.890895986672395
 30
0.0
 40
0.125
  1
J U L I U S  B L U M  &  C O . ,  I N C .      ( 8 0 0 )  5 2 6 - 6 2 9 3        W W W . J U L I U S B L U M . C O M        P A R T  N o .  5 1 4 3
 41
1.25
  7
ARIAL_WIDE
 72
     1
 11
6.073404002252701
 21
6.015895986672395
 31
0.0
100
AcDbText
 73
     3
  0
ENDSEC
  0
SECTION
  2
OBJECTS
  0
DICTIONARY
  5
C
330
0
100
AcDbDictionary
  3
ACAD_GROUP
350
D
  3
ACAD_LAYOUT
350
171
  3
ACAD_MLINESTYLE
350
E
  3
ACAD_PLOTSETTINGS
350
172
  3
ACAD_PLOTSTYLENAME
350
16F
  3
ACDBHEADERROUNDTRIPXREC
350
2BC
  3
ACDBVARIABLEDICTIONARY
350
1D2
  0
DICTIONARY
  5
1CC
330
18
100
AcDbDictionary
280
     1
  3
ACAD_LAYOUTSELFREF
360
2DD
  0
DICTIONARY
  5
1CA
330
15
100
AcDbDictionary
280
     1
  3
ACAD_LAYOUTSELFREF
360
2DC
  0
DICTIONARY
  5
D
102
{ACAD_REACTORS
330
C
102
}
330
C
100
AcDbDictionary
  0
DICTIONARY
  5
171
102
{ACAD_REACTORS
330
C
102
}
330
C
100
AcDbDictionary
  0
DICTIONARY
  5
E
102
{ACAD_REACTORS
330
C
102
}
330
C
100
AcDbDictionary
  3
STANDARD
350
1B
  0
DICTIONARY
  5
172
102
{ACAD_REACTORS
330
C
102
}
330
C
100
AcDbDictionary
  0
ACDBDICTIONARYWDFLT
  5
16F
102
{ACAD_REACTORS
330
C
102
}
330
C
100
AcDbDictionary
281
     1
  3
Normal
350
170
100
AcDbDictionaryWithDefault
340
170
  0
DICTIONARY
  5
2BC
102
{ACAD_REACTORS
330
C
102
}
330
C
100
AcDbDictionary
  3
CEPSNTYPE
350
2C6
  3
FINGERPRINTGUID
350
2C7
  3
HYPERLINKBASE
350
2BF
  3
INSUNITS
350
2C5
  3
LAYOUTDICT
350
2C1
  3
LWETCUNION
350
2C4
  3
PLOTSETDICT
350
2C2
  3
PLOTSTYLNAMDICT
350
2C3
  3
PSVPSCALE
350
2C9
  3
PUCSBASE
350
2CC
  3
PUCSORGBACK
350
2D2
  3
PUCSORGBOTTOM
350
2CE
  3
PUCSORGFRONT
350
2D1
  3
PUCSORGLEFT
350
2CF
  3
PUCSORGRIGHT
350
2D0
  3
PUCSORGTOP
350
2CD
  3
PUCSORTHOREF
350
2CA
  3
PUCSORTHOVIEW
350
2CB
  3
STYLESHEET
350
2C0
  3
TSTACKALIGN
350
2BD
  3
TSTACKSIZE
350
2BE
  3
UCSBASE
350
2D5
  3
UCSORGBACK
350
2DB
  3
UCSORGBOTTOM
350
2D7
  3
UCSORGFRONT
350
2DA
  3
UCSORGLEFT
350
2D8
  3
UCSORGRIGHT
350
2D9
  3
UCSORGTOP
350
2D6
  3
UCSORTHOREF
350
2D3
  3
UCSORTHOVIEW
350
2D4
  3
VERSIONGUID
350
2C8
  0
DICTIONARY
  5
1D2
102
{ACAD_REACTORS
330
C
102
}
330
C
100
AcDbDictionary
  3
DIMASSOC
350
1D3
  0
XRECORD
  5
2DD
102
{ACAD_REACTORS
330
1CC
102
}
330
1CC
100
AcDbXrecord
340
18
  0
XRECORD
  5
2DC
102
{ACAD_REACTORS
330
1CA
102
}
330
1CA
100
AcDbXrecord
340
15
  0
MLINESTYLE
  5
1B
102
{ACAD_REACTORS
330
E
102
}
330
E
100
AcDbMlineStyle
  2
STANDARD
 70
     0
  3

 62
     0
 51
90.0
 52
90.0
 71
     2
 49
0.5
 62
   256
  6
BYLAYER
 49
-0.5
 62
   256
  6
BYLAYER
  0
ACDBPLACEHOLDER
  5
170
102
{ACAD_REACTORS
330
16F
102
}
330
16F
100
AcDbPlaceHolder
280
     0
  0
XRECORD
  5
2C6
102
{ACAD_REACTORS
330
2BC
102
}
330
2BC
100
AcDbXrecord
 90
        0
  0
XRECORD
  5
2C7
102
{ACAD_REACTORS
330
2BC
102
}
330
2BC
100
AcDbXrecord
  1
{8FAB31EC-2B04-4E2E-989D-BC0A125BFCCB}
  0
XRECORD
  5
2BF
102
{ACAD_REACTORS
330
2BC
102
}
330
2BC
100
AcDbXrecord
  1

  0
XRECORD
  5
2C5
102
{ACAD_REACTORS
330
2BC
102
}
330
2BC
100
AcDbXrecord
 90
        0
  0
XRECORD
  5
2C1
102
{ACAD_REACTORS
330
2BC
102
}
330
2BC
100
AcDbXrecord
340
171
  0
XRECORD
  5
2C4
102
{ACAD_REACTORS
330
2BC
102
}
330
2BC
100
AcDbXrecord
 90
    14877
  0
XRECORD
  5
2C2
102
{ACAD_REACTORS
330
2BC
102
}
330
2BC
100
AcDbXrecord
340
172
  0
XRECORD
  5
2C3
102
{ACAD_REACTORS
330
2BC
102
}
330
2BC
100
AcDbXrecord
340
16F
  0
XRECORD
  5
2C9
102
{ACAD_REACTORS
330
2BC
102
}
330
2BC
100
AcDbXrecord
 40
0.0
  0
XRECORD
  5
2CC
102
{ACAD_REACTORS
330
2BC
102
}
330
2BC
100
AcDbXrecord
340
0
  0
XRECORD
  5
2D2
102
{ACAD_REACTORS
330
2BC
102
}
330
2BC
100
AcDbXrecord
 10
0.0
 20
0.0
 30
0.0
  0
XRECORD
  5
2CE
102
{ACAD_REACTORS
330
2BC
102
}
330
2BC
100
AcDbXrecord
 10
0.0
 20
0.0
 30
0.0
  0
XRECORD
  5
2D1
102
{ACAD_REACTORS
330
2BC
102
}
330
2BC
100
AcDbXrecord
 10
0.0
 20
0.0
 30
0.0
  0
XRECORD
  5
2CF
102
{ACAD_REACTORS
330
2BC
102
}
330
2BC
100
AcDbXrecord
 10
0.0
 20
0.0
 30
0.0
  0
XRECORD
  5
2D0
102
{ACAD_REACTORS
330
2BC
102
}
330
2BC
100
AcDbXrecord
 10
0.0
 20
0.0
 30
0.0
  0
XRECORD
  5
2CD
102
{ACAD_REACTORS
330
2BC
102
}
330
2BC
100
AcDbXrecord
 10
0.0
 20
0.0
 30
0.0
  0
XRECORD
  5
2CA
102
{ACAD_REACTORS
330
2BC
102
}
330
2BC
100
AcDbXrecord
340
0
  0
XRECORD
  5
2CB
102
{ACAD_REACTORS
330
2BC
102
}
330
2BC
100
AcDbXrecord
 70
     0
  0
XRECORD
  5
2C0
102
{ACAD_REACTORS
330
2BC
102
}
330
2BC
100
AcDbXrecord
  1

  0
XRECORD
  5
2BD
102
{ACAD_REACTORS
330
2BC
102
}
330
2BC
100
AcDbXrecord
 90
        1
  0
XRECORD
  5
2BE
102
{ACAD_REACTORS
330
2BC
102
}
330
2BC
100
AcDbXrecord
 90
       70
  0
XRECORD
  5
2D5
102
{ACAD_REACTORS
330
2BC
102
}
330
2BC
100
AcDbXrecord
340
0
  0
XRECORD
  5
2DB
102
{ACAD_REACTORS
330
2BC
102
}
330
2BC
100
AcDbXrecord
 10
0.0
 20
0.0
 30
0.0
  0
XRECORD
  5
2D7
102
{ACAD_REACTORS
330
2BC
102
}
330
2BC
100
AcDbXrecord
 10
0.0
 20
0.0
 30
0.0
  0
XRECORD
  5
2DA
102
{ACAD_REACTORS
330
2BC
102
}
330
2BC
100
AcDbXrecord
 10
0.0
 20
0.0
 30
0.0
  0
XRECORD
  5
2D8
102
{ACAD_REACTORS
330
2BC
102
}
330
2BC
100
AcDbXrecord
 10
0.0
 20
0.0
 30
0.0
  0
XRECORD
  5
2D9
102
{ACAD_REACTORS
330
2BC
102
}
330
2BC
100
AcDbXrecord
 10
0.0
 20
0.0
 30
0.0
  0
XRECORD
  5
2D6
102
{ACAD_REACTORS
330
2BC
102
}
330
2BC
100
AcDbXrecord
 10
0.0
 20
0.0
 30
0.0
  0
XRECORD
  5
2D3
102
{ACAD_REACTORS
330
2BC
102
}
330
2BC
100
AcDbXrecord
340
0
  0
XRECORD
  5
2D4
102
{ACAD_REACTORS
330
2BC
102
}
330
2BC
100
AcDbXrecord
 70
     0
  0
XRECORD
  5
2C8
102
{ACAD_REACTORS
330
2BC
102
}
330
2BC
100
AcDbXrecord
  1
{23FBFC7C-49B6-4509-89F8-183428C1343B}
  0
DICTIONARYVAR
  5
1D3
102
{ACAD_REACTORS
330
1D2
102
}
330
1D2
100
DictionaryVariables
280
     0
  1
1
  0
ENDSEC
  0
EOF
