  0
SECTION
  2
HEADER
  9
$ACADVER
  1
AC1014
  9
$ACADMAINTVER
 70
     9
  9
$DWGCODEPAGE
  3
ANSI_1252
  9
$INSBASE
 10
2.031927973620401
 20
7.521008039828954
 30
0.0
  9
$EXTMIN
 10
0.1481265188578451
 20
5.777417634502527
 30
0.0
  9
$EXTMAX
 10
13.19958456797107
 20
8.303447851431595
 30
0.0
  9
$LIMMIN
 10
0.0
 20
0.0
  9
$LIMMAX
 10
36.0
 20
36.0
  9
$ORTHOMODE
 70
     1
  9
$REGENMODE
 70
     1
  9
$FILLMODE
 70
     1
  9
$QTEXTMODE
 70
     0
  9
$MIRRTEXT
 70
     1
  9
$DRAGMODE
 70
     0
  9
$LTSCALE
 40
1.0
  9
$OSMODE
 70
    37
  9
$ATTMODE
 70
     1
  9
$TEXTSIZE
 40
0.2
  9
$TRACEWID
 40
0.05
  9
$TEXTSTYLE
  7
STANDARD
  9
$CLAYER
  8
ADPDIM
  9
$CELTYPE
  6
BYLAYER
  9
$CECOLOR
 62
   256
  9
$CELTSCALE
 40
1.0
  9
$DELOBJ
 70
     1
  9
$DISPSILH
 70
     0
  9
$DIMSCALE
 40
1.0
  9
$DIMASZ
 40
0.125
  9
$DIMEXO
 40
0.0625
  9
$DIMDLI
 40
0.38
  9
$DIMRND
 40
0.0
  9
$DIMDLE
 40
0.0
  9
$DIMEXE
 40
0.18
  9
$DIMTP
 40
0.0
  9
$DIMTM
 40
0.0
  9
$DIMTXT
 40
0.125
  9
$DIMCEN
 40
0.1875
  9
$DIMTSZ
 40
0.125
  9
$DIMTOL
 70
     0
  9
$DIMLIM
 70
     0
  9
$DIMTIH
 70
     0
  9
$DIMTOH
 70
     0
  9
$DIMSE1
 70
     0
  9
$DIMSE2
 70
     0
  9
$DIMTAD
 70
     0
  9
$DIMZIN
 70
     3
  9
$DIMBLK
  1

  9
$DIMASO
 70
     1
  9
$DIMSHO
 70
     1
  9
$DIMPOST
  1

  9
$DIMAPOST
  1

  9
$DIMALT
 70
     0
  9
$DIMALTD
 70
     1
  9
$DIMALTF
 40
25.4
  9
$DIMLFAC
 40
1.0
  9
$DIMTOFL
 70
     0
  9
$DIMTVP
 40
0.0
  9
$DIMTIX
 70
     0
  9
$DIMSOXD
 70
     0
  9
$DIMSAH
 70
     0
  9
$DIMBLK1
  1

  9
$DIMBLK2
  1

  9
$DIMSTYLE
  2
STANDARD
  9
$DIMCLRD
 70
     0
  9
$DIMCLRE
 70
     0
  9
$DIMCLRT
 70
     0
  9
$DIMTFAC
 40
1.0
  9
$DIMGAP
 40
0.125
  9
$DIMJUST
 70
     0
  9
$DIMSD1
 70
     0
  9
$DIMSD2
 70
     0
  9
$DIMTOLJ
 70
     1
  9
$DIMTZIN
 70
     0
  9
$DIMALTZ
 70
     0
  9
$DIMALTTZ
 70
     0
  9
$DIMFIT
 70
     3
  9
$DIMUPT
 70
     0
  9
$DIMUNIT
 70
     2
  9
$DIMDEC
 70
     4
  9
$DIMTDEC
 70
     4
  9
$DIMALTU
 70
     2
  9
$DIMALTTD
 70
     2
  9
$DIMTXSTY
  7
STANDARD
  9
$DIMAUNIT
 70
     0
  9
$LUNITS
 70
     5
  9
$LUPREC
 70
     4
  9
$SKETCHINC
 40
0.1
  9
$FILLETRAD
 40
0.015
  9
$AUNITS
 70
     0
  9
$AUPREC
 70
     0
  9
$MENU
  1
acad
  9
$ELEVATION
 40
0.0
  9
$PELEVATION
 40
0.0
  9
$THICKNESS
 40
0.0
  9
$LIMCHECK
 70
     0
  9
$BLIPMODE
 70
     0
  9
$CHAMFERA
 40
0.0
  9
$CHAMFERB
 40
0.0
  9
$CHAMFERC
 40
0.0
  9
$CHAMFERD
 40
0.0
  9
$SKPOLY
 70
     0
  9
$TDCREATE
 40
2450218.638681516
  9
$TDUPDATE
 40
2452297.089559456
  9
$TDINDWG
 40
0.0715729051
  9
$TDUSRTIMER
 40
0.0715729051
  9
$USRTIMER
 70
     1
  9
$ANGBASE
 50
0.0
  9
$ANGDIR
 70
     0
  9
$PDMODE
 70
     0
  9
$PDSIZE
 40
0.0
  9
$PLINEWID
 40
0.0
  9
$COORDS
 70
     2
  9
$SPLFRAME
 70
     0
  9
$SPLINETYPE
 70
     6
  9
$SPLINESEGS
 70
     8
  9
$ATTDIA
 70
     0
  9
$ATTREQ
 70
     1
  9
$HANDLING
 70
 22529
  9
$HANDSEED
  5
2C4
  9
$SURFTAB1
 70
     6
  9
$SURFTAB2
 70
     6
  9
$SURFTYPE
 70
     6
  9
$SURFU
 70
     6
  9
$SURFV
 70
     6
  9
$UCSNAME
  2

  9
$UCSORG
 10
0.0
 20
0.0
 30
0.0
  9
$UCSXDIR
 10
1.0
 20
0.0
 30
0.0
  9
$UCSYDIR
 10
0.0
 20
1.0
 30
0.0
  9
$PUCSNAME
  2

  9
$PUCSORG
 10
0.0
 20
0.0
 30
0.0
  9
$PUCSXDIR
 10
1.0
 20
0.0
 30
0.0
  9
$PUCSYDIR
 10
0.0
 20
1.0
 30
0.0
  9
$USERI1
 70
     0
  9
$USERI2
 70
     0
  9
$USERI3
 70
     0
  9
$USERI4
 70
     0
  9
$USERI5
 70
     0
  9
$USERR1
 40
0.0
  9
$USERR2
 40
0.0
  9
$USERR3
 40
0.0
  9
$USERR4
 40
0.0
  9
$USERR5
 40
0.0
  9
$WORLDVIEW
 70
     1
  9
$SHADEDGE
 70
     3
  9
$SHADEDIF
 70
    70
  9
$TILEMODE
 70
     1
  9
$MAXACTVP
 70
    15
  9
$PINSBASE
 10
0.0004882947541773
 20
0.7501380653138911
 30
0.0
  9
$PLIMCHECK
 70
     0
  9
$PEXTMIN
 10
1.000000000000000E+20
 20
1.000000000000000E+20
 30
1.000000000000000E+20
  9
$PEXTMAX
 10
-1.000000000000000E+20
 20
-1.000000000000000E+20
 30
-1.000000000000000E+20
  9
$PLIMMIN
 10
0.0
 20
0.0
  9
$PLIMMAX
 10
12.0
 20
9.0
  9
$UNITMODE
 70
     0
  9
$VISRETAIN
 70
     0
  9
$PLINEGEN
 70
     0
  9
$PSLTSCALE
 70
     1
  9
$TREEDEPTH
 70
  3020
  9
$PICKSTYLE
 70
     1
  9
$CMLSTYLE
  2
STANDARD
  9
$CMLJUST
 70
     0
  9
$CMLSCALE
 40
1.0
  9
$PROXYGRAPHICS
 70
     1
  9
$MEASUREMENT
 70
     0
  0
ENDSEC
  0
SECTION
  2
CLASSES
  0
CLASS
  1
ACDBDICTIONARYWDFLT
  2
AcDbDictionaryWithDefault
  3
AutoCAD 2000
 90
        0
280
     0
281
     0
  0
CLASS
  1
ACDBPLACEHOLDER
  2
AcDbPlaceHolder
  3
AutoCAD 2000
 90
        0
280
     0
281
     0
  0
CLASS
  1
LAYOUT
  2
AcDbLayout
  3
AutoCAD 2000
 90
        0
280
     0
281
     0
  0
CLASS
  1
DICTIONARYVAR
  2
AcDbDictionaryVar
  3
AutoCAD 2000
 90
        0
280
     0
281
     0
  0
CLASS
  1
LONG_TRANSACTION
  2
AcDbLongTransaction
  3
AutoCAD 2000
 90
        0
280
     0
281
     0
  0
CLASS
  1
LWPOLYLINE
  2
AcDbPolyline
  3
AutoCAD 2000
 90
        0
280
     0
281
     1
  0
CLASS
  1
HATCH
  2
AcDbHatch
  3
AutoCAD 2000
 90
        0
280
     0
281
     1
  0
CLASS
  1
XRECORD
  2
AcDbXrecord
  3
AutoCAD 2000
 90
        0
280
     0
281
     0
  0
CLASS
  1
LONG_TRANSACTION
  2
AcDbLongTransaction
  3
AutoCAD 2000
 90
        0
280
     0
281
     0
  0
CLASS
  1
LWPOLYLINE
  2
AcDbPolyline
  3
AutoCAD 2000
 90
        0
280
     0
281
     1
  0
CLASS
  1
HATCH
  2
AcDbHatch
  3
AutoCAD 2000
 90
        0
280
     0
281
     1
  0
CLASS
  1
XRECORD
  2
AcDbXrecord
  3
AutoCAD 2000
 90
        0
280
     0
281
     0
  0
CLASS
  1
LONG_TRANSACTION
  2
AcDbLongTransaction
  3
AutoCAD 2000
 90
        0
280
     0
281
     0
  0
CLASS
  1
LWPOLYLINE
  2
AcDbPolyline
  3
AutoCAD 2000
 90
        0
280
     0
281
     1
  0
CLASS
  1
HATCH
  2
AcDbHatch
  3
AutoCAD 2000
 90
        0
280
     0
281
     1
  0
CLASS
  1
XRECORD
  2
AcDbXrecord
  3
AutoCAD 2000
 90
        0
280
     0
281
     0
  0
CLASS
  1
LONG_TRANSACTION
  2
AcDbLongTransaction
  3
AutoCAD 2000
 90
        0
280
     0
281
     0
  0
CLASS
  1
LWPOLYLINE
  2
AcDbPolyline
  3
AutoCAD 2000
 90
        0
280
     0
281
     1
  0
CLASS
  1
HATCH
  2
AcDbHatch
  3
AutoCAD 2000
 90
        0
280
     0
281
     1
  0
CLASS
  1
XRECORD
  2
AcDbXrecord
  3
AutoCAD 2000
 90
        0
280
     0
281
     0
  0
CLASS
  1
LONG_TRANSACTION
  2
AcDbLongTransaction
  3
AutoCAD 2000
 90
        0
280
     0
281
     0
  0
CLASS
  1
LWPOLYLINE
  2
AcDbPolyline
  3
AutoCAD 2000
 90
        0
280
     0
281
     1
  0
CLASS
  1
HATCH
  2
AcDbHatch
  3
AutoCAD 2000
 90
        0
280
     0
281
     1
  0
CLASS
  1
XRECORD
  2
AcDbXrecord
  3
AutoCAD 2000
 90
        0
280
     0
281
     0
  0
ENDSEC
  0
SECTION
  2
TABLES
  0
TABLE
  2
VPORT
  5
8
330
0
100
AcDbSymbolTable
 70
     2
  0
VPORT
  5
2A1
330
8
100
AcDbSymbolTableRecord
100
AcDbViewportTableRecord
  2
*ACTIVE
 70
     0
 10
0.0
 20
0.0
 11
1.0
 21
1.0
 12
6.685005079639013
 22
7.039764475356516
 13
0.0
 23
0.0
 14
0.5740882589684922
 24
0.5740882589684922
 15
0.5
 25
0.5
 16
0.0
 26
0.0
 36
1.0
 17
0.0
 27
0.0
 37
0.0
 40
8.365595802020571
 41
1.570528967254408
 42
50.0
 43
0.0
 44
0.0
 50
0.0
 51
0.0
 71
     0
 72
   100
 73
     1
 74
     0
 75
     0
 76
     0
 77
     0
 78
     0
  0
ENDTAB
  0
TABLE
  2
LTYPE
  5
5
330
0
100
AcDbSymbolTable
 70
     1
  0
LTYPE
  5
12
330
5
100
AcDbSymbolTableRecord
100
AcDbLinetypeTableRecord
  2
BYBLOCK
 70
     0
  3

 72
    65
 73
     0
 40
0.0
  0
LTYPE
  5
13
330
5
100
AcDbSymbolTableRecord
100
AcDbLinetypeTableRecord
  2
BYLAYER
 70
     0
  3

 72
    65
 73
     0
 40
0.0
  0
LTYPE
  5
14
330
5
100
AcDbSymbolTableRecord
100
AcDbLinetypeTableRecord
  2
CONTINUOUS
 70
     0
  3
Solid line
 72
    65
 73
     0
 40
0.0
  0
ENDTAB
  0
TABLE
  2
LAYER
  5
2
330
0
100
AcDbSymbolTable
 70
     4
  0
LAYER
  5
F
330
2
100
AcDbSymbolTableRecord
100
AcDbLayerTableRecord
  2
0
 70
     0
 62
     7
  6
CONTINUOUS
  0
LAYER
  5
2B
330
2
100
AcDbSymbolTableRecord
100
AcDbLayerTableRecord
  2
ADPDIM
 70
     0
 62
     3
  6
CONTINUOUS
  0
LAYER
  5
2C
330
2
100
AcDbSymbolTableRecord
100
AcDbLayerTableRecord
  2
ADP1DETAIL
 70
     0
 62
     7
  6
CONTINUOUS
  0
LAYER
  5
2D
330
2
100
AcDbSymbolTableRecord
100
AcDbLayerTableRecord
  2
DEFPOINTS
 70
     0
 62
     7
  6
CONTINUOUS
  0
ENDTAB
  0
TABLE
  2
STYLE
  5
3
330
0
100
AcDbSymbolTable
 70
     2
  0
STYLE
  5
10
330
3
100
AcDbSymbolTableRecord
100
AcDbTextStyleTableRecord
  2
STANDARD
 70
     0
 40
0.0
 41
1.0
 50
0.0
 71
     0
 42
0.2
  3
txt
  4

  0
STYLE
  5
15D
330
3
100
AcDbSymbolTableRecord
100
AcDbTextStyleTableRecord
  2
ARIAL_WIDE
 70
     0
 40
0.0
 41
1.25
 50
0.0
 71
     0
 42
0.2
  3
ARIAL.TTF
  4

1001
ACAD
1000
Arial
1071
       34
  0
ENDTAB
  0
TABLE
  2
VIEW
  5
6
330
0
100
AcDbSymbolTable
 70
     0
  0
ENDTAB
  0
TABLE
  2
UCS
  5
7
330
0
100
AcDbSymbolTable
 70
     0
  0
ENDTAB
  0
TABLE
  2
APPID
  5
9
330
0
100
AcDbSymbolTable
 70
     1
  0
APPID
  5
11
330
9
100
AcDbSymbolTableRecord
100
AcDbRegAppTableRecord
  2
ACAD
 70
     0
  0
ENDTAB
  0
TABLE
  2
DIMSTYLE
  5
A
330
0
100
AcDbSymbolTable
 70
     1
  0
DIMSTYLE
105
151
330
A
100
AcDbSymbolTableRecord
100
AcDbDimStyleTableRecord
  2
STANDARD
 70
     0
  3

  4

  5

  6

  7

 40
1.0
 41
0.18
 42
0.0625
 43
0.38
 44
0.18
 45
0.0
 46
0.0
 47
0.0
 48
0.0
140
0.18
141
0.09
142
0.0
143
25.4
144
1.0
145
0.0
146
1.0
147
0.09
 71
     0
 72
     0
 73
     1
 74
     1
 75
     0
 76
     0
 77
     0
 78
     0
170
     0
171
     2
172
     0
173
     0
174
     0
175
     0
176
     0
177
     0
178
     0
270
     2
271
     4
272
     4
273
     2
274
     2
340
10
275
     0
280
     0
281
     0
282
     0
283
     1
284
     0
285
     0
286
     0
287
     3
288
     0
  0
ENDTAB
  0
TABLE
  2
BLOCK_RECORD
  5
1
330
0
100
AcDbSymbolTable
 70
     3
  0
BLOCK_RECORD
  5
18
102
{ACAD_XDICTIONARY
360
1B2
102
}
330
1
100
AcDbSymbolTableRecord
100
AcDbBlockTableRecord
  2
*MODEL_SPACE
  0
BLOCK_RECORD
  5
15
102
{ACAD_XDICTIONARY
360
1B0
102
}
330
1
100
AcDbSymbolTableRecord
100
AcDbBlockTableRecord
  2
*PAPER_SPACE
  0
BLOCK_RECORD
  5
1C
330
1
100
AcDbSymbolTableRecord
100
AcDbBlockTableRecord
  2
*D0
  0
BLOCK_RECORD
  5
1D
330
1
100
AcDbSymbolTableRecord
100
AcDbBlockTableRecord
  2
*D1
  0
BLOCK_RECORD
  5
29
330
1
100
AcDbSymbolTableRecord
100
AcDbBlockTableRecord
  2
*D2
  0
ENDTAB
  0
ENDSEC
  0
SECTION
  2
BLOCKS
  0
BLOCK
  5
30
330
18
100
AcDbEntity
  8
0
100
AcDbBlockBegin
  2
*MODEL_SPACE
 70
     0
 10
0.0
 20
0.0
 30
0.0
  3
*MODEL_SPACE
  1

  0
ENDBLK
  5
31
330
18
100
AcDbEntity
  8
0
100
AcDbBlockEnd
  0
BLOCK
  5
2E
330
15
100
AcDbEntity
 67
     1
  8
0
100
AcDbBlockBegin
  2
*PAPER_SPACE
 70
     0
 10
0.0
 20
0.0
 30
0.0
  3
*PAPER_SPACE
  1

  0
ENDBLK
  5
2F
330
15
100
AcDbEntity
 67
     1
  8
0
100
AcDbBlockEnd
  0
BLOCK
  5
32
330
1C
100
AcDbEntity
  8
0
100
AcDbBlockBegin
  2
*D0
 70
     1
 10
0.0
 20
0.0
 30
0.0
  3
*D0
  1

  0
LINE
  5
33
330
1C
100
AcDbEntity
  8
0
  6
BYBLOCK
 62
     0
100
AcDbLine
 10
5.95655497815488
 20
7.65809623027998
 30
0.0
 11
5.95655497815488
 21
8.303447851431595
 31
0.0
  0
LINE
  5
34
330
1C
100
AcDbEntity
  8
0
  6
BYBLOCK
 62
     0
100
AcDbLine
 10
1.963300969085923
 20
7.65809623027998
 30
0.0
 11
1.963300969085923
 21
8.303447851431595
 31
0.0
  0
LINE
  5
35
330
1C
100
AcDbEntity
  8
0
  6
BYBLOCK
 62
     0
100
AcDbLine
 10
5.95655497815488
 20
8.123447851431595
 30
0.0
 11
4.126594640287068
 21
8.123447851431595
 31
0.0
  0
LINE
  5
36
330
1C
100
AcDbEntity
  8
0
  6
BYBLOCK
 62
     0
100
AcDbLine
 10
1.963300969085923
 20
8.123447851431595
 30
0.0
 11
3.793261306953735
 21
8.123447851431595
 31
0.0
  0
LINE
  5
37
330
1C
100
AcDbEntity
  8
0
  6
BYBLOCK
 62
     0
100
AcDbLine
 10
5.83155497815488
 20
7.998447851431595
 30
0.0
 11
6.08155497815488
 21
8.248447851431595
 31
0.0
  0
LINE
  5
38
330
1C
100
AcDbEntity
  8
0
  6
BYBLOCK
 62
     0
100
AcDbLine
 10
1.838300969085923
 20
7.998447851431595
 30
0.0
 11
2.088300969085923
 21
8.248447851431595
 31
0.0
  0
TEXT
  5
39
330
1C
100
AcDbEntity
  8
0
  6
BYBLOCK
 62
     0
100
AcDbText
 10
3.918261306953735
 20
8.060947851431595
 30
0.0
 40
0.125
  1
4
 72
     1
 11
3.959927973620402
 21
8.123447851431595
 31
0.0
100
AcDbText
 73
     2
  0
POINT
  5
3A
330
1C
100
AcDbEntity
  8
DEFPOINTS
  6
BYBLOCK
 62
     0
100
AcDbPoint
 10
5.95655497815488
 20
7.59559623027998
 30
0.0
  0
POINT
  5
3B
330
1C
100
AcDbEntity
  8
DEFPOINTS
  6
BYBLOCK
 62
     0
100
AcDbPoint
 10
1.963300969085923
 20
7.59559623027998
 30
0.0
  0
POINT
  5
3C
330
1C
100
AcDbEntity
  8
DEFPOINTS
  6
BYBLOCK
 62
     0
100
AcDbPoint
 10
1.963300969085923
 20
8.123447851431595
 30
0.0
  0
ENDBLK
  5
3D
330
1C
100
AcDbEntity
  8
0
100
AcDbBlockEnd
  0
BLOCK
  5
3E
330
1D
100
AcDbEntity
  8
0
100
AcDbBlockBegin
  2
*D1
 70
     1
 10
0.0
 20
0.0
 30
0.0
  3
*D1
  1

  0
LINE
  5
3F
330
1D
100
AcDbEntity
  8
0
  6
BYBLOCK
 62
     0
100
AcDbLine
 10
4.022427973620402
 20
7.958008039828955
 30
0.0
 11
6.342308609832463
 21
7.958008039828955
 31
0.0
  0
LINE
  5
40
330
1D
100
AcDbEntity
  8
0
  6
BYBLOCK
 62
     0
100
AcDbLine
 10
5.950427973620402
 20
7.521008039828954
 30
0.0
 11
6.342308609832462
 21
7.521008039828954
 31
0.0
  0
LINE
  5
41
330
1D
100
AcDbEntity
  8
0
  6
BYBLOCK
 62
     0
100
AcDbLine
 10
6.162308609832463
 20
7.958008039828955
 30
0.0
 11
6.162308609832463
 21
8.208008039828955
 31
0.0
  0
LINE
  5
42
330
1D
100
AcDbEntity
  8
0
  6
BYBLOCK
 62
     0
100
AcDbLine
 10
6.162308609832463
 20
7.521008039828954
 30
0.0
 11
6.162308609832463
 21
7.271008039828954
 31
0.0
  0
LINE
  5
43
330
1D
100
AcDbEntity
  8
0
  6
BYBLOCK
 62
     0
100
AcDbLine
 10
6.287308609832463
 20
7.833008039828955
 30
0.0
 11
6.037308609832463
 21
8.083008039828955
 31
0.0
  0
LINE
  5
44
330
1D
100
AcDbEntity
  8
0
  6
BYBLOCK
 62
     0
100
AcDbLine
 10
6.287308609832463
 20
7.396008039828954
 30
0.0
 11
6.037308609832463
 21
7.646008039828954
 31
0.0
  0
TEXT
  5
45
330
1D
100
AcDbEntity
  8
0
  6
BYBLOCK
 62
     0
100
AcDbText
 10
6.224808609832462
 20
6.729341373162288
 30
0.0
 40
0.125
  1
7/16
 50
90.0
 72
     1
 11
6.162308609832462
 21
6.937674706495621
 31
0.0
100
AcDbText
 73
     2
  0
POINT
  5
46
330
1D
100
AcDbEntity
  8
DEFPOINTS
  6
BYBLOCK
 62
     0
100
AcDbPoint
 10
3.959927973620402
 20
7.958008039828955
 30
0.0
  0
POINT
  5
47
330
1D
100
AcDbEntity
  8
DEFPOINTS
  6
BYBLOCK
 62
     0
100
AcDbPoint
 10
5.887927973620402
 20
7.521008039828954
 30
0.0
  0
POINT
  5
48
330
1D
100
AcDbEntity
  8
DEFPOINTS
  6
BYBLOCK
 62
     0
100
AcDbPoint
 10
6.162308609832463
 20
7.521008039828954
 30
0.0
  0
ENDBLK
  5
49
330
1D
100
AcDbEntity
  8
0
100
AcDbBlockEnd
  0
BLOCK
  5
105
330
29
100
AcDbEntity
  8
0
100
AcDbBlockBegin
  2
*D2
 70
     1
 10
0.0
 20
0.0
 30
0.0
  3
*D2
  1

  0
LINE
  5
106
330
29
100
AcDbEntity
  8
0
  6
BYBLOCK
 62
     0
100
AcDbLine
 10
8.704636218923191
 20
5.341238146458957
 30
0.0
 11
8.704636218923191
 21
5.620767100798761
 31
0.0
  0
LINE
  5
107
330
29
100
AcDbEntity
  8
0
  6
BYBLOCK
 62
     0
100
AcDbLine
 10
4.704636218923191
 20
5.341238146458957
 30
0.0
 11
4.704636218923191
 21
5.620767100798761
 31
0.0
  0
LINE
  5
108
330
29
100
AcDbEntity
  8
0
  6
BYBLOCK
 62
     0
100
AcDbLine
 10
8.704636218923191
 20
5.440767100798761
 30
0.0
 11
6.871302885589858
 21
5.440767100798761
 31
0.0
  0
LINE
  5
109
330
29
100
AcDbEntity
  8
0
  6
BYBLOCK
 62
     0
100
AcDbLine
 10
4.704636218923191
 20
5.440767100798761
 30
0.0
 11
6.537969552256524
 21
5.440767100798761
 31
0.0
  0
LINE
  5
10A
330
29
100
AcDbEntity
  8
0
  6
BYBLOCK
 62
     0
100
AcDbLine
 10
8.579636218923191
 20
5.315767100798761
 30
0.0
 11
8.829636218923191
 21
5.565767100798761
 31
0.0
  0
LINE
  5
10B
330
29
100
AcDbEntity
  8
0
  6
BYBLOCK
 62
     0
100
AcDbLine
 10
4.579636218923191
 20
5.315767100798761
 30
0.0
 11
4.829636218923191
 21
5.565767100798761
 31
0.0
  0
TEXT
  5
10C
330
29
100
AcDbEntity
  8
0
  6
BYBLOCK
 62
     0
100
AcDbText
 10
6.662969552256524
 20
5.378267100798761
 30
0.0
 40
0.125
  1
4
 72
     1
 11
6.704636218923191
 21
5.440767100798761
 31
0.0
100
AcDbText
 73
     2
  0
POINT
  5
10D
330
29
100
AcDbEntity
  8
DEFPOINTS
  6
BYBLOCK
 62
     0
100
AcDbPoint
 10
8.704636218923191
 20
5.278738146458957
 30
0.0
  0
POINT
  5
10E
330
29
100
AcDbEntity
  8
DEFPOINTS
  6
BYBLOCK
 62
     0
100
AcDbPoint
 10
4.704636218923191
 20
5.278738146458957
 30
0.0
  0
POINT
  5
10F
330
29
100
AcDbEntity
  8
DEFPOINTS
  6
BYBLOCK
 62
     0
100
AcDbPoint
 10
4.704636218923191
 20
5.440767100798761
 30
0.0
  0
ENDBLK
  5
110
330
29
100
AcDbEntity
  8
0
100
AcDbBlockEnd
  0
ENDSEC
  0
SECTION
  2
ENTITIES
  0
ARC
  5
111
330
18
100
AcDbEntity
  8
ADP1DETAIL
100
AcDbCircle
 10
3.959927973620401
 20
-4.041991960171044
 30
0.0
 40
12.0
100
AcDbArc
 50
80.68716039847975
 51
99.31283960152024
  0
DIMENSION
  5
112
330
18
100
AcDbEntity
  8
ADPDIM
100
AcDbDimension
  2
*D0
 10
1.963300969085923
 20
8.123447851431595
 30
0.0
 11
3.959927973620402
 21
8.123447851431595
 31
0.0
100
AcDbAlignedDimension
 13
5.95655497815488
 23
7.59559623027998
 33
0.0
 14
1.963300969085923
 24
7.59559623027998
 34
0.0
100
AcDbRotatedDimension
  0
LINE
  5
113
330
18
100
AcDbEntity
  8
ADP1DETAIL
100
AcDbLine
 10
1.972960227348814
 20
7.583008039828955
 30
0.0
 11
5.94689571989199
 21
7.583008039828955
 31
0.0
  0
LINE
  5
114
330
18
100
AcDbEntity
  8
ADP1DETAIL
100
AcDbLine
 10
2.031927973620401
 20
7.521008039828954
 30
0.0
 11
5.887927973620402
 21
7.521008039828954
 31
0.0
  0
LINE
  5
115
330
18
100
AcDbEntity
  8
ADP1DETAIL
100
AcDbLine
 10
1.963300969085923
 20
7.59559623027998
 30
0.0
 11
2.018028395794534
 21
7.799841767324023
 31
0.0
  0
ARC
  5
116
330
18
100
AcDbEntity
  8
ADP1DETAIL
100
AcDbCircle
 10
2.031927973620401
 20
7.531008039828954
 30
0.0
 40
0.01
100
AcDbArc
 50
180.0
 51
270.0
  0
LINE
  5
117
330
18
100
AcDbEntity
  8
ADP1DETAIL
100
AcDbLine
 10
2.021927973620401
 20
7.583008039828954
 30
0.0
 11
2.021927973620401
 21
7.531008039828954
 31
0.0
  0
ARC
  5
118
330
18
100
AcDbEntity
  8
ADP1DETAIL
100
AcDbCircle
 10
1.972960227348814
 20
7.593008039828955
 30
0.0
 40
0.01
100
AcDbArc
 50
165.0
 51
270.0
  0
LINE
  5
119
330
18
100
AcDbEntity
  8
ADP1DETAIL
100
AcDbLine
 10
2.240927973620402
 20
7.521008039828954
 30
0.0
 11
2.240927973620401
 21
7.234008039828954
 31
0.0
  0
LINE
  5
11A
330
18
100
AcDbEntity
  8
ADP1DETAIL
100
AcDbLine
 10
2.365927973620402
 20
7.021008039828954
 30
0.0
 11
2.365927973620402
 21
7.521008039828954
 31
0.0
  0
LINE
  5
11B
330
18
100
AcDbEntity
  8
ADP1DETAIL
100
AcDbLine
 10
2.240927973620401
 20
7.184008039828953
 30
0.0
 11
2.240927973620402
 21
6.945008039828954
 31
0.0
  0
LWPOLYLINE
  5
11C
330
18
100
AcDbEntity
  8
ADP1DETAIL
100
AcDbPolyline
 90
        2
 70
     0
 43
0.0
 10
2.240927973620401
 20
7.184008039828953
 10
2.265927973620402
 20
7.209008039828954
  0
LWPOLYLINE
  5
120
330
18
100
AcDbEntity
  8
ADP1DETAIL
100
AcDbPolyline
 90
        2
 70
     0
 43
0.0
 10
2.265927973620402
 20
7.209008039828954
 10
2.240927973620401
 20
7.234008039828954
  0
ARC
  5
124
330
18
100
AcDbEntity
  8
ADP1DETAIL
100
AcDbCircle
 10
2.130927973620402
 20
6.959008039828954
 30
0.0
 40
0.031
100
AcDbArc
 50
90.0
 51
180.0
  0
ARC
  5
125
330
18
100
AcDbEntity
  8
ADP1DETAIL
100
AcDbCircle
 10
2.130927973620402
 20
6.927008039828954
 30
0.0
 40
0.031
100
AcDbArc
 50
180.0
 51
270.0
  0
LINE
  5
126
330
18
100
AcDbEntity
  8
ADP1DETAIL
100
AcDbLine
 10
2.130927973620402
 20
6.990008039828953
 30
0.0
 11
2.195927973620402
 21
6.990008039828954
 31
0.0
  0
LINE
  5
127
330
18
100
AcDbEntity
  8
ADP1DETAIL
100
AcDbLine
 10
2.099927973620402
 20
6.927008039828954
 30
0.0
 11
2.099927973620402
 21
6.959008039828954
 31
0.0
  0
LINE
  5
128
330
18
100
AcDbEntity
  8
ADP1DETAIL
100
AcDbLine
 10
2.240927973620402
 20
6.896008039828954
 30
0.0
 11
2.130927973620402
 21
6.896008039828954
 31
0.0
  0
LINE
  5
129
330
18
100
AcDbEntity
  8
ADP1DETAIL
100
AcDbLine
 10
2.240927973620402
 20
6.945008039828954
 30
0.0
 11
2.195927973620402
 21
6.990008039828954
 31
0.0
  0
ARC
  5
12A
330
18
100
AcDbEntity
  8
ADP1DETAIL
100
AcDbCircle
 10
2.240927973620402
 20
7.021008039828954
 30
0.0
 40
0.125
100
AcDbArc
 50
270.0
 51
0.0
  0
LINE
  5
12B
330
18
100
AcDbEntity
  8
ADP1DETAIL
100
AcDbLine
 10
5.95655497815488
 20
7.59559623027998
 30
0.0
 11
5.901827551446268
 21
7.799841767324023
 31
0.0
  0
DIMENSION
  5
12C
330
18
100
AcDbEntity
  8
ADPDIM
100
AcDbDimension
  2
*D1
 10
6.162308609832463
 20
7.521008039828954
 30
0.0
 11
6.162308609832462
 21
6.937674706495621
 31
0.0
100
AcDbAlignedDimension
 13
3.959927973620402
 23
7.958008039828955
 33
0.0
 14
5.887927973620402
 24
7.521008039828954
 34
0.0
 50
90.0
100
AcDbRotatedDimension
  0
ARC
  5
12D
330
18
100
AcDbEntity
  8
ADP1DETAIL
100
AcDbCircle
 10
5.887927973620402
 20
7.531008039828954
 30
0.0
 40
0.01
100
AcDbArc
 50
270.0
 51
0.000000000000007
  0
LINE
  5
12E
330
18
100
AcDbEntity
  8
ADP1DETAIL
100
AcDbLine
 10
5.819927973620401
 20
6.927008039828954
 30
0.0
 11
5.819927973620401
 21
6.959008039828954
 31
0.0
  0
ARC
  5
12F
330
18
100
AcDbEntity
  8
ADP1DETAIL
100
AcDbCircle
 10
5.788927973620401
 20
6.959008039828954
 30
0.0
 40
0.031
100
AcDbArc
 50
0.000000000000007
 51
90.0
  0
ARC
  5
130
330
18
100
AcDbEntity
  8
ADP1DETAIL
100
AcDbCircle
 10
5.788927973620401
 20
6.927008039828954
 30
0.0
 40
0.031
100
AcDbArc
 50
270.0
 51
0.000000000000007
  0
ARC
  5
131
330
18
100
AcDbEntity
  8
ADP1DETAIL
100
AcDbCircle
 10
5.678927973620401
 20
7.021008039828954
 30
0.0
 40
0.125
100
AcDbArc
 50
180.0
 51
270.0
  0
LINE
  5
132
330
18
100
AcDbEntity
  8
ADP1DETAIL
100
AcDbLine
 10
5.678927973620401
 20
7.184008039828953
 30
0.0
 11
5.678927973620401
 21
6.945008039828954
 31
0.0
  0
LINE
  5
133
330
18
100
AcDbEntity
  8
ADP1DETAIL
100
AcDbLine
 10
5.678927973620401
 20
6.945008039828954
 30
0.0
 11
5.723927973620401
 21
6.990008039828954
 31
0.0
  0
LWPOLYLINE
  5
134
330
18
100
AcDbEntity
  8
ADP1DETAIL
100
AcDbPolyline
 90
        2
 70
     0
 43
0.0
 10
5.653927973620401
 20
7.209008039828954
 10
5.678927973620401
 20
7.234008039828954
  0
LWPOLYLINE
  5
138
330
18
100
AcDbEntity
  8
ADP1DETAIL
100
AcDbPolyline
 90
        2
 70
     0
 43
0.0
 10
5.678927973620401
 20
7.184008039828953
 10
5.653927973620401
 20
7.209008039828954
  0
LINE
  5
13C
330
18
100
AcDbEntity
  8
ADP1DETAIL
100
AcDbLine
 10
5.678927973620401
 20
7.521008039828954
 30
0.0
 11
5.678927973620401
 21
7.234008039828954
 31
0.0
  0
LINE
  5
13D
330
18
100
AcDbEntity
  8
ADP1DETAIL
100
AcDbLine
 10
5.553927973620401
 20
7.021008039828954
 30
0.0
 11
5.553927973620401
 21
7.521008039828954
 31
0.0
  0
LINE
  5
13E
330
18
100
AcDbEntity
  8
ADP1DETAIL
100
AcDbLine
 10
5.788927973620401
 20
6.990008039828953
 30
0.0
 11
5.723927973620401
 21
6.990008039828954
 31
0.0
  0
LINE
  5
13F
330
18
100
AcDbEntity
  8
ADP1DETAIL
100
AcDbLine
 10
5.678927973620401
 20
6.896008039828954
 30
0.0
 11
5.788927973620401
 21
6.896008039828954
 31
0.0
  0
ARC
  5
140
330
18
100
AcDbEntity
  8
ADP1DETAIL
100
AcDbCircle
 10
5.94689571989199
 20
7.593008039828955
 30
0.0
 40
0.01
100
AcDbArc
 50
270.0
 51
14.99999999999994
  0
LINE
  5
141
330
18
100
AcDbEntity
  8
ADP1DETAIL
100
AcDbLine
 10
5.897927973620402
 20
7.583008039828954
 30
0.0
 11
5.897927973620402
 21
7.531008039828954
 31
0.0
  0
LINE
  5
142
330
18
100
AcDbEntity
  8
ADP1DETAIL
100
AcDbLine
 10
6.98861346208061
 20
7.944632433886017
 30
0.0
 11
6.98861346208061
 21
7.578493486729127
 31
0.0
  0
LINE
  5
143
330
18
100
AcDbEntity
  8
ADP1DETAIL
100
AcDbLine
 10
6.98861346208061
 20
7.578493486729127
 30
0.0
 11
10.98861346208061
 21
7.578493486729127
 31
0.0
  0
LINE
  5
144
330
18
100
AcDbEntity
  8
ADP1DETAIL
100
AcDbLine
 10
7.05111346208061
 20
7.522132433886016
 30
0.0
 11
10.92611346208061
 21
7.522132433886016
 31
0.0
  0
LINE
  5
145
330
18
100
AcDbEntity
  8
ADP1DETAIL
100
AcDbLine
 10
7.05111346208061
 20
7.235428233482936
 30
0.0
 11
10.92611346208061
 21
7.235428233482936
 31
0.0
  0
LINE
  5
146
330
18
100
AcDbEntity
  8
ADP1DETAIL
100
AcDbLine
 10
7.05111346208061
 20
6.896008039828954
 30
0.0
 11
10.92611346208061
 21
6.896008039828954
 31
0.0
  0
LINE
  5
147
330
18
100
AcDbEntity
  8
ADP1DETAIL
100
AcDbLine
 10
7.05111346208061
 20
6.988850078243919
 30
0.0
 11
10.92611346208061
 21
6.988850078243919
 31
0.0
  0
LINE
  5
148
330
18
100
AcDbEntity
  8
ADP1DETAIL
100
AcDbLine
 10
7.05111346208061
 20
7.173153051221372
 30
0.0
 11
10.92611346208061
 21
7.173153051221372
 31
0.0
  0
LINE
  5
149
330
18
100
AcDbEntity
  8
ADP1DETAIL
100
AcDbLine
 10
7.05111346208061
 20
7.20657668396266
 30
0.0
 11
10.92611346208061
 21
7.20657668396266
 31
0.0
  0
LINE
  5
14A
330
18
100
AcDbEntity
  8
ADP1DETAIL
100
AcDbLine
 10
10.92611346208061
 20
7.578493486729127
 30
0.0
 11
10.92611346208061
 21
6.896008039828954
 31
0.0
  0
LINE
  5
14B
330
18
100
AcDbEntity
  8
ADP1DETAIL
100
AcDbLine
 10
7.05111346208061
 20
7.578493486729127
 30
0.0
 11
7.05111346208061
 21
6.896008039828954
 31
0.0
  0
DIMENSION
  5
14C
330
18
100
AcDbEntity
  8
ADPDIM
100
AcDbDimension
  2
*D2
 10
6.98861346208061
 20
8.10666138822582
 30
0.0
 11
8.988613462080611
 21
8.10666138822582
 31
0.0
 12
2.283977243157418
 22
2.665894287427059
 32
0.0
100
AcDbAlignedDimension
 13
10.98861346208061
 23
7.944632433886017
 33
0.0
 14
6.98861346208061
 24
7.944632433886017
 34
0.0
100
AcDbRotatedDimension
  0
LINE
  5
14D
330
18
100
AcDbEntity
  8
ADP1DETAIL
100
AcDbLine
 10
10.98861346208061
 20
7.578493486729127
 30
0.0
 11
10.98861346208061
 21
7.944632433886016
 31
0.0
  0
LINE
  5
14E
330
18
100
AcDbEntity
  8
ADP1DETAIL
100
AcDbLine
 10
7.003613462080609
 20
7.959632433886016
 30
0.0
 11
10.97361346208061
 21
7.959632433886016
 31
0.0
  0
ARC
  5
14F
330
18
100
AcDbEntity
  8
ADP1DETAIL
100
AcDbCircle
 10
7.003613462080609
 20
7.944632433886017
 30
0.0
 40
0.015
100
AcDbArc
 50
89.99999999999998
 51
180.0
  0
ARC
  5
150
330
18
100
AcDbEntity
  8
ADP1DETAIL
100
AcDbCircle
 10
10.97361346208061
 20
7.944632433886016
 30
0.0
 40
0.015
100
AcDbArc
 50
0.0
 51
89.99999999999998
  0
TEXT
  5
15E
330
18
100
AcDbEntity
  8
ADPDIM
100
AcDbText
 10
0.1481265188578451
 20
5.814423091528448
 30
0.0
 40
0.125
  1
J U L I U S  B L U M  &  C O . ,  I N C .      ( 8 0 0 )  5 2 6 - 6 2 9 3        W W W . J U L I U S B L U M . C O M        P A R T  N o .  5 1 4 0
 41
1.25
  7
ARIAL_WIDE
 72
     1
 11
6.673855543414461
 21
5.939423091528448
 31
0.0
100
AcDbText
 73
     3
  0
ENDSEC
  0
SECTION
  2
OBJECTS
  0
DICTIONARY
  5
C
330
0
100
AcDbDictionary
  3
ACAD_GROUP
350
D
  3
ACAD_LAYOUT
350
157
  3
ACAD_MLINESTYLE
350
E
  3
ACAD_PLOTSETTINGS
350
158
  3
ACAD_PLOTSTYLENAME
350
155
  3
ACDBHEADERROUNDTRIPXREC
350
2A2
  3
ACDBVARIABLEDICTIONARY
350
1B8
  0
DICTIONARY
  5
1B2
330
18
100
AcDbDictionary
280
     1
  3
ACAD_LAYOUTSELFREF
360
2C3
  0
DICTIONARY
  5
1B0
330
15
100
AcDbDictionary
280
     1
  3
ACAD_LAYOUTSELFREF
360
2C2
  0
DICTIONARY
  5
D
102
{ACAD_REACTORS
330
C
102
}
330
C
100
AcDbDictionary
  0
DICTIONARY
  5
157
102
{ACAD_REACTORS
330
C
102
}
330
C
100
AcDbDictionary
  0
DICTIONARY
  5
E
102
{ACAD_REACTORS
330
C
102
}
330
C
100
AcDbDictionary
  3
STANDARD
350
1B
  0
DICTIONARY
  5
158
102
{ACAD_REACTORS
330
C
102
}
330
C
100
AcDbDictionary
  0
ACDBDICTIONARYWDFLT
  5
155
102
{ACAD_REACTORS
330
C
102
}
330
C
100
AcDbDictionary
281
     1
  3
Normal
350
156
100
AcDbDictionaryWithDefault
340
156
  0
DICTIONARY
  5
2A2
102
{ACAD_REACTORS
330
C
102
}
330
C
100
AcDbDictionary
  3
CEPSNTYPE
350
2AC
  3
FINGERPRINTGUID
350
2AD
  3
HYPERLINKBASE
350
2A5
  3
INSUNITS
350
2AB
  3
LAYOUTDICT
350
2A7
  3
LWETCUNION
350
2AA
  3
PLOTSETDICT
350
2A8
  3
PLOTSTYLNAMDICT
350
2A9
  3
PSVPSCALE
350
2AF
  3
PUCSBASE
350
2B2
  3
PUCSORGBACK
350
2B8
  3
PUCSORGBOTTOM
350
2B4
  3
PUCSORGFRONT
350
2B7
  3
PUCSORGLEFT
350
2B5
  3
PUCSORGRIGHT
350
2B6
  3
PUCSORGTOP
350
2B3
  3
PUCSORTHOREF
350
2B0
  3
PUCSORTHOVIEW
350
2B1
  3
STYLESHEET
350
2A6
  3
TSTACKALIGN
350
2A3
  3
TSTACKSIZE
350
2A4
  3
UCSBASE
350
2BB
  3
UCSORGBACK
350
2C1
  3
UCSORGBOTTOM
350
2BD
  3
UCSORGFRONT
350
2C0
  3
UCSORGLEFT
350
2BE
  3
UCSORGRIGHT
350
2BF
  3
UCSORGTOP
350
2BC
  3
UCSORTHOREF
350
2B9
  3
UCSORTHOVIEW
350
2BA
  3
VERSIONGUID
350
2AE
  0
DICTIONARY
  5
1B8
102
{ACAD_REACTORS
330
C
102
}
330
C
100
AcDbDictionary
  3
DIMASSOC
350
1B9
  0
XRECORD
  5
2C3
102
{ACAD_REACTORS
330
1B2
102
}
330
1B2
100
AcDbXrecord
340
18
  0
XRECORD
  5
2C2
102
{ACAD_REACTORS
330
1B0
102
}
330
1B0
100
AcDbXrecord
340
15
  0
MLINESTYLE
  5
1B
102
{ACAD_REACTORS
330
E
102
}
330
E
100
AcDbMlineStyle
  2
STANDARD
 70
     0
  3

 62
     0
 51
90.0
 52
90.0
 71
     2
 49
0.5
 62
   256
  6
BYLAYER
 49
-0.5
 62
   256
  6
BYLAYER
  0
ACDBPLACEHOLDER
  5
156
102
{ACAD_REACTORS
330
155
102
}
330
155
100
AcDbPlaceHolder
280
     0
  0
XRECORD
  5
2AC
102
{ACAD_REACTORS
330
2A2
102
}
330
2A2
100
AcDbXrecord
 90
        0
  0
XRECORD
  5
2AD
102
{ACAD_REACTORS
330
2A2
102
}
330
2A2
100
AcDbXrecord
  1
{BF4CE8CD-F441-4140-8170-3A423D5FBAD4}
  0
XRECORD
  5
2A5
102
{ACAD_REACTORS
330
2A2
102
}
330
2A2
100
AcDbXrecord
  1

  0
XRECORD
  5
2AB
102
{ACAD_REACTORS
330
2A2
102
}
330
2A2
100
AcDbXrecord
 90
        0
  0
XRECORD
  5
2A7
102
{ACAD_REACTORS
330
2A2
102
}
330
2A2
100
AcDbXrecord
340
157
  0
XRECORD
  5
2AA
102
{ACAD_REACTORS
330
2A2
102
}
330
2A2
100
AcDbXrecord
 90
    14877
  0
XRECORD
  5
2A8
102
{ACAD_REACTORS
330
2A2
102
}
330
2A2
100
AcDbXrecord
340
158
  0
XRECORD
  5
2A9
102
{ACAD_REACTORS
330
2A2
102
}
330
2A2
100
AcDbXrecord
340
155
  0
XRECORD
  5
2AF
102
{ACAD_REACTORS
330
2A2
102
}
330
2A2
100
AcDbXrecord
 40
0.0
  0
XRECORD
  5
2B2
102
{ACAD_REACTORS
330
2A2
102
}
330
2A2
100
AcDbXrecord
340
0
  0
XRECORD
  5
2B8
102
{ACAD_REACTORS
330
2A2
102
}
330
2A2
100
AcDbXrecord
 10
0.0
 20
0.0
 30
0.0
  0
XRECORD
  5
2B4
102
{ACAD_REACTORS
330
2A2
102
}
330
2A2
100
AcDbXrecord
 10
0.0
 20
0.0
 30
0.0
  0
XRECORD
  5
2B7
102
{ACAD_REACTORS
330
2A2
102
}
330
2A2
100
AcDbXrecord
 10
0.0
 20
0.0
 30
0.0
  0
XRECORD
  5
2B5
102
{ACAD_REACTORS
330
2A2
102
}
330
2A2
100
AcDbXrecord
 10
0.0
 20
0.0
 30
0.0
  0
XRECORD
  5
2B6
102
{ACAD_REACTORS
330
2A2
102
}
330
2A2
100
AcDbXrecord
 10
0.0
 20
0.0
 30
0.0
  0
XRECORD
  5
2B3
102
{ACAD_REACTORS
330
2A2
102
}
330
2A2
100
AcDbXrecord
 10
0.0
 20
0.0
 30
0.0
  0
XRECORD
  5
2B0
102
{ACAD_REACTORS
330
2A2
102
}
330
2A2
100
AcDbXrecord
340
0
  0
XRECORD
  5
2B1
102
{ACAD_REACTORS
330
2A2
102
}
330
2A2
100
AcDbXrecord
 70
     0
  0
XRECORD
  5
2A6
102
{ACAD_REACTORS
330
2A2
102
}
330
2A2
100
AcDbXrecord
  1

  0
XRECORD
  5
2A3
102
{ACAD_REACTORS
330
2A2
102
}
330
2A2
100
AcDbXrecord
 90
        1
  0
XRECORD
  5
2A4
102
{ACAD_REACTORS
330
2A2
102
}
330
2A2
100
AcDbXrecord
 90
       70
  0
XRECORD
  5
2BB
102
{ACAD_REACTORS
330
2A2
102
}
330
2A2
100
AcDbXrecord
340
0
  0
XRECORD
  5
2C1
102
{ACAD_REACTORS
330
2A2
102
}
330
2A2
100
AcDbXrecord
 10
0.0
 20
0.0
 30
0.0
  0
XRECORD
  5
2BD
102
{ACAD_REACTORS
330
2A2
102
}
330
2A2
100
AcDbXrecord
 10
0.0
 20
0.0
 30
0.0
  0
XRECORD
  5
2C0
102
{ACAD_REACTORS
330
2A2
102
}
330
2A2
100
AcDbXrecord
 10
0.0
 20
0.0
 30
0.0
  0
XRECORD
  5
2BE
102
{ACAD_REACTORS
330
2A2
102
}
330
2A2
100
AcDbXrecord
 10
0.0
 20
0.0
 30
0.0
  0
XRECORD
  5
2BF
102
{ACAD_REACTORS
330
2A2
102
}
330
2A2
100
AcDbXrecord
 10
0.0
 20
0.0
 30
0.0
  0
XRECORD
  5
2BC
102
{ACAD_REACTORS
330
2A2
102
}
330
2A2
100
AcDbXrecord
 10
0.0
 20
0.0
 30
0.0
  0
XRECORD
  5
2B9
102
{ACAD_REACTORS
330
2A2
102
}
330
2A2
100
AcDbXrecord
340
0
  0
XRECORD
  5
2BA
102
{ACAD_REACTORS
330
2A2
102
}
330
2A2
100
AcDbXrecord
 70
     0
  0
XRECORD
  5
2AE
102
{ACAD_REACTORS
330
2A2
102
}
330
2A2
100
AcDbXrecord
  1
{E0D727C7-9492-4591-9D1E-ABC80EFDCB24}
  0
DICTIONARYVAR
  5
1B9
102
{ACAD_REACTORS
330
1B8
102
}
330
1B8
100
DictionaryVariables
280
     0
  1
1
  0
ENDSEC
  0
EOF
