  0
SECTION
  2
HEADER
  9
$ACADVER
  1
AC1014
  9
$ACADMAINTVER
 70
     9
  9
$DWGCODEPAGE
  3
ANSI_1252
  9
$INSBASE
 10
9.224323324168027
 20
12.67210786280847
 30
0.0
  9
$EXTMIN
 10
0.0172336799115467
 20
11.42469151080088
 30
0.0
  9
$EXTMAX
 10
12.88664875494565
 20
17.53741627388807
 30
0.0
  9
$LIMMIN
 10
0.0
 20
0.0
  9
$LIMMAX
 10
36.0
 20
36.0
  9
$ORTHOMODE
 70
     1
  9
$REGENMODE
 70
     1
  9
$FILLMODE
 70
     1
  9
$QTEXTMODE
 70
     0
  9
$MIRRTEXT
 70
     1
  9
$DRAGMODE
 70
     0
  9
$LTSCALE
 40
1.0
  9
$OSMODE
 70
    37
  9
$ATTMODE
 70
     1
  9
$TEXTSIZE
 40
0.2
  9
$TRACEWID
 40
0.05
  9
$TEXTSTYLE
  7
STANDARD
  9
$CLAYER
  8
ADP1DETAIL
  9
$CELTYPE
  6
BYLAYER
  9
$CECOLOR
 62
   256
  9
$CELTSCALE
 40
1.0
  9
$DELOBJ
 70
     1
  9
$DISPSILH
 70
     0
  9
$DIMSCALE
 40
1.0
  9
$DIMASZ
 40
0.125
  9
$DIMEXO
 40
0.0625
  9
$DIMDLI
 40
0.38
  9
$DIMRND
 40
0.0
  9
$DIMDLE
 40
0.0
  9
$DIMEXE
 40
0.18
  9
$DIMTP
 40
0.0
  9
$DIMTM
 40
0.0
  9
$DIMTXT
 40
0.125
  9
$DIMCEN
 40
0.1875
  9
$DIMTSZ
 40
0.125
  9
$DIMTOL
 70
     0
  9
$DIMLIM
 70
     0
  9
$DIMTIH
 70
     0
  9
$DIMTOH
 70
     0
  9
$DIMSE1
 70
     0
  9
$DIMSE2
 70
     0
  9
$DIMTAD
 70
     0
  9
$DIMZIN
 70
     3
  9
$DIMBLK
  1

  9
$DIMASO
 70
     1
  9
$DIMSHO
 70
     1
  9
$DIMPOST
  1

  9
$DIMAPOST
  1

  9
$DIMALT
 70
     0
  9
$DIMALTD
 70
     1
  9
$DIMALTF
 40
25.4
  9
$DIMLFAC
 40
1.0
  9
$DIMTOFL
 70
     0
  9
$DIMTVP
 40
0.0
  9
$DIMTIX
 70
     0
  9
$DIMSOXD
 70
     0
  9
$DIMSAH
 70
     0
  9
$DIMBLK1
  1

  9
$DIMBLK2
  1

  9
$DIMSTYLE
  2
STANDARD
  9
$DIMCLRD
 70
     0
  9
$DIMCLRE
 70
     0
  9
$DIMCLRT
 70
     0
  9
$DIMTFAC
 40
1.0
  9
$DIMGAP
 40
0.125
  9
$DIMJUST
 70
     0
  9
$DIMSD1
 70
     0
  9
$DIMSD2
 70
     0
  9
$DIMTOLJ
 70
     1
  9
$DIMTZIN
 70
     0
  9
$DIMALTZ
 70
     0
  9
$DIMALTTZ
 70
     0
  9
$DIMFIT
 70
     3
  9
$DIMUPT
 70
     0
  9
$DIMUNIT
 70
     2
  9
$DIMDEC
 70
     4
  9
$DIMTDEC
 70
     4
  9
$DIMALTU
 70
     2
  9
$DIMALTTD
 70
     2
  9
$DIMTXSTY
  7
STANDARD
  9
$DIMAUNIT
 70
     0
  9
$LUNITS
 70
     5
  9
$LUPREC
 70
     4
  9
$SKETCHINC
 40
0.1
  9
$FILLETRAD
 40
0.062
  9
$AUNITS
 70
     0
  9
$AUPREC
 70
     0
  9
$MENU
  1
acad
  9
$ELEVATION
 40
0.0
  9
$PELEVATION
 40
0.0
  9
$THICKNESS
 40
0.0
  9
$LIMCHECK
 70
     0
  9
$BLIPMODE
 70
     0
  9
$CHAMFERA
 40
0.0
  9
$CHAMFERB
 40
0.0
  9
$CHAMFERC
 40
0.0
  9
$CHAMFERD
 40
0.0
  9
$SKPOLY
 70
     0
  9
$TDCREATE
 40
2450382.654133484
  9
$TDUPDATE
 40
2452297.071596678
  9
$TDINDWG
 40
0.0185635648
  9
$TDUSRTIMER
 40
0.0185635648
  9
$USRTIMER
 70
     1
  9
$ANGBASE
 50
0.0
  9
$ANGDIR
 70
     0
  9
$PDMODE
 70
     0
  9
$PDSIZE
 40
0.0
  9
$PLINEWID
 40
0.0
  9
$COORDS
 70
     2
  9
$SPLFRAME
 70
     0
  9
$SPLINETYPE
 70
     6
  9
$SPLINESEGS
 70
     8
  9
$ATTDIA
 70
     0
  9
$ATTREQ
 70
     1
  9
$HANDLING
 70
 22529
  9
$HANDSEED
  5
29E
  9
$SURFTAB1
 70
     6
  9
$SURFTAB2
 70
     6
  9
$SURFTYPE
 70
     6
  9
$SURFU
 70
     6
  9
$SURFV
 70
     6
  9
$UCSNAME
  2

  9
$UCSORG
 10
0.0
 20
0.0
 30
0.0
  9
$UCSXDIR
 10
1.0
 20
0.0
 30
0.0
  9
$UCSYDIR
 10
0.0
 20
1.0
 30
0.0
  9
$PUCSNAME
  2

  9
$PUCSORG
 10
0.0
 20
0.0
 30
0.0
  9
$PUCSXDIR
 10
1.0
 20
0.0
 30
0.0
  9
$PUCSYDIR
 10
0.0
 20
1.0
 30
0.0
  9
$USERI1
 70
     0
  9
$USERI2
 70
     0
  9
$USERI3
 70
     0
  9
$USERI4
 70
     0
  9
$USERI5
 70
     0
  9
$USERR1
 40
0.0
  9
$USERR2
 40
0.0
  9
$USERR3
 40
0.0
  9
$USERR4
 40
0.0
  9
$USERR5
 40
0.0
  9
$WORLDVIEW
 70
     1
  9
$SHADEDGE
 70
     3
  9
$SHADEDIF
 70
    70
  9
$TILEMODE
 70
     1
  9
$MAXACTVP
 70
    15
  9
$PINSBASE
 10
0.0
 20
0.0
 30
0.0
  9
$PLIMCHECK
 70
     0
  9
$PEXTMIN
 10
1.000000000000000E+20
 20
1.000000000000000E+20
 30
1.000000000000000E+20
  9
$PEXTMAX
 10
-1.000000000000000E+20
 20
-1.000000000000000E+20
 30
-1.000000000000000E+20
  9
$PLIMMIN
 10
0.0
 20
0.0
  9
$PLIMMAX
 10
12.0
 20
9.0
  9
$UNITMODE
 70
     0
  9
$VISRETAIN
 70
     0
  9
$PLINEGEN
 70
     0
  9
$PSLTSCALE
 70
     1
  9
$TREEDEPTH
 70
  3020
  9
$PICKSTYLE
 70
     1
  9
$CMLSTYLE
  2
STANDARD
  9
$CMLJUST
 70
     0
  9
$CMLSCALE
 40
1.0
  9
$PROXYGRAPHICS
 70
     1
  9
$MEASUREMENT
 70
     0
  0
ENDSEC
  0
SECTION
  2
CLASSES
  0
CLASS
  1
ACDBDICTIONARYWDFLT
  2
AcDbDictionaryWithDefault
  3
AutoCAD 2000
 90
        0
280
     0
281
     0
  0
CLASS
  1
ACDBPLACEHOLDER
  2
AcDbPlaceHolder
  3
AutoCAD 2000
 90
        0
280
     0
281
     0
  0
CLASS
  1
LAYOUT
  2
AcDbLayout
  3
AutoCAD 2000
 90
        0
280
     0
281
     0
  0
CLASS
  1
DICTIONARYVAR
  2
AcDbDictionaryVar
  3
AutoCAD 2000
 90
        0
280
     0
281
     0
  0
CLASS
  1
LONG_TRANSACTION
  2
AcDbLongTransaction
  3
AutoCAD 2000
 90
        0
280
     0
281
     0
  0
CLASS
  1
LWPOLYLINE
  2
AcDbPolyline
  3
AutoCAD 2000
 90
        0
280
     0
281
     1
  0
CLASS
  1
HATCH
  2
AcDbHatch
  3
AutoCAD 2000
 90
        0
280
     0
281
     1
  0
CLASS
  1
XRECORD
  2
AcDbXrecord
  3
AutoCAD 2000
 90
        0
280
     0
281
     0
  0
CLASS
  1
LONG_TRANSACTION
  2
AcDbLongTransaction
  3
AutoCAD 2000
 90
        0
280
     0
281
     0
  0
CLASS
  1
LWPOLYLINE
  2
AcDbPolyline
  3
AutoCAD 2000
 90
        0
280
     0
281
     1
  0
CLASS
  1
HATCH
  2
AcDbHatch
  3
AutoCAD 2000
 90
        0
280
     0
281
     1
  0
CLASS
  1
XRECORD
  2
AcDbXrecord
  3
AutoCAD 2000
 90
        0
280
     0
281
     0
  0
CLASS
  1
LONG_TRANSACTION
  2
AcDbLongTransaction
  3
AutoCAD 2000
 90
        0
280
     0
281
     0
  0
CLASS
  1
LWPOLYLINE
  2
AcDbPolyline
  3
AutoCAD 2000
 90
        0
280
     0
281
     1
  0
CLASS
  1
HATCH
  2
AcDbHatch
  3
AutoCAD 2000
 90
        0
280
     0
281
     1
  0
CLASS
  1
XRECORD
  2
AcDbXrecord
  3
AutoCAD 2000
 90
        0
280
     0
281
     0
  0
CLASS
  1
LONG_TRANSACTION
  2
AcDbLongTransaction
  3
AutoCAD 2000
 90
        0
280
     0
281
     0
  0
CLASS
  1
LWPOLYLINE
  2
AcDbPolyline
  3
AutoCAD 2000
 90
        0
280
     0
281
     1
  0
CLASS
  1
HATCH
  2
AcDbHatch
  3
AutoCAD 2000
 90
        0
280
     0
281
     1
  0
CLASS
  1
XRECORD
  2
AcDbXrecord
  3
AutoCAD 2000
 90
        0
280
     0
281
     0
  0
CLASS
  1
LONG_TRANSACTION
  2
AcDbLongTransaction
  3
AutoCAD 2000
 90
        0
280
     0
281
     0
  0
CLASS
  1
LWPOLYLINE
  2
AcDbPolyline
  3
AutoCAD 2000
 90
        0
280
     0
281
     1
  0
CLASS
  1
HATCH
  2
AcDbHatch
  3
AutoCAD 2000
 90
        0
280
     0
281
     1
  0
CLASS
  1
XRECORD
  2
AcDbXrecord
  3
AutoCAD 2000
 90
        0
280
     0
281
     0
  0
ENDSEC
  0
SECTION
  2
TABLES
  0
TABLE
  2
VPORT
  5
8
330
0
100
AcDbSymbolTable
 70
     2
  0
VPORT
  5
27B
330
8
100
AcDbSymbolTableRecord
100
AcDbViewportTableRecord
  2
*ACTIVE
 70
     0
 10
0.0
 20
0.0
 11
1.0
 21
1.0
 12
6.462507034658044
 22
14.48162849769186
 13
0.0
 23
0.0
 14
0.5740882589684922
 24
0.5740882589684922
 15
0.5
 25
0.5
 16
0.0
 26
0.0
 36
1.0
 17
0.0
 27
0.0
 37
0.0
 40
8.249980721973649
 41
1.570528967254408
 42
50.0
 43
0.0
 44
0.0
 50
0.0
 51
0.0
 71
     0
 72
   100
 73
     1
 74
     0
 75
     0
 76
     0
 77
     0
 78
     0
  0
ENDTAB
  0
TABLE
  2
LTYPE
  5
5
330
0
100
AcDbSymbolTable
 70
     2
  0
LTYPE
  5
12
330
5
100
AcDbSymbolTableRecord
100
AcDbLinetypeTableRecord
  2
BYBLOCK
 70
     0
  3

 72
    65
 73
     0
 40
0.0
  0
LTYPE
  5
13
330
5
100
AcDbSymbolTableRecord
100
AcDbLinetypeTableRecord
  2
BYLAYER
 70
     0
  3

 72
    65
 73
     0
 40
0.0
  0
LTYPE
  5
14
330
5
100
AcDbSymbolTableRecord
100
AcDbLinetypeTableRecord
  2
CONTINUOUS
 70
     0
  3
Solid line
 72
    65
 73
     0
 40
0.0
  0
LTYPE
  5
86
330
5
100
AcDbSymbolTableRecord
100
AcDbLinetypeTableRecord
  2
HIDDEN
 70
     0
  3
__ __ __ __ __ __ __ __ __ __ __ __ __ __ __ __
 72
    65
 73
     2
 40
0.375
 49
0.25
 74
     0
 49
-0.125
 74
     0
  0
ENDTAB
  0
TABLE
  2
LAYER
  5
2
330
0
100
AcDbSymbolTable
 70
     5
  0
LAYER
  5
F
330
2
100
AcDbSymbolTableRecord
100
AcDbLayerTableRecord
  2
0
 70
     0
 62
     7
  6
CONTINUOUS
  0
LAYER
  5
87
330
2
100
AcDbSymbolTableRecord
100
AcDbLayerTableRecord
  2
ADP2DETAIL
 70
     0
 62
     5
  6
CONTINUOUS
  0
LAYER
  5
8A
330
2
100
AcDbSymbolTableRecord
100
AcDbLayerTableRecord
  2
ADP1DETAIL
 70
     0
 62
     7
  6
CONTINUOUS
  0
LAYER
  5
8C
330
2
100
AcDbSymbolTableRecord
100
AcDbLayerTableRecord
  2
DEFPOINTS
 70
     0
 62
     7
  6
CONTINUOUS
  0
LAYER
  5
8E
330
2
100
AcDbSymbolTableRecord
100
AcDbLayerTableRecord
  2
ADPDIM
 70
     0
 62
     3
  6
CONTINUOUS
  0
ENDTAB
  0
TABLE
  2
STYLE
  5
3
330
0
100
AcDbSymbolTable
 70
     2
  0
STYLE
  5
10
330
3
100
AcDbSymbolTableRecord
100
AcDbTextStyleTableRecord
  2
STANDARD
 70
     0
 40
0.0
 41
1.0
 50
0.0
 71
     0
 42
0.2
  3
txt
  4

  0
STYLE
  5
136
330
3
100
AcDbSymbolTableRecord
100
AcDbTextStyleTableRecord
  2
ARIAL_WIDE
 70
     0
 40
0.0
 41
1.25
 50
0.0
 71
     0
 42
0.2
  3
ARIAL.TTF
  4

1001
ACAD
1000
Arial
1071
       34
  0
ENDTAB
  0
TABLE
  2
VIEW
  5
6
330
0
100
AcDbSymbolTable
 70
     0
  0
ENDTAB
  0
TABLE
  2
UCS
  5
7
330
0
100
AcDbSymbolTable
 70
     0
  0
ENDTAB
  0
TABLE
  2
APPID
  5
9
330
0
100
AcDbSymbolTable
 70
     1
  0
APPID
  5
11
330
9
100
AcDbSymbolTableRecord
100
AcDbRegAppTableRecord
  2
ACAD
 70
     0
  0
ENDTAB
  0
TABLE
  2
DIMSTYLE
  5
A
330
0
100
AcDbSymbolTable
 70
     1
  0
DIMSTYLE
105
12A
330
A
100
AcDbSymbolTableRecord
100
AcDbDimStyleTableRecord
  2
STANDARD
 70
     0
  3

  4

  5

  6

  7

 40
1.0
 41
0.18
 42
0.0625
 43
0.38
 44
0.18
 45
0.0
 46
0.0
 47
0.0
 48
0.0
140
0.18
141
0.09
142
0.0
143
25.4
144
1.0
145
0.0
146
1.0
147
0.09
 71
     0
 72
     0
 73
     1
 74
     1
 75
     0
 76
     0
 77
     0
 78
     0
170
     0
171
     2
172
     0
173
     0
174
     0
175
     0
176
     0
177
     0
178
     0
270
     2
271
     4
272
     4
273
     2
274
     2
340
10
275
     0
280
     0
281
     0
282
     0
283
     1
284
     0
285
     0
286
     0
287
     3
288
     0
  0
ENDTAB
  0
TABLE
  2
BLOCK_RECORD
  5
1
330
0
100
AcDbSymbolTable
 70
     7
  0
BLOCK_RECORD
  5
18
102
{ACAD_XDICTIONARY
360
18B
102
}
330
1
100
AcDbSymbolTableRecord
100
AcDbBlockTableRecord
  2
*MODEL_SPACE
  0
BLOCK_RECORD
  5
15
102
{ACAD_XDICTIONARY
360
189
102
}
330
1
100
AcDbSymbolTableRecord
100
AcDbBlockTableRecord
  2
*PAPER_SPACE
  0
BLOCK_RECORD
  5
6C
330
1
100
AcDbSymbolTableRecord
100
AcDbBlockTableRecord
  2
*D0
  0
BLOCK_RECORD
  5
6D
330
1
100
AcDbSymbolTableRecord
100
AcDbBlockTableRecord
  2
*D1
  0
BLOCK_RECORD
  5
6E
330
1
100
AcDbSymbolTableRecord
100
AcDbBlockTableRecord
  2
*D2
  0
BLOCK_RECORD
  5
6F
330
1
100
AcDbSymbolTableRecord
100
AcDbBlockTableRecord
  2
*D3
  0
BLOCK_RECORD
  5
70
330
1
100
AcDbSymbolTableRecord
100
AcDbBlockTableRecord
  2
*D4
  0
BLOCK_RECORD
  5
71
330
1
100
AcDbSymbolTableRecord
100
AcDbBlockTableRecord
  2
*D5
  0
BLOCK_RECORD
  5
72
330
1
100
AcDbSymbolTableRecord
100
AcDbBlockTableRecord
  2
*D6
  0
ENDTAB
  0
ENDSEC
  0
SECTION
  2
BLOCKS
  0
BLOCK
  5
91
330
18
100
AcDbEntity
  8
0
100
AcDbBlockBegin
  2
*MODEL_SPACE
 70
     0
 10
0.0
 20
0.0
 30
0.0
  3
*MODEL_SPACE
  1

  0
ENDBLK
  5
92
330
18
100
AcDbEntity
  8
0
100
AcDbBlockEnd
  0
BLOCK
  5
8F
330
15
100
AcDbEntity
 67
     1
  8
0
100
AcDbBlockBegin
  2
*PAPER_SPACE
 70
     0
 10
0.0
 20
0.0
 30
0.0
  3
*PAPER_SPACE
  1

  0
ENDBLK
  5
90
330
15
100
AcDbEntity
 67
     1
  8
0
100
AcDbBlockEnd
  0
BLOCK
  5
94
330
6C
100
AcDbEntity
  8
0
100
AcDbBlockBegin
  2
*D0
 70
     1
 10
0.0
 20
0.0
 30
0.0
  3
*D0
  1

  0
LINE
  5
95
330
6C
100
AcDbEntity
  8
0
  6
BYBLOCK
 62
     0
100
AcDbLine
 10
7.724323324168027
 20
17.02726983230916
 30
0.0
 11
7.724323324168027
 21
17.2052282372008
 31
0.0
  0
LINE
  5
96
330
6C
100
AcDbEntity
  8
0
  6
BYBLOCK
 62
     0
100
AcDbLine
 10
8.724323324168027
 20
17.02726983230916
 30
0.0
 11
8.724323324168027
 21
17.2052282372008
 31
0.0
  0
LINE
  5
97
330
6C
100
AcDbEntity
  8
0
  6
BYBLOCK
 62
     0
100
AcDbLine
 10
7.724323324168027
 20
17.02522823720079
 30
0.0
 11
8.078489990834693
 21
17.02522823720079
 31
0.0
  0
LINE
  5
98
330
6C
100
AcDbEntity
  8
0
  6
BYBLOCK
 62
     0
100
AcDbLine
 10
8.724323324168027
 20
17.02522823720079
 30
0.0
 11
8.370156657501361
 21
17.02522823720079
 31
0.0
  0
LINE
  5
99
330
6C
100
AcDbEntity
  8
0
  6
BYBLOCK
 62
     0
100
AcDbLine
 10
7.599323324168027
 20
16.9002282372008
 30
0.0
 11
7.849323324168027
 21
17.15022823720079
 31
0.0
  0
LINE
  5
9A
330
6C
100
AcDbEntity
  8
0
  6
BYBLOCK
 62
     0
100
AcDbLine
 10
8.599323324168027
 20
16.9002282372008
 30
0.0
 11
8.849323324168027
 21
17.15022823720079
 31
0.0
  0
TEXT
  5
9B
330
6C
100
AcDbEntity
  8
0
  6
BYBLOCK
 62
     0
100
AcDbText
 10
8.203489990834693
 20
16.9627282372008
 30
0.0
 40
0.125
  1
1
 72
     1
 11
8.224323324168027
 21
17.02522823720079
 31
0.0
100
AcDbText
 73
     2
  0
POINT
  5
9C
330
6C
100
AcDbEntity
  8
DEFPOINTS
  6
BYBLOCK
 62
     0
100
AcDbPoint
 10
7.724323324168027
 20
16.96476983230916
 30
0.0
  0
POINT
  5
9D
330
6C
100
AcDbEntity
  8
DEFPOINTS
  6
BYBLOCK
 62
     0
100
AcDbPoint
 10
8.724323324168027
 20
16.96476983230916
 30
0.0
  0
POINT
  5
9E
330
6C
100
AcDbEntity
  8
DEFPOINTS
  6
BYBLOCK
 62
     0
100
AcDbPoint
 10
8.724323324168027
 20
17.02522823720079
 30
0.0
  0
ENDBLK
  5
9F
330
6C
100
AcDbEntity
  8
0
100
AcDbBlockEnd
  0
BLOCK
  5
A0
330
6D
100
AcDbEntity
  8
0
100
AcDbBlockBegin
  2
*D1
 70
     1
 10
0.0
 20
0.0
 30
0.0
  3
*D1
  1

  0
LINE
  5
A1
330
6D
100
AcDbEntity
  8
0
  6
BYBLOCK
 62
     0
100
AcDbLine
 10
7.224323324168027
 20
12.67210786280847
 30
0.0
 11
7.224323324168027
 21
12.14425390758532
 31
0.0
  0
LINE
  5
A2
330
6D
100
AcDbEntity
  8
0
  6
BYBLOCK
 62
     0
100
AcDbLine
 10
9.224323324168027
 20
12.67210786280847
 30
0.0
 11
9.224323324168027
 21
12.14425390758532
 31
0.0
  0
LINE
  5
A3
330
6D
100
AcDbEntity
  8
0
  6
BYBLOCK
 62
     0
100
AcDbLine
 10
7.224323324168027
 20
12.32425390758532
 30
0.0
 11
8.057656657501361
 21
12.32425390758532
 31
0.0
  0
LINE
  5
A4
330
6D
100
AcDbEntity
  8
0
  6
BYBLOCK
 62
     0
100
AcDbLine
 10
9.224323324168027
 20
12.32425390758532
 30
0.0
 11
8.390989990834693
 21
12.32425390758532
 31
0.0
  0
LINE
  5
A5
330
6D
100
AcDbEntity
  8
0
  6
BYBLOCK
 62
     0
100
AcDbLine
 10
7.099323324168027
 20
12.19925390758532
 30
0.0
 11
7.349323324168027
 21
12.44925390758532
 31
0.0
  0
LINE
  5
A6
330
6D
100
AcDbEntity
  8
0
  6
BYBLOCK
 62
     0
100
AcDbLine
 10
9.099323324168027
 20
12.19925390758532
 30
0.0
 11
9.349323324168027
 21
12.44925390758532
 31
0.0
  0
TEXT
  5
A7
330
6D
100
AcDbEntity
  8
0
  6
BYBLOCK
 62
     0
100
AcDbText
 10
8.182656657501361
 20
12.26175390758532
 30
0.0
 40
0.125
  1
2
 72
     1
 11
8.224323324168027
 21
12.32425390758532
 31
0.0
100
AcDbText
 73
     2
  0
POINT
  5
A8
330
6D
100
AcDbEntity
  8
DEFPOINTS
  6
BYBLOCK
 62
     0
100
AcDbPoint
 10
7.224323324168027
 20
12.73460786280847
 30
0.0
  0
POINT
  5
A9
330
6D
100
AcDbEntity
  8
DEFPOINTS
  6
BYBLOCK
 62
     0
100
AcDbPoint
 10
9.224323324168027
 20
12.73460786280847
 30
0.0
  0
POINT
  5
AA
330
6D
100
AcDbEntity
  8
DEFPOINTS
  6
BYBLOCK
 62
     0
100
AcDbPoint
 10
9.224323324168027
 20
12.32425390758532
 30
0.0
  0
ENDBLK
  5
AB
330
6D
100
AcDbEntity
  8
0
100
AcDbBlockEnd
  0
BLOCK
  5
AC
330
6E
100
AcDbEntity
  8
0
100
AcDbBlockBegin
  2
*D2
 70
     1
 10
0.0
 20
0.0
 30
0.0
  3
*D2
  1

  0
LINE
  5
AD
330
6E
100
AcDbEntity
  8
0
  6
BYBLOCK
 62
     0
100
AcDbLine
 10
8.51246143225418
 20
14.25892292471731
 30
0.0
 11
10.02118930951179
 21
14.25892292471731
 31
0.0
  0
LINE
  5
AE
330
6E
100
AcDbEntity
  8
0
  6
BYBLOCK
 62
     0
100
AcDbLine
 10
9.286823324168027
 20
12.73460786280847
 30
0.0
 11
10.02118930951179
 21
12.73460786280847
 31
0.0
  0
LINE
  5
AF
330
6E
100
AcDbEntity
  8
0
  6
BYBLOCK
 62
     0
100
AcDbLine
 10
9.84118930951179
 20
14.25892292471731
 30
0.0
 11
9.84118930951179
 21
13.87176539376289
 31
0.0
  0
LINE
  5
B0
330
6E
100
AcDbEntity
  8
0
  6
BYBLOCK
 62
     0
100
AcDbLine
 10
9.84118930951179
 20
12.73460786280847
 30
0.0
 11
9.84118930951179
 21
13.12176539376289
 31
0.0
  0
LINE
  5
B1
330
6E
100
AcDbEntity
  8
0
  6
BYBLOCK
 62
     0
100
AcDbLine
 10
9.96618930951179
 20
14.13392292471731
 30
0.0
 11
9.71618930951179
 21
14.38392292471731
 31
0.0
  0
LINE
  5
B2
330
6E
100
AcDbEntity
  8
0
  6
BYBLOCK
 62
     0
100
AcDbLine
 10
9.96618930951179
 20
12.60960786280847
 30
0.0
 11
9.71618930951179
 21
12.85960786280847
 31
0.0
  0
TEXT
  5
B3
330
6E
100
AcDbEntity
  8
0
  6
BYBLOCK
 62
     0
100
AcDbText
 10
9.90368930951179
 20
13.24676539376289
 30
0.0
 40
0.125
  1
1 1/2
 50
90.0
 72
     1
 11
9.84118930951179
 21
13.49676539376289
 31
0.0
100
AcDbText
 73
     2
  0
POINT
  5
B4
330
6E
100
AcDbEntity
  8
DEFPOINTS
  6
BYBLOCK
 62
     0
100
AcDbPoint
 10
8.44996143225418
 20
14.25892292471731
 30
0.0
  0
POINT
  5
B5
330
6E
100
AcDbEntity
  8
DEFPOINTS
  6
BYBLOCK
 62
     0
100
AcDbPoint
 10
9.224323324168027
 20
12.73460786280847
 30
0.0
  0
POINT
  5
B6
330
6E
100
AcDbEntity
  8
DEFPOINTS
  6
BYBLOCK
 62
     0
100
AcDbPoint
 10
9.84118930951179
 20
12.73460786280847
 30
0.0
  0
ENDBLK
  5
B7
330
6E
100
AcDbEntity
  8
0
100
AcDbBlockEnd
  0
BLOCK
  5
B8
330
6F
100
AcDbEntity
  8
0
100
AcDbBlockBegin
  2
*D3
 70
     1
 10
0.0
 20
0.0
 30
0.0
  3
*D3
  1

  0
LINE
  5
B9
330
6F
100
AcDbEntity
  8
0
  6
BYBLOCK
 62
     0
100
AcDbLine
 10
8.065743702413524
 20
14.0839291779715
 30
0.0
 11
7.002167704748523
 21
13.07334389103959
 31
0.0
  0
LINE
  5
BA
330
6F
100
AcDbEntity
  8
0
  6
BYBLOCK
 62
     0
100
AcDbLine
 10
8.061228881317788
 20
13.90721014563351
 30
0.0
 11
8.070258523509258
 21
14.26064821030948
 31
0.0
  0
LINE
  5
BB
330
6F
100
AcDbEntity
  8
0
  6
BYBLOCK
 62
     0
100
AcDbLine
 10
8.036823324168025
 20
14.23460786280847
 30
0.0
 11
8.411823324168025
 21
14.23460786280847
 31
0.0
  0
LINE
  5
BC
330
6F
100
AcDbEntity
  8
0
  6
BYBLOCK
 62
     0
100
AcDbLine
 10
8.224323324168025
 20
14.04710786280847
 30
0.0
 11
8.224323324168025
 21
14.42210786280847
 31
0.0
  0
TEXT
  5
BD
330
6F
100
AcDbEntity
  8
0
  6
BYBLOCK
 62
     0
100
AcDbText
 10
6.561928481735835
 20
12.56882419770183
 30
0.0
 40
0.125
  1
%%c7/16
 50
43.53652471747988
 72
     1
 11
6.715214103478468
 21
12.80068722323936
 31
0.0
100
AcDbText
 73
     2
  0
POINT
  5
BE
330
6F
100
AcDbEntity
  8
DEFPOINTS
  6
BYBLOCK
 62
     0
100
AcDbPoint
 10
8.065743702413524
 20
14.0839291779715
 30
0.0
  0
POINT
  5
BF
330
6F
100
AcDbEntity
  8
DEFPOINTS
  6
BYBLOCK
 62
     0
100
AcDbPoint
 10
8.382902945922531
 20
14.38528654764543
 30
0.0
  0
ENDBLK
  5
C0
330
6F
100
AcDbEntity
  8
0
100
AcDbBlockEnd
  0
BLOCK
  5
C1
330
70
100
AcDbEntity
  8
0
100
AcDbBlockBegin
  2
*D4
 70
     1
 10
0.0
 20
0.0
 30
0.0
  3
*D4
  1

  0
LINE
  5
C2
330
70
100
AcDbEntity
  8
0
  6
BYBLOCK
 62
     0
100
AcDbLine
 10
3.139390503502836
 20
15.44556141226762
 30
0.0
 11
3.139390503502836
 21
17.22000964063203
 31
0.0
  0
LINE
  5
C3
330
70
100
AcDbEntity
  8
0
  6
BYBLOCK
 62
     0
100
AcDbLine
 10
6.163402403936327
 20
16.59556141226762
 30
0.0
 11
6.163402403936327
 21
17.22000964063203
 31
0.0
  0
LINE
  5
C4
330
70
100
AcDbEntity
  8
0
  6
BYBLOCK
 62
     0
100
AcDbLine
 10
3.139390503502836
 20
17.04000964063203
 30
0.0
 11
4.484729787052915
 21
17.04000964063203
 31
0.0
  0
LINE
  5
C5
330
70
100
AcDbEntity
  8
0
  6
BYBLOCK
 62
     0
100
AcDbLine
 10
6.163402403936327
 20
17.04000964063203
 30
0.0
 11
4.818063120386248
 21
17.04000964063203
 31
0.0
  0
LINE
  5
C6
330
70
100
AcDbEntity
  8
0
  6
BYBLOCK
 62
     0
100
AcDbLine
 10
3.014390503502836
 20
16.91500964063203
 30
0.0
 11
3.264390503502836
 21
17.16500964063202
 31
0.0
  0
LINE
  5
C7
330
70
100
AcDbEntity
  8
0
  6
BYBLOCK
 62
     0
100
AcDbLine
 10
6.038402403936327
 20
16.91500964063203
 30
0.0
 11
6.288402403936327
 21
17.16500964063202
 31
0.0
  0
TEXT
  5
C8
330
70
100
AcDbEntity
  8
0
  6
BYBLOCK
 62
     0
100
AcDbText
 10
4.609729787052915
 20
16.97750964063202
 30
0.0
 40
0.125
  1
3
 72
     1
 11
4.651396453719581
 21
17.04000964063203
 31
0.0
100
AcDbText
 73
     2
  0
POINT
  5
C9
330
70
100
AcDbEntity
  8
DEFPOINTS
  6
BYBLOCK
 62
     0
100
AcDbPoint
 10
3.139390503502836
 20
15.38306141226762
 30
0.0
  0
POINT
  5
CA
330
70
100
AcDbEntity
  8
DEFPOINTS
  6
BYBLOCK
 62
     0
100
AcDbPoint
 10
6.163402403936327
 20
16.53306141226762
 30
0.0
  0
POINT
  5
CB
330
70
100
AcDbEntity
  8
DEFPOINTS
  6
BYBLOCK
 62
     0
100
AcDbPoint
 10
6.163402403936327
 20
17.04000964063203
 30
0.0
  0
ENDBLK
  5
CC
330
70
100
AcDbEntity
  8
0
100
AcDbBlockEnd
  0
BLOCK
  5
CD
330
71
100
AcDbEntity
  8
0
100
AcDbBlockBegin
  2
*D5
 70
     1
 10
0.0
 20
0.0
 30
0.0
  3
*D5
  1

  0
LINE
  5
CE
330
71
100
AcDbEntity
  8
0
  6
BYBLOCK
 62
     0
100
AcDbLine
 10
6.436890503502835
 20
16.83556141226762
 30
0.0
 11
6.436890503502835
 21
17.53741627388807
 31
0.0
  0
LINE
  5
CF
330
71
100
AcDbEntity
  8
0
  6
BYBLOCK
 62
     0
100
AcDbLine
 10
5.663231737409414
 20
16.83696814009636
 30
0.0
 11
5.663231737409414
 21
17.53741627388807
 31
0.0
  0
LINE
  5
D0
330
71
100
AcDbEntity
  8
0
  6
BYBLOCK
 62
     0
100
AcDbLine
 10
6.436890503502835
 20
17.35741627388807
 30
0.0
 11
6.686890503502835
 21
17.35741627388807
 31
0.0
  0
LINE
  5
D1
330
71
100
AcDbEntity
  8
0
  6
BYBLOCK
 62
     0
100
AcDbLine
 10
5.663231737409414
 20
17.35741627388807
 30
0.0
 11
5.413231737409414
 21
17.35741627388807
 31
0.0
  0
LINE
  5
D2
330
71
100
AcDbEntity
  8
0
  6
BYBLOCK
 62
     0
100
AcDbLine
 10
6.311890503502835
 20
17.23241627388807
 30
0.0
 11
6.561890503502835
 21
17.48241627388807
 31
0.0
  0
LINE
  5
D3
330
71
100
AcDbEntity
  8
0
  6
BYBLOCK
 62
     0
100
AcDbLine
 10
5.538231737409414
 20
17.23241627388807
 30
0.0
 11
5.788231737409414
 21
17.48241627388807
 31
0.0
  0
TEXT
  5
D4
330
71
100
AcDbEntity
  8
0
  6
BYBLOCK
 62
     0
100
AcDbText
 10
4.954898404076081
 20
17.29491627388807
 30
0.0
 40
0.125
  1
3/4
 72
     1
 11
5.121565070742748
 21
17.35741627388807
 31
0.0
100
AcDbText
 73
     2
  0
POINT
  5
D5
330
71
100
AcDbEntity
  8
DEFPOINTS
  6
BYBLOCK
 62
     0
100
AcDbPoint
 10
6.436890503502835
 20
16.77306141226762
 30
0.0
  0
POINT
  5
D6
330
71
100
AcDbEntity
  8
DEFPOINTS
  6
BYBLOCK
 62
     0
100
AcDbPoint
 10
5.663231737409414
 20
16.77446814009636
 30
0.0
  0
POINT
  5
D7
330
71
100
AcDbEntity
  8
DEFPOINTS
  6
BYBLOCK
 62
     0
100
AcDbPoint
 10
5.663231737409414
 20
17.35741627388807
 30
0.0
  0
ENDBLK
  5
D8
330
71
100
AcDbEntity
  8
0
100
AcDbBlockEnd
  0
BLOCK
  5
D9
330
72
100
AcDbEntity
  8
0
100
AcDbBlockBegin
  2
*D6
 70
     1
 10
0.0
 20
0.0
 30
0.0
  3
*D6
  1

  0
LINE
  5
DA
330
72
100
AcDbEntity
  8
0
  6
BYBLOCK
 62
     0
100
AcDbLine
 10
9.289150213425667
 20
16.78371631385229
 30
0.0
 11
10.01816491730815
 21
16.78371631385229
 31
0.0
  0
LINE
  5
DB
330
72
100
AcDbEntity
  8
0
  6
BYBLOCK
 62
     0
100
AcDbLine
 10
9.289150213425667
 20
14.25892292471731
 30
0.0
 11
10.01816491730815
 21
14.25892292471731
 31
0.0
  0
LINE
  5
DC
330
72
100
AcDbEntity
  8
0
  6
BYBLOCK
 62
     0
100
AcDbLine
 10
9.838164917308157
 20
16.78371631385229
 30
0.0
 11
9.838164917308157
 21
15.91715295261813
 31
0.0
  0
LINE
  5
DD
330
72
100
AcDbEntity
  8
0
  6
BYBLOCK
 62
     0
100
AcDbLine
 10
9.838164917308155
 20
14.25892292471731
 30
0.0
 11
9.838164917308157
 21
15.12548628595147
 31
0.0
  0
LINE
  5
DE
330
72
100
AcDbEntity
  8
0
  6
BYBLOCK
 62
     0
100
AcDbLine
 10
9.963164917308157
 20
16.65871631385229
 30
0.0
 11
9.713164917308157
 21
16.90871631385229
 31
0.0
  0
LINE
  5
DF
330
72
100
AcDbEntity
  8
0
  6
BYBLOCK
 62
     0
100
AcDbLine
 10
9.963164917308155
 20
14.13392292471731
 30
0.0
 11
9.713164917308155
 21
14.38392292471731
 31
0.0
  0
TEXT
  5
E0
330
72
100
AcDbEntity
  8
0
  6
BYBLOCK
 62
     0
100
AcDbText
 10
9.900664917308157
 20
15.25048628595147
 30
0.0
 40
0.125
  1
2 1/2
 50
90.0
 72
     1
 11
9.838164917308157
 21
15.5213196192848
 31
0.0
100
AcDbText
 73
     2
  0
POINT
  5
E1
330
72
100
AcDbEntity
  8
DEFPOINTS
  6
BYBLOCK
 62
     0
100
AcDbPoint
 10
9.226650213425667
 20
16.78371631385229
 30
0.0
  0
POINT
  5
E2
330
72
100
AcDbEntity
  8
DEFPOINTS
  6
BYBLOCK
 62
     0
100
AcDbPoint
 10
9.226650213425667
 20
14.25892292471731
 30
0.0
  0
POINT
  5
E3
330
72
100
AcDbEntity
  8
DEFPOINTS
  6
BYBLOCK
 62
     0
100
AcDbPoint
 10
9.838164917308155
 20
14.25892292471731
 30
0.0
  0
ENDBLK
  5
E4
330
72
100
AcDbEntity
  8
0
100
AcDbBlockEnd
  0
ENDSEC
  0
SECTION
  2
ENTITIES
  0
LINE
  5
E5
330
18
100
AcDbEntity
  8
ADP1DETAIL
100
AcDbLine
 10
6.402655026477246
 20
16.81420620185259
 30
0.0
 11
6.444385979707314
 21
16.77247524862252
 31
0.0
  0
ARC
  5
E6
330
18
100
AcDbEntity
  8
ADP1DETAIL
100
AcDbCircle
 10
6.205695998915231
 20
17.28543118924934
 30
0.0
 40
0.7725563832984133
100
AcDbArc
 50
254.8610312634924
 51
287.6530460899749
  0
DIMENSION
  5
E7
330
18
100
AcDbEntity
  8
ADPDIM
100
AcDbDimension
  2
*D5
 10
5.663231737409414
 20
17.35741627388807
 30
0.0
 11
5.121565070742748
 21
17.35741627388807
 31
0.0
100
AcDbAlignedDimension
 13
6.436890503502835
 23
16.77306141226762
 33
0.0
 14
5.663231737409414
 24
16.77446814009636
 34
0.0
100
AcDbRotatedDimension
  0
ARC
  5
E8
330
18
100
AcDbEntity
  8
ADP1DETAIL
100
AcDbCircle
 10
4.157351843889626
 20
16.89654968906796
 30
0.0
 40
1.5171496342019
100
AcDbArc
 50
266.0186361991102
 51
351.693170613964
  0
LINE
  5
E9
330
18
100
AcDbEntity
  8
ADP1DETAIL
100
AcDbLine
 10
3.129390503502837
 20
12.74460786280847
 30
0.0
 11
3.129390503502837
 21
15.37306141226762
 31
0.0
  0
ARC
  5
EA
330
18
100
AcDbEntity
  8
ADP1DETAIL
100
AcDbCircle
 10
3.929810699870626
 20
16.82547092248474
 30
0.0
 40
1.922409138743009
100
AcDbArc
 50
270.0643352677942
 51
347.4233547661713
  0
LINE
  5
EB
330
18
100
AcDbEntity
  8
ADP1DETAIL
100
AcDbLine
 10
3.589390503502837
 20
14.51160970480671
 30
0.0
 11
3.589390503502837
 21
12.92260786280847
 31
0.0
  0
ARC
  5
EC
330
18
100
AcDbEntity
  8
ADP1DETAIL
100
AcDbCircle
 10
3.401390503502837
 20
12.92260786280847
 30
0.0
 40
0.188
100
AcDbArc
 50
270.0
 51
0.0
  0
LINE
  5
ED
330
18
100
AcDbEntity
  8
ADP1DETAIL
100
AcDbLine
 10
3.401390503502837
 20
12.73460786280847
 30
0.0
 11
3.139390503502836
 21
12.73460786280847
 31
0.0
  0
ARC
  5
EE
330
18
100
AcDbEntity
  8
ADP1DETAIL
100
AcDbCircle
 10
3.139390503502836
 20
12.74460786280847
 30
0.0
 40
0.01
100
AcDbArc
 50
180.0
 51
270.0
  0
LINE
  5
EF
330
18
100
AcDbEntity
  8
ADP2DETAIL
  6
HIDDEN
100
AcDbLine
 10
3.135961927850571
 20
14.01585786280847
 30
0.0
 11
3.595961927850571
 21
14.01585786280847
 31
0.0
  0
LINE
  5
F0
330
18
100
AcDbEntity
  8
ADP2DETAIL
  6
HIDDEN
100
AcDbLine
 10
3.135961927850571
 20
14.45335786280847
 30
0.0
 11
3.595961927850571
 21
14.45335786280847
 31
0.0
  0
ARC
  5
F1
330
18
100
AcDbEntity
  8
ADP1DETAIL
100
AcDbCircle
 10
3.976677145781288
 20
14.51830721791218
 30
0.0
 40
0.3873445494248175
100
AcDbArc
 50
96.6279306799872
 51
180.9907415984312
  0
DIMENSION
  5
F2
330
18
100
AcDbEntity
  8
ADPDIM
100
AcDbDimension
  2
*D4
 10
6.163402403936327
 20
17.04000964063203
 30
0.0
 11
4.651396453719581
 21
17.04000964063203
 31
0.0
100
AcDbAlignedDimension
 13
3.139390503502836
 23
15.38306141226762
 33
0.0
 14
6.163402403936327
 24
16.53306141226762
 34
0.0
100
AcDbRotatedDimension
  0
LINE
  5
F3
330
18
100
AcDbEntity
  8
ADP1DETAIL
100
AcDbLine
 10
3.139390503502836
 20
15.38306141226762
 30
0.0
 11
4.052013111474265
 21
15.38306141226762
 31
0.0
  0
ARC
  5
F4
330
18
100
AcDbEntity
  8
ADP1DETAIL
100
AcDbCircle
 10
3.139390503502836
 20
15.37306141226762
 30
0.0
 40
0.01
100
AcDbArc
 50
90.0
 51
180.0
  0
LWPOLYLINE
  5
F5
330
18
100
AcDbEntity
  8
ADP2DETAIL
  6
HIDDEN
100
AcDbPolyline
 90
        3
 70
     0
 43
0.0
 10
6.253434325661434
 20
16.78306141226762
 10
6.253434325661434
 20
16.60168619759271
 10
6.315434325661433
 20
16.53968619759271
  0
LWPOLYLINE
  5
FA
330
18
100
AcDbEntity
  8
ADP2DETAIL
  6
HIDDEN
100
AcDbPolyline
 90
        3
 70
     0
 43
0.0
 10
6.065934325661435
 20
16.78306141226762
 10
6.065934325661435
 20
16.60168619759271
 10
6.003934325661436
 20
16.53968619759271
  0
ARC
  5
FF
330
18
100
AcDbEntity
  8
ADP1DETAIL
100
AcDbCircle
 10
5.986068802656424
 20
16.35253699752026
 30
0.0
 40
0.188
100
AcDbArc
 50
84.54698932044713
 51
163.1999499987379
  0
LINE
  5
100
330
18
100
AcDbEntity
  8
ADP1DETAIL
100
AcDbLine
 10
5.893095532793438
 20
16.81608954013806
 30
0.0
 11
5.663221344350189
 21
16.6833525412032
 31
0.0
  0
ARC
  5
101
330
18
100
AcDbEntity
  8
ADP1DETAIL
100
AcDbCircle
 10
5.66822188327502
 20
16.67469259833611
 30
0.0
 40
0.01
100
AcDbArc
 50
120.0035655620464
 51
164.5249231232252
  0
ARC
  5
102
330
18
100
AcDbEntity
  8
ADP1DETAIL
100
AcDbCircle
 10
6.39558395866538
 20
16.80713513404072
 30
0.0
 40
0.01
100
AcDbArc
 50
45.0
 51
107.1910238335129
  0
ARC
  5
103
330
18
100
AcDbEntity
  8
ADP1DETAIL
100
AcDbCircle
 10
5.898096071718271
 20
16.80742959727098
 30
0.0
 40
0.01
100
AcDbArc
 50
72.74114939608023
 51
120.0035655620473
  0
ARC
  5
104
330
18
100
AcDbEntity
  8
ADP1DETAIL
100
AcDbCircle
 10
6.147314911895449
 20
17.60960786280847
 30
0.0
 40
0.8299999999999998
100
AcDbArc
 50
252.7411493960781
 51
287.1910238335118
  0
DIMENSION
  5
105
330
18
100
AcDbEntity
  8
ADPDIM
100
AcDbDimension
  2
*D1
 10
9.224323324168027
 20
12.32425390758532
 30
0.0
 11
8.224323324168027
 21
12.32425390758532
 31
0.0
100
AcDbAlignedDimension
 13
7.224323324168027
 23
12.73460786280847
 33
0.0
 14
9.224323324168027
 24
12.73460786280847
 34
0.0
100
AcDbRotatedDimension
  0
LINE
  5
106
330
18
100
AcDbEntity
  8
ADP1DETAIL
100
AcDbLine
 10
7.224323324168027
 20
12.73460786280847
 30
0.0
 11
7.224323324168027
 21
16.85960786280847
 31
0.0
  0
LINE
  5
107
330
18
100
AcDbEntity
  8
ADP1DETAIL
100
AcDbLine
 10
9.224323324168027
 20
16.85960786280847
 30
0.0
 11
9.224323324168027
 21
12.73460786280847
 31
0.0
  0
DIMENSION
  5
108
330
18
100
AcDbEntity
  8
ADPDIM
100
AcDbDimension
  2
*D6
 10
9.838164917308155
 20
14.25892292471731
 30
0.0
 11
9.838164917308157
 21
15.5213196192848
 31
0.0
100
AcDbAlignedDimension
 13
9.226650213425667
 23
16.78371631385229
 33
0.0
 14
9.226650213425667
 24
14.25892292471731
 34
0.0
 50
90.0
100
AcDbRotatedDimension
  0
LINE
  5
109
330
18
100
AcDbEntity
  8
ADP1DETAIL
100
AcDbLine
 10
7.226650213425667
 20
15.08496806169437
 30
0.0
 11
9.226650213425667
 21
15.08496806169437
 31
0.0
  0
DIMENSION
  5
10A
330
18
100
AcDbEntity
  8
ADPDIM
100
AcDbDimension
  2
*D2
 10
9.84118930951179
 20
12.73460786280847
 30
0.0
 11
9.84118930951179
 21
13.49676539376289
 31
0.0
100
AcDbAlignedDimension
 13
8.44996143225418
 23
14.25892292471731
 33
0.0
 14
9.224323324168027
 24
12.73460786280847
 34
0.0
 50
90.0
100
AcDbRotatedDimension
  0
LINE
  5
10B
330
18
100
AcDbEntity
  8
ADP1DETAIL
100
AcDbLine
 10
9.224323324168027
 20
12.73460786280847
 30
0.0
 11
7.224323324168027
 21
12.73460786280847
 31
0.0
  0
DIMENSION
  5
10C
330
18
100
AcDbEntity
  8
ADPDIM
100
AcDbDimension
  2
*D3
 10
8.382902945922531
 20
14.38528654764543
 30
0.0
 11
6.715214103478468
 21
12.80068722323936
 31
0.0
 70
     3
100
AcDbDiametricDimension
 15
8.065743702413524
 25
14.0839291779715
 35
0.0
 40
1.467132074822284
  0
CIRCLE
  5
10D
330
18
100
AcDbEntity
  8
ADP1DETAIL
100
AcDbCircle
 10
8.224323324168027
 20
14.23460786280847
 30
0.0
 40
0.21875
  0
LINE
  5
10E
330
18
100
AcDbEntity
  8
ADP2DETAIL
  6
HIDDEN
100
AcDbLine
 10
7.226650213425667
 20
15.4873031690296
 30
0.0
 11
9.226650213425667
 21
15.4873031690296
 31
0.0
  0
LINE
  5
10F
330
18
100
AcDbEntity
  8
ADP2DETAIL
  6
HIDDEN
100
AcDbLine
 10
7.226650213425667
 20
16.78371631385229
 30
0.0
 11
9.226650213425667
 21
16.78371631385229
 31
0.0
  0
LINE
  5
110
330
18
100
AcDbEntity
  8
ADP1DETAIL
100
AcDbLine
 10
7.226650213425667
 20
16.51549290260605
 30
0.0
 11
9.226650213425667
 21
16.51549290260605
 31
0.0
  0
LINE
  5
111
330
18
100
AcDbEntity
  8
ADP1DETAIL
100
AcDbLine
 10
7.224323324168027
 20
16.85960786280847
 30
0.0
 11
9.224323324168027
 21
16.85960786280847
 31
0.0
  0
DIMENSION
  5
112
330
18
100
AcDbEntity
  8
ADPDIM
100
AcDbDimension
  2
*D0
 10
8.724323324168027
 20
17.02522823720079
 30
0.0
 11
8.224323324168027
 21
17.02522823720079
 31
0.0
100
AcDbAlignedDimension
 13
7.724323324168027
 23
16.96476983230916
 33
0.0
 14
8.724323324168027
 24
16.96476983230916
 34
0.0
100
AcDbRotatedDimension
  0
LWPOLYLINE
  5
113
330
18
100
AcDbEntity
  8
ADP2DETAIL
  6
HIDDEN
100
AcDbPolyline
 90
        3
 70
     0
 43
0.0
 10
8.633591040353616
 20
16.76794680346976
 10
8.633591040353616
 20
16.58657158879485
 10
8.571591040353617
 20
16.52457158879484
  0
LWPOLYLINE
  5
118
330
18
100
AcDbEntity
  8
ADP2DETAIL
  6
HIDDEN
100
AcDbPolyline
 90
        3
 70
     0
 43
0.0
 10
7.821091040353614
 20
16.76794680346976
 10
7.821091040353614
 20
16.58657158879485
 10
7.883091040353614
 20
16.52457158879484
  0
LWPOLYLINE
  5
11D
330
18
100
AcDbEntity
  8
ADP2DETAIL
  6
HIDDEN
100
AcDbPolyline
 90
        3
 70
     0
 43
0.0
 10
7.633591040353616
 20
16.76794680346976
 10
7.633591040353616
 20
16.58657158879485
 10
7.571591040353617
 20
16.52457158879484
  0
LINE
  5
122
330
18
100
AcDbEntity
  8
ADP1DETAIL
100
AcDbLine
 10
6.447314911895448
 20
16.76540418081065
 30
0.0
 11
6.447314911895448
 21
16.55889381988337
 31
0.0
  0
ARC
  5
123
330
18
100
AcDbEntity
  8
ADP1DETAIL
100
AcDbCircle
 10
6.43731491189545
 20
16.55889381988337
 30
0.0
 40
0.01
100
AcDbArc
 50
285.4296532164823
 51
0.0
  0
ARC
  5
124
330
18
100
AcDbEntity
  8
ADP1DETAIL
100
AcDbCircle
 10
6.43731491189545
 20
16.76540418081065
 30
0.0
 40
0.01
100
AcDbArc
 50
0.0
 51
44.99999999999974
  0
LWPOLYLINE
  5
125
330
18
100
AcDbEntity
  8
ADP2DETAIL
  6
HIDDEN
100
AcDbPolyline
 90
        3
 70
     0
 43
0.0
 10
8.821091040353614
 20
16.76794680346976
 10
8.821091040353614
 20
16.58657158879485
 10
8.883091040353614
 20
16.52457158879484
  0
TEXT
  5
137
330
18
100
AcDbEntity
  8
ADPDIM
100
AcDbText
 10
0.0172336799115467
 20
11.46169696782681
 30
0.0
 40
0.125
  1
J U L I U S  B L U M  &  C O . ,  I N C .      ( 8 0 0 )  5 2 6 - 6 2 9 3        W W W . J U L I U S B L U M . C O M        P A R T  N o .  4 9 8
 41
1.25
  7
ARIAL_WIDE
 72
     1
 11
6.4519412174286
 21
11.58669696782681
 31
0.0
100
AcDbText
 73
     3
  0
ENDSEC
  0
SECTION
  2
OBJECTS
  0
DICTIONARY
  5
C
330
0
100
AcDbDictionary
  3
ACAD_GROUP
350
D
  3
ACAD_LAYOUT
350
130
  3
ACAD_MLINESTYLE
350
E
  3
ACAD_PLOTSETTINGS
350
131
  3
ACAD_PLOTSTYLENAME
350
12E
  3
ACDBHEADERROUNDTRIPXREC
350
27C
  3
ACDBVARIABLEDICTIONARY
350
191
  0
DICTIONARY
  5
18B
330
18
100
AcDbDictionary
280
     1
  3
ACAD_LAYOUTSELFREF
360
29D
  0
DICTIONARY
  5
189
330
15
100
AcDbDictionary
280
     1
  3
ACAD_LAYOUTSELFREF
360
29C
  0
DICTIONARY
  5
D
102
{ACAD_REACTORS
330
C
102
}
330
C
100
AcDbDictionary
  0
DICTIONARY
  5
130
102
{ACAD_REACTORS
330
C
102
}
330
C
100
AcDbDictionary
  0
DICTIONARY
  5
E
102
{ACAD_REACTORS
330
C
102
}
330
C
100
AcDbDictionary
  3
STANDARD
350
1B
  0
DICTIONARY
  5
131
102
{ACAD_REACTORS
330
C
102
}
330
C
100
AcDbDictionary
  0
ACDBDICTIONARYWDFLT
  5
12E
102
{ACAD_REACTORS
330
C
102
}
330
C
100
AcDbDictionary
281
     1
  3
Normal
350
12F
100
AcDbDictionaryWithDefault
340
12F
  0
DICTIONARY
  5
27C
102
{ACAD_REACTORS
330
C
102
}
330
C
100
AcDbDictionary
  3
CEPSNTYPE
350
286
  3
FINGERPRINTGUID
350
287
  3
HYPERLINKBASE
350
27F
  3
INSUNITS
350
285
  3
LAYOUTDICT
350
281
  3
LWETCUNION
350
284
  3
PLOTSETDICT
350
282
  3
PLOTSTYLNAMDICT
350
283
  3
PSVPSCALE
350
289
  3
PUCSBASE
350
28C
  3
PUCSORGBACK
350
292
  3
PUCSORGBOTTOM
350
28E
  3
PUCSORGFRONT
350
291
  3
PUCSORGLEFT
350
28F
  3
PUCSORGRIGHT
350
290
  3
PUCSORGTOP
350
28D
  3
PUCSORTHOREF
350
28A
  3
PUCSORTHOVIEW
350
28B
  3
STYLESHEET
350
280
  3
TSTACKALIGN
350
27D
  3
TSTACKSIZE
350
27E
  3
UCSBASE
350
295
  3
UCSORGBACK
350
29B
  3
UCSORGBOTTOM
350
297
  3
UCSORGFRONT
350
29A
  3
UCSORGLEFT
350
298
  3
UCSORGRIGHT
350
299
  3
UCSORGTOP
350
296
  3
UCSORTHOREF
350
293
  3
UCSORTHOVIEW
350
294
  3
VERSIONGUID
350
288
  0
DICTIONARY
  5
191
102
{ACAD_REACTORS
330
C
102
}
330
C
100
AcDbDictionary
  3
DIMASSOC
350
192
  0
XRECORD
  5
29D
102
{ACAD_REACTORS
330
18B
102
}
330
18B
100
AcDbXrecord
340
18
  0
XRECORD
  5
29C
102
{ACAD_REACTORS
330
189
102
}
330
189
100
AcDbXrecord
340
15
  0
MLINESTYLE
  5
1B
102
{ACAD_REACTORS
330
E
102
}
330
E
100
AcDbMlineStyle
  2
STANDARD
 70
     0
  3

 62
     0
 51
90.0
 52
90.0
 71
     2
 49
0.5
 62
   256
  6
BYLAYER
 49
-0.5
 62
   256
  6
BYLAYER
  0
ACDBPLACEHOLDER
  5
12F
102
{ACAD_REACTORS
330
12E
102
}
330
12E
100
AcDbPlaceHolder
280
     0
  0
XRECORD
  5
286
102
{ACAD_REACTORS
330
27C
102
}
330
27C
100
AcDbXrecord
 90
        0
  0
XRECORD
  5
287
102
{ACAD_REACTORS
330
27C
102
}
330
27C
100
AcDbXrecord
  1
{02846F00-FC88-4251-8D72-DBE305776A6C}
  0
XRECORD
  5
27F
102
{ACAD_REACTORS
330
27C
102
}
330
27C
100
AcDbXrecord
  1

  0
XRECORD
  5
285
102
{ACAD_REACTORS
330
27C
102
}
330
27C
100
AcDbXrecord
 90
        0
  0
XRECORD
  5
281
102
{ACAD_REACTORS
330
27C
102
}
330
27C
100
AcDbXrecord
340
130
  0
XRECORD
  5
284
102
{ACAD_REACTORS
330
27C
102
}
330
27C
100
AcDbXrecord
 90
    14877
  0
XRECORD
  5
282
102
{ACAD_REACTORS
330
27C
102
}
330
27C
100
AcDbXrecord
340
131
  0
XRECORD
  5
283
102
{ACAD_REACTORS
330
27C
102
}
330
27C
100
AcDbXrecord
340
12E
  0
XRECORD
  5
289
102
{ACAD_REACTORS
330
27C
102
}
330
27C
100
AcDbXrecord
 40
0.0
  0
XRECORD
  5
28C
102
{ACAD_REACTORS
330
27C
102
}
330
27C
100
AcDbXrecord
340
0
  0
XRECORD
  5
292
102
{ACAD_REACTORS
330
27C
102
}
330
27C
100
AcDbXrecord
 10
0.0
 20
0.0
 30
0.0
  0
XRECORD
  5
28E
102
{ACAD_REACTORS
330
27C
102
}
330
27C
100
AcDbXrecord
 10
0.0
 20
0.0
 30
0.0
  0
XRECORD
  5
291
102
{ACAD_REACTORS
330
27C
102
}
330
27C
100
AcDbXrecord
 10
0.0
 20
0.0
 30
0.0
  0
XRECORD
  5
28F
102
{ACAD_REACTORS
330
27C
102
}
330
27C
100
AcDbXrecord
 10
0.0
 20
0.0
 30
0.0
  0
XRECORD
  5
290
102
{ACAD_REACTORS
330
27C
102
}
330
27C
100
AcDbXrecord
 10
0.0
 20
0.0
 30
0.0
  0
XRECORD
  5
28D
102
{ACAD_REACTORS
330
27C
102
}
330
27C
100
AcDbXrecord
 10
0.0
 20
0.0
 30
0.0
  0
XRECORD
  5
28A
102
{ACAD_REACTORS
330
27C
102
}
330
27C
100
AcDbXrecord
340
0
  0
XRECORD
  5
28B
102
{ACAD_REACTORS
330
27C
102
}
330
27C
100
AcDbXrecord
 70
     0
  0
XRECORD
  5
280
102
{ACAD_REACTORS
330
27C
102
}
330
27C
100
AcDbXrecord
  1

  0
XRECORD
  5
27D
102
{ACAD_REACTORS
330
27C
102
}
330
27C
100
AcDbXrecord
 90
        1
  0
XRECORD
  5
27E
102
{ACAD_REACTORS
330
27C
102
}
330
27C
100
AcDbXrecord
 90
       70
  0
XRECORD
  5
295
102
{ACAD_REACTORS
330
27C
102
}
330
27C
100
AcDbXrecord
340
0
  0
XRECORD
  5
29B
102
{ACAD_REACTORS
330
27C
102
}
330
27C
100
AcDbXrecord
 10
0.0
 20
0.0
 30
0.0
  0
XRECORD
  5
297
102
{ACAD_REACTORS
330
27C
102
}
330
27C
100
AcDbXrecord
 10
0.0
 20
0.0
 30
0.0
  0
XRECORD
  5
29A
102
{ACAD_REACTORS
330
27C
102
}
330
27C
100
AcDbXrecord
 10
0.0
 20
0.0
 30
0.0
  0
XRECORD
  5
298
102
{ACAD_REACTORS
330
27C
102
}
330
27C
100
AcDbXrecord
 10
0.0
 20
0.0
 30
0.0
  0
XRECORD
  5
299
102
{ACAD_REACTORS
330
27C
102
}
330
27C
100
AcDbXrecord
 10
0.0
 20
0.0
 30
0.0
  0
XRECORD
  5
296
102
{ACAD_REACTORS
330
27C
102
}
330
27C
100
AcDbXrecord
 10
0.0
 20
0.0
 30
0.0
  0
XRECORD
  5
293
102
{ACAD_REACTORS
330
27C
102
}
330
27C
100
AcDbXrecord
340
0
  0
XRECORD
  5
294
102
{ACAD_REACTORS
330
27C
102
}
330
27C
100
AcDbXrecord
 70
     0
  0
XRECORD
  5
288
102
{ACAD_REACTORS
330
27C
102
}
330
27C
100
AcDbXrecord
  1
{5A152FBB-B1BA-4449-B34F-AF7267068D20}
  0
DICTIONARYVAR
  5
192
102
{ACAD_REACTORS
330
191
102
}
330
191
100
DictionaryVariables
280
     0
  1
1
  0
ENDSEC
  0
EOF
