  0
SECTION
  2
HEADER
  9
$ACADVER
  1
AC1014
  9
$ACADMAINTVER
 70
     9
  9
$DWGCODEPAGE
  3
ANSI_1252
  9
$INSBASE
 10
2.246788452468659
 20
-0.4209148223439836
 30
0.0
  9
$EXTMIN
 10
-1.835008315948803
 20
-0.9480782668925524
 30
0.0
  9
$EXTMAX
 10
7.953585220886122
 20
0.9082470537961517
 30
0.0
  9
$LIMMIN
 10
0.0
 20
0.0
  9
$LIMMAX
 10
36.0
 20
36.0
  9
$ORTHOMODE
 70
     1
  9
$REGENMODE
 70
     1
  9
$FILLMODE
 70
     1
  9
$QTEXTMODE
 70
     0
  9
$MIRRTEXT
 70
     1
  9
$DRAGMODE
 70
     0
  9
$LTSCALE
 40
1.0
  9
$OSMODE
 70
    37
  9
$ATTMODE
 70
     1
  9
$TEXTSIZE
 40
0.2
  9
$TRACEWID
 40
0.05
  9
$TEXTSTYLE
  7
STANDARD
  9
$CLAYER
  8
ADPDIM
  9
$CELTYPE
  6
BYLAYER
  9
$CECOLOR
 62
   256
  9
$CELTSCALE
 40
1.0
  9
$DELOBJ
 70
     1
  9
$DISPSILH
 70
     0
  9
$DIMSCALE
 40
1.0
  9
$DIMASZ
 40
0.125
  9
$DIMEXO
 40
0.0625
  9
$DIMDLI
 40
0.38
  9
$DIMRND
 40
0.0
  9
$DIMDLE
 40
0.0
  9
$DIMEXE
 40
0.18
  9
$DIMTP
 40
0.0
  9
$DIMTM
 40
0.0
  9
$DIMTXT
 40
0.125
  9
$DIMCEN
 40
0.1875
  9
$DIMTSZ
 40
0.125
  9
$DIMTOL
 70
     0
  9
$DIMLIM
 70
     0
  9
$DIMTIH
 70
     0
  9
$DIMTOH
 70
     0
  9
$DIMSE1
 70
     0
  9
$DIMSE2
 70
     0
  9
$DIMTAD
 70
     0
  9
$DIMZIN
 70
     3
  9
$DIMBLK
  1

  9
$DIMASO
 70
     1
  9
$DIMSHO
 70
     1
  9
$DIMPOST
  1

  9
$DIMAPOST
  1

  9
$DIMALT
 70
     0
  9
$DIMALTD
 70
     1
  9
$DIMALTF
 40
25.4
  9
$DIMLFAC
 40
1.0
  9
$DIMTOFL
 70
     0
  9
$DIMTVP
 40
0.0
  9
$DIMTIX
 70
     0
  9
$DIMSOXD
 70
     0
  9
$DIMSAH
 70
     0
  9
$DIMBLK1
  1

  9
$DIMBLK2
  1

  9
$DIMSTYLE
  2
STANDARD
  9
$DIMCLRD
 70
     0
  9
$DIMCLRE
 70
     0
  9
$DIMCLRT
 70
     0
  9
$DIMTFAC
 40
1.0
  9
$DIMGAP
 40
0.125
  9
$DIMJUST
 70
     0
  9
$DIMSD1
 70
     0
  9
$DIMSD2
 70
     0
  9
$DIMTOLJ
 70
     1
  9
$DIMTZIN
 70
     0
  9
$DIMALTZ
 70
     0
  9
$DIMALTTZ
 70
     0
  9
$DIMFIT
 70
     3
  9
$DIMUPT
 70
     0
  9
$DIMUNIT
 70
     2
  9
$DIMDEC
 70
     4
  9
$DIMTDEC
 70
     4
  9
$DIMALTU
 70
     2
  9
$DIMALTTD
 70
     2
  9
$DIMTXSTY
  7
STANDARD
  9
$DIMAUNIT
 70
     0
  9
$LUNITS
 70
     5
  9
$LUPREC
 70
     4
  9
$SKETCHINC
 40
0.1
  9
$FILLETRAD
 40
0.031
  9
$AUNITS
 70
     0
  9
$AUPREC
 70
     0
  9
$MENU
  1
acad
  9
$ELEVATION
 40
0.0
  9
$PELEVATION
 40
0.0
  9
$THICKNESS
 40
0.0
  9
$LIMCHECK
 70
     0
  9
$BLIPMODE
 70
     0
  9
$CHAMFERA
 40
0.0
  9
$CHAMFERB
 40
0.0
  9
$CHAMFERC
 40
0.0
  9
$CHAMFERD
 40
0.0
  9
$SKPOLY
 70
     0
  9
$TDCREATE
 40
2450213.652881944
  9
$TDUPDATE
 40
2452297.089449317
  9
$TDINDWG
 40
0.0705238773
  9
$TDUSRTIMER
 40
0.0705238773
  9
$USRTIMER
 70
     1
  9
$ANGBASE
 50
0.0
  9
$ANGDIR
 70
     0
  9
$PDMODE
 70
     0
  9
$PDSIZE
 40
0.0
  9
$PLINEWID
 40
0.0
  9
$COORDS
 70
     2
  9
$SPLFRAME
 70
     0
  9
$SPLINETYPE
 70
     6
  9
$SPLINESEGS
 70
     8
  9
$ATTDIA
 70
     0
  9
$ATTREQ
 70
     1
  9
$HANDLING
 70
 22529
  9
$HANDSEED
  5
21A
  9
$SURFTAB1
 70
     6
  9
$SURFTAB2
 70
     6
  9
$SURFTYPE
 70
     6
  9
$SURFU
 70
     6
  9
$SURFV
 70
     6
  9
$UCSNAME
  2

  9
$UCSORG
 10
0.0
 20
0.0
 30
0.0
  9
$UCSXDIR
 10
1.0
 20
0.0
 30
0.0
  9
$UCSYDIR
 10
0.0
 20
1.0
 30
0.0
  9
$PUCSNAME
  2

  9
$PUCSORG
 10
0.0
 20
0.0
 30
0.0
  9
$PUCSXDIR
 10
1.0
 20
0.0
 30
0.0
  9
$PUCSYDIR
 10
0.0
 20
1.0
 30
0.0
  9
$USERI1
 70
     0
  9
$USERI2
 70
     0
  9
$USERI3
 70
     0
  9
$USERI4
 70
     0
  9
$USERI5
 70
     0
  9
$USERR1
 40
0.0
  9
$USERR2
 40
0.0
  9
$USERR3
 40
0.0
  9
$USERR4
 40
0.0
  9
$USERR5
 40
0.0
  9
$WORLDVIEW
 70
     1
  9
$SHADEDGE
 70
     3
  9
$SHADEDIF
 70
    70
  9
$TILEMODE
 70
     1
  9
$MAXACTVP
 70
    15
  9
$PINSBASE
 10
0.0004882947541773
 20
1.000276130627782
 30
0.0
  9
$PLIMCHECK
 70
     0
  9
$PEXTMIN
 10
1.000000000000000E+20
 20
1.000000000000000E+20
 30
1.000000000000000E+20
  9
$PEXTMAX
 10
-1.000000000000000E+20
 20
-1.000000000000000E+20
 30
-1.000000000000000E+20
  9
$PLIMMIN
 10
0.0
 20
0.0
  9
$PLIMMAX
 10
12.0
 20
9.0
  9
$UNITMODE
 70
     0
  9
$VISRETAIN
 70
     0
  9
$PLINEGEN
 70
     0
  9
$PSLTSCALE
 70
     1
  9
$TREEDEPTH
 70
  3020
  9
$PICKSTYLE
 70
     1
  9
$CMLSTYLE
  2
STANDARD
  9
$CMLJUST
 70
     0
  9
$CMLSCALE
 40
1.0
  9
$PROXYGRAPHICS
 70
     1
  9
$MEASUREMENT
 70
     0
  0
ENDSEC
  0
SECTION
  2
CLASSES
  0
CLASS
  1
ACDBDICTIONARYWDFLT
  2
AcDbDictionaryWithDefault
  3
AutoCAD 2000
 90
        0
280
     0
281
     0
  0
CLASS
  1
ACDBPLACEHOLDER
  2
AcDbPlaceHolder
  3
AutoCAD 2000
 90
        0
280
     0
281
     0
  0
CLASS
  1
LAYOUT
  2
AcDbLayout
  3
AutoCAD 2000
 90
        0
280
     0
281
     0
  0
CLASS
  1
DICTIONARYVAR
  2
AcDbDictionaryVar
  3
AutoCAD 2000
 90
        0
280
     0
281
     0
  0
CLASS
  1
LONG_TRANSACTION
  2
AcDbLongTransaction
  3
AutoCAD 2000
 90
        0
280
     0
281
     0
  0
CLASS
  1
LWPOLYLINE
  2
AcDbPolyline
  3
AutoCAD 2000
 90
        0
280
     0
281
     1
  0
CLASS
  1
HATCH
  2
AcDbHatch
  3
AutoCAD 2000
 90
        0
280
     0
281
     1
  0
CLASS
  1
XRECORD
  2
AcDbXrecord
  3
AutoCAD 2000
 90
        0
280
     0
281
     0
  0
CLASS
  1
LONG_TRANSACTION
  2
AcDbLongTransaction
  3
AutoCAD 2000
 90
        0
280
     0
281
     0
  0
CLASS
  1
LWPOLYLINE
  2
AcDbPolyline
  3
AutoCAD 2000
 90
        0
280
     0
281
     1
  0
CLASS
  1
HATCH
  2
AcDbHatch
  3
AutoCAD 2000
 90
        0
280
     0
281
     1
  0
CLASS
  1
XRECORD
  2
AcDbXrecord
  3
AutoCAD 2000
 90
        0
280
     0
281
     0
  0
CLASS
  1
LONG_TRANSACTION
  2
AcDbLongTransaction
  3
AutoCAD 2000
 90
        0
280
     0
281
     0
  0
CLASS
  1
LWPOLYLINE
  2
AcDbPolyline
  3
AutoCAD 2000
 90
        0
280
     0
281
     1
  0
CLASS
  1
HATCH
  2
AcDbHatch
  3
AutoCAD 2000
 90
        0
280
     0
281
     1
  0
CLASS
  1
XRECORD
  2
AcDbXrecord
  3
AutoCAD 2000
 90
        0
280
     0
281
     0
  0
CLASS
  1
LONG_TRANSACTION
  2
AcDbLongTransaction
  3
AutoCAD 2000
 90
        0
280
     0
281
     0
  0
CLASS
  1
LWPOLYLINE
  2
AcDbPolyline
  3
AutoCAD 2000
 90
        0
280
     0
281
     1
  0
CLASS
  1
HATCH
  2
AcDbHatch
  3
AutoCAD 2000
 90
        0
280
     0
281
     1
  0
CLASS
  1
XRECORD
  2
AcDbXrecord
  3
AutoCAD 2000
 90
        0
280
     0
281
     0
  0
CLASS
  1
LONG_TRANSACTION
  2
AcDbLongTransaction
  3
AutoCAD 2000
 90
        0
280
     0
281
     0
  0
CLASS
  1
LWPOLYLINE
  2
AcDbPolyline
  3
AutoCAD 2000
 90
        0
280
     0
281
     1
  0
CLASS
  1
HATCH
  2
AcDbHatch
  3
AutoCAD 2000
 90
        0
280
     0
281
     1
  0
CLASS
  1
XRECORD
  2
AcDbXrecord
  3
AutoCAD 2000
 90
        0
280
     0
281
     0
  0
ENDSEC
  0
SECTION
  2
TABLES
  0
TABLE
  2
VPORT
  5
8
330
0
100
AcDbSymbolTable
 70
     2
  0
VPORT
  5
1F7
330
8
100
AcDbSymbolTableRecord
100
AcDbViewportTableRecord
  2
*ACTIVE
 70
     0
 10
0.0
 20
0.0
 11
1.0
 21
1.0
 12
3.067219728519925
 22
-0.0198634688943416
 13
0.0
 23
0.0
 14
0.5740882589684922
 24
0.5740882589684922
 15
0.5
 25
0.5
 16
0.0
 26
0.0
 36
1.0
 17
0.0
 27
0.0
 37
0.0
 40
6.272914037604811
 41
1.570528967254408
 42
50.0
 43
0.0
 44
0.0
 50
0.0
 51
0.0
 71
     0
 72
   100
 73
     1
 74
     0
 75
     0
 76
     0
 77
     0
 78
     0
  0
ENDTAB
  0
TABLE
  2
LTYPE
  5
5
330
0
100
AcDbSymbolTable
 70
     1
  0
LTYPE
  5
12
330
5
100
AcDbSymbolTableRecord
100
AcDbLinetypeTableRecord
  2
BYBLOCK
 70
     0
  3

 72
    65
 73
     0
 40
0.0
  0
LTYPE
  5
13
330
5
100
AcDbSymbolTableRecord
100
AcDbLinetypeTableRecord
  2
BYLAYER
 70
     0
  3

 72
    65
 73
     0
 40
0.0
  0
LTYPE
  5
14
330
5
100
AcDbSymbolTableRecord
100
AcDbLinetypeTableRecord
  2
CONTINUOUS
 70
     0
  3
Solid line
 72
    65
 73
     0
 40
0.0
  0
ENDTAB
  0
TABLE
  2
LAYER
  5
2
330
0
100
AcDbSymbolTable
 70
     4
  0
LAYER
  5
F
330
2
100
AcDbSymbolTableRecord
100
AcDbLayerTableRecord
  2
0
 70
     0
 62
     7
  6
CONTINUOUS
  0
LAYER
  5
6B
330
2
100
AcDbSymbolTableRecord
100
AcDbLayerTableRecord
  2
ADPDIM
 70
     0
 62
     3
  6
CONTINUOUS
  0
LAYER
  5
6D
330
2
100
AcDbSymbolTableRecord
100
AcDbLayerTableRecord
  2
ADP1DETAIL
 70
     0
 62
     7
  6
CONTINUOUS
  0
LAYER
  5
6F
330
2
100
AcDbSymbolTableRecord
100
AcDbLayerTableRecord
  2
DEFPOINTS
 70
     0
 62
     7
  6
CONTINUOUS
  0
ENDTAB
  0
TABLE
  2
STYLE
  5
3
330
0
100
AcDbSymbolTable
 70
     2
  0
STYLE
  5
10
330
3
100
AcDbSymbolTableRecord
100
AcDbTextStyleTableRecord
  2
STANDARD
 70
     0
 40
0.0
 41
1.0
 50
0.0
 71
     0
 42
0.2
  3
txt
  4

  0
STYLE
  5
B3
330
3
100
AcDbSymbolTableRecord
100
AcDbTextStyleTableRecord
  2
ARIAL_WIDE
 70
     0
 40
0.0
 41
1.25
 50
0.0
 71
     0
 42
0.2
  3
ARIAL.TTF
  4

1001
ACAD
1000
Arial
1071
       34
  0
ENDTAB
  0
TABLE
  2
VIEW
  5
6
330
0
100
AcDbSymbolTable
 70
     0
  0
ENDTAB
  0
TABLE
  2
UCS
  5
7
330
0
100
AcDbSymbolTable
 70
     0
  0
ENDTAB
  0
TABLE
  2
APPID
  5
9
330
0
100
AcDbSymbolTable
 70
     1
  0
APPID
  5
11
330
9
100
AcDbSymbolTableRecord
100
AcDbRegAppTableRecord
  2
ACAD
 70
     0
  0
ENDTAB
  0
TABLE
  2
DIMSTYLE
  5
A
330
0
100
AcDbSymbolTable
 70
     1
  0
DIMSTYLE
105
A7
330
A
100
AcDbSymbolTableRecord
100
AcDbDimStyleTableRecord
  2
STANDARD
 70
     0
  3

  4

  5

  6

  7

 40
1.0
 41
0.18
 42
0.0625
 43
0.38
 44
0.18
 45
0.0
 46
0.0
 47
0.0
 48
0.0
140
0.18
141
0.09
142
0.0
143
25.4
144
1.0
145
0.0
146
1.0
147
0.09
 71
     0
 72
     0
 73
     1
 74
     1
 75
     0
 76
     0
 77
     0
 78
     0
170
     0
171
     2
172
     0
173
     0
174
     0
175
     0
176
     0
177
     0
178
     0
270
     2
271
     4
272
     4
273
     2
274
     2
340
10
275
     0
280
     0
281
     0
282
     0
283
     1
284
     0
285
     0
286
     0
287
     3
288
     0
  0
ENDTAB
  0
TABLE
  2
BLOCK_RECORD
  5
1
330
0
100
AcDbSymbolTable
 70
     2
  0
BLOCK_RECORD
  5
18
102
{ACAD_XDICTIONARY
360
108
102
}
330
1
100
AcDbSymbolTableRecord
100
AcDbBlockTableRecord
  2
*MODEL_SPACE
  0
BLOCK_RECORD
  5
15
102
{ACAD_XDICTIONARY
360
106
102
}
330
1
100
AcDbSymbolTableRecord
100
AcDbBlockTableRecord
  2
*PAPER_SPACE
  0
BLOCK_RECORD
  5
68
330
1
100
AcDbSymbolTableRecord
100
AcDbBlockTableRecord
  2
*D0
  0
BLOCK_RECORD
  5
69
330
1
100
AcDbSymbolTableRecord
100
AcDbBlockTableRecord
  2
*D1
  0
ENDTAB
  0
ENDSEC
  0
SECTION
  2
BLOCKS
  0
BLOCK
  5
72
330
18
100
AcDbEntity
  8
0
100
AcDbBlockBegin
  2
*MODEL_SPACE
 70
     0
 10
0.0
 20
0.0
 30
0.0
  3
*MODEL_SPACE
  1

  0
ENDBLK
  5
73
330
18
100
AcDbEntity
  8
0
100
AcDbBlockEnd
  0
BLOCK
  5
70
330
15
100
AcDbEntity
 67
     1
  8
0
100
AcDbBlockBegin
  2
*PAPER_SPACE
 70
     0
 10
0.0
 20
0.0
 30
0.0
  3
*PAPER_SPACE
  1

  0
ENDBLK
  5
71
330
15
100
AcDbEntity
 67
     1
  8
0
100
AcDbBlockEnd
  0
BLOCK
  5
75
330
68
100
AcDbEntity
  8
0
100
AcDbBlockBegin
  2
*D0
 70
     1
 10
0.0
 20
0.0
 30
0.0
  3
*D0
  1

  0
LINE
  5
76
330
68
100
AcDbEntity
  8
0
  6
BYBLOCK
 62
     0
100
AcDbLine
 10
2.246788452468659
 20
0.6415851776560164
 30
0.0
 11
2.246788452468659
 21
0.9082470537961517
 31
0.0
  0
LINE
  5
77
330
68
100
AcDbEntity
  8
0
  6
BYBLOCK
 62
     0
100
AcDbLine
 10
3.871788452468659
 20
0.6415851776560164
 30
0.0
 11
3.871788452468659
 21
0.9082470537961517
 31
0.0
  0
LINE
  5
78
330
68
100
AcDbEntity
  8
0
  6
BYBLOCK
 62
     0
100
AcDbLine
 10
2.246788452468659
 20
0.7282470537961519
 30
0.0
 11
2.663455119135325
 21
0.7282470537961519
 31
0.0
  0
LINE
  5
79
330
68
100
AcDbEntity
  8
0
  6
BYBLOCK
 62
     0
100
AcDbLine
 10
3.871788452468659
 20
0.7282470537961519
 30
0.0
 11
3.455121785801992
 21
0.7282470537961519
 31
0.0
  0
LINE
  5
7A
330
68
100
AcDbEntity
  8
0
  6
BYBLOCK
 62
     0
100
AcDbLine
 10
2.121788452468659
 20
0.6032470537961519
 30
0.0
 11
2.371788452468659
 21
0.8532470537961518
 31
0.0
  0
LINE
  5
7B
330
68
100
AcDbEntity
  8
0
  6
BYBLOCK
 62
     0
100
AcDbLine
 10
3.746788452468659
 20
0.6032470537961519
 30
0.0
 11
3.996788452468659
 21
0.8532470537961518
 31
0.0
  0
TEXT
  5
7C
330
68
100
AcDbEntity
  8
0
  6
BYBLOCK
 62
     0
100
AcDbText
 10
2.788455119135325
 20
0.6657470537961519
 30
0.0
 40
0.125
  1
1 5/8
 72
     1
 11
3.059288452468659
 21
0.7282470537961519
 31
0.0
100
AcDbText
 73
     2
  0
POINT
  5
7D
330
68
100
AcDbEntity
  8
DEFPOINTS
  6
BYBLOCK
 62
     0
100
AcDbPoint
 10
2.246788452468659
 20
0.5790851776560164
 30
0.0
  0
POINT
  5
7E
330
68
100
AcDbEntity
  8
DEFPOINTS
  6
BYBLOCK
 62
     0
100
AcDbPoint
 10
3.871788452468659
 20
0.5790851776560164
 30
0.0
  0
POINT
  5
7F
330
68
100
AcDbEntity
  8
DEFPOINTS
  6
BYBLOCK
 62
     0
100
AcDbPoint
 10
3.871788452468659
 20
0.7282470537961519
 30
0.0
  0
ENDBLK
  5
80
330
68
100
AcDbEntity
  8
0
100
AcDbBlockEnd
  0
BLOCK
  5
81
330
69
100
AcDbEntity
  8
0
100
AcDbBlockBegin
  2
*D1
 70
     1
 10
0.0
 20
0.0
 30
0.0
  3
*D1
  1

  0
LINE
  5
82
330
69
100
AcDbEntity
  8
0
  6
BYBLOCK
 62
     0
100
AcDbLine
 10
3.934288452468659
 20
0.5790851776560164
 30
0.0
 11
4.226703367528489
 21
0.5790851776560164
 31
0.0
  0
LINE
  5
83
330
69
100
AcDbEntity
  8
0
  6
BYBLOCK
 62
     0
100
AcDbLine
 10
3.934288452468659
 20
-0.4209148223439836
 30
0.0
 11
4.226703367528489
 21
-0.4209148223439837
 31
0.0
  0
LINE
  5
84
330
69
100
AcDbEntity
  8
0
  6
BYBLOCK
 62
     0
100
AcDbLine
 10
4.04670336752849
 20
0.5790851776560164
 30
0.0
 11
4.04670336752849
 21
0.2249185109893498
 31
0.0
  0
LINE
  5
85
330
69
100
AcDbEntity
  8
0
  6
BYBLOCK
 62
     0
100
AcDbLine
 10
4.04670336752849
 20
-0.4209148223439836
 30
0.0
 11
4.04670336752849
 21
-0.0667481556773169
 31
0.0
  0
LINE
  5
86
330
69
100
AcDbEntity
  8
0
  6
BYBLOCK
 62
     0
100
AcDbLine
 10
4.17170336752849
 20
0.4540851776560164
 30
0.0
 11
3.92170336752849
 21
0.7040851776560164
 31
0.0
  0
LINE
  5
87
330
69
100
AcDbEntity
  8
0
  6
BYBLOCK
 62
     0
100
AcDbLine
 10
4.17170336752849
 20
-0.5459148223439837
 30
0.0
 11
3.92170336752849
 21
-0.2959148223439835
 31
0.0
  0
TEXT
  5
88
330
69
100
AcDbEntity
  8
0
  6
BYBLOCK
 62
     0
100
AcDbText
 10
4.10920336752849
 20
0.0582518443226831
 30
0.0
 40
0.125
  1
1
 50
90.0
 72
     1
 11
4.04670336752849
 21
0.0790851776560164
 31
0.0
100
AcDbText
 73
     2
  0
POINT
  5
89
330
69
100
AcDbEntity
  8
DEFPOINTS
  6
BYBLOCK
 62
     0
100
AcDbPoint
 10
3.871788452468659
 20
0.5790851776560164
 30
0.0
  0
POINT
  5
8A
330
69
100
AcDbEntity
  8
DEFPOINTS
  6
BYBLOCK
 62
     0
100
AcDbPoint
 10
3.871788452468659
 20
-0.4209148223439836
 30
0.0
  0
POINT
  5
8B
330
69
100
AcDbEntity
  8
DEFPOINTS
  6
BYBLOCK
 62
     0
100
AcDbPoint
 10
4.04670336752849
 20
-0.4209148223439836
 30
0.0
  0
ENDBLK
  5
8C
330
69
100
AcDbEntity
  8
0
100
AcDbBlockEnd
  0
ENDSEC
  0
SECTION
  2
ENTITIES
  0
DIMENSION
  5
8D
330
18
100
AcDbEntity
  8
ADPDIM
100
AcDbDimension
  2
*D1
 10
4.04670336752849
 20
-0.4209148223439836
 30
0.0
 11
4.04670336752849
 21
0.0790851776560164
 31
0.0
100
AcDbAlignedDimension
 13
3.871788452468659
 23
0.5790851776560164
 33
0.0
 14
3.871788452468659
 24
-0.4209148223439836
 34
0.0
 50
90.0
100
AcDbRotatedDimension
  0
LINE
  5
8E
330
18
100
AcDbEntity
  8
ADP1DETAIL
100
AcDbLine
 10
2.246788452468659
 20
-0.4209148223439836
 30
0.0
 11
2.246788452468659
 21
0.5790851776560164
 31
0.0
  0
LINE
  5
8F
330
18
100
AcDbEntity
  8
ADP1DETAIL
100
AcDbLine
 10
3.871788452468659
 20
0.5790851776560164
 30
0.0
 11
3.871788452468659
 21
-0.4209148223439836
 31
0.0
  0
LINE
  5
90
330
18
100
AcDbEntity
  8
ADP1DETAIL
100
AcDbLine
 10
3.691788452468659
 20
0.4540851776560164
 30
0.0
 11
3.691788452468659
 21
-0.2959148223439835
 31
0.0
  0
LINE
  5
91
330
18
100
AcDbEntity
  8
ADP1DETAIL
100
AcDbLine
 10
2.426788452468659
 20
-0.2959148223439835
 30
0.0
 11
2.426788452468659
 21
0.4540851776560164
 31
0.0
  0
LINE
  5
92
330
18
100
AcDbEntity
  8
ADP1DETAIL
100
AcDbLine
 10
3.871788452468659
 20
-0.4209148223439836
 30
0.0
 11
2.246788452468659
 21
-0.4209148223439836
 31
0.0
  0
LINE
  5
93
330
18
100
AcDbEntity
  8
ADP1DETAIL
100
AcDbLine
 10
3.554788452468659
 20
-0.1709148223439835
 30
0.0
 11
3.454788452468659
 21
-0.1709148223439835
 31
0.0
  0
LINE
  5
94
330
18
100
AcDbEntity
  8
ADP1DETAIL
100
AcDbLine
 10
3.454788452468659
 20
-0.2959148223439835
 30
0.0
 11
2.663788452468659
 21
-0.2959148223439835
 31
0.0
  0
LINE
  5
95
330
18
100
AcDbEntity
  8
ADP1DETAIL
100
AcDbLine
 10
2.563788452468659
 20
-0.2959148223439835
 30
0.0
 11
2.426788452468659
 21
-0.2959148223439835
 31
0.0
  0
LINE
  5
96
330
18
100
AcDbEntity
  8
ADP1DETAIL
100
AcDbLine
 10
2.663788452468659
 20
-0.1709148223439835
 30
0.0
 11
2.563788452468659
 21
-0.1709148223439835
 31
0.0
  0
LINE
  5
97
330
18
100
AcDbEntity
  8
ADP1DETAIL
100
AcDbLine
 10
2.56378845246866
 20
-0.2959148223439835
 30
0.0
 11
2.563788452468659
 21
-0.1709148223439835
 31
0.0
  0
LINE
  5
98
330
18
100
AcDbEntity
  8
ADP1DETAIL
100
AcDbLine
 10
2.66378845246866
 20
-0.2959148223439835
 30
0.0
 11
2.663788452468659
 21
-0.1709148223439835
 31
0.0
  0
LINE
  5
99
330
18
100
AcDbEntity
  8
ADP1DETAIL
100
AcDbLine
 10
3.454788452468659
 20
-0.1709148223439835
 30
0.0
 11
3.454788452468659
 21
-0.2959148223439835
 31
0.0
  0
LINE
  5
9A
330
18
100
AcDbEntity
  8
ADP1DETAIL
100
AcDbLine
 10
3.691788452468659
 20
-0.2959148223439835
 30
0.0
 11
3.554788452468659
 21
-0.2959148223439835
 31
0.0
  0
LINE
  5
9B
330
18
100
AcDbEntity
  8
ADP1DETAIL
100
AcDbLine
 10
3.554788452468658
 20
-0.1709148223439835
 30
0.0
 11
3.554788452468659
 21
-0.2959148223439835
 31
0.0
  0
DIMENSION
  5
9C
330
18
100
AcDbEntity
  8
ADPDIM
100
AcDbDimension
  2
*D0
 10
3.871788452468659
 20
0.7282470537961519
 30
0.0
 11
3.059288452468659
 21
0.7282470537961519
 31
0.0
100
AcDbAlignedDimension
 13
2.246788452468659
 23
0.5790851776560164
 33
0.0
 14
3.871788452468659
 24
0.5790851776560164
 34
0.0
100
AcDbRotatedDimension
  0
LINE
  5
9D
330
18
100
AcDbEntity
  8
ADP1DETAIL
100
AcDbLine
 10
2.246788452468659
 20
0.5790851776560164
 30
0.0
 11
3.871788452468659
 21
0.5790851776560164
 31
0.0
  0
LINE
  5
9E
330
18
100
AcDbEntity
  8
ADP1DETAIL
100
AcDbLine
 10
3.454788452468659
 20
0.3290851776560164
 30
0.0
 11
3.554788452468659
 21
0.3290851776560164
 31
0.0
  0
LINE
  5
9F
330
18
100
AcDbEntity
  8
ADP1DETAIL
100
AcDbLine
 10
2.663788452468659
 20
0.4540851776560164
 30
0.0
 11
3.454788452468659
 21
0.4540851776560165
 31
0.0
  0
LINE
  5
A0
330
18
100
AcDbEntity
  8
ADP1DETAIL
100
AcDbLine
 10
2.426788452468659
 20
0.4540851776560164
 30
0.0
 11
2.563788452468659
 21
0.4540851776560164
 31
0.0
  0
LINE
  5
A1
330
18
100
AcDbEntity
  8
ADP1DETAIL
100
AcDbLine
 10
2.563788452468659
 20
0.3290851776560164
 30
0.0
 11
2.563788452468659
 21
0.4540851776560164
 31
0.0
  0
LINE
  5
A2
330
18
100
AcDbEntity
  8
ADP1DETAIL
100
AcDbLine
 10
2.663788452468659
 20
0.3290851776560164
 30
0.0
 11
2.663788452468659
 21
0.4540851776560164
 31
0.0
  0
LINE
  5
A3
330
18
100
AcDbEntity
  8
ADP1DETAIL
100
AcDbLine
 10
2.563788452468659
 20
0.3290851776560164
 30
0.0
 11
2.663788452468659
 21
0.3290851776560164
 31
0.0
  0
LINE
  5
A4
330
18
100
AcDbEntity
  8
ADP1DETAIL
100
AcDbLine
 10
3.454788452468659
 20
0.4540851776560164
 30
0.0
 11
3.454788452468659
 21
0.3290851776560164
 31
0.0
  0
LINE
  5
A5
330
18
100
AcDbEntity
  8
ADP1DETAIL
100
AcDbLine
 10
3.554788452468659
 20
0.4540851776560164
 30
0.0
 11
3.691788452468659
 21
0.4540851776560164
 31
0.0
  0
LINE
  5
A6
330
18
100
AcDbEntity
  8
ADP1DETAIL
100
AcDbLine
 10
3.554788452468659
 20
0.4540851776560164
 30
0.0
 11
3.554788452468658
 21
0.3290851776560164
 31
0.0
  0
TEXT
  5
B4
330
18
100
AcDbEntity
  8
ADPDIM
100
AcDbText
 10
-1.835008315948803
 20
-0.9203241741231117
 30
0.0
 40
0.09375
  1
J U L I U S  B L U M  &  C O . ,  I N C .      ( 8 0 0 )  5 2 6 - 6 2 9 3        W W W . J U L I U S B L U M . C O M        P A R T  N o .  4 8 3 0
 41
1.25
  7
ARIAL_WIDE
 72
     1
 11
3.059288452468659
 21
-0.8265741741231117
 31
0.0
100
AcDbText
 73
     3
  0
ENDSEC
  0
SECTION
  2
OBJECTS
  0
DICTIONARY
  5
C
330
0
100
AcDbDictionary
  3
ACAD_GROUP
350
D
  3
ACAD_LAYOUT
350
AD
  3
ACAD_MLINESTYLE
350
E
  3
ACAD_PLOTSETTINGS
350
AE
  3
ACAD_PLOTSTYLENAME
350
AB
  3
ACDBHEADERROUNDTRIPXREC
350
1F8
  3
ACDBVARIABLEDICTIONARY
350
10E
  0
DICTIONARY
  5
108
330
18
100
AcDbDictionary
280
     1
  3
ACAD_LAYOUTSELFREF
360
219
  0
DICTIONARY
  5
106
330
15
100
AcDbDictionary
280
     1
  3
ACAD_LAYOUTSELFREF
360
218
  0
DICTIONARY
  5
D
102
{ACAD_REACTORS
330
C
102
}
330
C
100
AcDbDictionary
  0
DICTIONARY
  5
AD
102
{ACAD_REACTORS
330
C
102
}
330
C
100
AcDbDictionary
  0
DICTIONARY
  5
E
102
{ACAD_REACTORS
330
C
102
}
330
C
100
AcDbDictionary
  3
STANDARD
350
1B
  0
DICTIONARY
  5
AE
102
{ACAD_REACTORS
330
C
102
}
330
C
100
AcDbDictionary
  0
ACDBDICTIONARYWDFLT
  5
AB
102
{ACAD_REACTORS
330
C
102
}
330
C
100
AcDbDictionary
281
     1
  3
Normal
350
AC
100
AcDbDictionaryWithDefault
340
AC
  0
DICTIONARY
  5
1F8
102
{ACAD_REACTORS
330
C
102
}
330
C
100
AcDbDictionary
  3
CEPSNTYPE
350
202
  3
FINGERPRINTGUID
350
203
  3
HYPERLINKBASE
350
1FB
  3
INSUNITS
350
201
  3
LAYOUTDICT
350
1FD
  3
LWETCUNION
350
200
  3
PLOTSETDICT
350
1FE
  3
PLOTSTYLNAMDICT
350
1FF
  3
PSVPSCALE
350
205
  3
PUCSBASE
350
208
  3
PUCSORGBACK
350
20E
  3
PUCSORGBOTTOM
350
20A
  3
PUCSORGFRONT
350
20D
  3
PUCSORGLEFT
350
20B
  3
PUCSORGRIGHT
350
20C
  3
PUCSORGTOP
350
209
  3
PUCSORTHOREF
350
206
  3
PUCSORTHOVIEW
350
207
  3
STYLESHEET
350
1FC
  3
TSTACKALIGN
350
1F9
  3
TSTACKSIZE
350
1FA
  3
UCSBASE
350
211
  3
UCSORGBACK
350
217
  3
UCSORGBOTTOM
350
213
  3
UCSORGFRONT
350
216
  3
UCSORGLEFT
350
214
  3
UCSORGRIGHT
350
215
  3
UCSORGTOP
350
212
  3
UCSORTHOREF
350
20F
  3
UCSORTHOVIEW
350
210
  3
VERSIONGUID
350
204
  0
DICTIONARY
  5
10E
102
{ACAD_REACTORS
330
C
102
}
330
C
100
AcDbDictionary
  3
DIMASSOC
350
10F
  0
XRECORD
  5
219
102
{ACAD_REACTORS
330
108
102
}
330
108
100
AcDbXrecord
340
18
  0
XRECORD
  5
218
102
{ACAD_REACTORS
330
106
102
}
330
106
100
AcDbXrecord
340
15
  0
MLINESTYLE
  5
1B
102
{ACAD_REACTORS
330
E
102
}
330
E
100
AcDbMlineStyle
  2
STANDARD
 70
     0
  3

 62
     0
 51
90.0
 52
90.0
 71
     2
 49
0.5
 62
   256
  6
BYLAYER
 49
-0.5
 62
   256
  6
BYLAYER
  0
ACDBPLACEHOLDER
  5
AC
102
{ACAD_REACTORS
330
AB
102
}
330
AB
100
AcDbPlaceHolder
280
     0
  0
XRECORD
  5
202
102
{ACAD_REACTORS
330
1F8
102
}
330
1F8
100
AcDbXrecord
 90
        0
  0
XRECORD
  5
203
102
{ACAD_REACTORS
330
1F8
102
}
330
1F8
100
AcDbXrecord
  1
{8AF855AE-5DDC-42FE-9544-1132947BAA0D}
  0
XRECORD
  5
1FB
102
{ACAD_REACTORS
330
1F8
102
}
330
1F8
100
AcDbXrecord
  1

  0
XRECORD
  5
201
102
{ACAD_REACTORS
330
1F8
102
}
330
1F8
100
AcDbXrecord
 90
        0
  0
XRECORD
  5
1FD
102
{ACAD_REACTORS
330
1F8
102
}
330
1F8
100
AcDbXrecord
340
AD
  0
XRECORD
  5
200
102
{ACAD_REACTORS
330
1F8
102
}
330
1F8
100
AcDbXrecord
 90
    14877
  0
XRECORD
  5
1FE
102
{ACAD_REACTORS
330
1F8
102
}
330
1F8
100
AcDbXrecord
340
AE
  0
XRECORD
  5
1FF
102
{ACAD_REACTORS
330
1F8
102
}
330
1F8
100
AcDbXrecord
340
AB
  0
XRECORD
  5
205
102
{ACAD_REACTORS
330
1F8
102
}
330
1F8
100
AcDbXrecord
 40
0.0
  0
XRECORD
  5
208
102
{ACAD_REACTORS
330
1F8
102
}
330
1F8
100
AcDbXrecord
340
0
  0
XRECORD
  5
20E
102
{ACAD_REACTORS
330
1F8
102
}
330
1F8
100
AcDbXrecord
 10
0.0
 20
0.0
 30
0.0
  0
XRECORD
  5
20A
102
{ACAD_REACTORS
330
1F8
102
}
330
1F8
100
AcDbXrecord
 10
0.0
 20
0.0
 30
0.0
  0
XRECORD
  5
20D
102
{ACAD_REACTORS
330
1F8
102
}
330
1F8
100
AcDbXrecord
 10
0.0
 20
0.0
 30
0.0
  0
XRECORD
  5
20B
102
{ACAD_REACTORS
330
1F8
102
}
330
1F8
100
AcDbXrecord
 10
0.0
 20
0.0
 30
0.0
  0
XRECORD
  5
20C
102
{ACAD_REACTORS
330
1F8
102
}
330
1F8
100
AcDbXrecord
 10
0.0
 20
0.0
 30
0.0
  0
XRECORD
  5
209
102
{ACAD_REACTORS
330
1F8
102
}
330
1F8
100
AcDbXrecord
 10
0.0
 20
0.0
 30
0.0
  0
XRECORD
  5
206
102
{ACAD_REACTORS
330
1F8
102
}
330
1F8
100
AcDbXrecord
340
0
  0
XRECORD
  5
207
102
{ACAD_REACTORS
330
1F8
102
}
330
1F8
100
AcDbXrecord
 70
     0
  0
XRECORD
  5
1FC
102
{ACAD_REACTORS
330
1F8
102
}
330
1F8
100
AcDbXrecord
  1

  0
XRECORD
  5
1F9
102
{ACAD_REACTORS
330
1F8
102
}
330
1F8
100
AcDbXrecord
 90
        1
  0
XRECORD
  5
1FA
102
{ACAD_REACTORS
330
1F8
102
}
330
1F8
100
AcDbXrecord
 90
       70
  0
XRECORD
  5
211
102
{ACAD_REACTORS
330
1F8
102
}
330
1F8
100
AcDbXrecord
340
0
  0
XRECORD
  5
217
102
{ACAD_REACTORS
330
1F8
102
}
330
1F8
100
AcDbXrecord
 10
0.0
 20
0.0
 30
0.0
  0
XRECORD
  5
213
102
{ACAD_REACTORS
330
1F8
102
}
330
1F8
100
AcDbXrecord
 10
0.0
 20
0.0
 30
0.0
  0
XRECORD
  5
216
102
{ACAD_REACTORS
330
1F8
102
}
330
1F8
100
AcDbXrecord
 10
0.0
 20
0.0
 30
0.0
  0
XRECORD
  5
214
102
{ACAD_REACTORS
330
1F8
102
}
330
1F8
100
AcDbXrecord
 10
0.0
 20
0.0
 30
0.0
  0
XRECORD
  5
215
102
{ACAD_REACTORS
330
1F8
102
}
330
1F8
100
AcDbXrecord
 10
0.0
 20
0.0
 30
0.0
  0
XRECORD
  5
212
102
{ACAD_REACTORS
330
1F8
102
}
330
1F8
100
AcDbXrecord
 10
0.0
 20
0.0
 30
0.0
  0
XRECORD
  5
20F
102
{ACAD_REACTORS
330
1F8
102
}
330
1F8
100
AcDbXrecord
340
0
  0
XRECORD
  5
210
102
{ACAD_REACTORS
330
1F8
102
}
330
1F8
100
AcDbXrecord
 70
     0
  0
XRECORD
  5
204
102
{ACAD_REACTORS
330
1F8
102
}
330
1F8
100
AcDbXrecord
  1
{2A7E0CDE-0675-4672-84C2-C3C03291453A}
  0
DICTIONARYVAR
  5
10F
102
{ACAD_REACTORS
330
10E
102
}
330
10E
100
DictionaryVariables
280
     0
  1
1
  0
ENDSEC
  0
EOF
