  0
SECTION
  2
HEADER
  9
$ACADVER
  1
AC1015
  9
$ACADMAINTVER
 70
    20
  9
$DWGCODEPAGE
  3
ANSI_936
  9
$INSBASE
 10
27.30788396713315
 20
8.518630191234514
 30
0.0
  9
$EXTMIN
 10
21.07891856538937
 20
7.387207123668872
 30
-0.0000000349181948
  9
$EXTMAX
 10
30.76885994101044
 20
10.50732427289165
 30
0.0000000814935746
  9
$LIMMIN
 10
0.0
 20
0.0
  9
$LIMMAX
 10
36.0
 20
36.0
  9
$ORTHOMODE
 70
     0
  9
$REGENMODE
 70
     1
  9
$FILLMODE
 70
     1
  9
$QTEXTMODE
 70
     0
  9
$MIRRTEXT
 70
     1
  9
$LTSCALE
 40
1.0
  9
$ATTMODE
 70
     1
  9
$TEXTSIZE
 40
0.2
  9
$TRACEWID
 40
0.05
  9
$TEXTSTYLE
  7
STANDARD
  9
$CLAYER
  8
ADP1DETAIL
  9
$CELTYPE
  6
BYLAYER
  9
$CECOLOR
 62
   256
  9
$CELTSCALE
 40
1.0
  9
$DISPSILH
 70
     0
  9
$DIMSCALE
 40
1.0
  9
$DIMASZ
 40
0.125
  9
$DIMEXO
 40
0.0625
  9
$DIMDLI
 40
0.38
  9
$DIMRND
 40
0.0
  9
$DIMDLE
 40
0.0
  9
$DIMEXE
 40
0.18
  9
$DIMTP
 40
0.0
  9
$DIMTM
 40
0.0
  9
$DIMTXT
 40
0.125
  9
$DIMCEN
 40
0.1875
  9
$DIMTSZ
 40
0.125
  9
$DIMTOL
 70
     0
  9
$DIMLIM
 70
     0
  9
$DIMTIH
 70
     0
  9
$DIMTOH
 70
     0
  9
$DIMSE1
 70
     0
  9
$DIMSE2
 70
     0
  9
$DIMTAD
 70
     0
  9
$DIMZIN
 70
     3
  9
$DIMBLK
  1

  9
$DIMASO
 70
     1
  9
$DIMSHO
 70
     1
  9
$DIMPOST
  1

  9
$DIMAPOST
  1

  9
$DIMALT
 70
     0
  9
$DIMALTD
 70
     1
  9
$DIMALTF
 40
25.4
  9
$DIMLFAC
 40
1.0
  9
$DIMTOFL
 70
     0
  9
$DIMTVP
 40
0.0
  9
$DIMTIX
 70
     0
  9
$DIMSOXD
 70
     0
  9
$DIMSAH
 70
     0
  9
$DIMBLK1
  1

  9
$DIMBLK2
  1

  9
$DIMSTYLE
  2
STANDARD
  9
$DIMCLRD
 70
     0
  9
$DIMCLRE
 70
     0
  9
$DIMCLRT
 70
     0
  9
$DIMTFAC
 40
1.0
  9
$DIMGAP
 40
0.125
  9
$DIMJUST
 70
     0
  9
$DIMSD1
 70
     0
  9
$DIMSD2
 70
     0
  9
$DIMTOLJ
 70
     1
  9
$DIMTZIN
 70
     3
  9
$DIMALTZ
 70
     3
  9
$DIMALTTZ
 70
     3
  9
$DIMUPT
 70
     0
  9
$DIMDEC
 70
     4
  9
$DIMTDEC
 70
     4
  9
$DIMALTU
 70
     5
  9
$DIMALTTD
 70
     1
  9
$DIMTXSTY
  7
STANDARD
  9
$DIMAUNIT
 70
     0
  9
$DIMADEC
 70
     0
  9
$DIMALTRND
 40
0.0
  9
$DIMAZIN
 70
     0
  9
$DIMDSEP
 70
    46
  9
$DIMATFIT
 70
     3
  9
$DIMFRAC
 70
     0
  9
$DIMLDRBLK
  1

  9
$DIMLUNIT
 70
     5
  9
$DIMLWD
 70
    -2
  9
$DIMLWE
 70
    -2
  9
$DIMTMOVE
 70
     2
  9
$LUNITS
 70
     5
  9
$LUPREC
 70
     4
  9
$SKETCHINC
 40
0.1
  9
$FILLETRAD
 40
0.0
  9
$AUNITS
 70
     0
  9
$AUPREC
 70
     0
  9
$MENU
  1
acad
  9
$ELEVATION
 40
0.0
  9
$PELEVATION
 40
0.0
  9
$THICKNESS
 40
0.0
  9
$LIMCHECK
 70
     0
  9
$CHAMFERA
 40
0.0
  9
$CHAMFERB
 40
0.0
  9
$CHAMFERC
 40
0.0
  9
$CHAMFERD
 40
0.0
  9
$SKPOLY
 70
     0
  9
$TDCREATE
 40
2450374.619389653
  9
$TDUCREATE
 40
2450374.827722986
  9
$TDUPDATE
 40
2455209.554422616
  9
$TDUUPDATE
 40
2455209.762755949
  9
$TDINDWG
 40
0.1004963310
  9
$TDUSRTIMER
 40
0.1004963310
  9
$USRTIMER
 70
     1
  9
$ANGBASE
 50
0.0
  9
$ANGDIR
 70
     0
  9
$PDMODE
 70
     0
  9
$PDSIZE
 40
0.0
  9
$PLINEWID
 40
0.0
  9
$SPLFRAME
 70
     0
  9
$SPLINETYPE
 70
     6
  9
$SPLINESEGS
 70
     8
  9
$HANDSEED
  5
766
  9
$SURFTAB1
 70
     6
  9
$SURFTAB2
 70
     6
  9
$SURFTYPE
 70
     6
  9
$SURFU
 70
     6
  9
$SURFV
 70
     6
  9
$UCSBASE
  2

  9
$UCSNAME
  2

  9
$UCSORG
 10
0.0
 20
0.0
 30
0.0
  9
$UCSXDIR
 10
1.0
 20
0.0
 30
0.0
  9
$UCSYDIR
 10
0.0
 20
1.0
 30
0.0
  9
$UCSORTHOREF
  2

  9
$UCSORTHOVIEW
 70
     0
  9
$UCSORGTOP
 10
0.0
 20
0.0
 30
0.0
  9
$UCSORGBOTTOM
 10
0.0
 20
0.0
 30
0.0
  9
$UCSORGLEFT
 10
0.0
 20
0.0
 30
0.0
  9
$UCSORGRIGHT
 10
0.0
 20
0.0
 30
0.0
  9
$UCSORGFRONT
 10
0.0
 20
0.0
 30
0.0
  9
$UCSORGBACK
 10
0.0
 20
0.0
 30
0.0
  9
$PUCSBASE
  2

  9
$PUCSNAME
  2

  9
$PUCSORG
 10
0.0
 20
0.0
 30
0.0
  9
$PUCSXDIR
 10
1.0
 20
0.0
 30
0.0
  9
$PUCSYDIR
 10
0.0
 20
1.0
 30
0.0
  9
$PUCSORTHOREF
  2

  9
$PUCSORTHOVIEW
 70
     0
  9
$PUCSORGTOP
 10
0.0
 20
0.0
 30
0.0
  9
$PUCSORGBOTTOM
 10
0.0
 20
0.0
 30
0.0
  9
$PUCSORGLEFT
 10
0.0
 20
0.0
 30
0.0
  9
$PUCSORGRIGHT
 10
0.0
 20
0.0
 30
0.0
  9
$PUCSORGFRONT
 10
0.0
 20
0.0
 30
0.0
  9
$PUCSORGBACK
 10
0.0
 20
0.0
 30
0.0
  9
$USERI1
 70
     0
  9
$USERI2
 70
     0
  9
$USERI3
 70
     0
  9
$USERI4
 70
     0
  9
$USERI5
 70
     0
  9
$USERR1
 40
0.0
  9
$USERR2
 40
0.0
  9
$USERR3
 40
0.0
  9
$USERR4
 40
0.0
  9
$USERR5
 40
0.0
  9
$WORLDVIEW
 70
     1
  9
$SHADEDGE
 70
     3
  9
$SHADEDIF
 70
    70
  9
$TILEMODE
 70
     1
  9
$MAXACTVP
 70
    15
  9
$PINSBASE
 10
0.0
 20
0.0
 30
0.0
  9
$PLIMCHECK
 70
     0
  9
$PEXTMIN
 10
1.000000000000000E+20
 20
1.000000000000000E+20
 30
1.000000000000000E+20
  9
$PEXTMAX
 10
-1.000000000000000E+20
 20
-1.000000000000000E+20
 30
-1.000000000000000E+20
  9
$PLIMMIN
 10
0.0
 20
0.0
  9
$PLIMMAX
 10
12.0
 20
9.0
  9
$UNITMODE
 70
     0
  9
$VISRETAIN
 70
     0
  9
$PLINEGEN
 70
     0
  9
$PSLTSCALE
 70
     1
  9
$TREEDEPTH
 70
  3020
  9
$CMLSTYLE
  2
STANDARD
  9
$CMLJUST
 70
     0
  9
$CMLSCALE
 40
1.0
  9
$PROXYGRAPHICS
 70
     1
  9
$MEASUREMENT
 70
     0
  9
$CELWEIGHT
370
    -1
  9
$ENDCAPS
280
     0
  9
$JOINSTYLE
280
     0
  9
$LWDISPLAY
290
     0
  9
$INSUNITS
 70
     0
  9
$HYPERLINKBASE
  1

  9
$STYLESHEET
  1

  9
$XEDIT
290
     1
  9
$CEPSNTYPE
380
     0
  9
$PSTYLEMODE
290
     1
  9
$FINGERPRINTGUID
  2
{6D500030-6DB4-4932-BF83-B154BE99012E}
  9
$VERSIONGUID
  2
{8E3E9690-53FD-4D84-AADD-D182B97EDA2B}
  9
$EXTNAMES
290
     1
  9
$PSVPSCALE
 40
0.0
  9
$OLESTARTUP
290
     0
  0
ENDSEC
  0
SECTION
  2
CLASSES
  0
CLASS
  1
DICTIONARYVAR
  2
AcDbDictionaryVar
  3
ObjectDBX Classes
 90
        0
280
     0
281
     0
  0
CLASS
  1
ACDBDICTIONARYWDFLT
  2
AcDbDictionaryWithDefault
  3
ObjectDBX Classes
 90
        0
280
     0
281
     0
  0
CLASS
  1
ACDBPLACEHOLDER
  2
AcDbPlaceHolder
  3
ObjectDBX Classes
 90
        0
280
     0
281
     0
  0
CLASS
  1
LAYOUT
  2
AcDbLayout
  3
ObjectDBX Classes
 90
        0
280
     0
281
     0
  0
CLASS
  1
MATERIAL
  2
AcDbMaterial
  3
ObjectDBX Classes
 90
     1024
280
     0
281
     0
  0
CLASS
  1
VISUALSTYLE
  2
AcDbVisualStyle
  3
ObjectDBX Classes
 90
     4095
280
     0
281
     0
  0
CLASS
  1
TABLESTYLE
  2
AcDbTableStyle
  3
ObjectDBX Classes
 90
     4095
280
     0
281
     0
  0
CLASS
  1
ACAD_EVALUATION_GRAPH
  2
AcDbEvalGraph
  3
ObjectDBX Classes
 90
    33921
280
     0
281
     0
  0
CLASS
  1
ACAECUSTOBJ
  2
AcAeEditorObj
  3
AcAeEditorObj
 90
    33792
280
     0
281
     0
  0
CLASS
  1
ACDB_DYNAMICBLOCKPURGEPREVENTER_VERSION
  2
AcDbDynamicBlockPurgePreventer
  3
ObjectDBX Classes
 90
    33921
280
     0
281
     0
  0
CLASS
  1
SORTENTSTABLE
  2
AcDbSortentsTable
  3
ObjectDBX Classes
 90
        0
280
     0
281
     0
  0
ENDSEC
  0
SECTION
  2
TABLES
  0
TABLE
  2
VPORT
  5
8
102
{ACAD_XDICTIONARY
360
2CD
102
}
330
0
100
AcDbSymbolTable
 70
     1
  0
VPORT
  5
13B
330
8
100
AcDbSymbolTableRecord
100
AcDbViewportTableRecord
  2
*Active
 70
     0
 10
0.0
 20
0.0
 11
1.0
 21
1.0
 12
25.9238892531999
 22
8.947265698280261
 13
0.0
 23
0.0
 14
0.5740882589684922
 24
0.5740882589684922
 15
0.5
 25
0.5
 16
0.0
 26
0.0
 36
1.0
 17
0.0
 27
0.0
 37
0.0
 40
4.011830264421642
 41
2.426443202979515
 42
50.0
 43
0.0
 44
0.0
 50
0.0
 51
0.0
 71
     0
 72
   100
 73
     1
 74
     0
 75
     0
 76
     0
 77
     0
 78
     0
281
     0
 65
     1
110
0.0
120
0.0
130
0.0
111
1.0
121
0.0
131
0.0
112
0.0
122
1.0
132
0.0
 79
     0
146
0.0
  0
ENDTAB
  0
TABLE
  2
LTYPE
  5
5
330
0
100
AcDbSymbolTable
 70
     2
  0
LTYPE
  5
11
330
5
100
AcDbSymbolTableRecord
100
AcDbLinetypeTableRecord
  2
BYBLOCK
 70
     0
  3

 72
    65
 73
     0
 40
0.0
  0
LTYPE
  5
12
330
5
100
AcDbSymbolTableRecord
100
AcDbLinetypeTableRecord
  2
BYLAYER
 70
     0
  3

 72
    65
 73
     0
 40
0.0
  0
LTYPE
  5
13
330
5
100
AcDbSymbolTableRecord
100
AcDbLinetypeTableRecord
  2
CONTINUOUS
 70
     0
  3
Solid line
 72
    65
 73
     0
 40
0.0
  0
LTYPE
  5
181
330
5
100
AcDbSymbolTableRecord
100
AcDbLinetypeTableRecord
  2
HIDDEN
 70
     0
  3
_ _ _ _ _ _ _ _ _ _ _ _ _ _ 
 72
    65
 73
     2
 40
0.375
 49
0.25
 74
     0
 49
-0.125
 74
     0
  0
ENDTAB
  0
TABLE
  2
LAYER
  5
2
330
0
100
AcDbSymbolTable
 70
     6
  0
LAYER
  5
E
330
2
100
AcDbSymbolTableRecord
100
AcDbLayerTableRecord
  2
0
 70
     0
 62
     7
  6
CONTINUOUS
370
    -3
390
7C
  0
LAYER
  5
21
330
2
100
AcDbSymbolTableRecord
100
AcDbLayerTableRecord
  2
ADP1DETAIL
 70
     0
 62
     7
  6
CONTINUOUS
370
    -3
390
7C
  0
LAYER
  5
22
330
2
100
AcDbSymbolTableRecord
100
AcDbLayerTableRecord
  2
DEFPOINTS
 70
     0
 62
     7
  6
CONTINUOUS
290
     0
370
    -3
390
7C
  0
LAYER
  5
23
330
2
100
AcDbSymbolTableRecord
100
AcDbLayerTableRecord
  2
ADPDIM
 70
     0
 62
     3
  6
CONTINUOUS
370
    -3
390
7C
  0
LAYER
  5
24
330
2
100
AcDbSymbolTableRecord
100
AcDbLayerTableRecord
  2
ADP2DETAIL
 70
     0
 62
     5
  6
CONTINUOUS
370
    -3
390
7C
  0
LAYER
  5
182
330
2
100
AcDbSymbolTableRecord
100
AcDbLayerTableRecord
  2
1
 70
     0
 62
     7
  6
CONTINUOUS
370
    -3
390
7C
  0
ENDTAB
  0
TABLE
  2
STYLE
  5
3
330
0
100
AcDbSymbolTable
 70
     2
  0
STYLE
  5
F
330
3
100
AcDbSymbolTableRecord
100
AcDbTextStyleTableRecord
  2
STANDARD
 70
     0
 40
0.0
 41
1.0
 50
0.0
 71
     0
 42
0.2
  3
txt
  4

  0
STYLE
  5
71
330
3
100
AcDbSymbolTableRecord
100
AcDbTextStyleTableRecord
  2
ARIAL_WIDE
 70
     0
 40
0.0
 41
1.25
 50
0.0
 71
     0
 42
0.2
  3
arial.ttf
  4

1001
ACAD
1000
Arial
1071
       34
  0
ENDTAB
  0
TABLE
  2
VIEW
  5
6
330
0
100
AcDbSymbolTable
 70
     0
  0
ENDTAB
  0
TABLE
  2
UCS
  5
7
330
0
100
AcDbSymbolTable
 70
     0
  0
ENDTAB
  0
TABLE
  2
APPID
  5
9
330
0
100
AcDbSymbolTable
 70
     6
  0
APPID
  5
10
330
9
100
AcDbSymbolTableRecord
100
AcDbRegAppTableRecord
  2
ACAD
 70
     0
  0
APPID
  5
288
330
9
100
AcDbSymbolTableRecord
100
AcDbRegAppTableRecord
  2
ACAUTHENVIRON
 70
     0
  0
APPID
  5
28C
330
9
100
AcDbSymbolTableRecord
100
AcDbRegAppTableRecord
  2
AcDbDynamicBlockTrueName
 70
     0
  0
APPID
  5
28D
330
9
100
AcDbSymbolTableRecord
100
AcDbRegAppTableRecord
  2
AcDbDynamicBlockGUID
 70
     0
  0
APPID
  5
28F
330
9
100
AcDbSymbolTableRecord
100
AcDbRegAppTableRecord
  2
AcDbBlockRepETag
 70
     0
  0
APPID
  5
6FA
330
9
100
AcDbSymbolTableRecord
100
AcDbRegAppTableRecord
  2
ACAD_PSEXT
 70
     0
  0
ENDTAB
  0
TABLE
  2
DIMSTYLE
  5
A
330
0
100
AcDbSymbolTable
 70
     1
100
AcDbDimStyleTable
 71
     1
340
62
  0
DIMSTYLE
105
62
102
{ACAD_REACTORS
330
1B5
330
1C3
330
1F9
102
}
330
A
100
AcDbSymbolTableRecord
100
AcDbDimStyleTableRecord
  2
STANDARD
 70
     0
340
F
  0
ENDTAB
  0
TABLE
  2
BLOCK_RECORD
  5
1
330
0
100
AcDbSymbolTable
 70
     4
  0
BLOCK_RECORD
  5
17
102
{ACAD_XDICTIONARY
360
AA
102
}
330
1
100
AcDbSymbolTableRecord
100
AcDbBlockTableRecord
  2
*MODEL_SPACE
340
7F
  0
BLOCK_RECORD
  5
14
102
{ACAD_XDICTIONARY
360
A8
102
}
330
1
100
AcDbSymbolTableRecord
100
AcDbBlockTableRecord
  2
*PAPER_SPACE
340
80
  0
BLOCK_RECORD
  5
1B6
330
1
100
AcDbSymbolTableRecord
100
AcDbBlockTableRecord
  2
*D0
340
0
  0
BLOCK_RECORD
  5
1C4
330
1
100
AcDbSymbolTableRecord
100
AcDbBlockTableRecord
  2
*D1
340
0
  0
BLOCK_RECORD
  5
1FA
330
1
100
AcDbSymbolTableRecord
100
AcDbBlockTableRecord
  2
*D2
340
0
  0
BLOCK_RECORD
  5
4CC
102
{ACAD_XDICTIONARY
360
55E
102
}
330
1
100
AcDbSymbolTableRecord
100
AcDbBlockTableRecord
  2
A$C18BE6784
340
0
102
{BLKREFS
331
4FB
102
}
1001
AcDbDynamicBlockGUID
1000
{7A00D149-BE83-4873-85C7-EDAF9DF8CE49}
1001
AcDbBlockRepETag
1070
     1
1071
       44
  0
ENDTAB
  0
ENDSEC
  0
SECTION
  2
BLOCKS
  0
BLOCK
  5
27
330
17
100
AcDbEntity
  8
0
100
AcDbBlockBegin
  2
*MODEL_SPACE
 70
     0
 10
0.0
 20
0.0
 30
0.0
  3
*MODEL_SPACE
  1

  0
ENDBLK
  5
28
330
17
100
AcDbEntity
  8
0
100
AcDbBlockEnd
  0
BLOCK
  5
25
330
14
100
AcDbEntity
 67
     1
  8
0
100
AcDbBlockBegin
  2
*PAPER_SPACE
 70
     0
 10
0.0
 20
0.0
 30
0.0
  3
*PAPER_SPACE
  1

  0
ENDBLK
  5
26
330
14
100
AcDbEntity
 67
     1
  8
0
100
AcDbBlockEnd
  0
BLOCK
  5
1C1
330
1B6
100
AcDbEntity
  8
0
100
AcDbBlockBegin
  2
*D0
 70
     1
 10
0.0
 20
0.0
 30
0.0
  3
*D0
  1

  0
LINE
  5
721
330
1B6
100
AcDbEntity
  8
ADPDIM
 62
     0
370
    -2
100
AcDbLine
 10
24.41906029938054
 20
8.447609690045942
 30
0.0
 11
24.41906029938054
 21
7.893847106019222
 31
0.0
  0
LINE
  5
722
330
1B6
100
AcDbEntity
  8
ADPDIM
 62
     0
370
    -2
100
AcDbLine
 10
27.41906029938054
 20
8.44760969004594
 30
0.0
 11
27.41906029938054
 21
7.893847106019222
 31
0.0
  0
LINE
  5
723
330
1B6
100
AcDbEntity
  8
ADPDIM
 62
     0
370
    -2
100
AcDbLine
 10
24.41906029938054
 20
8.073847106019222
 30
0.0
 11
25.75239363271387
 21
8.073847106019222
 31
0.0
  0
LINE
  5
724
330
1B6
100
AcDbEntity
  8
ADPDIM
 62
     0
370
    -2
100
AcDbLine
 10
27.41906029938054
 20
8.073847106019222
 30
0.0
 11
26.08572696604721
 21
8.073847106019222
 31
0.0
  0
LINE
  5
725
330
1B6
100
AcDbEntity
  8
ADPDIM
 62
     0
370
    -2
100
AcDbLine
 10
27.29406029938054
 20
7.948847106019222
 30
0.0
 11
27.54406029938054
 21
8.198847106019222
 31
0.0
  0
LINE
  5
726
330
1B6
100
AcDbEntity
  8
ADPDIM
 62
     0
370
    -2
100
AcDbLine
 10
24.29406029938054
 20
7.948847106019222
 30
0.0
 11
24.54406029938054
 21
8.198847106019222
 31
0.0
  0
MTEXT
  5
727
330
1B6
100
AcDbEntity
  8
ADPDIM
 62
     0
100
AcDbMText
 10
25.91906029938054
 20
8.073847106019222
 30
0.0
 40
0.125
 41
0.0
 71
     5
 72
     1
  1
\A1;3
 73
     1
 44
1.0
1001
ACAD
1000
MTEXTBEGIN
1070
    73
1070
     1
1070
    44
1040
1.0
1070
    74
1070
     0
1000
MTEXTEND
  0
POINT
  5
728
330
1B6
100
AcDbEntity
  8
DEFPOINTS
 62
     0
100
AcDbPoint
 10
24.41906029938054
 20
8.510109690045942
 30
0.0
  0
POINT
  5
729
330
1B6
100
AcDbEntity
  8
DEFPOINTS
 62
     0
100
AcDbPoint
 10
27.41906029938054
 20
8.51010969004594
 30
0.0
  0
POINT
  5
72A
330
1B6
100
AcDbEntity
  8
DEFPOINTS
 62
     0
100
AcDbPoint
 10
27.41906029938054
 20
8.073847106019222
 30
0.0
  0
ENDBLK
  5
1C2
330
1B6
100
AcDbEntity
  8
0
100
AcDbBlockEnd
  0
BLOCK
  5
1CF
330
1C4
100
AcDbEntity
  8
0
100
AcDbBlockBegin
  2
*D1
 70
     1
 10
0.0
 20
0.0
 30
0.0
  3
*D1
  1

  0
LINE
  5
735
330
1C4
100
AcDbEntity
  8
ADPDIM
 62
     0
370
    -2
100
AcDbLine
 10
25.54299677696903
 20
10.02044242385428
 30
0.0
 11
25.54299677696903
 21
10.50506934456884
 31
0.0
  0
LINE
  5
736
330
1C4
100
AcDbEntity
  8
ADPDIM
 62
     0
370
    -2
100
AcDbLine
 10
26.29300111702076
 20
10.02148405435385
 30
0.0
 11
26.29300111702076
 21
10.50506934456884
 31
0.0
  0
LINE
  5
737
330
1C4
100
AcDbEntity
  8
ADPDIM
 62
     0
370
    -2
100
AcDbLine
 10
25.54299677696903
 20
10.32506934456884
 30
0.0
 11
25.29299677696903
 21
10.32506934456884
 31
0.0
  0
LINE
  5
738
330
1C4
100
AcDbEntity
  8
ADPDIM
 62
     0
370
    -2
100
AcDbLine
 10
26.29300111702076
 20
10.32506934456884
 30
0.0
 11
26.54300111702076
 21
10.32506934456884
 31
0.0
  0
LINE
  5
739
330
1C4
100
AcDbEntity
  8
ADPDIM
 62
     0
370
    -2
100
AcDbLine
 10
26.16800111702076
 20
10.20006934456884
 30
0.0
 11
26.41800111702076
 21
10.45006934456884
 31
0.0
  0
LINE
  5
73A
330
1C4
100
AcDbEntity
  8
ADPDIM
 62
     0
370
    -2
100
AcDbLine
 10
25.41799677696903
 20
10.20006934456884
 30
0.0
 11
25.66799677696903
 21
10.45006934456884
 31
0.0
  0
MTEXT
  5
73B
330
1C4
100
AcDbEntity
  8
ADPDIM
 62
     0
100
AcDbMText
 10
25.9179989469949
 20
10.32506934456884
 30
0.0
 40
0.125
 41
0.0
 71
     5
 72
     1
  1
\A1;3/4
 73
     1
 44
1.0
1001
ACAD
1000
MTEXTBEGIN
1070
    73
1070
     1
1070
    44
1040
1.0
1070
    74
1070
     0
1000
MTEXTEND
  0
POINT
  5
73C
330
1C4
100
AcDbEntity
  8
DEFPOINTS
 62
     0
100
AcDbPoint
 10
25.54299677696903
 20
9.957942423854285
 30
0.0
  0
POINT
  5
73D
330
1C4
100
AcDbEntity
  8
DEFPOINTS
 62
     0
100
AcDbPoint
 10
26.29300111702076
 20
9.958984054353857
 30
0.0
  0
POINT
  5
73E
330
1C4
100
AcDbEntity
  8
DEFPOINTS
 62
     0
100
AcDbPoint
 10
26.29300111702076
 20
10.32506934456884
 30
0.0
  0
ENDBLK
  5
1D0
330
1C4
100
AcDbEntity
  8
0
100
AcDbBlockEnd
  0
BLOCK
  5
205
330
1FA
100
AcDbEntity
  8
0
100
AcDbBlockBegin
  2
*D2
 70
     1
 10
0.0
 20
0.0
 30
0.0
  3
*D2
  1

  0
LINE
  5
72B
330
1FA
100
AcDbEntity
  8
ADPDIM
 62
     0
370
    -2
100
AcDbLine
 10
25.13156029938052
 20
9.960109690045939
 30
0.0
 11
23.41687166344206
 21
9.960109690045939
 31
0.0
  0
LINE
  5
72C
330
1FA
100
AcDbEntity
  8
ADPDIM
 62
     0
370
    -2
100
AcDbLine
 10
24.35656029938054
 20
8.510109690045942
 30
0.0
 11
23.41687166344206
 21
8.510109690045942
 31
0.0
  0
LINE
  5
72D
330
1FA
100
AcDbEntity
  8
ADPDIM
 62
     0
370
    -2
100
AcDbLine
 10
23.59687166344206
 20
9.960109690045939
 30
0.0
 11
23.59687166344206
 21
9.672609690045939
 31
0.0
  0
LINE
  5
72E
330
1FA
100
AcDbEntity
  8
ADPDIM
 62
     0
370
    -2
100
AcDbLine
 10
23.59687166344206
 20
8.510109690045942
 30
0.0
 11
23.59687166344206
 21
8.797609690045939
 31
0.0
  0
LINE
  5
72F
330
1FA
100
AcDbEntity
  8
ADPDIM
 62
     0
370
    -2
100
AcDbLine
 10
23.72187166344206
 20
8.385109690045942
 30
0.0
 11
23.47187166344206
 21
8.635109690045942
 31
0.0
  0
LINE
  5
730
330
1FA
100
AcDbEntity
  8
ADPDIM
 62
     0
370
    -2
100
AcDbLine
 10
23.72187166344206
 20
9.835109690045939
 30
0.0
 11
23.47187166344206
 21
10.08510969004594
 31
0.0
  0
MTEXT
  5
731
330
1FA
100
AcDbEntity
  8
ADPDIM
 62
     0
100
AcDbMText
 10
23.59687166344206
 20
9.235109690045943
 30
0.0
 40
0.125
 41
0.0
 71
     5
 72
     1
  1
\A1;1 7/16
 11
0.0000000000000001
 21
1.0
 31
0.0
 73
     1
 44
1.0
1001
ACAD
1000
MTEXTBEGIN
1070
    73
1070
     1
1070
    44
1040
1.0
1070
    74
1070
     0
1000
MTEXTEND
  0
POINT
  5
732
330
1FA
100
AcDbEntity
  8
DEFPOINTS
 62
     0
100
AcDbPoint
 10
25.19406029938052
 20
9.960109690045939
 30
0.0
  0
POINT
  5
733
330
1FA
100
AcDbEntity
  8
DEFPOINTS
 62
     0
100
AcDbPoint
 10
24.41906029938054
 20
8.510109690045942
 30
0.0
  0
POINT
  5
734
330
1FA
100
AcDbEntity
  8
DEFPOINTS
 62
     0
100
AcDbPoint
 10
23.59687166344206
 20
8.510109690045942
 30
0.0
  0
ENDBLK
  5
206
330
1FA
100
AcDbEntity
  8
0
100
AcDbBlockEnd
  0
BLOCK
  5
4F9
330
4CC
100
AcDbEntity
  8
0
100
AcDbBlockBegin
  2
A$C18BE6784
 70
     0
 10
0.0
 20
0.0
 30
0.0
  3
A$C18BE6784
  1

  0
LINE
  5
532
330
4CC
100
AcDbEntity
  8
1
  6
Continuous
 62
     7
100
AcDbLine
 10
1.499999987731055
 20
0.0000000030617375
 30
0.0
 11
2.224999987731024
 21
0.0000000030617375
 31
0.0
  0
LINE
  5
533
330
4CC
100
AcDbEntity
  8
1
  6
Continuous
 62
     7
100
AcDbLine
 10
0.4999999877310551
 20
-0.2749999969382628
 30
0.0
 11
2.499999987731055
 21
-0.2749999969382628
 31
0.0
  0
LINE
  5
534
330
4CC
100
AcDbEntity
  8
1
  6
Continuous
 62
     7
100
AcDbLine
 10
2.499999987731055
 20
-0.2749999969382966
 30
0.0
 11
2.499999987731055
 21
-0.3949999969382336
 31
0.0
  0
LINE
  5
535
330
4CC
100
AcDbEntity
  8
1
  6
Continuous
 62
     7
100
AcDbLine
 10
2.499999987731055
 20
-0.394999996938262
 30
0.0
 11
0.4999999877310551
 21
-0.394999996938262
 31
0.0
  0
LINE
  5
536
330
4CC
100
AcDbEntity
  8
1
  6
Continuous
 62
     7
100
AcDbLine
 10
0.4999999877310551
 20
-0.6449999969382621
 30
0.0
 11
2.499999987731055
 21
-0.6449999969382337
 31
0.0
  0
LINE
  5
537
330
4CC
100
AcDbEntity
  8
1
  6
Continuous
 62
     7
100
AcDbLine
 10
2.499999987731055
 20
-0.6449999969382496
 30
0.0
 11
2.499999987731055
 21
-0.8249999969382617
 31
0.0
  0
LINE
  5
538
330
4CC
100
AcDbEntity
  8
1
  6
Continuous
 62
     7
100
AcDbLine
 10
0.374999987731055
 20
-0.8249999969382617
 30
0.0
 11
2.624999987731062
 21
-0.8249999969382635
 31
0.0
  0
LINE
  5
539
330
4CC
100
AcDbEntity
  8
1
  6
Continuous
 62
     7
100
AcDbLine
 10
2.874999987731062
 20
-1.074999996938263
 30
0.0
 11
2.999999987731055
 21
-1.074999996938263
 31
0.0
  0
LINE
  5
53A
330
4CC
100
AcDbEntity
  8
1
  6
Continuous
 62
     7
100
AcDbLine
 10
2.999999987731055
 20
-1.074999996938263
 30
0.0
 11
2.999999987731055
 21
-1.449999996938263
 31
0.0
  0
LINE
  5
53B
330
4CC
100
AcDbEntity
  8
1
  6
Continuous
 62
     7
100
AcDbLine
 10
2.999999987731055
 20
-1.449999996938263
 30
0.0
 11
-0.000000012268945
 21
-1.449999996938261
 31
0.0
  0
LINE
  5
53C
330
4CC
100
AcDbEntity
  8
1
  6
Continuous
 62
     7
100
AcDbLine
 10
1.499999987731055
 20
0.0000000030617375
 30
0.0
 11
0.7749999877310394
 21
0.0000000030617358
 31
0.0
  0
LINE
  5
53D
330
4CC
100
AcDbEntity
  8
1
  6
Continuous
 62
     7
100
AcDbLine
 10
0.6249999877310551
 20
-0.2749999969382628
 30
0.0
 11
0.4999999877310551
 21
-0.2749999969382557
 31
0.0
  0
LINE
  5
53E
330
4CC
100
AcDbEntity
  8
1
  6
Continuous
 62
     7
100
AcDbLine
 10
0.4999999877310551
 20
-0.2749999969382557
 30
0.0
 11
0.4999999877310551
 21
-0.3949999969382496
 31
0.0
  0
LINE
  5
53F
330
4CC
100
AcDbEntity
  8
1
  6
Continuous
 62
     7
100
AcDbLine
 10
0.4999999877310551
 20
-0.6449999969382479
 30
0.0
 11
0.4999999877310551
 21
-0.8249999969382617
 31
0.0
  0
LINE
  5
540
330
4CC
100
AcDbEntity
  8
1
  6
Continuous
 62
     7
100
AcDbLine
 10
0.4999999877310551
 20
-0.8249999969382617
 30
0.0
 11
0.374999987731055
 21
-0.8249999969382617
 31
0.0
  0
LINE
  5
541
330
4CC
100
AcDbEntity
  8
1
  6
Continuous
 62
     7
100
AcDbLine
 10
0.124999987731055
 20
-1.074999996938263
 30
0.0
 11
-0.000000012268945
 21
-1.074999996938263
 31
0.0
  0
LINE
  5
542
330
4CC
100
AcDbEntity
  8
1
  6
Continuous
 62
     7
100
AcDbLine
 10
-0.000000012268945
 20
-1.074999996938263
 30
0.0
 11
-0.000000012268945
 21
-1.449999996938263
 31
0.0
  0
LINE
  5
543
330
4CC
100
AcDbEntity
  8
1
  6
Continuous
 62
     7
100
AcDbLine
 10
-0.000000012268945
 20
-1.449999996938263
 30
0.0
 11
0.3149999877310634
 21
-1.449999996938265
 31
0.0
  0
LINE
  5
544
330
4CC
100
AcDbEntity
  8
1
  6
Continuous
 62
     7
100
AcDbLine
 10
2.224999987731052
 20
0.0000000030617375
 30
0.0
 11
2.374999987731051
 21
-0.149999996938261
 31
0.0
  0
LINE
  5
545
330
4CC
100
AcDbEntity
  8
1
  6
Continuous
 62
     7
100
AcDbLine
 10
0.7749999877310572
 20
0.000000003061734
 30
0.0
 11
0.6249999877310657
 21
-0.1499999969382593
 31
0.0
  0
ARC
  5
546
330
4CC
100
AcDbEntity
  8
1
  6
Continuous
 62
     7
100
AcDbCircle
 10
2.499999987731055
 20
-0.5199999969382337
 30
0.0
 40
0.125
100
AcDbArc
 50
270.0
 51
90.0
  0
ARC
  5
547
330
4CC
100
AcDbEntity
  8
1
  6
Continuous
 62
     7
100
AcDbCircle
 10
2.874999987731062
 20
-0.8249999969382706
 30
0.0
 40
0.25
100
AcDbArc
 50
179.9999999999977
 51
270.0
  0
ARC
  5
548
330
4CC
100
AcDbEntity
  8
1
  6
Continuous
 62
     7
100
AcDbCircle
 10
0.124999987731055
 20
-0.8249999969382688
 30
0.0
 40
0.25
100
AcDbArc
 50
270.0
 51
0.0000000000016284
  0
ARC
  5
549
330
4CC
100
AcDbEntity
  8
1
  6
Continuous
 62
     7
100
AcDbCircle
 10
0.4999999877310551
 20
-0.5199999969382496
 30
0.0
 40
0.125
100
AcDbArc
 50
90.0
 51
270.0
  0
ARC
  5
54A
330
4CC
100
AcDbEntity
  8
1
  6
Continuous
 62
     7
100
AcDbCircle
 10
0.4999999877310586
 20
-0.1499999969382557
 30
0.0
 40
0.125
100
AcDbArc
 50
270.0
 51
359.9999999999959
  0
ARC
  5
54B
330
4CC
100
AcDbEntity
  8
1
  6
Continuous
 62
     7
100
AcDbCircle
 10
2.499999987731051
 20
-0.1499999969382966
 30
0.0
 40
0.125
100
AcDbArc
 50
179.9999999999845
 51
270.0000000000012
  0
LINE
  5
54C
330
4CC
100
AcDbEntity
  8
1
  6
Continuous
 62
     7
100
AcDbLine
 10
2.374999987731055
 20
-0.149999996938261
 30
0.0
 11
0.6249999877310551
 21
-0.149999996938261
 31
0.0
  0
LINE
  5
54D
330
4CC
100
AcDbEntity
  8
1
  6
Continuous
 62
     7
100
AcDbLine
 10
-0.000000012268945
 20
-1.074999996938263
 30
0.0
 11
2.999999987731055
 21
-1.074999996938263
 31
0.0
  0
LINE
  5
54E
330
4CC
100
AcDbEntity
  8
ADP2DETAIL
  6
HIDDEN
100
AcDbLine
 10
2.624999987731055
 20
-1.389999996938167
 30
0.0
 11
2.624999987731055
 21
-1.074999996938263
 31
0.0
  0
LINE
  5
54F
330
4CC
100
AcDbEntity
  8
1
  6
HIDDEN
 62
     7
100
AcDbLine
 10
2.624999987731055
 20
-1.074999996938263
 30
0.0
 11
2.309999987731032
 21
-1.074999996938272
 31
0.0
  0
LINE
  5
550
330
4CC
100
AcDbEntity
  8
ADP2DETAIL
  6
HIDDEN
100
AcDbLine
 10
2.249999987731055
 20
-1.014999996938295
 30
0.0
 11
2.249999987731055
 21
-0.8249999969382635
 31
0.0
  0
LINE
  5
551
330
4CC
100
AcDbEntity
  8
1
  6
HIDDEN
 62
     7
100
AcDbLine
 10
2.249999987731055
 20
-0.8249999969382635
 30
0.0
 11
2.059999987731028
 21
-0.8249999969382511
 31
0.0
  0
LINE
  5
552
330
4CC
100
AcDbEntity
  8
ADP2DETAIL
  6
HIDDEN
100
AcDbLine
 10
1.874999987731058
 20
-0.7649999969382791
 30
0.0
 11
1.874999987731055
 21
0.0000000030617375
 31
0.0
  0
LINE
  5
553
330
4CC
100
AcDbEntity
  8
ADP2DETAIL
  6
HIDDEN
100
AcDbLine
 10
0.374999987731055
 20
-1.389999996938275
 30
0.0
 11
0.374999987731055
 21
-1.074999996938263
 31
0.0
  0
LINE
  5
554
330
4CC
100
AcDbEntity
  8
1
  6
HIDDEN
 62
     7
100
AcDbLine
 10
0.374999987731055
 20
-1.074999996938263
 30
0.0
 11
0.6899999877310173
 21
-1.074999996938258
 31
0.0
  0
LINE
  5
555
330
4CC
100
AcDbEntity
  8
ADP2DETAIL
  6
HIDDEN
100
AcDbLine
 10
0.7499999877310551
 20
-1.01499999693822
 30
0.0
 11
0.7499999877310551
 21
-0.8249999969382635
 31
0.0
  0
LINE
  5
556
330
4CC
100
AcDbEntity
  8
1
  6
HIDDEN
 62
     7
100
AcDbLine
 10
0.7499999877310551
 20
-0.8249999969382635
 30
0.0
 11
0.9399999877309923
 21
-0.8249999969382795
 31
0.0
  0
LINE
  5
557
330
4CC
100
AcDbEntity
  8
ADP2DETAIL
  6
HIDDEN
100
AcDbLine
 10
1.12499564767932
 20
-0.7660416274377884
 30
0.0
 11
1.12499564767932
 21
-0.001041627437834
 31
0.0
  0
LINE
  5
558
330
4CC
100
AcDbEntity
  8
ADP2DETAIL
  6
Continuous
100
AcDbLine
 10
2.624999987731055
 20
-1.389999996938259
 30
0.0
 11
2.684999987731053
 21
-1.449999996938259
 31
0.0
  0
LINE
  5
559
330
4CC
100
AcDbEntity
  8
ADP2DETAIL
  6
HIDDEN
100
AcDbLine
 10
2.249999987731055
 20
-1.014999996938271
 30
0.0
 11
2.309999987731053
 21
-1.074999996938272
 31
0.0
  0
LINE
  5
55A
330
4CC
100
AcDbEntity
  8
ADP2DETAIL
  6
HIDDEN
100
AcDbLine
 10
1.874999987731058
 20
-0.7649999969382506
 30
0.0
 11
1.934999987731057
 21
-0.8249999969382511
 31
0.0
  0
LINE
  5
55B
330
4CC
100
AcDbEntity
  8
ADP2DETAIL
  6
HIDDEN
100
AcDbLine
 10
0.6899999877310563
 20
-1.074999996938259
 30
0.0
 11
0.7499999877310551
 21
-1.014999996938259
 31
0.0
  0
LINE
  5
55C
330
4CC
100
AcDbEntity
  8
ADP2DETAIL
  6
Continuous
100
AcDbLine
 10
0.374999987731055
 20
-1.389999996938264
 30
0.0
 11
0.3149999877310527
 21
-1.449999996938265
 31
0.0
  0
LINE
  5
55D
330
4CC
100
AcDbEntity
  8
ADP2DETAIL
  6
HIDDEN
100
AcDbLine
 10
1.064999987731056
 20
-0.8249999969382795
 30
0.0
 11
1.124999987731055
 21
-0.7649999969382791
 31
0.0
  0
ENDBLK
  5
4FA
330
4CC
100
AcDbEntity
  8
0
100
AcDbBlockEnd
  0
ENDSEC
  0
SECTION
  2
ENTITIES
  0
TEXT
  5
78
330
17
100
AcDbEntity
  8
ADPDIM
100
AcDbText
 10
21.08037235428719
 20
7.415493231288569
 30
0.0
 40
0.09375
  1
J U L I U S  B L U M  &  C O . ,  I N C .      ( 8 0 0 )  5 2 6 - 6 2 9 3        W W W . J U L I U S B L U M . C O M        P A R T  N O .  4 8 3
 41
1.25
  7
ARIAL_WIDE
 72
     1
 11
25.92454868443726
 21
7.509243231288569
 31
0.0
100
AcDbText
 73
     3
  0
DIMENSION
  5
1B5
330
17
100
AcDbEntity
  8
ADPDIM
100
AcDbDimension
  2
*D0
 10
27.41906029938054
 20
8.073847106019222
 30
0.0
 11
25.91906029938054
 21
8.073847106019222
 31
0.0
 70
    32
 71
     5
 42
3.0
  3
STANDARD
100
AcDbAlignedDimension
 13
24.41906029938054
 23
8.510109690045942
 33
0.0
 14
27.41906029938054
 24
8.51010969004594
 34
0.0
100
AcDbRotatedDimension
1001
ACAD
1000
DSTYLE
1002
{
1070
   276
1070
     2
1070
    41
1040
0.125
1070
    73
1070
     0
1070
    74
1070
     0
1070
    78
1070
     3
1070
   140
1040
0.125
1070
   141
1040
0.1875
1070
   142
1040
0.125
1070
   147
1040
0.125
1070
   171
1070
     1
1070
   273
1070
     5
1070
   274
1070
     1
1070
   277
1070
     5
1070
   279
1070
     2
1070
   284
1070
     3
1070
   285
1070
     3
1070
   286
1070
     3
1002
}
  0
DIMENSION
  5
1C3
330
17
100
AcDbEntity
  8
ADPDIM
100
AcDbDimension
  2
*D1
 10
26.29300111702076
 20
10.32506934456884
 30
0.0
 11
25.9179989469949
 21
10.32506934456884
 31
0.0
 70
    32
 71
     5
 42
0.7500043400517349
  3
STANDARD
100
AcDbAlignedDimension
 13
25.54299677696903
 23
9.957942423854285
 33
0.0
 14
26.29300111702076
 24
9.958984054353857
 34
0.0
100
AcDbRotatedDimension
1001
ACAD
1000
DSTYLE
1002
{
1070
   276
1070
     2
1070
    41
1040
0.125
1070
    73
1070
     0
1070
    74
1070
     0
1070
    78
1070
     3
1070
   140
1040
0.125
1070
   141
1040
0.1875
1070
   142
1040
0.125
1070
   147
1040
0.125
1070
   171
1070
     1
1070
   273
1070
     5
1070
   274
1070
     1
1070
   277
1070
     5
1070
   279
1070
     2
1070
   284
1070
     3
1070
   285
1070
     3
1070
   286
1070
     3
1002
}
  0
DIMENSION
  5
1F9
330
17
100
AcDbEntity
  8
ADPDIM
100
AcDbDimension
  2
*D2
 10
23.59687166344206
 20
8.510109690045942
 30
0.0
 11
23.59687166344206
 21
9.235109690045943
 31
0.0
 70
    32
 71
     5
 42
1.449999999999997
  3
STANDARD
100
AcDbAlignedDimension
 13
25.19406029938052
 23
9.960109690045939
 33
0.0
 14
24.41906029938054
 24
8.510109690045942
 34
0.0
 50
90.0
100
AcDbRotatedDimension
1001
ACAD
1000
DSTYLE
1002
{
1070
   276
1070
     2
1070
    41
1040
0.125
1070
    73
1070
     0
1070
    74
1070
     0
1070
    78
1070
     3
1070
   140
1040
0.125
1070
   141
1040
0.1875
1070
   142
1040
0.125
1070
   147
1040
0.125
1070
   171
1070
     1
1070
   273
1070
     5
1070
   274
1070
     1
1070
   277
1070
     5
1070
   279
1070
     2
1070
   284
1070
     3
1070
   285
1070
     3
1070
   286
1070
     3
1002
}
  0
INSERT
  5
4FB
330
17
100
AcDbEntity
  8
ADP1DETAIL
100
AcDbBlockReference
  2
A$C18BE6784
 10
24.41800112928971
 20
9.958984051292119
 30
0.0
  0
ENDSEC
  0
SECTION
  2
OBJECTS
  0
DICTIONARY
  5
C
330
0
100
AcDbDictionary
281
     1
  3
ACAD_COLOR
350
17B
  3
ACAD_GROUP
350
D
  3
ACAD_LAYOUT
350
7D
  3
ACAD_MATERIAL
350
166
  3
ACAD_MLINESTYLE
350
1A
  3
ACAD_PLOTSETTINGS
350
7E
  3
ACAD_PLOTSTYLENAME
350
7B
  3
ACAD_TABLESTYLE
350
17C
  3
ACAD_VISUALSTYLE
350
16A
  3
ACDBVARIABLEDICTIONARY
350
29
  3
DWGPROPS
350
759
  0
DICTIONARY
  5
2CD
330
8
100
AcDbDictionary
280
     1
281
     1
  0
DICTIONARY
  5
AA
330
17
100
AcDbDictionary
280
     1
281
     1
  3
ACAD_LAYOUTSELFREF
360
160
  0
DICTIONARY
  5
A8
330
14
100
AcDbDictionary
280
     1
281
     1
  3
ACAD_LAYOUTSELFREF
360
15F
  0
DICTIONARY
  5
55E
330
4CC
100
AcDbDictionary
280
     1
281
     1
  3
ACAD_SORTENTS
360
5C3
  0
DICTIONARY
  5
17B
102
{ACAD_REACTORS
330
C
102
}
330
C
100
AcDbDictionary
281
     1
  0
DICTIONARY
  5
D
102
{ACAD_REACTORS
330
C
102
}
330
C
100
AcDbDictionary
281
     1
  0
DICTIONARY
  5
7D
102
{ACAD_REACTORS
330
C
102
}
330
C
100
AcDbDictionary
281
     1
  3
Layout1
350
80
  3
Model
350
7F
  0
DICTIONARY
  5
166
102
{ACAD_REACTORS
330
C
102
}
330
C
100
AcDbDictionary
281
     1
  3
ByBlock
350
168
  3
ByLayer
350
167
  3
Global
350
169
  0
DICTIONARY
  5
1A
102
{ACAD_REACTORS
330
C
102
}
330
C
100
AcDbDictionary
281
     1
  3
STANDARD
350
1B
  0
DICTIONARY
  5
7E
102
{ACAD_REACTORS
330
C
102
}
330
C
100
AcDbDictionary
281
     1
  0
ACDBDICTIONARYWDFLT
  5
7B
102
{ACAD_REACTORS
330
C
102
}
330
C
100
AcDbDictionary
281
     1
  3
Normal
350
7C
100
AcDbDictionaryWithDefault
340
7C
  0
DICTIONARY
  5
17C
102
{ACAD_REACTORS
330
C
102
}
330
C
100
AcDbDictionary
281
     1
  3
Standard
350
17D
  0
DICTIONARY
  5
16A
102
{ACAD_REACTORS
330
C
102
}
330
C
100
AcDbDictionary
281
     1
  3
2dWireframe
350
170
  3
3D Hidden
350
172
  3
3dWireframe
350
171
  3
Basic
350
16F
  3
Brighten
350
176
  3
ColorChange
350
17A
  3
Conceptual
350
173
  3
Dim
350
175
  3
Facepattern
350
179
  3
Flat
350
16B
  3
FlatWithEdges
350
16C
  3
Gouraud
350
16D
  3
GouraudWithEdges
350
16E
  3
Linepattern
350
178
  3
Realistic
350
174
  3
Thicken
350
177
  0
DICTIONARY
  5
29
102
{ACAD_REACTORS
330
C
102
}
330
C
100
AcDbDictionary
281
     1
  3
CTABLESTYLE
350
21B
  3
DIMADEC
350
2A
  3
DIMASSOC
350
B0
  3
INDEXCTL
350
2E8
  3
SORTENTS
350
2E7
  0
XRECORD
  5
759
102
{ACAD_REACTORS
330
C
102
}
330
C
100
AcDbXrecord
280
     1
  1
DWGPROPS COOKIE
  2

  3

  4

  6

  7

  8
John
  9

300
=
301
=
302
=
303
=
304
=
305
=
306
=
307
=
308
=
309
=
 40
0.1004962847222222
 41
2450374.619389653
 42
2455209.554422616
  1

 90
        0
  0
XRECORD
  5
160
102
{ACAD_REACTORS
330
AA
102
}
330
AA
100
AcDbXrecord
280
     1
340
17
  0
XRECORD
  5
15F
102
{ACAD_REACTORS
330
A8
102
}
330
A8
100
AcDbXrecord
280
     1
340
14
  0
SORTENTSTABLE
  5
5C3
102
{ACAD_REACTORS
330
55E
102
}
330
55E
100
AcDbSortentsTable
330
4CC
  0
LAYOUT
  5
80
102
{ACAD_XDICTIONARY
360
75C
102
}
102
{ACAD_REACTORS
330
7D
102
}
330
7D
100
AcDbPlotSettings
  1

  2
Fax
  4

  6

 40
0.0
 41
0.0
 42
0.0
 43
0.0
 44
0.0
 45
0.0
 46
0.0
 47
0.0
 48
0.0
 49
0.0
140
0.0
141
0.0
142
1.0
143
1.0
 70
   688
 72
     0
 73
     0
 74
     5
  7
Default R14 pen assignments.ctb
 75
    16
147
1.0
148
0.0
149
0.0
100
AcDbLayout
  1
Layout1
 70
     1
 71
     1
 10
0.0
 20
0.0
 11
12.0
 21
9.0
 12
0.0
 22
0.0
 32
0.0
 14
1.000000000000000E+20
 24
1.000000000000000E+20
 34
1.000000000000000E+20
 15
-1.000000000000000E+20
 25
-1.000000000000000E+20
 35
-1.000000000000000E+20
146
0.0
 13
0.0
 23
0.0
 33
0.0
 16
1.0
 26
0.0
 36
0.0
 17
0.0
 27
1.0
 37
0.0
 76
     0
330
14
  0
LAYOUT
  5
7F
102
{ACAD_XDICTIONARY
360
75A
102
}
102
{ACAD_REACTORS
330
7D
102
}
330
7D
100
AcDbPlotSettings
  1

  2
Fax
  4
Letter
  6

 40
3.174999952316284
 41
3.174999952316284
 42
3.175003051757812
 43
3.17498779296875
 44
215.8999938964844
 45
279.3999938964844
 46
0.0
 47
0.0
 48
0.0
 49
0.0
140
0.0
141
0.0
142
1.0
143
0.9055026180628759
 70
 11952
 72
     0
 73
     1
 74
     0
  7
Default R14 pen assignments.ctb
 75
     0
147
1.10435903778973
148
-534.8430393152798
149
-166.0606736293891
100
AcDbLayout
  1
Model
 70
     1
 71
     0
 10
0.0
 20
0.0
 11
12.0
 21
9.0
 12
0.0
 22
0.0
 32
0.0
 14
0.0
 24
0.0
 34
0.0
 15
0.0
 25
0.0
 35
0.0
146
0.0
 13
0.0
 23
0.0
 33
0.0
 16
1.0
 26
0.0
 36
0.0
 17
0.0
 27
1.0
 37
0.0
 76
     0
330
17
331
13B
1001
ACAD_PSEXT
1000
Fax
1000
Microsoft Shared Fax Driver
1000
SHRFAX:
1000

1070
     0
  0
MATERIAL
  5
168
102
{ACAD_XDICTIONARY
360
760
102
}
102
{ACAD_REACTORS
330
166
102
}
330
166
100
AcDbMaterial
  1
ByBlock
  0
MATERIAL
  5
167
102
{ACAD_XDICTIONARY
360
75E
102
}
102
{ACAD_REACTORS
330
166
102
}
330
166
100
AcDbMaterial
  1
ByLayer
  0
MATERIAL
  5
169
102
{ACAD_XDICTIONARY
360
762
102
}
102
{ACAD_REACTORS
330
166
102
}
330
166
100
AcDbMaterial
  1
Global
  0
MLINESTYLE
  5
1B
102
{ACAD_REACTORS
330
1A
102
}
330
1A
100
AcDbMlineStyle
  2
STANDARD
 70
     0
  3

 62
   256
 51
90.0
 52
90.0
 71
     2
 49
0.5
 62
   256
  6
BYLAYER
 49
-0.5
 62
   256
  6
BYLAYER
  0
ACDBPLACEHOLDER
  5
7C
102
{ACAD_REACTORS
330
7B
102
}
330
7B
  0
TABLESTYLE
  5
17D
102
{ACAD_XDICTIONARY
360
764
102
}
102
{ACAD_REACTORS
330
17C
102
}
330
17C
100
AcDbTableStyle
  3
Standard
 70
     0
 71
     0
 40
0.06
 41
0.06
280
     0
281
     0
  7
STANDARD
140
0.18
170
     2
 62
     0
 63
     7
283
     0
274
    -2
284
     1
 64
     0
275
    -2
285
     1
 65
     0
276
    -2
286
     1
 66
     0
277
    -2
287
     1
 67
     0
278
    -2
288
     1
 68
     0
279
    -2
289
     1
 69
     0
  7
STANDARD
140
0.25
170
     5
 62
     0
 63
     7
283
     0
274
    -2
284
     1
 64
     0
275
    -2
285
     1
 65
     0
276
    -2
286
     1
 66
     0
277
    -2
287
     1
 67
     0
278
    -2
288
     1
 68
     0
279
    -2
289
     1
 69
     0
  7
STANDARD
140
0.18
170
     5
 62
     0
 63
     7
283
     0
274
    -2
284
     1
 64
     0
275
    -2
285
     1
 65
     0
276
    -2
286
     1
 66
     0
277
    -2
287
     1
 67
     0
278
    -2
288
     1
 68
     0
279
    -2
289
     1
 69
     0
  0
VISUALSTYLE
  5
170
102
{ACAD_REACTORS
330
16A
102
}
330
16A
100
AcDbVisualStyle
  2
2dWireframe
 70
     4
 71
     0
 72
     2
 73
     0
 90
        0
 40
-0.6
 41
-30.0
 62
     5
 63
     7
 74
     1
 91
        4
 64
     7
 65
   257
 75
     1
175
     1
 42
1.0
 92
        0
 66
   257
 43
1.0
 76
     1
 77
     6
 78
     2
 67
     7
 79
     5
170
     0
171
     0
290
     0
174
     0
 93
        1
 44
0.0
173
     0
291
     0
 45
0.0
1001
ACAD
1000
AcDbSavedByObjectVersion
1070
     0
  0
VISUALSTYLE
  5
172
102
{ACAD_REACTORS
330
16A
102
}
330
16A
100
AcDbVisualStyle
  2
3D Hidden
 70
     6
 71
     1
 72
     2
 73
     2
 90
        0
 40
-0.6
 41
-30.0
 62
     5
 63
     7
 74
     2
 91
        2
 64
     7
 65
   257
 75
     2
175
     1
 42
40.0
 92
        0
 66
   257
 43
1.0
 76
     1
 77
     6
 78
     2
 67
     7
 79
     3
170
     0
171
     0
290
     0
174
     0
 93
        1
 44
0.0
173
     0
291
     0
 45
0.0
1001
ACAD
1000
AcDbSavedByObjectVersion
1070
     0
  0
VISUALSTYLE
  5
171
102
{ACAD_REACTORS
330
16A
102
}
330
16A
100
AcDbVisualStyle
  2
3dWireframe
 70
     5
 71
     0
 72
     2
 73
     0
 90
        0
 40
-0.6
 41
-30.0
 62
     5
 63
     7
 74
     1
 91
        4
 64
     7
 65
   257
 75
     1
175
     1
 42
1.0
 92
        0
 66
   257
 43
1.0
 76
     1
 77
     6
 78
     2
 67
     7
 79
     5
170
     0
171
     0
290
     0
174
     0
 93
        1
 44
0.0
173
     0
291
     0
 45
0.0
1001
ACAD
1000
AcDbSavedByObjectVersion
1070
     0
  0
VISUALSTYLE
  5
16F
102
{ACAD_REACTORS
330
16A
102
}
330
16A
100
AcDbVisualStyle
  2
Basic
 70
     7
 71
     1
 72
     0
 73
     1
 90
        0
 40
-0.6
 41
-30.0
 62
     5
 63
     7
 74
     0
 91
        4
 64
     7
 65
   257
 75
     1
175
     1
 42
1.0
 92
        8
 66
     7
 43
1.0
 76
     1
 77
     6
 78
     2
 67
     7
 79
     5
170
     0
171
     0
290
     0
174
     0
 93
        1
 44
0.0
173
     0
291
     1
 45
0.0
1001
ACAD
1000
AcDbSavedByObjectVersion
1070
     0
  0
VISUALSTYLE
  5
176
102
{ACAD_REACTORS
330
16A
102
}
330
16A
100
AcDbVisualStyle
  2
Brighten
 70
    12
 71
     2
 72
     2
 73
     0
 90
        0
 40
-0.6
 41
-30.0
 62
     5
 63
     7
 74
     1
 91
        4
 64
     7
 65
   257
 75
     1
175
     1
 42
1.0
 92
        8
 66
     7
 43
1.0
 76
     1
 77
     6
 78
     2
 67
     7
 79
     5
170
     0
171
     0
290
     0
174
     0
 93
        1
 44
50.0
173
     0
291
     1
 45
0.0
1001
ACAD
1000
AcDbSavedByObjectVersion
1070
     0
  0
VISUALSTYLE
  5
17A
102
{ACAD_REACTORS
330
16A
102
}
330
16A
100
AcDbVisualStyle
  2
ColorChange
 70
    16
 71
     2
 72
     2
 73
     3
 90
        0
 40
-0.6
 41
-30.0
 62
     5
 63
     8
 74
     1
 91
        4
 64
     7
 65
   257
 75
     1
175
     1
 42
1.0
 92
        8
 66
     8
 43
1.0
 76
     1
 77
     6
 78
     2
 67
     7
 79
     5
170
     0
171
     0
290
     0
174
     0
 93
        1
 44
0.0
173
     0
291
     1
 45
0.0
1001
ACAD
1000
AcDbSavedByObjectVersion
1070
     0
  0
VISUALSTYLE
  5
173
102
{ACAD_REACTORS
330
16A
102
}
330
16A
100
AcDbVisualStyle
  2
Conceptual
 70
     9
 71
     3
 72
     2
 73
     0
 90
        0
 40
-0.6
 41
-30.0
 62
     5
 63
     7
 74
     2
 91
        2
 64
     7
 65
   257
 75
     1
175
     1
 42
40.0
 92
        8
 66
     7
 43
1.0
 76
     1
 77
     6
 78
     2
 67
     7
 79
     3
170
     0
171
     0
290
     0
174
     0
 93
        1
 44
0.0
173
     0
291
     0
 45
0.0
1001
ACAD
1000
AcDbSavedByObjectVersion
1070
     0
  0
VISUALSTYLE
  5
175
102
{ACAD_REACTORS
330
16A
102
}
330
16A
100
AcDbVisualStyle
  2
Dim
 70
    11
 71
     2
 72
     2
 73
     0
 90
        0
 40
-0.6
 41
-30.0
 62
     5
 63
     7
 74
     1
 91
        4
 64
     7
 65
   257
 75
     1
175
     1
 42
1.0
 92
        8
 66
     7
 43
1.0
 76
     1
 77
     6
 78
     2
 67
     7
 79
     5
170
     0
171
     0
290
     0
174
     0
 93
        1
 44
-50.0
173
     0
291
     1
 45
0.0
1001
ACAD
1000
AcDbSavedByObjectVersion
1070
     0
  0
VISUALSTYLE
  5
179
102
{ACAD_REACTORS
330
16A
102
}
330
16A
100
AcDbVisualStyle
  2
Facepattern
 70
    15
 71
     2
 72
     2
 73
     0
 90
        0
 40
-0.6
 41
-30.0
 62
     5
 63
     7
 74
     1
 91
        4
 64
     7
 65
   257
 75
     1
175
     1
 42
1.0
 92
        8
 66
     7
 43
1.0
 76
     1
 77
     6
 78
     2
 67
     7
 79
     5
170
     0
171
     0
290
     0
174
     0
 93
        1
 44
0.0
173
     0
291
     1
 45
0.0
1001
ACAD
1000
AcDbSavedByObjectVersion
1070
     0
  0
VISUALSTYLE
  5
16B
102
{ACAD_REACTORS
330
16A
102
}
330
16A
100
AcDbVisualStyle
  2
Flat
 70
     0
 71
     2
 72
     1
 73
     1
 90
        2
 40
-0.6
 41
30.0
 62
     5
 63
     7
 74
     0
 91
        4
 64
     7
 65
   257
 75
     1
175
     1
 42
1.0
 92
        8
 66
     7
 43
1.0
 76
     1
 77
     6
 78
     2
 67
     7
 79
     5
170
     0
171
     0
290
     0
174
     0
 93
       13
 44
0.0
173
     0
291
     1
 45
0.0
1001
ACAD
1000
AcDbSavedByObjectVersion
1070
     0
  0
VISUALSTYLE
  5
16C
102
{ACAD_REACTORS
330
16A
102
}
330
16A
100
AcDbVisualStyle
  2
FlatWithEdges
 70
     1
 71
     2
 72
     1
 73
     1
 90
        2
 40
-0.6
 41
30.0
 62
     5
 63
     7
 74
     1
 91
        4
 64
     7
 65
   257
 75
     1
175
     1
 42
1.0
 92
        0
 66
   257
 43
1.0
 76
     1
 77
     6
 78
     2
 67
     7
 79
     5
170
     0
171
     0
290
     0
174
     0
 93
       13
 44
0.0
173
     0
291
     1
 45
0.0
1001
ACAD
1000
AcDbSavedByObjectVersion
1070
     0
  0
VISUALSTYLE
  5
16D
102
{ACAD_REACTORS
330
16A
102
}
330
16A
100
AcDbVisualStyle
  2
Gouraud
 70
     2
 71
     2
 72
     2
 73
     1
 90
        2
 40
-0.6
 41
30.0
 62
     5
 63
     7
 74
     0
 91
        4
 64
     7
 65
   257
 75
     1
175
     1
 42
1.0
 92
        0
 66
     7
 43
1.0
 76
     1
 77
     6
 78
     2
 67
     7
 79
     5
170
     0
171
     0
290
     0
174
     0
 93
       13
 44
0.0
173
     0
291
     1
 45
0.0
1001
ACAD
1000
AcDbSavedByObjectVersion
1070
     0
  0
VISUALSTYLE
  5
16E
102
{ACAD_REACTORS
330
16A
102
}
330
16A
100
AcDbVisualStyle
  2
GouraudWithEdges
 70
     3
 71
     2
 72
     2
 73
     1
 90
        2
 40
-0.6
 41
30.0
 62
     5
 63
     7
 74
     1
 91
        4
 64
     7
 65
   257
 75
     1
175
     1
 42
1.0
 92
        0
 66
   257
 43
1.0
 76
     1
 77
     6
 78
     2
 67
     7
 79
     5
170
     0
171
     0
290
     0
174
     0
 93
       13
 44
0.0
173
     0
291
     1
 45
0.0
1001
ACAD
1000
AcDbSavedByObjectVersion
1070
     0
  0
VISUALSTYLE
  5
178
102
{ACAD_REACTORS
330
16A
102
}
330
16A
100
AcDbVisualStyle
  2
Linepattern
 70
    14
 71
     2
 72
     2
 73
     0
 90
        0
 40
-0.6
 41
-30.0
 62
     5
 63
     7
 74
     1
 91
        4
 64
     7
 65
   257
 75
     7
175
     7
 42
1.0
 92
        8
 66
     7
 43
1.0
 76
     1
 77
     6
 78
     2
 67
     7
 79
     5
170
     0
171
     0
290
     0
174
     0
 93
        1
 44
0.0
173
     0
291
     1
 45
0.0
1001
ACAD
1000
AcDbSavedByObjectVersion
1070
     0
  0
VISUALSTYLE
  5
174
102
{ACAD_REACTORS
330
16A
102
}
330
16A
100
AcDbVisualStyle
  2
Realistic
 70
     8
 71
     2
 72
     2
 73
     0
 90
        0
 40
-0.6
 41
-30.0
 62
     5
 63
     7
 74
     1
 91
        0
 64
     7
 65
   257
 75
     1
175
     1
 42
1.0
 92
        8
 66
     8
 43
1.0
 76
     1
 77
     6
 78
     2
 67
     7
 79
     5
170
     0
171
     0
290
     0
174
     0
 93
       13
 44
0.0
173
     0
291
     0
 45
0.0
1001
ACAD
1000
AcDbSavedByObjectVersion
1070
     0
  0
VISUALSTYLE
  5
177
102
{ACAD_REACTORS
330
16A
102
}
330
16A
100
AcDbVisualStyle
  2
Thicken
 70
    13
 71
     2
 72
     2
 73
     0
 90
        0
 40
-0.6
 41
-30.0
 62
     5
 63
     7
 74
     1
 91
        4
 64
     7
 65
   257
 75
     1
175
     1
 42
1.0
 92
       12
 66
     7
 43
1.0
 76
     1
 77
     6
 78
     2
 67
     7
 79
     5
170
     0
171
     0
290
     0
174
     0
 93
        1
 44
0.0
173
     0
291
     1
 45
0.0
1001
ACAD
1000
AcDbSavedByObjectVersion
1070
     0
  0
DICTIONARYVAR
  5
21B
102
{ACAD_REACTORS
330
29
102
}
330
29
100
DictionaryVariables
280
     0
  1
STANDARD
  0
DICTIONARYVAR
  5
2A
102
{ACAD_REACTORS
330
29
102
}
330
29
100
DictionaryVariables
280
     0
  1
0
  0
DICTIONARYVAR
  5
B0
102
{ACAD_REACTORS
330
29
102
}
330
29
100
DictionaryVariables
280
     0
  1
1
  0
DICTIONARYVAR
  5
2E8
102
{ACAD_REACTORS
330
29
102
}
330
29
100
DictionaryVariables
280
     0
  1
0
  0
DICTIONARYVAR
  5
2E7
102
{ACAD_REACTORS
330
29
102
}
330
29
100
DictionaryVariables
280
     0
  1
127
  0
DICTIONARY
  5
75C
330
80
100
AcDbDictionary
280
     1
281
     1
  3
ACAD_XREC_ROUNDTRIP
360
75D
  0
DICTIONARY
  5
75A
330
7F
100
AcDbDictionary
280
     1
281
     1
  3
ACAD_XREC_ROUNDTRIP
360
75B
  0
DICTIONARY
  5
760
330
168
100
AcDbDictionary
280
     1
281
     1
  3
ACAD_XREC_ROUNDTRIP
360
761
  0
DICTIONARY
  5
75E
330
167
100
AcDbDictionary
280
     1
281
     1
  3
ACAD_XREC_ROUNDTRIP
360
75F
  0
DICTIONARY
  5
762
330
169
100
AcDbDictionary
280
     1
281
     1
  3
ACAD_XREC_ROUNDTRIP
360
763
  0
DICTIONARY
  5
764
330
17D
100
AcDbDictionary
280
     1
281
     1
  3
ACAD_XREC_ROUNDTRIP
360
765
  0
XRECORD
  5
75D
102
{ACAD_REACTORS
330
75C
102
}
330
75C
100
AcDbXrecord
280
     1
102
SHADEPLOT
 70
     0
102
SHADEPLOTRESLEVEL
 70
     2
102
SHADEPLOTCUSTOMDPI
 70
   300
  0
XRECORD
  5
75B
102
{ACAD_REACTORS
330
75A
102
}
330
75A
100
AcDbXrecord
280
     1
102
SHADEPLOT
 70
     0
102
SHADEPLOTRESLEVEL
 70
     2
102
SHADEPLOTCUSTOMDPI
 70
   300
  0
XRECORD
  5
761
102
{ACAD_REACTORS
330
760
102
}
330
760
100
AcDbXrecord
280
     1
102
MATERIAL
148
0.0
149
0.0
149
0.0
 93
        0
 94
       63
282
     0
 72
     1
 77
     1
171
     1
175
     1
179
     1
273
     0
  0
XRECORD
  5
75F
102
{ACAD_REACTORS
330
75E
102
}
330
75E
100
AcDbXrecord
280
     1
102
MATERIAL
148
0.0
149
0.0
149
0.0
 93
        0
 94
       63
282
     0
 72
     1
 77
     1
171
     1
175
     1
179
     1
273
     0
  0
XRECORD
  5
763
102
{ACAD_REACTORS
330
762
102
}
330
762
100
AcDbXrecord
280
     1
102
MATERIAL
148
0.0
149
0.0
149
0.0
 93
        0
 94
       63
282
     0
 72
     1
 77
     1
171
     1
175
     1
179
     1
273
     0
  0
XRECORD
  5
765
102
{ACAD_REACTORS
330
764
102
}
330
764
100
AcDbXrecord
280
     1
102
ACAD_ROUNDTRIP_PRE2007_TABLESTYLE
 90
      512
 91
        0
  1

 92
      512
 93
        0
  2

 94
      512
 95
        0
  3

  0
ENDSEC
  0
EOF
