  0
SECTION
  2
HEADER
  9
$ACADVER
  1
AC1015
  9
$ACADMAINTVER
 70
    20
  9
$DWGCODEPAGE
  3
ANSI_1252
  9
$INSBASE
 10
0.0
 20
0.0
 30
0.0
  9
$EXTMIN
 10
-8.00194377116486
 20
-24.88183573794049
 30
-0.0000000349181948
  9
$EXTMAX
 10
1.831104534858241
 20
-21.95050271807759
 30
0.0000000814935746
  9
$LIMMIN
 10
-122.9527018229166
 20
-21.79298502604167
  9
$LIMMAX
 10
116.2447564019097
 20
16.12752549913194
  9
$ORTHOMODE
 70
     0
  9
$REGENMODE
 70
     1
  9
$FILLMODE
 70
     1
  9
$QTEXTMODE
 70
     0
  9
$MIRRTEXT
 70
     1
  9
$LTSCALE
 40
1.0
  9
$ATTMODE
 70
     1
  9
$TEXTSIZE
 40
0.0
  9
$TRACEWID
 40
0.05
  9
$TEXTSTYLE
  7
Standard
  9
$CLAYER
  8
0
  9
$CELTYPE
  6
Continuous
  9
$CECOLOR
 62
   256
  9
$CELTSCALE
 40
1.0
  9
$DISPSILH
 70
     0
  9
$DIMSCALE
 40
1.0
  9
$DIMASZ
 40
0.18
  9
$DIMEXO
 40
0.0625
  9
$DIMDLI
 40
0.38
  9
$DIMRND
 40
0.0
  9
$DIMDLE
 40
0.0
  9
$DIMEXE
 40
0.18
  9
$DIMTP
 40
0.0
  9
$DIMTM
 40
0.0
  9
$DIMTXT
 40
0.18
  9
$DIMCEN
 40
0.09
  9
$DIMTSZ
 40
0.0
  9
$DIMTOL
 70
     0
  9
$DIMLIM
 70
     0
  9
$DIMTIH
 70
     1
  9
$DIMTOH
 70
     1
  9
$DIMSE1
 70
     0
  9
$DIMSE2
 70
     0
  9
$DIMTAD
 70
     0
  9
$DIMZIN
 70
     0
  9
$DIMBLK
  1

  9
$DIMASO
 70
     1
  9
$DIMSHO
 70
     1
  9
$DIMPOST
  1

  9
$DIMAPOST
  1

  9
$DIMALT
 70
     0
  9
$DIMALTD
 70
     2
  9
$DIMALTF
 40
25.4
  9
$DIMLFAC
 40
1.0
  9
$DIMTOFL
 70
     0
  9
$DIMTVP
 40
0.0
  9
$DIMTIX
 70
     0
  9
$DIMSOXD
 70
     0
  9
$DIMSAH
 70
     0
  9
$DIMBLK1
  1

  9
$DIMBLK2
  1

  9
$DIMSTYLE
  2
Standard
  9
$DIMCLRD
 70
     0
  9
$DIMCLRE
 70
     0
  9
$DIMCLRT
 70
     0
  9
$DIMTFAC
 40
1.0
  9
$DIMGAP
 40
0.09
  9
$DIMJUST
 70
     0
  9
$DIMSD1
 70
     0
  9
$DIMSD2
 70
     0
  9
$DIMTOLJ
 70
     1
  9
$DIMTZIN
 70
     0
  9
$DIMALTZ
 70
     0
  9
$DIMALTTZ
 70
     0
  9
$DIMUPT
 70
     0
  9
$DIMDEC
 70
     4
  9
$DIMTDEC
 70
     4
  9
$DIMALTU
 70
     2
  9
$DIMALTTD
 70
     2
  9
$DIMTXSTY
  7
Standard
  9
$DIMAUNIT
 70
     0
  9
$DIMADEC
 70
     0
  9
$DIMALTRND
 40
0.0
  9
$DIMAZIN
 70
     0
  9
$DIMDSEP
 70
     0
  9
$DIMATFIT
 70
     3
  9
$DIMFRAC
 70
     0
  9
$DIMLDRBLK
  1

  9
$DIMLUNIT
 70
     2
  9
$DIMLWD
 70
     0
  9
$DIMLWE
 70
     0
  9
$DIMTMOVE
 70
     0
  9
$LUNITS
 70
     2
  9
$LUPREC
 70
     4
  9
$SKETCHINC
 40
0.1
  9
$FILLETRAD
 40
0.0
  9
$AUNITS
 70
     0
  9
$AUPREC
 70
     0
  9
$MENU
  1
acad
  9
$ELEVATION
 40
0.0
  9
$PELEVATION
 40
0.0
  9
$THICKNESS
 40
0.0
  9
$LIMCHECK
 70
     0
  9
$CHAMFERA
 40
0.0
  9
$CHAMFERB
 40
0.0
  9
$CHAMFERC
 40
0.0
  9
$CHAMFERD
 40
0.0
  9
$SKPOLY
 70
     0
  9
$TDCREATE
 40
2453963.879490035
  9
$TDUCREATE
 40
2453964.046156701
  9
$TDUPDATE
 40
2453963.906514873
  9
$TDUUPDATE
 40
2453964.073181539
  9
$TDINDWG
 40
0.0270591435
  9
$TDUSRTIMER
 40
0.0270591435
  9
$USRTIMER
 70
     1
  9
$ANGBASE
 50
0.0
  9
$ANGDIR
 70
     0
  9
$PDMODE
 70
     0
  9
$PDSIZE
 40
0.0
  9
$PLINEWID
 40
0.0
  9
$SPLFRAME
 70
     0
  9
$SPLINETYPE
 70
     6
  9
$SPLINESEGS
 70
     8
  9
$HANDSEED
  5
5B4
  9
$SURFTAB1
 70
     6
  9
$SURFTAB2
 70
     6
  9
$SURFTYPE
 70
     6
  9
$SURFU
 70
     6
  9
$SURFV
 70
     6
  9
$UCSBASE
  2

  9
$UCSNAME
  2

  9
$UCSORG
 10
0.0
 20
0.0
 30
0.0
  9
$UCSXDIR
 10
1.0
 20
0.0
 30
0.0
  9
$UCSYDIR
 10
0.0
 20
1.0
 30
0.0
  9
$UCSORTHOREF
  2

  9
$UCSORTHOVIEW
 70
     0
  9
$UCSORGTOP
 10
0.0
 20
0.0
 30
0.0
  9
$UCSORGBOTTOM
 10
0.0
 20
0.0
 30
0.0
  9
$UCSORGLEFT
 10
0.0
 20
0.0
 30
0.0
  9
$UCSORGRIGHT
 10
0.0
 20
0.0
 30
0.0
  9
$UCSORGFRONT
 10
0.0
 20
0.0
 30
0.0
  9
$UCSORGBACK
 10
0.0
 20
0.0
 30
0.0
  9
$PUCSBASE
  2

  9
$PUCSNAME
  2

  9
$PUCSORG
 10
0.0
 20
0.0
 30
0.0
  9
$PUCSXDIR
 10
1.0
 20
0.0
 30
0.0
  9
$PUCSYDIR
 10
0.0
 20
1.0
 30
0.0
  9
$PUCSORTHOREF
  2

  9
$PUCSORTHOVIEW
 70
     0
  9
$PUCSORGTOP
 10
0.0
 20
0.0
 30
0.0
  9
$PUCSORGBOTTOM
 10
0.0
 20
0.0
 30
0.0
  9
$PUCSORGLEFT
 10
0.0
 20
0.0
 30
0.0
  9
$PUCSORGRIGHT
 10
0.0
 20
0.0
 30
0.0
  9
$PUCSORGFRONT
 10
0.0
 20
0.0
 30
0.0
  9
$PUCSORGBACK
 10
0.0
 20
0.0
 30
0.0
  9
$USERI1
 70
     0
  9
$USERI2
 70
     0
  9
$USERI3
 70
     0
  9
$USERI4
 70
     0
  9
$USERI5
 70
     0
  9
$USERR1
 40
0.0
  9
$USERR2
 40
0.0
  9
$USERR3
 40
0.0
  9
$USERR4
 40
0.0
  9
$USERR5
 40
0.0
  9
$WORLDVIEW
 70
     1
  9
$SHADEDGE
 70
     3
  9
$SHADEDIF
 70
    70
  9
$TILEMODE
 70
     1
  9
$MAXACTVP
 70
    16
  9
$PINSBASE
 10
0.0
 20
0.0
 30
0.0
  9
$PLIMCHECK
 70
     0
  9
$PEXTMIN
 10
1.000000000000000E+20
 20
1.000000000000000E+20
 30
1.000000000000000E+20
  9
$PEXTMAX
 10
-1.000000000000000E+20
 20
-1.000000000000000E+20
 30
-1.000000000000000E+20
  9
$PLIMMIN
 10
0.0
 20
0.0
  9
$PLIMMAX
 10
12.0
 20
9.0
  9
$UNITMODE
 70
     0
  9
$VISRETAIN
 70
     0
  9
$PLINEGEN
 70
     1
  9
$PSLTSCALE
 70
     0
  9
$TREEDEPTH
 70
  3020
  9
$CMLSTYLE
  2
Standard
  9
$CMLJUST
 70
     0
  9
$CMLSCALE
 40
1.0
  9
$PROXYGRAPHICS
 70
     0
  9
$MEASUREMENT
 70
     1
  9
$CELWEIGHT
370
     0
  9
$ENDCAPS
280
     0
  9
$JOINSTYLE
280
     0
  9
$LWDISPLAY
290
     0
  9
$INSUNITS
 70
     0
  9
$HYPERLINKBASE
  1

  9
$STYLESHEET
  1

  9
$XEDIT
290
     1
  9
$CEPSNTYPE
380
     0
  9
$PSTYLEMODE
290
     1
  9
$FINGERPRINTGUID
  2

  9
$VERSIONGUID
  2
{0ED929C5-60FB-478D-929C-76D22A3FF16A}
  9
$EXTNAMES
290
     1
  9
$PSVPSCALE
 40
0.0
  9
$OLESTARTUP
290
     0
  0
ENDSEC
  0
SECTION
  2
CLASSES
  0
CLASS
  1
IMAGE
  2
AcDbRasterImage
  3
ISM
 90
    34943
280
     0
281
     1
  0
CLASS
  1
DICTIONARYVAR
  2
AcDbDictionaryVar
  3
ObjectDBX Classes
 90
        0
280
     0
281
     0
  0
CLASS
  1
RASTERVARIABLES
  2
AcDbRasterVariables
  3
ISM
 90
    32768
280
     0
281
     0
  0
CLASS
  1
IMAGEDEF
  2
AcDbRasterImageDef
  3
ISM
 90
    32768
280
     0
281
     0
  0
CLASS
  1
IMAGEDEF_REACTOR
  2
AcDbRasterImageDefReactor
  3
ISM
 90
    32769
280
     0
281
     0
  0
CLASS
  1
IDBUFFER
  2
AcDbIdBuffer
  3
ObjectDBX Classes
 90
    32768
280
     0
281
     0
  0
CLASS
  1
SPATIAL_FILTER
  2
AcDbSpatialFilter
  3
ObjectDBX Classes
 90
    32768
280
     0
281
     0
  0
CLASS
  1
SORTENTSTABLE
  2
AcDbSortentsTable
  3
ObjectDBX Classes
 90
    32768
280
     0
281
     0
  0
CLASS
  1
LAYER_INDEX
  2
AcDbLayerIndex
  3
ObjectDBX Classes
 90
    32768
280
     0
281
     0
  0
CLASS
  1
SPATIAL_INDEX
  2
AcDbSpatialIndex
  3
ObjectDBX Classes
 90
    32768
280
     0
281
     0
  0
CLASS
  1
OBJECT_PTR
  2
CAseDLPNTableRecord
  3
"ASE-LPNTableRecord"
 90
    32769
280
     0
281
     0
  0
CLASS
  1
LAYOUT
  2
AcDbLayout
  3
ObjectDBX Classes
 90
        0
280
     0
281
     0
  0
CLASS
  1
PLOTSETTINGS
  2
AcDbPlotSettings
  3
ObjectDBX Classes
 90
    32768
280
     0
281
     0
  0
CLASS
  1
ACDBDICTIONARYWDFLT
  2
AcDbDictionaryWithDefault
  3
ObjectDBX Classes
 90
        0
280
     0
281
     0
  0
CLASS
  1
ACDBPLACEHOLDER
  2
AcDbPlaceHolder
  3
ObjectDBX Classes
 90
        0
280
     0
281
     0
  0
CLASS
  1
VBA_PROJECT
  2
AcDbVbaProject
  3
acad
 90
    32768
280
     0
281
     0
  0
CLASS
  1
WIPEOUT
  2
AcDbWipeout
  3
"WipeOut|Product Desc: Object Enabler for WipeOut entity                        |Company: Autodesk, Inc.                        |WEB Address: www.autodesk.com"
 90
    34943
280
     0
281
     1
  0
CLASS
  1
WIPEOUTVARIABLES
  2
AcDbWipeoutVariables
  3
"WipeOut|Product Desc:     WipeOut Dbx Application|Company:          Autodesk, Inc.|WEB Address:      www.autodesk.com"
 90
        0
280
     0
281
     0
  0
CLASS
  1
RTEXT
  2
RText
  3
RText|AutoCAD Express Tool|expresstools@autodesk.com
 90
    32768
280
     0
281
     1
  0
CLASS
  1
ARCALIGNEDTEXT
  2
AcDbArcAlignedText
  3
ATEXT|AutoCAD Express Tool|expresstools@autodesk.com
 90
    32768
280
     0
281
     1
  0
CLASS
  1
MATERIAL
  2
AcDbMaterial
  3
ObjectDBX Classes
 90
     1024
280
     0
281
     0
  0
CLASS
  1
VISUALSTYLE
  2
AcDbVisualStyle
  3
ObjectDBX Classes
 90
     4095
280
     0
281
     0
  0
CLASS
  1
TABLESTYLE
  2
AcDbTableStyle
  3
ObjectDBX Classes
 90
     4095
280
     0
281
     0
  0
ENDSEC
  0
SECTION
  2
TABLES
  0
TABLE
  2
VPORT
  5
7
330
0
100
AcDbSymbolTable
 70
     1
  0
VPORT
  5
15
330
7
100
AcDbSymbolTableRecord
100
AcDbViewportTableRecord
  2
*ACTIVE
 70
     0
 10
0.0
 20
0.0
 11
1.0
 21
1.0
 12
-3.085419618153309
 22
-23.41616922800904
 13
0.0
 23
0.0
 14
1.0
 24
1.0
 15
0.0
 25
0.0
 16
0.0
 26
0.0
 36
1.0
 17
0.0
 27
0.0
 37
0.0
 40
5.731132072151145
 41
1.726930320150659
 42
50.0
 43
0.0
 44
0.0
 50
0.0
 51
0.0
 71
     0
 72
   100
 73
     1
 74
     1
 75
     0
 76
     0
 77
     0
 78
     0
281
     0
 65
     0
110
0.0
120
0.0
130
0.0
111
1.0
121
0.0
131
0.0
112
0.0
122
1.0
132
0.0
 79
     0
146
0.0
  0
ENDTAB
  0
TABLE
  2
LTYPE
  5
4
330
0
100
AcDbSymbolTable
 70
     1
  0
LTYPE
  5
11
330
4
100
AcDbSymbolTableRecord
100
AcDbLinetypeTableRecord
  2
ByBlock
 70
     0
  3

 72
    65
 73
     0
 40
0.0
  0
LTYPE
  5
12
330
4
100
AcDbSymbolTableRecord
100
AcDbLinetypeTableRecord
  2
ByLayer
 70
     0
  3

 72
    65
 73
     0
 40
0.0
  0
LTYPE
  5
13
330
4
100
AcDbSymbolTableRecord
100
AcDbLinetypeTableRecord
  2
Continuous
 70
     0
  3
Solid line
 72
    65
 73
     0
 40
0.0
  0
ENDTAB
  0
TABLE
  2
LAYER
  5
2
330
0
100
AcDbSymbolTable
 70
     5
  0
LAYER
  5
14
330
2
100
AcDbSymbolTableRecord
100
AcDbLayerTableRecord
  2
0
 70
     0
 62
     7
  6
Continuous
370
    -3
390
1D
  0
LAYER
  5
28
330
2
100
AcDbSymbolTableRecord
100
AcDbLayerTableRecord
  2
LAYER_2
 70
     0
 62
     1
  6
Continuous
370
    -3
390
1D
  0
LAYER
  5
95
330
2
100
AcDbSymbolTableRecord
100
AcDbLayerTableRecord
  2
LAYER_1
 70
     0
 62
   160
  6
Continuous
370
    -3
390
1D
  0
LAYER
  5
B7
330
2
100
AcDbSymbolTableRecord
100
AcDbLayerTableRecord
  2
ADPDIM
 70
     0
 62
     3
  6
Continuous
370
    -3
390
1D
  0
LAYER
  5
E2
330
2
100
AcDbSymbolTableRecord
100
AcDbLayerTableRecord
  2
Defpoints
 70
     0
 62
     7
  6
Continuous
290
     0
370
    -3
390
1D
  0
ENDTAB
  0
TABLE
  2
STYLE
  5
3
330
0
100
AcDbSymbolTable
 70
     6
  0
STYLE
  5
17
330
3
100
AcDbSymbolTableRecord
100
AcDbTextStyleTableRecord
  2
Standard
 70
     0
 40
0.0
 41
1.0
 50
0.0
 71
     0
 42
0.0
  3
txt
  4

  0
STYLE
  5
24
330
3
100
AcDbSymbolTableRecord
100
AcDbTextStyleTableRecord
  2
STD
 70
     0
 40
0.0
 41
1.0
 50
0.0
 71
     0
 42
0.0
  3
txt
  4

  0
STYLE
  5
25
330
3
100
AcDbSymbolTableRecord
100
AcDbTextStyleTableRecord
  2
TATESTD
 70
     4
 40
0.0
 41
1.0
 50
0.0
 71
     0
 42
0.0
  3
txt
  4

  0
STYLE
  5
26
330
3
100
AcDbSymbolTableRecord
100
AcDbTextStyleTableRecord
  2
KANJISTD
 70
     0
 40
0.0
 41
1.0
 50
0.0
 71
     0
 42
0.0
  3
txt
  4
extfont
  0
STYLE
  5
27
330
3
100
AcDbSymbolTableRecord
100
AcDbTextStyleTableRecord
  2
KANJITATE
 70
     4
 40
0.0
 41
1.0
 50
0.0
 71
     0
 42
0.0
  3
txt
  4
extfont
  0
STYLE
  5
B8
330
3
100
AcDbSymbolTableRecord
100
AcDbTextStyleTableRecord
  2
ARIAL_WIDE
 70
     0
 40
0.0
 41
1.25
 50
0.0
 71
     0
 42
0.2
  3
ARIAL.TTF
  4

1001
ACAD
1000
Arial
1071
       34
  0
ENDTAB
  0
TABLE
  2
VIEW
  5
5
330
0
100
AcDbSymbolTable
 70
     0
  0
ENDTAB
  0
TABLE
  2
UCS
  5
6
330
0
100
AcDbSymbolTable
 70
     0
  0
ENDTAB
  0
TABLE
  2
APPID
  5
8
330
0
100
AcDbSymbolTable
 70
     1
  0
APPID
  5
16
330
8
100
AcDbSymbolTableRecord
100
AcDbRegAppTableRecord
  2
ACAD
 70
     0
  0
ENDTAB
  0
TABLE
  2
DIMSTYLE
  5
9
330
0
100
AcDbSymbolTable
 70
     1
100
AcDbDimStyleTable
 71
     1
340
18
  0
DIMSTYLE
105
18
102
{ACAD_REACTORS
330
57D
330
58B
330
599
102
}
330
9
100
AcDbSymbolTableRecord
100
AcDbDimStyleTableRecord
  2
Standard
 70
     0
289
     0
340
17
  0
ENDTAB
  0
TABLE
  2
BLOCK_RECORD
  5
1
330
0
100
AcDbSymbolTable
 70
    35
  0
BLOCK_RECORD
  5
A
330
1
100
AcDbSymbolTableRecord
100
AcDbBlockTableRecord
  2
*MODEL_SPACE
340
20
  0
BLOCK_RECORD
  5
B
330
1
100
AcDbSymbolTableRecord
100
AcDbBlockTableRecord
  2
*PAPER_SPACE
340
21
  0
BLOCK_RECORD
  5
29
330
1
100
AcDbSymbolTableRecord
100
AcDbBlockTableRecord
  2
AI9-BLK1
340
0
102
{BLKREFS
331
C2
102
}
  0
BLOCK_RECORD
  5
31
330
1
100
AcDbSymbolTableRecord
100
AcDbBlockTableRecord
  2
AI9-BLK2
340
0
102
{BLKREFS
331
C3
102
}
  0
BLOCK_RECORD
  5
34
330
1
100
AcDbSymbolTableRecord
100
AcDbBlockTableRecord
  2
AI9-BLK3
340
0
102
{BLKREFS
331
35
102
}
  0
BLOCK_RECORD
  5
42
330
1
100
AcDbSymbolTableRecord
100
AcDbBlockTableRecord
  2
AI9-BLK4
340
0
102
{BLKREFS
331
C4
102
}
  0
BLOCK_RECORD
  5
4A
330
1
100
AcDbSymbolTableRecord
100
AcDbBlockTableRecord
  2
AI9-BLK5
340
0
  0
BLOCK_RECORD
  5
B3
330
1
100
AcDbSymbolTableRecord
100
AcDbBlockTableRecord
  2
_OBLIQUE
340
0
  0
BLOCK_RECORD
  5
E3
330
1
100
AcDbSymbolTableRecord
100
AcDbBlockTableRecord
  2
*D8
340
0
  0
BLOCK_RECORD
  5
F1
330
1
100
AcDbSymbolTableRecord
100
AcDbBlockTableRecord
  2
*D9
340
0
  0
BLOCK_RECORD
  5
11D
330
1
100
AcDbSymbolTableRecord
100
AcDbBlockTableRecord
  2
*D10
340
0
  0
BLOCK_RECORD
  5
1AC
330
1
100
AcDbSymbolTableRecord
100
AcDbBlockTableRecord
  2
*D11
340
0
  0
BLOCK_RECORD
  5
1C0
330
1
100
AcDbSymbolTableRecord
100
AcDbBlockTableRecord
  2
*D13
340
0
  0
BLOCK_RECORD
  5
27D
330
1
100
AcDbSymbolTableRecord
100
AcDbBlockTableRecord
  2
*D15
340
0
  0
BLOCK_RECORD
  5
28B
330
1
100
AcDbSymbolTableRecord
100
AcDbBlockTableRecord
  2
*D16
340
0
  0
BLOCK_RECORD
  5
299
330
1
100
AcDbSymbolTableRecord
100
AcDbBlockTableRecord
  2
*D17
340
0
  0
BLOCK_RECORD
  5
305
330
1
100
AcDbSymbolTableRecord
100
AcDbBlockTableRecord
  2
*D19
340
0
  0
BLOCK_RECORD
  5
314
330
1
100
AcDbSymbolTableRecord
100
AcDbBlockTableRecord
  2
*D20
340
0
  0
BLOCK_RECORD
  5
37E
330
1
100
AcDbSymbolTableRecord
100
AcDbBlockTableRecord
  2
*D21
340
0
  0
BLOCK_RECORD
  5
3EE
330
1
100
AcDbSymbolTableRecord
100
AcDbBlockTableRecord
  2
*D22
340
0
  0
BLOCK_RECORD
  5
446
330
1
100
AcDbSymbolTableRecord
100
AcDbBlockTableRecord
  2
*D24
340
0
  0
BLOCK_RECORD
  5
454
330
1
100
AcDbSymbolTableRecord
100
AcDbBlockTableRecord
  2
*D25
340
0
  0
BLOCK_RECORD
  5
462
330
1
100
AcDbSymbolTableRecord
100
AcDbBlockTableRecord
  2
*D26
340
0
  0
BLOCK_RECORD
  5
500
330
1
100
AcDbSymbolTableRecord
100
AcDbBlockTableRecord
  2
*D28
340
0
  0
BLOCK_RECORD
  5
50E
330
1
100
AcDbSymbolTableRecord
100
AcDbBlockTableRecord
  2
*D29
340
0
  0
BLOCK_RECORD
  5
526
330
1
100
AcDbSymbolTableRecord
100
AcDbBlockTableRecord
  2
*D30
340
0
  0
BLOCK_RECORD
  5
57E
330
1
100
AcDbSymbolTableRecord
100
AcDbBlockTableRecord
  2
*D32
340
0
  0
BLOCK_RECORD
  5
58C
330
1
100
AcDbSymbolTableRecord
100
AcDbBlockTableRecord
  2
*D33
340
0
  0
BLOCK_RECORD
  5
59A
330
1
100
AcDbSymbolTableRecord
100
AcDbBlockTableRecord
  2
*D34
340
0
  0
ENDTAB
  0
ENDSEC
  0
SECTION
  2
BLOCKS
  0
BLOCK
  5
D
330
A
100
AcDbEntity
  8
0
100
AcDbBlockBegin
  2
*MODEL_SPACE
 70
     0
 10
0.0
 20
0.0
 30
0.0
  3
*MODEL_SPACE
  1

  0
ENDBLK
  5
E
330
A
100
AcDbEntity
  8
0
100
AcDbBlockEnd
  0
BLOCK
  5
F
330
B
100
AcDbEntity
 67
     1
  8
0
100
AcDbBlockBegin
  2
*PAPER_SPACE
 70
     0
 10
0.0
 20
0.0
 30
0.0
  3
*PAPER_SPACE
  1

  0
ENDBLK
  5
10
330
B
100
AcDbEntity
 67
     1
  8
0
100
AcDbBlockEnd
  0
BLOCK
  5
2B
330
29
100
AcDbEntity
  8
LAYER_2
 62
     7
100
AcDbBlockBegin
  2
AI9-BLK1
 70
     0
 10
0.0
 20
0.0
 30
0.0
  3
AI9-BLK1
  1

  0
HATCH
  5
2F
330
29
100
AcDbEntity
  8
LAYER_2
 62
     3
100
AcDbHatch
 10
0.0
 20
0.0
 30
0.0
210
0.0
220
0.0
230
1.0
  2
SOLID
 70
     1
 71
     0
 91
        1
 92
        1
 93
        1
 72
     4
 94
        3
 73
     0
 74
     0
 95
       26
 96
       22
 40
0.0
 40
0.0
 40
0.0
 40
0.0
 40
1.0
 40
1.0
 40
1.0
 40
2.0
 40
2.0
 40
2.0
 40
3.0
 40
3.0
 40
3.0
 40
4.0
 40
4.0
 40
4.0
 40
5.0
 40
5.0
 40
5.0
 40
6.0
 40
6.0
 40
6.0
 40
7.0
 40
7.0
 40
7.0
 40
7.0
 10
-2.239398193359374
 20
-1.519803873697916
 10
-2.239398193359374
 20
-1.519803873697916
 10
-2.637306722005208
 20
-1.519803873697916
 10
-2.637306722005208
 20
-1.519803873697916
 10
-2.637306722005208
 20
-1.519803873697916
 10
-2.637306722005208
 20
0.5927286783854166
 10
-2.637306722005208
 20
0.5927286783854166
 10
-2.637306722005208
 20
0.5927286783854166
 10
-3.331665717230902
 20
0.5927286783854166
 10
-3.331665717230902
 20
0.5927286783854166
 10
-3.331665717230902
 20
0.5927286783854166
 10
-3.331665717230902
 20
0.8890068901909721
 10
-3.331665717230902
 20
0.8890068901909721
 10
-2.849007839626736
 20
0.922768825954861
 10
-2.650053575303819
 20
0.969277615017361
 10
-2.531542290581596
 20
1.456414116753472
 10
-2.531542290581596
 20
1.456414116753472
 10
-2.239398193359374
 20
1.456414116753472
 10
-2.239398193359374
 20
1.456414116753472
 10
-2.239398193359374
 20
1.456414116753472
 10
-2.239398193359374
 20
-1.519803873697916
 10
-2.239398193359374
 20
-1.519803873697916
 97
        0
 75
     2
 76
     1
 98
        1
 10
0.0
 20
0.0
  0
HATCH
  5
2E
330
29
100
AcDbEntity
  8
LAYER_2
 62
     3
100
AcDbHatch
 10
0.0
 20
0.0
 30
0.0
210
0.0
220
0.0
230
1.0
  2
SOLID
 70
     1
 71
     0
 91
        1
 92
        1
 93
        1
 72
     4
 94
        3
 73
     0
 74
     0
 95
       17
 96
       13
 40
0.0
 40
0.0
 40
0.0
 40
0.0
 40
1.0
 40
1.0
 40
1.0
 40
2.0
 40
2.0
 40
2.0
 40
3.0
 40
3.0
 40
3.0
 40
4.0
 40
4.0
 40
4.0
 40
4.0
 10
-1.193811713324652
 20
-1.600074598524305
 10
-1.193811713324652
 20
-1.600074598524305
 10
-1.477515326605902
 20
-1.600074598524305
 10
-1.477515326605902
 20
-1.600074598524305
 10
-1.477515326605902
 20
-1.600074598524305
 10
-0.4360629611545139
 20
1.600074598524305
 10
-0.4360629611545139
 20
1.600074598524305
 10
-0.4360629611545139
 20
1.600074598524305
 10
-0.1566657172309027
 20
1.600074598524305
 10
-0.1566657172309027
 20
1.600074598524305
 10
-0.1566657172309027
 20
1.600074598524305
 10
-1.193811713324652
 20
-1.600074598524305
 10
-1.193811713324652
 20
-1.600074598524305
 97
        0
 75
     2
 76
     1
 98
        1
 10
0.0
 20
0.0
  0
HATCH
  5
2D
330
29
100
AcDbEntity
  8
LAYER_2
 62
     3
100
AcDbHatch
 10
0.0
 20
0.0
 30
0.0
210
0.0
220
0.0
230
1.0
  2
SOLID
 70
     1
 71
     0
 91
        1
 92
        1
 93
        1
 72
     4
 94
        3
 73
     0
 74
     0
 95
       47
 96
       43
 40
0.0
 40
0.0
 40
0.0
 40
0.0
 40
1.0
 40
1.0
 40
1.0
 40
2.0
 40
2.0
 40
2.0
 40
3.0
 40
3.0
 40
3.0
 40
4.0
 40
4.0
 40
4.0
 40
5.0
 40
5.0
 40
5.0
 40
6.0
 40
6.0
 40
6.0
 40
7.0
 40
7.0
 40
7.0
 40
8.0
 40
8.0
 40
8.0
 40
9.0
 40
9.0
 40
9.0
 40
10.0
 40
10.0
 40
10.0
 40
11.0
 40
11.0
 40
11.0
 40
12.0
 40
12.0
 40
12.0
 40
13.0
 40
13.0
 40
13.0
 40
14.0
 40
14.0
 40
14.0
 40
14.0
 10
-0.0424608018663195
 20
0.3894680447048611
 10
-0.0424608018663195
 20
1.358917914496527
 10
0.6646450466579861
 20
1.456414116753472
 10
0.9862447102864582
 20
1.456414116753472
 10
1.502836778428819
 20
1.456414116753472
 10
1.917626274956597
 20
1.121895345052083
 10
1.917626274956597
 20
0.5672349717881944
 10
1.917626274956597
 20
0.0339341905381945
 10
1.566226535373263
 20
-0.19068603515625
 10
1.12180921766493
 20
-0.4277086046006945
 10
1.12180921766493
 20
-0.4277086046006945
 10
0.8127841525607639
 20
-0.59686279296875
 10
0.8127841525607639
 20
-0.59686279296875
 10
0.4062628851996528
 20
-0.8211385091145832
 10
0.3173794216579861
 20
-1.054026963975694
 10
0.3004984537760416
 20
-1.168404134114583
 10
0.3004984537760416
 20
-1.168404134114583
 10
1.917626274956597
 20
-1.168404134114583
 10
1.917626274956597
 20
-1.168404134114583
 10
1.917626274956597
 20
-1.168404134114583
 10
1.917626274956597
 20
-1.519803873697916
 10
1.917626274956597
 20
-1.519803873697916
 10
1.917626274956597
 20
-1.519803873697916
 10
-0.118597412109375
 20
-1.519803873697916
 10
-0.118597412109375
 20
-1.519803873697916
 10
-0.0974100748697917
 20
-0.9017537434895832
 10
0.1819871690538194
 20
-0.5713690863715277
 10
0.5798956976996528
 20
-0.3388251410590277
 10
0.5798956976996528
 20
-0.3388251410590277
 10
0.9736701117621526
 20
-0.11007080078125
 10
0.9736701117621526
 20
-0.11007080078125
 10
1.291135660807291
 20
0.0718302408854167
 10
1.519717746310763
 20
0.1948201497395833
 10
1.519717746310763
 20
0.5841159396701389
 10
1.519717746310763
 20
0.8211385091145832
 10
1.367272271050347
 20
1.121895345052083
 10
0.931295437282986
 20
1.121895345052083
 10
0.368194580078125
 20
1.121895345052083
 10
0.3428731282552083
 20
0.59686279296875
 10
0.3301262749565972
 20
0.3894680447048611
 10
0.3301262749565972
 20
0.3894680447048611
 10
-0.0424608018663195
 20
0.3894680447048611
 10
-0.0424608018663195
 20
0.3894680447048611
 97
        0
 75
     2
 76
     1
 98
        1
 10
0.0
 20
0.0
  0
HATCH
  5
2C
330
29
100
AcDbEntity
  8
LAYER_2
 62
     3
100
AcDbHatch
 10
0.0
 20
0.0
 30
0.0
210
0.0
220
0.0
230
1.0
  2
SOLID
 70
     1
 71
     0
 91
        2
 92
        1
 93
        1
 72
     4
 94
        3
 73
     0
 74
     0
 95
       17
 96
       13
 40
0.0
 40
0.0
 40
0.0
 40
0.0
 40
1.0
 40
1.0
 40
1.0
 40
2.0
 40
2.0
 40
2.0
 40
3.0
 40
3.0
 40
3.0
 40
4.0
 40
4.0
 40
4.0
 40
4.0
 10
3.022640652126735
 20
1.519803873697916
 10
3.022640652126735
 20
1.519803873697916
 10
3.331665717230902
 20
1.519803873697916
 10
3.331665717230902
 20
1.519803873697916
 10
3.331665717230902
 20
1.519803873697916
 10
3.331665717230902
 20
0.4401109483506945
 10
3.331665717230902
 20
0.4401109483506945
 10
3.331665717230902
 20
0.4401109483506945
 10
3.022640652126735
 20
0.4401109483506945
 10
3.022640652126735
 20
0.4401109483506945
 10
3.022640652126735
 20
0.4401109483506945
 10
3.022640652126735
 20
1.519803873697916
 10
3.022640652126735
 20
1.519803873697916
 97
        0
 92
        1
 93
        1
 72
     4
 94
        3
 73
     0
 74
     0
 95
       17
 96
       13
 40
0.0
 40
0.0
 40
0.0
 40
0.0
 40
1.0
 40
1.0
 40
1.0
 40
2.0
 40
2.0
 40
2.0
 40
3.0
 40
3.0
 40
3.0
 40
4.0
 40
4.0
 40
4.0
 40
4.0
 10
2.421471489800346
 20
1.519803873697916
 10
2.421471489800346
 20
1.519803873697916
 10
2.730496554904513
 20
1.519803873697916
 10
2.730496554904513
 20
1.519803873697916
 10
2.730496554904513
 20
1.519803873697916
 10
2.730496554904513
 20
0.4401109483506945
 10
2.730496554904513
 20
0.4401109483506945
 10
2.730496554904513
 20
0.4401109483506945
 10
2.421471489800346
 20
0.4401109483506945
 10
2.421471489800346
 20
0.4401109483506945
 10
2.421471489800346
 20
0.4401109483506945
 10
2.421471489800346
 20
1.519803873697916
 10
2.421471489800346
 20
1.519803873697916
 97
        0
 75
     2
 76
     1
 98
        1
 10
0.0
 20
0.0
  0
ENDBLK
  5
30
330
29
100
AcDbEntity
  8
LAYER_2
100
AcDbBlockEnd
  0
BLOCK
  5
33
330
31
100
AcDbEntity
  8
LAYER_2
 62
     7
100
AcDbBlockBegin
  2
AI9-BLK2
 70
     0
 10
0.0
 20
0.0
 30
0.0
  3
AI9-BLK2
  1

  0
LINE
  5
40
330
31
100
AcDbEntity
  8
LAYER_2
 62
     3
100
AcDbLine
 10
-8.00726318359375
 20
-1.695848253038194
 30
0.0
 11
4.748202853732638
 21
-1.695848253038194
 31
0.0
  0
LINE
  5
3F
330
31
100
AcDbEntity
  8
LAYER_2
 62
     3
100
AcDbLine
 10
-9.201333279079859
 20
-2.824461534288193
 30
0.0
 11
-6.715352376302083
 21
-0.3386528862847222
 31
0.0
  0
LINE
  5
3E
330
31
100
AcDbEntity
  8
LAYER_2
 62
     3
100
AcDbLine
 10
-6.744291178385416
 20
-2.824461534288193
 30
0.0
 11
-4.258310275607638
 21
-0.3386528862847222
 31
0.0
  0
INSERT
  5
35
330
31
100
AcDbEntity
  8
LAYER_2
 62
     7
100
AcDbBlockReference
  2
AI9-BLK3
 10
3.209278700086805
 20
0.7928887261284722
 30
0.0
  0
ENDBLK
  5
41
330
31
100
AcDbEntity
  8
LAYER_2
100
AcDbBlockEnd
  0
BLOCK
  5
36
330
34
100
AcDbEntity
  8
LAYER_2
 62
     7
100
AcDbBlockBegin
  2
AI9-BLK3
 70
     0
 10
0.0
 20
0.0
 30
0.0
  3
AI9-BLK3
  1

  0
HATCH
  5
3C
330
34
100
AcDbEntity
  8
LAYER_2
 62
     3
100
AcDbHatch
 10
0.0
 20
0.0
 30
0.0
210
0.0
220
0.0
230
1.0
  2
SOLID
 70
     1
 71
     0
 91
        2
 92
       16
 93
        1
 72
     4
 94
        3
 73
     0
 74
     0
 95
       17
 96
       13
 40
0.0
 40
0.0
 40
0.0
 40
0.0
 40
1.0
 40
1.0
 40
1.0
 40
2.0
 40
2.0
 40
2.0
 40
3.0
 40
3.0
 40
3.0
 40
4.0
 40
4.0
 40
4.0
 40
4.0
 10
-4.800396050347221
 20
1.162030707465277
 10
-5.228276909722222
 20
1.162030707465277
 10
-5.422924804687499
 20
0.713134765625
 10
-5.422924804687499
 20
-0.0316948784722222
 10
-5.422924804687499
 20
-0.7768690321180555
 10
-5.228276909722222
 20
-1.225764973958333
 10
-4.800396050347221
 20
-1.225764973958333
 10
-4.373204210069443
 20
-1.225764973958333
 10
-4.178211805555554
 20
-0.7768690321180555
 10
-4.178211805555554
 20
-0.0316948784722222
 10
-4.178211805555554
 20
0.713134765625
 10
-4.373204210069443
 20
1.162030707465277
 10
-4.800396050347221
 20
1.162030707465277
 97
        0
 92
        1
 93
        1
 72
     4
 94
        3
 73
     0
 74
     0
 95
       17
 96
       13
 40
0.0
 40
0.0
 40
0.0
 40
0.0
 40
1.0
 40
1.0
 40
1.0
 40
2.0
 40
2.0
 40
2.0
 40
3.0
 40
3.0
 40
3.0
 40
4.0
 40
4.0
 40
4.0
 40
4.0
 10
-4.800396050347221
 20
-1.559939236111111
 10
-5.655468749999999
 20
-1.559939236111111
 10
-5.820833333333332
 20
-0.6500895182291666
 10
-5.820833333333332
 20
-0.0316948784722222
 10
-5.820833333333332
 20
0.5863552517361111
 10
-5.655468749999999
 20
1.496549479166666
 10
-4.800396050347221
 20
1.496549479166666
 10
-3.945323350694444
 20
1.496549479166666
 10
-3.780303276909721
 20
0.5863552517361111
 10
-3.780303276909721
 20
-0.0316948784722222
 10
-3.780303276909721
 20
-0.6500895182291666
 10
-3.945323350694444
 20
-1.559939236111111
 10
-4.800396050347221
 20
-1.559939236111111
 97
        0
 75
     2
 76
     1
 98
        1
 10
0.0
 20
0.0
  0
HATCH
  5
3B
330
34
100
AcDbEntity
  8
LAYER_2
 62
     3
100
AcDbHatch
 10
0.0
 20
0.0
 30
0.0
210
0.0
220
0.0
230
1.0
  2
SOLID
 70
     1
 71
     0
 91
        1
 92
        1
 93
        1
 72
     4
 94
        3
 73
     0
 74
     0
 95
       17
 96
       13
 40
0.0
 40
0.0
 40
0.0
 40
0.0
 40
1.0
 40
1.0
 40
1.0
 40
2.0
 40
2.0
 40
2.0
 40
3.0
 40
3.0
 40
3.0
 40
4.0
 40
4.0
 40
4.0
 40
4.0
 10
-2.815332031249999
 20
-1.479668511284722
 10
-2.815332031249999
 20
-1.479668511284722
 10
-3.255615234374999
 20
-1.479668511284722
 10
-3.255615234374999
 20
-1.479668511284722
 10
-3.255615234374999
 20
-1.479668511284722
 10
-3.255615234374999
 20
-1.030772569444444
 10
-3.255615234374999
 20
-1.030772569444444
 10
-3.255615234374999
 20
-1.030772569444444
 10
-2.815332031249999
 20
-1.030772569444444
 10
-2.815332031249999
 20
-1.030772569444444
 10
-2.815332031249999
 20
-1.030772569444444
 10
-2.815332031249999
 20
-1.479668511284722
 10
-2.815332031249999
 20
-1.479668511284722
 97
        0
 75
     2
 76
     1
 98
        1
 10
0.0
 20
0.0
  0
HATCH
  5
3A
330
34
100
AcDbEntity
  8
LAYER_2
 62
     3
100
AcDbHatch
 10
0.0
 20
0.0
 30
0.0
210
0.0
220
0.0
230
1.0
  2
SOLID
 70
     1
 71
     0
 91
        2
 92
       16
 93
        1
 72
     4
 94
        3
 73
     0
 74
     0
 95
       17
 96
       13
 40
0.0
 40
0.0
 40
0.0
 40
0.0
 40
1.0
 40
1.0
 40
1.0
 40
2.0
 40
2.0
 40
2.0
 40
3.0
 40
3.0
 40
3.0
 40
4.0
 40
4.0
 40
4.0
 40
4.0
 10
-1.269862196180555
 20
1.162030707465277
 10
-1.697743055555555
 20
1.162030707465277
 10
-1.892390950520833
 20
0.713134765625
 10
-1.892390950520833
 20
-0.0316948784722222
 10
-1.892390950520833
 20
-0.7768690321180555
 10
-1.697743055555555
 20
-1.225764973958333
 10
-1.269862196180555
 20
-1.225764973958333
 10
-0.8426703559027776
 20
-1.225764973958333
 10
-0.6476779513888889
 20
-0.7768690321180555
 10
-0.6476779513888889
 20
-0.0316948784722222
 10
-0.6476779513888889
 20
0.713134765625
 10
-0.8426703559027776
 20
1.162030707465277
 10
-1.269862196180555
 20
1.162030707465277
 97
        0
 92
        1
 93
        1
 72
     4
 94
        3
 73
     0
 74
     0
 95
       17
 96
       13
 40
0.0
 40
0.0
 40
0.0
 40
0.0
 40
1.0
 40
1.0
 40
1.0
 40
2.0
 40
2.0
 40
2.0
 40
3.0
 40
3.0
 40
3.0
 40
4.0
 40
4.0
 40
4.0
 40
4.0
 10
-1.269862196180555
 20
-1.559939236111111
 10
-2.124934895833332
 20
-1.559939236111111
 10
-2.290299479166666
 20
-0.6500895182291666
 10
-2.290299479166666
 20
-0.0316948784722222
 10
-2.290299479166666
 20
0.5863552517361111
 10
-2.124934895833332
 20
1.496549479166666
 10
-1.269862196180555
 20
1.496549479166666
 10
-0.4147894965277778
 20
1.496549479166666
 10
-0.2497694227430555
 20
0.5863552517361111
 10
-0.2497694227430555
 20
-0.0316948784722222
 10
-0.2497694227430555
 20
-0.6500895182291666
 10
-0.4147894965277778
 20
-1.559939236111111
 10
-1.269862196180555
 20
-1.559939236111111
 97
        0
 75
     2
 76
     1
 98
        1
 10
0.0
 20
0.0
  0
HATCH
  5
39
330
34
100
AcDbEntity
  8
LAYER_2
 62
     3
100
AcDbHatch
 10
0.0
 20
0.0
 30
0.0
210
0.0
220
0.0
230
1.0
  2
SOLID
 70
     1
 71
     0
 91
        2
 92
       16
 93
        1
 72
     4
 94
        3
 73
     0
 74
     0
 95
       17
 96
       13
 40
0.0
 40
0.0
 40
0.0
 40
0.0
 40
1.0
 40
1.0
 40
1.0
 40
2.0
 40
2.0
 40
2.0
 40
3.0
 40
3.0
 40
3.0
 40
4.0
 40
4.0
 40
4.0
 40
4.0
 10
1.64675564236111
 20
0.527099609375
 10
1.64675564236111
 20
0.8657524956597221
 10
1.47312282986111
 20
1.162030707465277
 10
1.045930989583333
 20
1.162030707465277
 10
0.6986653645833333
 20
1.162030707465277
 10
0.4699110243055556
 20
0.8909016927083332
 10
0.4699110243055556
 20
0.4929931640625
 10
0.4699110243055556
 20
-0.0785481770833333
 10
0.8254448784722221
 20
-0.1505506727430555
 10
1.075558810763888
 20
-0.1505506727430555
 10
1.270206705729166
 20
-0.1505506727430555
 10
1.64675564236111
 20
-0.0613226996527778
 10
1.64675564236111
 20
0.527099609375
 97
        0
 92
        1
 93
        1
 72
     4
 94
        3
 73
     0
 74
     0
 95
       35
 96
       31
 40
0.0
 40
0.0
 40
0.0
 40
0.0
 40
1.0
 40
1.0
 40
1.0
 40
2.0
 40
2.0
 40
2.0
 40
3.0
 40
3.0
 40
3.0
 40
4.0
 40
4.0
 40
4.0
 40
5.0
 40
5.0
 40
5.0
 40
6.0
 40
6.0
 40
6.0
 40
7.0
 40
7.0
 40
7.0
 40
8.0
 40
8.0
 40
8.0
 40
9.0
 40
9.0
 40
9.0
 40
10.0
 40
10.0
 40
10.0
 40
10.0
 10
0.0847493489583333
 20
0.4761121961805556
 10
0.0847493489583333
 20
1.018025716145833
 10
0.4147894965277778
 20
1.496549479166666
 10
1.041452365451388
 20
1.496549479166666
 10
1.989887152777777
 20
1.496549479166666
 10
2.082904730902777
 20
0.5987575954861111
 10
2.082904730902777
 20
0.1164442274305555
 10
2.082904730902777
 20
-0.2011935763888889
 10
2.027783203124999
 20
-1.559939236111111
 10
1.003211805555555
 20
-1.559939236111111
 10
0.3048909505208333
 20
-1.559939236111111
 10
0.1185112847222222
 20
-1.052132161458333
 10
0.1185112847222222
 20
-0.7641221788194443
 10
0.1185112847222222
 20
-0.7641221788194443
 10
0.4912706163194444
 20
-0.7641221788194443
 10
0.4912706163194444
 20
-0.7641221788194443
 10
0.5122856987847222
 20
-1.064879014756944
 10
0.6903971354166666
 20
-1.250914171006944
 10
0.9949435763888887
 20
-1.250914171006944
 10
1.401464843749999
 20
-1.250914171006944
 10
1.617127821180555
 20
-0.9081271701388887
 10
1.710145399305555
 20
-0.1378038194444444
 10
1.710145399305555
 20
-0.1378038194444444
 10
1.701877170138888
 20
-0.1291910807291666
 10
1.701877170138888
 20
-0.1291910807291666
 10
1.591634114583333
 20
-0.3579454210069444
 10
1.295355902777777
 20
-0.4847249348958333
 10
1.020437282986111
 20
-0.4847249348958333
 10
0.4699110243055556
 20
-0.4847249348958333
 10
0.0847493489583333
 20
-0.1164442274305555
 10
0.0847493489583333
 20
0.4761121961805556
 97
        0
 75
     2
 76
     1
 98
        1
 10
0.0
 20
0.0
  0
HATCH
  5
38
330
34
100
AcDbEntity
  8
LAYER_2
 62
     3
100
AcDbHatch
 10
0.0
 20
0.0
 30
0.0
210
0.0
220
0.0
230
1.0
  2
SOLID
 70
     1
 71
     0
 91
        1
 92
        1
 93
        1
 72
     4
 94
        3
 73
     0
 74
     0
 95
       62
 96
       58
 40
0.0
 40
0.0
 40
0.0
 40
0.0
 40
1.0
 40
1.0
 40
1.0
 40
2.0
 40
2.0
 40
2.0
 40
3.0
 40
3.0
 40
3.0
 40
4.0
 40
4.0
 40
4.0
 40
5.0
 40
5.0
 40
5.0
 40
6.0
 40
6.0
 40
6.0
 40
7.0
 40
7.0
 40
7.0
 40
8.0
 40
8.0
 40
8.0
 40
9.0
 40
9.0
 40
9.0
 40
10.0
 40
10.0
 40
10.0
 40
11.0
 40
11.0
 40
11.0
 40
12.0
 40
12.0
 40
12.0
 40
13.0
 40
13.0
 40
13.0
 40
14.0
 40
14.0
 40
14.0
 40
15.0
 40
15.0
 40
15.0
 40
16.0
 40
16.0
 40
16.0
 40
17.0
 40
17.0
 40
17.0
 40
18.0
 40
18.0
 40
18.0
 40
19.0
 40
19.0
 40
19.0
 40
19.0
 10
3.208761935763888
 20
0.2135959201388889
 10
3.272496202256943
 20
0.2094618055555555
 10
3.340364583333332
 20
0.2053276909722222
 10
3.403754340277777
 20
0.2053276909722222
 10
3.691764322916666
 20
0.2053276909722222
 10
3.970817057291666
 20
0.3193603515625
 10
3.970817057291666
 20
0.6921196831597222
 10
3.970817057291666
 20
0.8698866102430555
 10
3.865052625868055
 20
1.162030707465277
 10
3.420635308159722
 20
1.162030707465277
 10
2.891468641493055
 20
1.162030707465277
 10
2.857362196180555
 20
0.7300157335069444
 10
2.840825737847222
 20
0.5226209852430556
 10
2.840825737847222
 20
0.5226209852430556
 10
2.476334635416666
 20
0.5226209852430556
 10
2.476334635416666
 20
0.5226209852430556
 10
2.476334635416666
 20
0.9587700737847221
 10
2.65444607204861
 20
1.496549479166666
 10
3.437516276041666
 20
1.496549479166666
 10
4.013536241319443
 20
1.496549479166666
 10
4.355978732638888
 20
1.16616482204861
 10
4.355978732638888
 20
0.713134765625
 10
4.355978732638888
 20
0.3321072048611111
 10
4.136181640624999
 20
0.1502061631944444
 10
3.974951171874999
 20
0.09921875
 10
3.974951171874999
 20
0.09921875
 10
3.974951171874999
 20
0.0909505208333333
 10
3.974951171874999
 20
0.0909505208333333
 10
4.262961154513888
 20
-0.0020670572916667
 10
4.470355902777777
 20
-0.2053276909722222
 10
4.470355902777777
 20
-0.6032362196180556
 10
4.470355902777777
 20
-1.090028211805555
 10
4.157196723090277
 20
-1.559939236111111
 10
3.399620225694444
 20
-1.559939236111111
 10
3.179134114583332
 20
-1.559939236111111
 10
2.993098958333332
 20
-1.505162217881944
 10
2.849093967013888
 20
-1.429025607638888
 10
2.519053819444444
 20
-1.255392795138888
 10
2.430170355902777
 20
-0.9122612847222221
 10
2.404676649305555
 20
-0.5694742838541666
 10
2.404676649305555
 20
-0.5694742838541666
 10
2.789838324652777
 20
-0.5694742838541666
 10
2.789838324652777
 20
-0.5694742838541666
 10
2.802585177951388
 20
-0.8488715277777776
 10
2.870453559027777
 20
-1.225764973958333
 10
3.424769422743055
 20
-1.225764973958333
 10
3.805796983506944
 20
-1.225764973958333
 10
4.072791883680555
 20
-0.9928765190972221
 10
4.072791883680555
 20
-0.6500895182291666
 10
4.072791883680555
 20
-0.1505506727430555
 10
3.632508680555555
 20
-0.1036973741319444
 10
3.378260633680555
 20
-0.1036973741319444
 10
3.323139105902777
 20
-0.1036973741319444
 10
3.263883463541666
 20
-0.1081759982638889
 10
3.208761935763888
 20
-0.1081759982638889
 10
3.208761935763888
 20
-0.1081759982638889
 10
3.208761935763888
 20
0.2135959201388889
 10
3.208761935763888
 20
0.2135959201388889
 97
        0
 75
     2
 76
     1
 98
        1
 10
0.0
 20
0.0
  0
HATCH
  5
37
330
34
100
AcDbEntity
  8
LAYER_2
 62
     3
100
AcDbHatch
 10
0.0
 20
0.0
 30
0.0
210
0.0
220
0.0
230
1.0
  2
SOLID
 70
     1
 71
     0
 91
        2
 92
        1
 93
        1
 72
     4
 94
        3
 73
     0
 74
     0
 95
       17
 96
       13
 40
0.0
 40
0.0
 40
0.0
 40
0.0
 40
1.0
 40
1.0
 40
1.0
 40
2.0
 40
2.0
 40
2.0
 40
3.0
 40
3.0
 40
3.0
 40
4.0
 40
4.0
 40
4.0
 40
4.0
 10
5.511808268229166
 20
1.559939236111111
 10
5.511808268229166
 20
1.559939236111111
 10
5.820833333333332
 20
1.559939236111111
 10
5.820833333333332
 20
1.559939236111111
 10
5.820833333333332
 20
1.559939236111111
 10
5.820833333333332
 20
0.4802463107638889
 10
5.820833333333332
 20
0.4802463107638889
 10
5.820833333333332
 20
0.4802463107638889
 10
5.511808268229166
 20
0.4802463107638889
 10
5.511808268229166
 20
0.4802463107638889
 10
5.511808268229166
 20
0.4802463107638889
 10
5.511808268229166
 20
1.559939236111111
 10
5.511808268229166
 20
1.559939236111111
 97
        0
 92
        1
 93
        1
 72
     4
 94
        3
 73
     0
 74
     0
 95
       17
 96
       13
 40
0.0
 40
0.0
 40
0.0
 40
0.0
 40
1.0
 40
1.0
 40
1.0
 40
2.0
 40
2.0
 40
2.0
 40
3.0
 40
3.0
 40
3.0
 40
4.0
 40
4.0
 40
4.0
 40
4.0
 10
4.910639105902776
 20
1.559939236111111
 10
4.910639105902776
 20
1.559939236111111
 10
5.219664171006943
 20
1.559939236111111
 10
5.219664171006943
 20
1.559939236111111
 10
5.219664171006943
 20
1.559939236111111
 10
5.219664171006943
 20
0.4802463107638889
 10
5.219664171006943
 20
0.4802463107638889
 10
5.219664171006943
 20
0.4802463107638889
 10
4.910639105902776
 20
0.4802463107638889
 10
4.910639105902776
 20
0.4802463107638889
 10
4.910639105902776
 20
0.4802463107638889
 10
4.910639105902776
 20
1.559939236111111
 10
4.910639105902776
 20
1.559939236111111
 97
        0
 75
     2
 76
     1
 98
        1
 10
0.0
 20
0.0
  0
ENDBLK
  5
3D
330
34
100
AcDbEntity
  8
LAYER_2
100
AcDbBlockEnd
  0
BLOCK
  5
44
330
42
100
AcDbEntity
  8
LAYER_2
 62
     7
100
AcDbBlockBegin
  2
AI9-BLK4
 70
     0
 10
0.0
 20
0.0
 30
0.0
  3
AI9-BLK4
  1

  0
HATCH
  5
48
330
42
100
AcDbEntity
  8
LAYER_2
 62
     3
100
AcDbHatch
 10
0.0
 20
0.0
 30
0.0
210
0.0
220
0.0
230
1.0
  2
SOLID
 70
     1
 71
     0
 91
        1
 92
        1
 93
        1
 72
     4
 94
        3
 73
     0
 74
     0
 95
       26
 96
       22
 40
0.0
 40
0.0
 40
0.0
 40
0.0
 40
1.0
 40
1.0
 40
1.0
 40
2.0
 40
2.0
 40
2.0
 40
3.0
 40
3.0
 40
3.0
 40
4.0
 40
4.0
 40
4.0
 40
5.0
 40
5.0
 40
5.0
 40
6.0
 40
6.0
 40
6.0
 40
7.0
 40
7.0
 40
7.0
 40
7.0
 10
-2.239312065972221
 20
-1.519803873697916
 10
-2.239312065972221
 20
-1.519803873697916
 10
-2.637220594618055
 20
-1.519803873697916
 10
-2.637220594618055
 20
-1.519803873697916
 10
-2.637220594618055
 20
-1.519803873697916
 10
-2.637220594618055
 20
0.5927286783854166
 10
-2.637220594618055
 20
0.5927286783854166
 10
-2.637220594618055
 20
0.5927286783854166
 10
-3.331579589843749
 20
0.5927286783854166
 10
-3.331579589843749
 20
0.5927286783854166
 10
-3.331579589843749
 20
0.5927286783854166
 10
-3.331579589843749
 20
0.8890068901909721
 10
-3.331579589843749
 20
0.8890068901909721
 10
-2.848921712239583
 20
0.922768825954861
 10
-2.649967447916666
 20
0.969277615017361
 10
-2.531456163194444
 20
1.456414116753472
 10
-2.531456163194444
 20
1.456414116753472
 10
-2.239312065972221
 20
1.456414116753472
 10
-2.239312065972221
 20
1.456414116753472
 10
-2.239312065972221
 20
1.456414116753472
 10
-2.239312065972221
 20
-1.519803873697916
 10
-2.239312065972221
 20
-1.519803873697916
 97
        0
 75
     2
 76
     1
 98
        1
 10
0.0
 20
0.0
  0
HATCH
  5
47
330
42
100
AcDbEntity
  8
LAYER_2
 62
     3
100
AcDbHatch
 10
0.0
 20
0.0
 30
0.0
210
0.0
220
0.0
230
1.0
  2
SOLID
 70
     1
 71
     0
 91
        1
 92
        1
 93
        1
 72
     4
 94
        3
 73
     0
 74
     0
 95
       17
 96
       13
 40
0.0
 40
0.0
 40
0.0
 40
0.0
 40
1.0
 40
1.0
 40
1.0
 40
2.0
 40
2.0
 40
2.0
 40
3.0
 40
3.0
 40
3.0
 40
4.0
 40
4.0
 40
4.0
 40
4.0
 10
-1.1937255859375
 20
-1.600074598524305
 10
-1.1937255859375
 20
-1.600074598524305
 10
-1.477429199218749
 20
-1.600074598524305
 10
-1.477429199218749
 20
-1.600074598524305
 10
-1.477429199218749
 20
-1.600074598524305
 10
-0.4359768337673611
 20
1.600074598524305
 10
-0.4359768337673611
 20
1.600074598524305
 10
-0.4359768337673611
 20
1.600074598524305
 10
-0.15657958984375
 20
1.600074598524305
 10
-0.15657958984375
 20
1.600074598524305
 10
-0.15657958984375
 20
1.600074598524305
 10
-1.1937255859375
 20
-1.600074598524305
 10
-1.1937255859375
 20
-1.600074598524305
 97
        0
 75
     2
 76
     1
 98
        1
 10
0.0
 20
0.0
  0
HATCH
  5
46
330
42
100
AcDbEntity
  8
LAYER_2
 62
     3
100
AcDbHatch
 10
0.0
 20
0.0
 30
0.0
210
0.0
220
0.0
230
1.0
  2
SOLID
 70
     1
 71
     0
 91
        1
 92
        1
 93
        1
 72
     4
 94
        3
 73
     0
 74
     0
 95
       47
 96
       43
 40
0.0
 40
0.0
 40
0.0
 40
0.0
 40
1.0
 40
1.0
 40
1.0
 40
2.0
 40
2.0
 40
2.0
 40
3.0
 40
3.0
 40
3.0
 40
4.0
 40
4.0
 40
4.0
 40
5.0
 40
5.0
 40
5.0
 40
6.0
 40
6.0
 40
6.0
 40
7.0
 40
7.0
 40
7.0
 40
8.0
 40
8.0
 40
8.0
 40
9.0
 40
9.0
 40
9.0
 40
10.0
 40
10.0
 40
10.0
 40
11.0
 40
11.0
 40
11.0
 40
12.0
 40
12.0
 40
12.0
 40
13.0
 40
13.0
 40
13.0
 40
14.0
 40
14.0
 40
14.0
 40
14.0
 10
-0.0425469292534722
 20
0.3894680447048611
 10
-0.0425469292534722
 20
1.358917914496527
 10
0.6647311740451389
 20
1.456414116753472
 10
0.9861585828993055
 20
1.456414116753472
 10
1.502922905815972
 20
1.456414116753472
 10
1.917712402343749
 20
1.121895345052083
 10
1.917712402343749
 20
0.5672349717881944
 10
1.917712402343749
 20
0.0339341905381945
 10
1.566312662760416
 20
-0.19068603515625
 10
1.121895345052083
 20
-0.4277086046006945
 10
1.121895345052083
 20
-0.4277086046006945
 10
0.8128702799479166
 20
-0.59686279296875
 10
0.8128702799479166
 20
-0.59686279296875
 10
0.4063490125868056
 20
-0.8211385091145832
 10
0.3174655490451388
 20
-1.054026963975694
 10
0.3005845811631944
 20
-1.168404134114583
 10
0.3005845811631944
 20
-1.168404134114583
 10
1.917712402343749
 20
-1.168404134114583
 10
1.917712402343749
 20
-1.168404134114583
 10
1.917712402343749
 20
-1.168404134114583
 10
1.917712402343749
 20
-1.519803873697916
 10
1.917712402343749
 20
-1.519803873697916
 10
1.917712402343749
 20
-1.519803873697916
 10
-0.1183390299479166
 20
-1.519803873697916
 10
-0.1183390299479166
 20
-1.519803873697916
 10
-0.0973239474826389
 20
-0.9017537434895832
 10
0.1820732964409722
 20
-0.5713690863715277
 10
0.5799818250868056
 20
-0.3388251410590277
 10
0.5799818250868056
 20
-0.3388251410590277
 10
0.9737562391493053
 20
-0.11007080078125
 10
0.9737562391493053
 20
-0.11007080078125
 10
1.291394042968749
 20
0.0718302408854167
 10
1.519803873697916
 20
0.1948201497395833
 10
1.519803873697916
 20
0.5841159396701389
 10
1.519803873697916
 20
0.8211385091145832
 10
1.367186143663194
 20
1.121895345052083
 10
0.9313815646701387
 20
1.121895345052083
 10
0.3681084526909722
 20
1.121895345052083
 10
0.3429592556423611
 20
0.59686279296875
 10
0.33021240234375
 20
0.3894680447048611
 10
0.33021240234375
 20
0.3894680447048611
 10
-0.0425469292534722
 20
0.3894680447048611
 10
-0.0425469292534722
 20
0.3894680447048611
 97
        0
 75
     2
 76
     1
 98
        1
 10
0.0
 20
0.0
  0
HATCH
  5
45
330
42
100
AcDbEntity
  8
LAYER_2
 62
     3
100
AcDbHatch
 10
0.0
 20
0.0
 30
0.0
210
0.0
220
0.0
230
1.0
  2
SOLID
 70
     1
 71
     0
 91
        2
 92
        1
 93
        1
 72
     4
 94
        3
 73
     0
 74
     0
 95
       17
 96
       13
 40
0.0
 40
0.0
 40
0.0
 40
0.0
 40
1.0
 40
1.0
 40
1.0
 40
2.0
 40
2.0
 40
2.0
 40
3.0
 40
3.0
 40
3.0
 40
4.0
 40
4.0
 40
4.0
 40
4.0
 10
3.022899034288194
 20
1.519803873697916
 10
3.022899034288194
 20
1.519803873697916
 10
3.331579589843749
 20
1.519803873697916
 10
3.331579589843749
 20
1.519803873697916
 10
3.331579589843749
 20
1.519803873697916
 10
3.331579589843749
 20
0.4401109483506945
 10
3.331579589843749
 20
0.4401109483506945
 10
3.331579589843749
 20
0.4401109483506945
 10
3.022899034288194
 20
0.4401109483506945
 10
3.022899034288194
 20
0.4401109483506945
 10
3.022899034288194
 20
0.4401109483506945
 10
3.022899034288194
 20
1.519803873697916
 10
3.022899034288194
 20
1.519803873697916
 97
        0
 92
        1
 93
        1
 72
     4
 94
        3
 73
     0
 74
     0
 95
       17
 96
       13
 40
0.0
 40
0.0
 40
0.0
 40
0.0
 40
1.0
 40
1.0
 40
1.0
 40
2.0
 40
2.0
 40
2.0
 40
3.0
 40
3.0
 40
3.0
 40
4.0
 40
4.0
 40
4.0
 40
4.0
 10
2.421385362413194
 20
1.519803873697916
 10
2.421385362413194
 20
1.519803873697916
 10
2.730754937065972
 20
1.519803873697916
 10
2.730754937065972
 20
1.519803873697916
 10
2.730754937065972
 20
1.519803873697916
 10
2.730754937065972
 20
0.4401109483506945
 10
2.730754937065972
 20
0.4401109483506945
 10
2.730754937065972
 20
0.4401109483506945
 10
2.421385362413194
 20
0.4401109483506945
 10
2.421385362413194
 20
0.4401109483506945
 10
2.421385362413194
 20
0.4401109483506945
 10
2.421385362413194
 20
1.519803873697916
 10
2.421385362413194
 20
1.519803873697916
 97
        0
 75
     2
 76
     1
 98
        1
 10
0.0
 20
0.0
  0
ENDBLK
  5
49
330
42
100
AcDbEntity
  8
LAYER_2
100
AcDbBlockEnd
  0
BLOCK
  5
4C
330
4A
100
AcDbEntity
  8
LAYER_2
 62
     7
100
AcDbBlockBegin
  2
AI9-BLK5
 70
     0
 10
0.0
 20
0.0
 30
0.0
  3
AI9-BLK5
  1

  0
HATCH
  5
89
330
4A
100
AcDbEntity
  8
LAYER_2
 62
     3
100
AcDbHatch
 10
0.0
 20
0.0
 30
0.0
210
0.0
220
0.0
230
1.0
  2
SOLID
 70
     1
 71
     0
 91
        1
 92
        1
 93
        1
 72
     4
 94
        3
 73
     0
 74
     0
 95
       47
 96
       43
 40
0.0
 40
0.0
 40
0.0
 40
0.0
 40
1.0
 40
1.0
 40
1.0
 40
2.0
 40
2.0
 40
2.0
 40
3.0
 40
3.0
 40
3.0
 40
4.0
 40
4.0
 40
4.0
 40
5.0
 40
5.0
 40
5.0
 40
6.0
 40
6.0
 40
6.0
 40
7.0
 40
7.0
 40
7.0
 40
8.0
 40
8.0
 40
8.0
 40
9.0
 40
9.0
 40
9.0
 40
10.0
 40
10.0
 40
10.0
 40
11.0
 40
11.0
 40
11.0
 40
12.0
 40
12.0
 40
12.0
 40
13.0
 40
13.0
 40
13.0
 40
14.0
 40
14.0
 40
14.0
 40
14.0
 10
-118.9656928168402
 20
-0.1781114366319444
 10
-118.9656928168402
 20
-0.1781114366319444
 10
-118.623939344618
 20
-0.1405598958333333
 10
-118.623939344618
 20
-0.1405598958333333
 10
-118.6148098415798
 20
-0.316259765625
 10
-118.5738132052951
 20
-0.4361490885416666
 10
-118.5007771809895
 20
-0.5009168836805556
 10
-118.4279134114583
 20
-0.5656846788194444
 10
-118.3267998589409
 20
-0.598068576388889
 10
-118.1977810329861
 20
-0.598068576388889
 10
-118.1026963975694
 20
-0.598068576388889
 10
-118.0203586154513
 20
-0.5808430989583333
 10
-117.9514567057291
 20
-0.545703125
 10
-117.8822102864583
 20
-0.5105631510416666
 10
-117.83466796875
 20
-0.4633653428819445
 10
-117.8086574978298
 20
-0.4034206814236111
 10
-117.7826470269097
 20
-0.3434760199652778
 10
-117.7695556640625
 20
-0.2477023654513889
 10
-117.7695556640625
 20
-0.1164442274305555
 10
-117.7695556640625
 20
-0.1164442274305555
 10
-117.7695556640625
 20
1.463476562499999
 10
-117.7695556640625
 20
1.463476562499999
 10
-117.7695556640625
 20
1.463476562499999
 10
-117.3892171223958
 20
1.463476562499999
 10
-117.3892171223958
 20
1.463476562499999
 10
-117.3892171223958
 20
1.463476562499999
 10
-117.3892171223958
 20
-0.0988742404513889
 10
-117.3892171223958
 20
-0.0988742404513889
 10
-117.3892171223958
 20
-0.2907660590277778
 10
-117.4181559244791
 20
-0.4392496744791666
 10
-117.4763780381944
 20
-0.5443250868055555
 10
-117.5342556423611
 20
-0.6497450086805556
 10
-117.6262396918402
 20
-0.7300157335069444
 10
-117.7519856770833
 20
-0.7854817708333333
 10
-117.8779039171007
 20
-0.840603298611111
 10
-118.0255262586805
 20
-0.8681640624999998
 10
-118.1950249565972
 20
-0.8681640624999998
 10
-118.4466891818576
 20
-0.8681640624999998
 10
-118.6394422743055
 20
-0.8102864583333332
 10
-118.7731119791666
 20
-0.69453125
 10
-118.9067816840277
 20
-0.5787760416666666
 10
-118.9708604600694
 20
-0.4065212673611111
 10
-118.9656928168402
 20
-0.1781114366319444
 97
        0
 75
     2
 76
     1
 98
        1
 10
0.0
 20
0.0
  0
HATCH
  5
88
330
4A
100
AcDbEntity
  8
LAYER_2
 62
     3
100
AcDbHatch
 10
0.0
 20
0.0
 30
0.0
210
0.0
220
0.0
230
1.0
  2
SOLID
 70
     1
 71
     0
 91
        1
 92
        1
 93
        1
 72
     4
 94
        3
 73
     0
 74
     0
 95
       56
 96
       52
 40
0.0
 40
0.0
 40
0.0
 40
0.0
 40
1.0
 40
1.0
 40
1.0
 40
2.0
 40
2.0
 40
2.0
 40
3.0
 40
3.0
 40
3.0
 40
4.0
 40
4.0
 40
4.0
 40
5.0
 40
5.0
 40
5.0
 40
6.0
 40
6.0
 40
6.0
 40
7.0
 40
7.0
 40
7.0
 40
8.0
 40
8.0
 40
8.0
 40
9.0
 40
9.0
 40
9.0
 40
10.0
 40
10.0
 40
10.0
 40
11.0
 40
11.0
 40
11.0
 40
12.0
 40
12.0
 40
12.0
 40
13.0
 40
13.0
 40
13.0
 40
14.0
 40
14.0
 40
14.0
 40
15.0
 40
15.0
 40
15.0
 40
16.0
 40
16.0
 40
16.0
 40
17.0
 40
17.0
 40
17.0
 40
17.0
 10
-113.7813408745659
 20
1.463476562499999
 10
-113.7813408745659
 20
1.463476562499999
 10
-113.4010023328993
 20
1.463476562499999
 10
-113.4010023328993
 20
1.463476562499999
 10
-113.4010023328993
 20
1.463476562499999
 10
-113.4010023328993
 20
0.1388373480902778
 10
-113.4010023328993
 20
0.1388373480902778
 10
-113.4010023328993
 20
-0.0916395399305556
 10
-113.433558485243
 20
-0.2745741102430555
 10
-113.4986707899305
 20
-0.4099663628472223
 10
-113.5639553493923
 20
-0.545703125
 10
-113.681605360243
 20
-0.6559461805555556
 10
-113.8517930772569
 20
-0.7406955295138889
 10
-114.0219807942708
 20
-0.8257893880208332
 10
-114.2452229817708
 20
-0.8681640624999998
 10
-114.5215196397569
 20
-0.8681640624999998
 10
-114.789892578125
 20
-0.8681640624999998
 10
-115.0096896701389
 20
-0.83095703125
 10
-115.1802218967014
 20
-0.7572319878472222
 10
-115.3510986328125
 20
-0.6831624348958333
 10
-115.4730550130208
 20
-0.5760199652777778
 10
-115.5460910373264
 20
-0.4358045789930556
 10
-115.6191270616319
 20
-0.2955891927083333
 10
-115.6554728190104
 20
-0.1040418836805555
 10
-115.6554728190104
 20
0.1388373480902778
 10
-115.6554728190104
 20
0.1388373480902778
 10
-115.6554728190104
 20
1.463476562499999
 10
-115.6554728190104
 20
1.463476562499999
 10
-115.6554728190104
 20
1.463476562499999
 10
-115.2751342773437
 20
1.463476562499999
 10
-115.2751342773437
 20
1.463476562499999
 10
-115.2751342773437
 20
1.463476562499999
 10
-115.2751342773437
 20
0.1419379340277778
 10
-115.2751342773437
 20
0.1419379340277778
 10
-115.2751342773437
 20
-0.0571885850694445
 10
-115.2520521375868
 20
-0.2039496527777778
 10
-115.2057156032986
 20
-0.2980007595486111
 10
-115.1595513237847
 20
-0.3923963758680555
 10
-115.0803141276041
 20
-0.465087890625
 10
-114.9676595052083
 20
-0.5160753038194445
 10
-114.8550048828125
 20
-0.567062717013889
 10
-114.7173733181423
 20
-0.5925564236111111
 10
-114.5545925564236
 20
-0.5925564236111111
 10
-114.2760565863715
 20
-0.5925564236111111
 10
-114.0774468315972
 20
-0.5422580295138888
 10
-113.958935546875
 20
-0.4409722222222223
 10
-113.8405965169271
 20
-0.3400309244791666
 10
-113.7813408745659
 20
-0.1457275390625
 10
-113.7813408745659
 20
0.1419379340277778
 10
-113.7813408745659
 20
0.1419379340277778
 10
-113.7813408745659
 20
1.463476562499999
 10
-113.7813408745659
 20
1.463476562499999
 97
        0
 75
     2
 76
     1
 98
        1
 10
0.0
 20
0.0
  0
HATCH
  5
87
330
4A
100
AcDbEntity
  8
LAYER_2
 62
     3
100
AcDbHatch
 10
0.0
 20
0.0
 30
0.0
210
0.0
220
0.0
230
1.0
  2
SOLID
 70
     1
 71
     0
 91
        1
 92
        1
 93
        1
 72
     4
 94
        3
 73
     0
 74
     0
 95
       23
 96
       19
 40
0.0
 40
0.0
 40
0.0
 40
0.0
 40
1.0
 40
1.0
 40
1.0
 40
2.0
 40
2.0
 40
2.0
 40
3.0
 40
3.0
 40
3.0
 40
4.0
 40
4.0
 40
4.0
 40
5.0
 40
5.0
 40
5.0
 40
6.0
 40
6.0
 40
6.0
 40
6.0
 10
-111.6770765516493
 20
-0.8295789930555555
 10
-111.6770765516493
 20
-0.8295789930555555
 10
-111.6770765516493
 20
1.463476562499999
 10
-111.6770765516493
 20
1.463476562499999
 10
-111.6770765516493
 20
1.463476562499999
 10
-111.2967380099826
 20
1.463476562499999
 10
-111.2967380099826
 20
1.463476562499999
 10
-111.2967380099826
 20
1.463476562499999
 10
-111.2967380099826
 20
-0.5594835069444444
 10
-111.2967380099826
 20
-0.5594835069444444
 10
-111.2967380099826
 20
-0.5594835069444444
 10
-109.8856268988715
 20
-0.5594835069444444
 10
-109.8856268988715
 20
-0.5594835069444444
 10
-109.8856268988715
 20
-0.5594835069444444
 10
-109.8856268988715
 20
-0.8295789930555555
 10
-109.8856268988715
 20
-0.8295789930555555
 10
-109.8856268988715
 20
-0.8295789930555555
 10
-111.6770765516493
 20
-0.8295789930555555
 10
-111.6770765516493
 20
-0.8295789930555555
 97
        0
 75
     2
 76
     1
 98
        1
 10
0.0
 20
0.0
  0
HATCH
  5
86
330
4A
100
AcDbEntity
  8
LAYER_2
 62
     3
100
AcDbHatch
 10
0.0
 20
0.0
 30
0.0
210
0.0
220
0.0
230
1.0
  2
SOLID
 70
     1
 71
     0
 91
        1
 92
        1
 93
        1
 72
     4
 94
        3
 73
     0
 74
     0
 95
       17
 96
       13
 40
0.0
 40
0.0
 40
0.0
 40
0.0
 40
1.0
 40
1.0
 40
1.0
 40
2.0
 40
2.0
 40
2.0
 40
3.0
 40
3.0
 40
3.0
 40
4.0
 40
4.0
 40
4.0
 40
4.0
 10
-108.4064751519097
 20
-0.8295789930555555
 10
-108.4064751519097
 20
-0.8295789930555555
 10
-108.4064751519097
 20
1.463476562499999
 10
-108.4064751519097
 20
1.463476562499999
 10
-108.4064751519097
 20
1.463476562499999
 10
-108.026136610243
 20
1.463476562499999
 10
-108.026136610243
 20
1.463476562499999
 10
-108.026136610243
 20
1.463476562499999
 10
-108.026136610243
 20
-0.8295789930555555
 10
-108.026136610243
 20
-0.8295789930555555
 10
-108.026136610243
 20
-0.8295789930555555
 10
-108.4064751519097
 20
-0.8295789930555555
 10
-108.4064751519097
 20
-0.8295789930555555
 97
        0
 75
     2
 76
     1
 98
        1
 10
0.0
 20
0.0
  0
HATCH
  5
85
330
4A
100
AcDbEntity
  8
LAYER_2
 62
     3
100
AcDbHatch
 10
0.0
 20
0.0
 30
0.0
210
0.0
220
0.0
230
1.0
  2
SOLID
 70
     1
 71
     0
 91
        1
 92
        1
 93
        1
 72
     4
 94
        3
 73
     0
 74
     0
 95
       56
 96
       52
 40
0.0
 40
0.0
 40
0.0
 40
0.0
 40
1.0
 40
1.0
 40
1.0
 40
2.0
 40
2.0
 40
2.0
 40
3.0
 40
3.0
 40
3.0
 40
4.0
 40
4.0
 40
4.0
 40
5.0
 40
5.0
 40
5.0
 40
6.0
 40
6.0
 40
6.0
 40
7.0
 40
7.0
 40
7.0
 40
8.0
 40
8.0
 40
8.0
 40
9.0
 40
9.0
 40
9.0
 40
10.0
 40
10.0
 40
10.0
 40
11.0
 40
11.0
 40
11.0
 40
12.0
 40
12.0
 40
12.0
 40
13.0
 40
13.0
 40
13.0
 40
14.0
 40
14.0
 40
14.0
 40
15.0
 40
15.0
 40
15.0
 40
16.0
 40
16.0
 40
16.0
 40
17.0
 40
17.0
 40
17.0
 40
17.0
 10
-104.3700290256076
 20
1.463476562499999
 10
-104.3700290256076
 20
1.463476562499999
 10
-103.9896904839409
 20
1.463476562499999
 10
-103.9896904839409
 20
1.463476562499999
 10
-103.9896904839409
 20
1.463476562499999
 10
-103.9896904839409
 20
0.1388373480902778
 10
-103.9896904839409
 20
0.1388373480902778
 10
-103.9896904839409
 20
-0.0916395399305556
 10
-104.0222466362847
 20
-0.2745741102430555
 10
-104.0873589409722
 20
-0.4099663628472223
 10
-104.152643500434
 20
-0.545703125
 10
-104.2702935112847
 20
-0.6559461805555556
 10
-104.4404812282986
 20
-0.7406955295138889
 10
-104.6106689453125
 20
-0.8257893880208332
 10
-104.8339111328125
 20
-0.8681640624999998
 10
-105.1102077907986
 20
-0.8681640624999998
 10
-105.3785807291666
 20
-0.8681640624999998
 10
-105.5983778211805
 20
-0.83095703125
 10
-105.768910047743
 20
-0.7572319878472222
 10
-105.9397867838541
 20
-0.6831624348958333
 10
-106.0617431640625
 20
-0.5760199652777778
 10
-106.134779188368
 20
-0.4358045789930556
 10
-106.2078152126736
 20
-0.2955891927083333
 10
-106.244160970052
 20
-0.1040418836805555
 10
-106.244160970052
 20
0.1388373480902778
 10
-106.244160970052
 20
0.1388373480902778
 10
-106.244160970052
 20
1.463476562499999
 10
-106.244160970052
 20
1.463476562499999
 10
-106.244160970052
 20
1.463476562499999
 10
-105.8638224283854
 20
1.463476562499999
 10
-105.8638224283854
 20
1.463476562499999
 10
-105.8638224283854
 20
1.463476562499999
 10
-105.8638224283854
 20
0.1419379340277778
 10
-105.8638224283854
 20
0.1419379340277778
 10
-105.8638224283854
 20
-0.0571885850694445
 10
-105.8407402886284
 20
-0.2039496527777778
 10
-105.7944037543402
 20
-0.2980007595486111
 10
-105.7482394748264
 20
-0.3923963758680555
 10
-105.6690022786458
 20
-0.465087890625
 10
-105.55634765625
 20
-0.5160753038194445
 10
-105.4436930338541
 20
-0.567062717013889
 10
-105.306061469184
 20
-0.5925564236111111
 10
-105.1432807074652
 20
-0.5925564236111111
 10
-104.8647447374132
 20
-0.5925564236111111
 10
-104.6661349826389
 20
-0.5422580295138888
 10
-104.5476236979166
 20
-0.4409722222222223
 10
-104.4292846679687
 20
-0.3400309244791666
 10
-104.3700290256076
 20
-0.1457275390625
 10
-104.3700290256076
 20
0.1419379340277778
 10
-104.3700290256076
 20
0.1419379340277778
 10
-104.3700290256076
 20
1.463476562499999
 10
-104.3700290256076
 20
1.463476562499999
 97
        0
 75
     2
 76
     1
 98
        1
 10
0.0
 20
0.0
  0
HATCH
  5
84
330
4A
100
AcDbEntity
  8
LAYER_2
 62
     3
100
AcDbHatch
 10
0.0
 20
0.0
 30
0.0
210
0.0
220
0.0
230
1.0
  2
SOLID
 70
     1
 71
     0
 91
        1
 92
        1
 93
        1
 72
     4
 94
        3
 73
     0
 74
     0
 95
      110
 96
      106
 40
0.0
 40
0.0
 40
0.0
 40
0.0
 40
1.0
 40
1.0
 40
1.0
 40
2.0
 40
2.0
 40
2.0
 40
3.0
 40
3.0
 40
3.0
 40
4.0
 40
4.0
 40
4.0
 40
5.0
 40
5.0
 40
5.0
 40
6.0
 40
6.0
 40
6.0
 40
7.0
 40
7.0
 40
7.0
 40
8.0
 40
8.0
 40
8.0
 40
9.0
 40
9.0
 40
9.0
 40
10.0
 40
10.0
 40
10.0
 40
11.0
 40
11.0
 40
11.0
 40
12.0
 40
12.0
 40
12.0
 40
13.0
 40
13.0
 40
13.0
 40
14.0
 40
14.0
 40
14.0
 40
15.0
 40
15.0
 40
15.0
 40
16.0
 40
16.0
 40
16.0
 40
17.0
 40
17.0
 40
17.0
 40
18.0
 40
18.0
 40
18.0
 40
19.0
 40
19.0
 40
19.0
 40
20.0
 40
20.0
 40
20.0
 40
21.0
 40
21.0
 40
21.0
 40
22.0
 40
22.0
 40
22.0
 40
23.0
 40
23.0
 40
23.0
 40
24.0
 40
24.0
 40
24.0
 40
25.0
 40
25.0
 40
25.0
 40
26.0
 40
26.0
 40
26.0
 40
27.0
 40
27.0
 40
27.0
 40
28.0
 40
28.0
 40
28.0
 40
29.0
 40
29.0
 40
29.0
 40
30.0
 40
30.0
 40
30.0
 40
31.0
 40
31.0
 40
31.0
 40
32.0
 40
32.0
 40
32.0
 40
33.0
 40
33.0
 40
33.0
 40
34.0
 40
34.0
 40
34.0
 40
35.0
 40
35.0
 40
35.0
 40
35.0
 10
-102.3760077582465
 20
-0.0964626736111111
 10
-102.3760077582465
 20
-0.0964626736111111
 10
-102.0177178276909
 20
-0.0689019097222222
 10
-102.0177178276909
 20
-0.0689019097222222
 10
-102.0010091145833
 20
-0.1839680989583333
 10
-101.9617350260416
 20
-0.2780192057291666
 10
-101.9000678168402
 20
-0.3513997395833333
 10
-101.8387451171875
 20
-0.4251247829861111
 10
-101.7429714626736
 20
-0.4847249348958333
 10
-101.6134358723958
 20
-0.5298556857638889
 10
-101.483900282118
 20
-0.5753309461805555
 10
-101.3381727430555
 20
-0.598068576388889
 10
-101.1762532552083
 20
-0.598068576388889
 10
-101.0324205186632
 20
-0.598068576388889
 10
-100.90546875
 20
-0.5808430989583333
 10
-100.7952256944444
 20
-0.5463921440972222
 10
-100.6853271484375
 20
-0.5119411892361111
 10
-100.603333875868
 20
-0.4647433810763889
 10
-100.5495903862847
 20
-0.4047987196180556
 10
-100.4958468967014
 20
-0.3448540581597222
 10
-100.4688028971354
 20
-0.2793972439236111
 10
-100.4688028971354
 20
-0.2087727864583333
 10
-100.4688028971354
 20
-0.1367702907986111
 10
-100.4955023871527
 20
-0.0740695529513889
 10
-100.5489013671875
 20
-0.0206705729166667
 10
-100.6021280924479
 20
0.0330729166666667
 10
-100.6880832248264
 20
0.0778591579861111
 10
-100.8069390190972
 20
0.1143771701388889
 10
-100.8832478841146
 20
0.1384928385416666
 10
-101.0518853081597
 20
0.1756998697916666
 10
-101.3128512912326
 20
0.2263427734375
 10
-101.5738172743055
 20
0.2769856770833333
 10
-101.756751844618
 20
0.3245279947916666
 10
-101.8616550021701
 20
0.3693142361111111
 10
-101.9977362738715
 20
0.4268473307291666
 10
-102.0991943359375
 20
0.4981608072916666
 10
-102.1656846788194
 20
0.5832546657986111
 10
-102.23251953125
 20
0.6683485243055555
 10
-102.2657647026909
 20
0.7637776692708333
 10
-102.2657647026909
 20
0.8691975911458332
 10
-102.2657647026909
 20
0.9852973090277776
 10
-102.2249403211805
 20
1.093473307291666
 10
-102.1432915581597
 20
1.19407009548611
 10
-102.0618150499132
 20
1.295011393229166
 10
-101.942787000868
 20
1.371492513020833
 10
-101.78603515625
 20
1.423513454861111
 10
-101.6292833116319
 20
1.47587890625
 10
-101.4553059895833
 20
1.502061631944444
 10
-101.2634141710069
 20
1.502061631944444
 10
-101.0525743272569
 20
1.502061631944444
 10
-100.8661946614583
 20
1.474845377604166
 10
-100.7049641927083
 20
1.420068359374999
 10
-100.5437337239583
 20
1.365635850694444
 10
-100.4198825412326
 20
1.285020616319444
 10
-100.3330661349826
 20
1.178911675347222
 10
-100.2464219835069
 20
1.072802734374999
 10
-100.1997409396701
 20
0.9529134114583332
 10
-100.1931952582465
 20
0.8185546875
 10
-100.1931952582465
 20
0.8185546875
 10
-100.5569973415798
 20
0.7965060763888889
 10
-100.5569973415798
 20
0.7965060763888889
 10
-100.5764621310764
 20
0.9401665581597221
 10
-100.6419189453125
 20
1.048687065972222
 10
-100.7537122938368
 20
1.121723090277777
 10
-100.8655056423611
 20
1.195448133680555
 10
-101.0305257161458
 20
1.231966145833333
 10
-101.2489447699652
 20
1.231966145833333
 10
-101.4763210720486
 20
1.231966145833333
 10
-101.6420301649305
 20
1.198204210069444
 10
-101.7460720486111
 20
1.131024848090277
 10
-101.8501139322916
 20
1.063845486111111
 10
-101.9019626193576
 20
0.9828857421875
 10
-101.9019626193576
 20
0.8881456163194442
 10
-101.9019626193576
 20
0.8058078342013887
 10
-101.8652723524305
 20
0.737939453125
 10
-101.7915473090277
 20
0.6848849826388889
 10
-101.7192003038194
 20
0.6318305121527778
 10
-101.5302368164062
 20
0.5773980034722222
 10
-101.2246568467882
 20
0.5215874565972222
 10
-100.9190768771701
 20
0.4657769097222222
 10
-100.7089260525173
 20
0.4172010633680556
 10
-100.5940321180555
 20
0.3755154079861111
 10
-100.4272894965277
 20
0.3141927083333333
 10
-100.303955078125
 20
0.2363335503472222
 10
-100.2243733723958
 20
0.1422824435763889
 10
-100.1447916666666
 20
0.0482313368055556
 10
-100.105000813802
 20
-0.0602891710069445
 10
-100.105000813802
 20
-0.1832790798611111
 10
-100.105000813802
 20
-0.3048909505208333
 10
-100.1485812717014
 20
-0.4196126302083333
 10
-100.2353976779513
 20
-0.527099609375
 10
-100.3223863389757
 20
-0.6349310980902777
 10
-100.4472710503472
 20
-0.7186469184027777
 10
-100.6100518120659
 20
-0.7785915798611111
 10
-100.7728325737847
 20
-0.8381917317708332
 10
-100.9561116536458
 20
-0.8681640624999998
 10
-101.159716796875
 20
-0.8681640624999998
 10
-101.417926703559
 20
-0.8681640624999998
 10
-101.6342787000868
 20
-0.8378472222222221
 10
-101.8087727864583
 20
-0.7779025607638889
 10
-101.9832668728298
 20
-0.7179578993055556
 10
-102.1202094184027
 20
-0.6273518880208333
 10
-102.2194281684027
 20
-0.5064290364583333
 10
-102.3186469184027
 20
-0.3855061848958333
 10
-102.3708401150173
 20
-0.2487358940972222
 10
-102.3760077582465
 20
-0.0964626736111111
 97
        0
 75
     2
 76
     1
 98
        1
 10
0.0
 20
0.0
  0
HATCH
  5
83
330
4A
100
AcDbEntity
  8
LAYER_2
 62
     3
100
AcDbHatch
 10
0.0
 20
0.0
 30
0.0
210
0.0
220
0.0
230
1.0
  2
SOLID
 70
     1
 71
     0
 91
        3
 92
       16
 93
        1
 72
     4
 94
        3
 73
     0
 74
     0
 95
       35
 96
       31
 40
0.0
 40
0.0
 40
0.0
 40
0.0
 40
1.0
 40
1.0
 40
1.0
 40
2.0
 40
2.0
 40
2.0
 40
3.0
 40
3.0
 40
3.0
 40
4.0
 40
4.0
 40
4.0
 40
5.0
 40
5.0
 40
5.0
 40
6.0
 40
6.0
 40
6.0
 40
7.0
 40
7.0
 40
7.0
 40
8.0
 40
8.0
 40
8.0
 40
9.0
 40
9.0
 40
9.0
 40
10.0
 40
10.0
 40
10.0
 40
10.0
 10
-96.99425184461805
 20
-0.5594835069444444
 10
-96.99425184461805
 20
-0.5594835069444444
 10
-96.28215060763888
 20
-0.5594835069444444
 10
-96.28215060763888
 20
-0.5594835069444444
 10
-96.15984971788194
 20
-0.5594835069444444
 10
-96.07406684027777
 20
-0.5560384114583333
 10
-96.02462972005207
 20
-0.5484592013888889
 10
-95.93746880425348
 20
-0.536056857638889
 10
-95.86460503472222
 20
-0.5153862847222222
 10
-95.80603841145833
 20
-0.4861029730902777
 10
-95.74764404296875
 20
-0.4568196614583333
 10
-95.69958496093748
 20
-0.4144449869791666
 10
-95.66168891059026
 20
-0.3586344401041666
 10
-95.62413736979165
 20
-0.3028238932291666
 10
-95.60518934461804
 20
-0.2384006076388889
 10
-95.60518934461804
 20
-0.1653645833333333
 10
-95.60518934461804
 20
-0.0799262152777778
 10
-95.63292236328123
 20
-0.0055121527777778
 10
-95.68821614583333
 20
0.0575330946180556
 10
-95.74368218315973
 20
0.1205783420138889
 10
-95.81964653862845
 20
0.1646755642361111
 10
-95.91628146701387
 20
0.1905137803819444
 10
-96.0130886501736
 20
0.2160074869791666
 10
-96.1522705078125
 20
0.2287543402777778
 10
-96.33417154947915
 20
0.2287543402777778
 10
-96.33417154947915
 20
0.2287543402777778
 10
-96.99425184461805
 20
0.2287543402777778
 10
-96.99425184461805
 20
0.2287543402777778
 10
-96.99425184461805
 20
0.2287543402777778
 10
-96.99425184461805
 20
-0.5594835069444444
 10
-96.99425184461805
 20
-0.5594835069444444
 97
        0
 92
       16
 93
        1
 72
     4
 94
        3
 73
     0
 74
     0
 95
       32
 96
       28
 40
0.0
 40
0.0
 40
0.0
 40
0.0
 40
1.0
 40
1.0
 40
1.0
 40
2.0
 40
2.0
 40
2.0
 40
3.0
 40
3.0
 40
3.0
 40
4.0
 40
4.0
 40
4.0
 40
5.0
 40
5.0
 40
5.0
 40
6.0
 40
6.0
 40
6.0
 40
7.0
 40
7.0
 40
7.0
 40
8.0
 40
8.0
 40
8.0
 40
9.0
 40
9.0
 40
9.0
 40
9.0
 10
-96.99425184461805
 20
0.4988498263888889
 10
-96.99425184461805
 20
0.4988498263888889
 10
-96.37689073350694
 20
0.4988498263888889
 10
-96.37689073350694
 20
0.4988498263888889
 10
-96.20945909288193
 20
0.4988498263888889
 10
-96.08922526041666
 20
0.5078070746527778
 10
-96.01653374565971
 20
0.5253770616319445
 10
-95.92058783637153
 20
0.5484592013888889
 10
-95.84824083116318
 20
0.5866997612847222
 10
-95.79949273003471
 20
0.6400987413194443
 10
-95.75091688368054
 20
0.6931532118055555
 10
-95.72645670572915
 20
0.7599880642361111
 10
-95.72645670572915
 20
0.840603298611111
 10
-95.72645670572915
 20
0.9170844184027776
 10
-95.74919433593748
 20
0.9839192708333332
 10
-95.79466959635416
 20
1.04214138454861
 10
-95.84014485677082
 20
1.100018988715277
 10
-95.90491265190971
 20
1.139637586805555
 10
-95.98931749131944
 20
1.161341688368055
 10
-96.07372233072915
 20
1.182701280381944
 10
-96.21841634114582
 20
1.193381076388888
 10
-96.42374403211805
 20
1.193381076388888
 10
-96.42374403211805
 20
1.193381076388888
 10
-96.99425184461805
 20
1.193381076388888
 10
-96.99425184461805
 20
1.193381076388888
 10
-96.99425184461805
 20
1.193381076388888
 10
-96.99425184461805
 20
0.4988498263888889
 10
-96.99425184461805
 20
0.4988498263888889
 97
        0
 92
        1
 93
        1
 72
     4
 94
        3
 73
     0
 74
     0
 95
       47
 96
       43
 40
0.0
 40
0.0
 40
0.0
 40
0.0
 40
1.0
 40
1.0
 40
1.0
 40
2.0
 40
2.0
 40
2.0
 40
3.0
 40
3.0
 40
3.0
 40
4.0
 40
4.0
 40
4.0
 40
5.0
 40
5.0
 40
5.0
 40
6.0
 40
6.0
 40
6.0
 40
7.0
 40
7.0
 40
7.0
 40
8.0
 40
8.0
 40
8.0
 40
9.0
 40
9.0
 40
9.0
 40
10.0
 40
10.0
 40
10.0
 40
11.0
 40
11.0
 40
11.0
 40
12.0
 40
12.0
 40
12.0
 40
13.0
 40
13.0
 40
13.0
 40
14.0
 40
14.0
 40
14.0
 40
14.0
 10
-97.37459038628472
 20
-0.8295789930555555
 10
-97.37459038628472
 20
-0.8295789930555555
 10
-97.37459038628472
 20
1.463476562499999
 10
-97.37459038628472
 20
1.463476562499999
 10
-97.37459038628472
 20
1.463476562499999
 10
-96.30075412326389
 20
1.463476562499999
 10
-96.30075412326389
 20
1.463476562499999
 10
-96.08199055989583
 20
1.463476562499999
 10
-95.90663519965277
 20
1.440049913194444
 10
-95.77434353298611
 20
1.393885633680555
 10
-95.64239637586805
 20
1.347032335069444
 10
-95.5386990017361
 20
1.275718858506944
 10
-95.46394042968749
 20
1.178911675347222
 10
-95.38918185763888
 20
1.082449001736111
 10
-95.35163031684026
 20
0.9811631944444442
 10
-95.35163031684026
 20
0.8757432725694444
 10
-95.35163031684026
 20
0.7779025607638889
 10
-95.38504774305556
 20
0.6852294921875
 10
-95.45171034071179
 20
0.5987575954861111
 10
-95.51837293836804
 20
0.5119411892361111
 10
-95.61896972656249
 20
0.4416612413194444
 10
-95.75367296006943
 20
0.3886067708333333
 10
-95.58038465711804
 20
0.3479546440972222
 10
-95.44705946180554
 20
0.2787082248263888
 10
-95.35369737413194
 20
0.1808675130208333
 10
-95.26050754123263
 20
0.0830268012152778
 10
-95.21382649739583
 20
-0.0323838975694445
 10
-95.21382649739583
 20
-0.1657090928819444
 10
-95.21382649739583
 20
-0.2731960720486111
 10
-95.24207628038194
 20
-0.3727593315972222
 10
-95.29874810112847
 20
-0.465087890625
 10
-95.355419921875
 20
-0.5570719401041666
 10
-95.42535536024304
 20
-0.6280409071180556
 10
-95.50872667100694
 20
-0.6779947916666666
 10
-95.59192572699652
 20
-0.7279486762152777
 10
-95.69631212022569
 20
-0.7658447265625
 10
-95.82188585069443
 20
-0.7913384331597222
 10
-95.94745958116318
 20
-0.8168321397569442
 10
-96.10128309461805
 20
-0.8295789930555555
 10
-96.28352864583334
 20
-0.8295789930555555
 10
-96.28352864583334
 20
-0.8295789930555555
 10
-97.37459038628472
 20
-0.8295789930555555
 10
-97.37459038628472
 20
-0.8295789930555555
 97
        0
 75
     2
 76
     1
 98
        1
 10
0.0
 20
0.0
  0
HATCH
  5
82
330
4A
100
AcDbEntity
  8
LAYER_2
 62
     3
100
AcDbHatch
 10
0.0
 20
0.0
 30
0.0
210
0.0
220
0.0
230
1.0
  2
SOLID
 70
     1
 71
     0
 91
        1
 92
        1
 93
        1
 72
     4
 94
        3
 73
     0
 74
     0
 95
       23
 96
       19
 40
0.0
 40
0.0
 40
0.0
 40
0.0
 40
1.0
 40
1.0
 40
1.0
 40
2.0
 40
2.0
 40
2.0
 40
3.0
 40
3.0
 40
3.0
 40
4.0
 40
4.0
 40
4.0
 40
5.0
 40
5.0
 40
5.0
 40
6.0
 40
6.0
 40
6.0
 40
6.0
 10
-93.5948038736979
 20
-0.8295789930555555
 10
-93.5948038736979
 20
-0.8295789930555555
 10
-93.5948038736979
 20
1.463476562499999
 10
-93.5948038736979
 20
1.463476562499999
 10
-93.5948038736979
 20
1.463476562499999
 10
-93.21446533203124
 20
1.463476562499999
 10
-93.21446533203124
 20
1.463476562499999
 10
-93.21446533203124
 20
1.463476562499999
 10
-93.21446533203124
 20
-0.5594835069444444
 10
-93.21446533203124
 20
-0.5594835069444444
 10
-93.21446533203124
 20
-0.5594835069444444
 10
-91.80335422092012
 20
-0.5594835069444444
 10
-91.80335422092012
 20
-0.5594835069444444
 10
-91.80335422092012
 20
-0.5594835069444444
 10
-91.80335422092012
 20
-0.8295789930555555
 10
-91.80335422092012
 20
-0.8295789930555555
 10
-91.80335422092012
 20
-0.8295789930555555
 10
-93.5948038736979
 20
-0.8295789930555555
 10
-93.5948038736979
 20
-0.8295789930555555
 97
        0
 75
     2
 76
     1
 98
        1
 10
0.0
 20
0.0
  0
HATCH
  5
81
330
4A
100
AcDbEntity
  8
LAYER_2
 62
     3
100
AcDbHatch
 10
0.0
 20
0.0
 30
0.0
210
0.0
220
0.0
230
1.0
  2
SOLID
 70
     1
 71
     0
 91
        1
 92
        1
 93
        1
 72
     4
 94
        3
 73
     0
 74
     0
 95
       56
 96
       52
 40
0.0
 40
0.0
 40
0.0
 40
0.0
 40
1.0
 40
1.0
 40
1.0
 40
2.0
 40
2.0
 40
2.0
 40
3.0
 40
3.0
 40
3.0
 40
4.0
 40
4.0
 40
4.0
 40
5.0
 40
5.0
 40
5.0
 40
6.0
 40
6.0
 40
6.0
 40
7.0
 40
7.0
 40
7.0
 40
8.0
 40
8.0
 40
8.0
 40
9.0
 40
9.0
 40
9.0
 40
10.0
 40
10.0
 40
10.0
 40
11.0
 40
11.0
 40
11.0
 40
12.0
 40
12.0
 40
12.0
 40
13.0
 40
13.0
 40
13.0
 40
14.0
 40
14.0
 40
14.0
 40
15.0
 40
15.0
 40
15.0
 40
16.0
 40
16.0
 40
16.0
 40
17.0
 40
17.0
 40
17.0
 40
17.0
 10
-88.51070421006943
 20
1.463476562499999
 10
-88.51070421006943
 20
1.463476562499999
 10
-88.13036566840278
 20
1.463476562499999
 10
-88.13036566840278
 20
1.463476562499999
 10
-88.13036566840278
 20
1.463476562499999
 10
-88.13036566840278
 20
0.1388373480902778
 10
-88.13036566840278
 20
0.1388373480902778
 10
-88.13036566840278
 20
-0.0916395399305556
 10
-88.16309407552083
 20
-0.2745741102430555
 10
-88.22820638020832
 20
-0.4099663628472223
 10
-88.29331868489582
 20
-0.545703125
 10
-88.41096869574652
 20
-0.6559461805555556
 10
-88.58098415798611
 20
-0.7406955295138889
 10
-88.751171875
 20
-0.8257893880208332
 10
-88.97441406249999
 20
-0.8681640624999998
 10
-89.25071072048609
 20
-0.8681640624999998
 10
-89.51942816840277
 20
-0.8681640624999998
 10
-89.73888075086804
 20
-0.83095703125
 10
-89.90975748697916
 20
-0.7572319878472222
 10
-90.08046196831596
 20
-0.6831624348958333
 10
-90.20224609374999
 20
-0.5760199652777778
 10
-90.27528211805554
 20
-0.4358045789930556
 10
-90.34831814236111
 20
-0.2955891927083333
 10
-90.38483615451388
 20
-0.1040418836805555
 10
-90.38483615451388
 20
0.1388373480902778
 10
-90.38483615451388
 20
0.1388373480902778
 10
-90.38483615451388
 20
1.463476562499999
 10
-90.38483615451388
 20
1.463476562499999
 10
-90.38483615451388
 20
1.463476562499999
 10
-90.00449761284722
 20
1.463476562499999
 10
-90.00449761284722
 20
1.463476562499999
 10
-90.00449761284722
 20
1.463476562499999
 10
-90.00449761284722
 20
0.1419379340277778
 10
-90.00449761284722
 20
0.1419379340277778
 10
-90.00449761284722
 20
-0.0571885850694445
 10
-89.98141547309026
 20
-0.2039496527777778
 10
-89.93525119357638
 20
-0.2980007595486111
 10
-89.88908691406249
 20
-0.3923963758680555
 10
-89.80950520833332
 20
-0.465087890625
 10
-89.6968505859375
 20
-0.5160753038194445
 10
-89.58436821831595
 20
-0.567062717013889
 10
-89.44673665364582
 20
-0.5925564236111111
 10
-89.28395589192708
 20
-0.5925564236111111
 10
-89.00541992187498
 20
-0.5925564236111111
 10
-88.80698242187499
 20
-0.5422580295138888
 10
-88.68847113715277
 20
-0.4409722222222223
 10
-88.56995985243054
 20
-0.3400309244791666
 10
-88.51070421006943
 20
-0.1457275390625
 10
-88.51070421006943
 20
0.1419379340277778
 10
-88.51070421006943
 20
0.1419379340277778
 10
-88.51070421006943
 20
1.463476562499999
 10
-88.51070421006943
 20
1.463476562499999
 97
        0
 75
     2
 76
     1
 98
        1
 10
0.0
 20
0.0
  0
HATCH
  5
80
330
4A
100
AcDbEntity
  8
LAYER_2
 62
     3
100
AcDbHatch
 10
0.0
 20
0.0
 30
0.0
210
0.0
220
0.0
230
1.0
  2
SOLID
 70
     1
 71
     0
 91
        1
 92
        1
 93
        1
 72
     4
 94
        3
 73
     0
 74
     0
 95
       50
 96
       46
 40
0.0
 40
0.0
 40
0.0
 40
0.0
 40
1.0
 40
1.0
 40
1.0
 40
2.0
 40
2.0
 40
2.0
 40
3.0
 40
3.0
 40
3.0
 40
4.0
 40
4.0
 40
4.0
 40
5.0
 40
5.0
 40
5.0
 40
6.0
 40
6.0
 40
6.0
 40
7.0
 40
7.0
 40
7.0
 40
8.0
 40
8.0
 40
8.0
 40
9.0
 40
9.0
 40
9.0
 40
10.0
 40
10.0
 40
10.0
 40
11.0
 40
11.0
 40
11.0
 40
12.0
 40
12.0
 40
12.0
 40
13.0
 40
13.0
 40
13.0
 40
14.0
 40
14.0
 40
14.0
 40
15.0
 40
15.0
 40
15.0
 40
15.0
 10
-86.40092773437499
 20
-0.8295789930555555
 10
-86.40092773437499
 20
-0.8295789930555555
 10
-86.40092773437499
 20
1.463476562499999
 10
-86.40092773437499
 20
1.463476562499999
 10
-86.40092773437499
 20
1.463476562499999
 10
-85.83300374348956
 20
1.463476562499999
 10
-85.83300374348956
 20
1.463476562499999
 10
-85.83300374348956
 20
1.463476562499999
 10
-85.15208062065971
 20
-0.1598524305555555
 10
-85.15208062065971
 20
-0.1598524305555555
 10
-85.08920762803818
 20
-0.3107476128472222
 10
-85.0433878580729
 20
-0.4240912543402777
 10
-85.01462131076388
 20
-0.4988498263888889
 10
-84.98172064887151
 20
-0.415478515625
 10
-84.93038872612848
 20
-0.2931776258680555
 10
-84.86062554253472
 20
-0.1316026475694444
 10
-84.86062554253472
 20
-0.1316026475694444
 10
-84.16730007595486
 20
1.463476562499999
 10
-84.16730007595486
 20
1.463476562499999
 10
-84.16730007595486
 20
1.463476562499999
 10
-83.66689995659722
 20
1.463476562499999
 10
-83.66689995659722
 20
1.463476562499999
 10
-83.66689995659722
 20
1.463476562499999
 10
-83.66689995659722
 20
-0.8295789930555555
 10
-83.66689995659722
 20
-0.8295789930555555
 10
-83.66689995659722
 20
-0.8295789930555555
 10
-84.03070203993054
 20
-0.8295789930555555
 10
-84.03070203993054
 20
-0.8295789930555555
 10
-84.03070203993054
 20
-0.8295789930555555
 10
-84.03070203993054
 20
1.08865017361111
 10
-84.03070203993054
 20
1.08865017361111
 10
-84.03070203993054
 20
1.08865017361111
 10
-84.87044406467012
 20
-0.8295789930555555
 10
-84.87044406467012
 20
-0.8295789930555555
 10
-84.87044406467012
 20
-0.8295789930555555
 10
-85.20582411024305
 20
-0.8295789930555555
 10
-85.20582411024305
 20
-0.8295789930555555
 10
-85.20582411024305
 20
-0.8295789930555555
 10
-86.03712565104165
 20
1.121723090277777
 10
-86.03712565104165
 20
1.121723090277777
 10
-86.03712565104165
 20
1.121723090277777
 10
-86.03712565104165
 20
-0.8295789930555555
 10
-86.03712565104165
 20
-0.8295789930555555
 10
-86.03712565104165
 20
-0.8295789930555555
 10
-86.40092773437499
 20
-0.8295789930555555
 10
-86.40092773437499
 20
-0.8295789930555555
 97
        0
 75
     2
 76
     1
 98
        1
 10
0.0
 20
0.0
  0
HATCH
  5
7F
330
4A
100
AcDbEntity
  8
LAYER_2
 62
     3
100
AcDbHatch
 10
0.0
 20
0.0
 30
0.0
210
0.0
220
0.0
230
1.0
  2
SOLID
 70
     1
 71
     0
 91
        3
 92
       16
 93
        1
 72
     4
 94
        3
 73
     0
 74
     0
 95
       32
 96
       28
 40
0.0
 40
0.0
 40
0.0
 40
0.0
 40
1.0
 40
1.0
 40
1.0
 40
2.0
 40
2.0
 40
2.0
 40
3.0
 40
3.0
 40
3.0
 40
4.0
 40
4.0
 40
4.0
 40
5.0
 40
5.0
 40
5.0
 40
6.0
 40
6.0
 40
6.0
 40
7.0
 40
7.0
 40
7.0
 40
8.0
 40
8.0
 40
8.0
 40
9.0
 40
9.0
 40
9.0
 40
9.0
 10
-79.96101074218749
 20
0.6318305121527778
 10
-79.8094265407986
 20
0.704177517361111
 10
-79.71141357421874
 20
0.7675672743055556
 10
-79.66679958767361
 20
0.821999782986111
 10
-79.62218560112846
 20
0.8767768012152776
 10
-79.59979248046874
 20
0.9370659722222221
 10
-79.59979248046874
 20
1.003211805555555
 10
-79.59979248046874
 20
1.081759982638888
 10
-79.63045383029514
 20
1.145838758680555
 10
-79.69177652994791
 20
1.195792643229166
 10
-79.75309922960069
 20
1.245746527777777
 10
-79.82940809461805
 20
1.270551215277777
 10
-79.9210476345486
 20
1.270551215277777
 10
-80.01544325086804
 20
1.270551215277777
 10
-80.09381917317709
 20
1.245746527777777
 10
-80.15634765625
 20
1.196481662326388
 10
-80.21904839409721
 20
1.147216796875
 10
-80.25022650824652
 20
1.086927625868055
 10
-80.25022650824652
 20
1.015614149305555
 10
-80.25022650824652
 20
0.980129665798611
 10
-80.23902994791667
 20
0.942578125
 10
-80.21646457248264
 20
0.9033040364583332
 10
-80.19389919704861
 20
0.8640299479166666
 10
-80.16013726128472
 20
0.821999782986111
 10
-80.11517876519096
 20
0.7782470703125
 10
-80.11517876519096
 20
0.7782470703125
 10
-79.96101074218749
 20
0.6318305121527778
 10
-79.96101074218749
 20
0.6318305121527778
 97
        0
 92
       16
 93
        1
 72
     4
 94
        3
 73
     0
 74
     0
 95
       26
 96
       22
 40
0.0
 40
0.0
 40
0.0
 40
0.0
 40
1.0
 40
1.0
 40
1.0
 40
2.0
 40
2.0
 40
2.0
 40
3.0
 40
3.0
 40
3.0
 40
4.0
 40
4.0
 40
4.0
 40
5.0
 40
5.0
 40
5.0
 40
6.0
 40
6.0
 40
6.0
 40
7.0
 40
7.0
 40
7.0
 40
7.0
 10
-79.46353895399305
 20
-0.3376193576388888
 10
-79.46353895399305
 20
-0.3376193576388888
 10
-80.10604926215277
 20
0.3042019314236111
 10
-80.10604926215277
 20
0.3042019314236111
 10
-80.29673529730903
 20
0.2125623914930555
 10
-80.42540961371527
 20
0.1278130425347222
 10
-80.49207221137152
 20
0.049609375
 10
-80.55873480902777
 20
-0.0285942925347222
 10
-80.59197998046874
 20
-0.1061089409722222
 10
-80.59197998046874
 20
-0.1829345703125
 10
-80.59197998046874
 20
-0.2762966579861111
 10
-80.54581570095484
 20
-0.3734483506944444
 10
-80.45331488715277
 20
-0.4743896484375
 10
-80.360986328125
 20
-0.5753309461805555
 10
-80.23007269965276
 20
-0.6256293402777777
 10
-80.06091851128472
 20
-0.6256293402777777
 10
-79.95549858940972
 20
-0.6256293402777777
 10
-79.8466335720486
 20
-0.5987575954861111
 10
-79.73397894965277
 20
-0.5453586154513889
 10
-79.62132432725694
 20
-0.4919596354166666
 10
-79.53106282552082
 20
-0.4227132161458333
 10
-79.46353895399305
 20
-0.3376193576388888
 97
        0
 92
        1
 93
        1
 72
     4
 94
        3
 73
     0
 74
     0
 95
       65
 96
       61
 40
0.0
 40
0.0
 40
0.0
 40
0.0
 40
1.0
 40
1.0
 40
1.0
 40
2.0
 40
2.0
 40
2.0
 40
3.0
 40
3.0
 40
3.0
 40
4.0
 40
4.0
 40
4.0
 40
5.0
 40
5.0
 40
5.0
 40
6.0
 40
6.0
 40
6.0
 40
7.0
 40
7.0
 40
7.0
 40
8.0
 40
8.0
 40
8.0
 40
9.0
 40
9.0
 40
9.0
 40
10.0
 40
10.0
 40
10.0
 40
11.0
 40
11.0
 40
11.0
 40
12.0
 40
12.0
 40
12.0
 40
13.0
 40
13.0
 40
13.0
 40
14.0
 40
14.0
 40
14.0
 40
15.0
 40
15.0
 40
15.0
 40
16.0
 40
16.0
 40
16.0
 40
17.0
 40
17.0
 40
17.0
 40
18.0
 40
18.0
 40
18.0
 40
19.0
 40
19.0
 40
19.0
 40
20.0
 40
20.0
 40
20.0
 40
20.0
 10
-79.24133029513888
 20
-0.5584499782986111
 10
-79.35743001302083
 20
-0.6614583333333333
 10
-79.48386501736109
 20
-0.7389729817708333
 10
-79.62080756293402
 20
-0.7906494140625
 10
-79.75775010850694
 20
-0.8423258463541666
 10
-79.90571695963541
 20
-0.8681640624999998
 10
-80.06470811631944
 20
-0.8681640624999998
 10
-80.35823025173611
 20
-0.8681640624999998
 10
-80.59094645182291
 20
-0.7889268663194445
 10
-80.76302897135416
 20
-0.6304524739583333
 10
-80.90255533854167
 20
-0.5012613932291666
 10
-80.97231852213541
 20
-0.3569118923611111
 10
-80.97231852213541
 20
-0.1977484809027778
 10
-80.97231852213541
 20
-0.055810546875
 10
-80.91530219184027
 20
0.0720024956597222
 10
-80.80109727647569
 20
0.18603515625
 10
-80.6868923611111
 20
0.3004123263888889
 10
-80.5163601345486
 20
0.4006646050347222
 10
-80.28932834201389
 20
0.4871365017361111
 10
-80.41920844184026
 20
0.6059922960069444
 10
-80.50585259331596
 20
0.7024549696180556
 10
-80.54908854166667
 20
0.7765245225694444
 10
-80.59249674479167
 20
0.8502495659722221
 10
-80.61402859157984
 20
0.9219075520833332
 10
-80.61402859157984
 20
0.9908094618055555
 10
-80.61402859157984
 20
1.128268771701388
 10
-80.54667697482638
 20
1.247813585069444
 10
-80.41162923177083
 20
1.349443901909722
 10
-80.27692599826387
 20
1.451074218749999
 10
-80.1070827907986
 20
1.502061631944444
 10
-79.90244411892359
 20
1.502061631944444
 10
-79.7071072048611
 20
1.502061631944444
 10
-79.54725477430554
 20
1.453830295138888
 10
-79.42271457248263
 20
1.357367621527777
 10
-79.2981743706597
 20
1.261249457465277
 10
-79.23599039713541
 20
1.145494249131944
 10
-79.23599039713541
 20
1.010446506076388
 10
-79.23599039713541
 20
0.7913384331597222
 10
-79.41737467447916
 20
0.6046142578125
 10
-79.78014322916665
 20
0.4495849609375
 10
-79.78014322916665
 20
0.4495849609375
 10
-79.26337890624999
 20
-0.0716579861111111
 10
-79.26337890624999
 20
-0.0716579861111111
 10
-79.20446777343748
 20
0.0203260633680556
 10
-79.15864800347221
 20
0.1267795138888889
 10
-79.12574734157985
 20
0.2473578559027778
 10
-79.12574734157985
 20
0.2473578559027778
 10
-78.76194525824653
 20
0.1850016276041666
 10
-78.76194525824653
 20
0.1850016276041666
 10
-78.82464599609374
 20
-0.0144694010416667
 10
-78.90956759982639
 20
-0.1767333984375
 10
-79.01653781467013
 20
-0.3021348741319444
 10
-78.88493516710069
 20
-0.4433837890625
 10
-78.73576253255207
 20
-0.5622395833333333
 10
-78.5690199110243
 20
-0.6583577473958333
 10
-78.5690199110243
 20
-0.6583577473958333
 10
-78.80604248046875
 20
-0.8847005208333332
 10
-78.80604248046875
 20
-0.8847005208333332
 10
-78.94660237630208
 20
-0.8109754774305555
 10
-79.09181315104166
 20
-0.7024549696180556
 10
-79.24133029513888
 20
-0.5584499782986111
 97
        0
 75
     2
 76
     1
 98
        1
 10
0.0
 20
0.0
  0
HATCH
  5
7E
330
4A
100
AcDbEntity
  8
LAYER_2
 62
     3
100
AcDbHatch
 10
0.0
 20
0.0
 30
0.0
210
0.0
220
0.0
230
1.0
  2
SOLID
 70
     1
 71
     0
 91
        1
 92
        1
 93
        1
 72
     4
 94
        3
 73
     0
 74
     0
 95
       71
 96
       67
 40
0.0
 40
0.0
 40
0.0
 40
0.0
 40
1.0
 40
1.0
 40
1.0
 40
2.0
 40
2.0
 40
2.0
 40
3.0
 40
3.0
 40
3.0
 40
4.0
 40
4.0
 40
4.0
 40
5.0
 40
5.0
 40
5.0
 40
6.0
 40
6.0
 40
6.0
 40
7.0
 40
7.0
 40
7.0
 40
8.0
 40
8.0
 40
8.0
 40
9.0
 40
9.0
 40
9.0
 40
10.0
 40
10.0
 40
10.0
 40
11.0
 40
11.0
 40
11.0
 40
12.0
 40
12.0
 40
12.0
 40
13.0
 40
13.0
 40
13.0
 40
14.0
 40
14.0
 40
14.0
 40
15.0
 40
15.0
 40
15.0
 40
16.0
 40
16.0
 40
16.0
 40
17.0
 40
17.0
 40
17.0
 40
18.0
 40
18.0
 40
18.0
 40
19.0
 40
19.0
 40
19.0
 40
20.0
 40
20.0
 40
20.0
 40
21.0
 40
21.0
 40
21.0
 40
22.0
 40
22.0
 40
22.0
 40
22.0
 10
-73.90384385850693
 20
-0.0254937065972222
 10
-73.90384385850693
 20
-0.0254937065972222
 10
-73.52350531684027
 20
-0.1023193359375
 10
-73.52350531684027
 20
-0.1023193359375
 10
-73.60291476779512
 20
-0.3513997395833333
 10
-73.74571397569444
 20
-0.5412245008680556
 10
-73.95207519531249
 20
-0.6721381293402777
 10
-74.15843641493054
 20
-0.8027072482638889
 10
-74.41061740451388
 20
-0.8681640624999998
 10
-74.7086181640625
 20
-0.8681640624999998
 10
-75.01695421006944
 20
-0.8681640624999998
 10
-75.26775716145832
 20
-0.8178656684027776
 10
-75.46102701822916
 20
-0.7172688802083333
 10
-75.654296875
 20
-0.6166720920138889
 10
-75.80140245225694
 20
-0.4709445529513889
 10
-75.90234375
 20
-0.2804307725694444
 10
-76.00328504774305
 20
-0.0895724826388889
 10
-76.05358344184027
 20
0.1150661892361111
 10
-76.05358344184027
 20
0.3341742621527777
 10
-76.05358344184027
 20
0.5729193793402777
 10
-75.99673936631943
 20
0.7810031467013889
 10
-75.88287896050346
 20
0.9587700737847221
 10
-75.76901855468749
 20
1.136537000868055
 10
-75.60709906684028
 20
1.271240234374999
 10
-75.39694824218749
 20
1.363568793402777
 10
-75.18679741753472
 20
1.455897352430555
 10
-74.95563151041666
 20
1.502061631944444
 10
-74.70310601128471
 20
1.502061631944444
 10
-74.41681857638887
 20
1.502061631944444
 10
-74.17617865668401
 20
1.443495008680555
 10
-73.98101399739582
 20
1.327050781249999
 10
-73.78584933810763
 20
1.210262044270833
 10
-73.64994032118055
 20
1.046275499131944
 10
-73.57311469184027
 20
0.8347466362847221
 10
-73.57311469184027
 20
0.8347466362847221
 10
-73.94794108072916
 20
0.7641221788194443
 10
-73.94794108072916
 20
0.7641221788194443
 10
-74.0142591688368
 20
0.9312093098958332
 10
-74.1103773328993
 20
1.052821180555555
 10
-74.23629557291666
 20
1.128613281249999
 10
-74.36221381293401
 20
1.205094401041666
 10
-74.52068820529513
 20
1.242990451388888
 10
-74.71154649522569
 20
1.242990451388888
 10
-74.93117133246527
 20
1.242990451388888
 10
-75.11445041232637
 20
1.200615776909722
 10
-75.26190049913194
 20
1.1162109375
 10
-75.40935058593749
 20
1.031806098090277
 10
-75.51287570529513
 20
0.9184624565972221
 10
-75.57264811197916
 20
0.7758355034722222
 10
-75.63242051866318
 20
0.6335530598958333
 10
-75.66222059461805
 20
0.4867919921875
 10
-75.66222059461805
 20
0.3355523003472221
 10
-75.66222059461805
 20
0.1405598958333333
 10
-75.6267361111111
 20
-0.0296278211805556
 10
-75.55611165364583
 20
-0.1750108506944444
 10
-75.48514268663193
 20
-0.3203938802083333
 10
-75.37507188585069
 20
-0.4292588975694444
 10
-75.22555474175347
 20
-0.5012613932291666
 10
-75.07620985243055
 20
-0.5732638888888888
 10
-74.91429036458332
 20
-0.6090928819444445
 10
-74.74014078776041
 20
-0.6090928819444445
 10
-74.52843967013888
 20
-0.6090928819444445
 10
-74.3489501953125
 20
-0.5601725260416666
 10
-74.20218912760415
 20
-0.4619873046875
 10
-74.05525580512152
 20
-0.3641465928819444
 10
-73.95586480034721
 20
-0.2184190538194444
 10
-73.90384385850693
 20
-0.0254937065972222
 97
        0
 75
     2
 76
     1
 98
        1
 10
0.0
 20
0.0
  0
HATCH
  5
7D
330
4A
100
AcDbEntity
  8
LAYER_2
 62
     3
100
AcDbHatch
 10
0.0
 20
0.0
 30
0.0
210
0.0
220
0.0
230
1.0
  2
SOLID
 70
     1
 71
     0
 91
        2
 92
       16
 93
        1
 72
     4
 94
        3
 73
     0
 74
     0
 95
       32
 96
       28
 40
0.0
 40
0.0
 40
0.0
 40
0.0
 40
1.0
 40
1.0
 40
1.0
 40
2.0
 40
2.0
 40
2.0
 40
3.0
 40
3.0
 40
3.0
 40
4.0
 40
4.0
 40
4.0
 40
5.0
 40
5.0
 40
5.0
 40
6.0
 40
6.0
 40
6.0
 40
7.0
 40
7.0
 40
7.0
 40
8.0
 40
8.0
 40
8.0
 40
9.0
 40
9.0
 40
9.0
 40
9.0
 10
-71.66711561414929
 20
0.2824978298611111
 10
-71.66711561414929
 20
0.006201171875
 10
-71.57427029079861
 20
-0.2115288628472222
 10
-71.38892415364583
 20
-0.3706922743055555
 10
-71.20323350694444
 20
-0.5295111762152778
 10
-70.97068956163194
 20
-0.6090928819444445
 10
-70.69060329861111
 20
-0.6090928819444445
 10
-70.40569390190971
 20
-0.6090928819444445
 10
-70.17091064453125
 20
-0.5288221571180555
 10
-69.98677029079861
 20
-0.3682807074652778
 10
-69.80245768229166
 20
-0.2077392578125
 10
-69.71030137803818
 20
0.0203260633680556
 10
-69.71030137803818
 20
0.3155707465277777
 10
-69.71030137803818
 20
0.5019504123263889
 10
-69.74974772135415
 20
0.6649034288194445
 10
-69.8284681532118
 20
0.8040852864583332
 10
-69.90718858506943
 20
0.9432671440972221
 10
-70.02259928385416
 20
1.051443142361111
 10
-70.17418348524305
 20
1.127924262152777
 10
-70.32576768663194
 20
1.204749891493055
 10
-70.49595540364582
 20
1.242990451388888
 10
-70.68474663628471
 20
1.242990451388888
 10
-70.95311957465277
 20
1.242990451388888
 10
-71.18394097222221
 20
1.16926540798611
 10
-71.37721082899304
 20
1.021815321180555
 10
-71.57048068576388
 20
0.8740207248263887
 10
-71.66711561414929
 20
0.6276963975694444
 10
-71.66711561414929
 20
0.2824978298611111
 97
        0
 92
        1
 93
        1
 72
     4
 94
        3
 73
     0
 74
     0
 95
       38
 96
       34
 40
0.0
 40
0.0
 40
0.0
 40
0.0
 40
1.0
 40
1.0
 40
1.0
 40
2.0
 40
2.0
 40
2.0
 40
3.0
 40
3.0
 40
3.0
 40
4.0
 40
4.0
 40
4.0
 40
5.0
 40
5.0
 40
5.0
 40
6.0
 40
6.0
 40
6.0
 40
7.0
 40
7.0
 40
7.0
 40
8.0
 40
8.0
 40
8.0
 40
9.0
 40
9.0
 40
9.0
 40
10.0
 40
10.0
 40
10.0
 40
11.0
 40
11.0
 40
11.0
 40
11.0
 10
-72.05847846137152
 20
0.2866319444444444
 10
-72.05847846137152
 20
0.6666259765625
 10
-71.93083767361111
 20
0.9642822265625
 10
-71.67555609809027
 20
1.179600694444444
 10
-71.42027452256944
 20
1.394574652777777
 10
-71.0905788845486
 20
1.502061631944444
 10
-70.68681369357638
 20
1.502061631944444
 10
-70.42223036024305
 20
1.502061631944444
 10
-70.18400200737847
 20
1.451418728298611
 10
-69.97161187065971
 20
1.350477430555555
 10
-69.75939398871528
 20
1.249536132812499
 10
-69.59747450086805
 20
1.108631727430555
 10
-69.48602566189236
 20
0.9277642144097221
 10
-69.37457682291666
 20
0.7472412109375
 10
-69.31893853081597
 20
0.5422580295138888
 10
-69.31893853081597
 20
0.3131591796875
 10
-69.31893853081597
 20
0.080615234375
 10
-69.37767740885416
 20
-0.1271240234375
 10
-69.49481065538194
 20
-0.3104031032986111
 10
-69.61211615668402
 20
-0.4936821831597222
 10
-69.77816975911458
 20
-0.63251953125
 10
-69.99314371744791
 20
-0.7269151475694445
 10
-70.20811767578123
 20
-0.8209662543402776
 10
-70.43997260199652
 20
-0.8681640624999998
 10
-70.68870849609374
 20
-0.8681640624999998
 10
-70.95828721788193
 20
-0.8681640624999998
 10
-71.19944390190972
 20
-0.8161431206597221
 10
-71.41166178385415
 20
-0.7117567274305556
 10
-71.62405192057291
 20
-0.60771484375
 10
-71.7849378797743
 20
-0.4657769097222222
 10
-71.89431966145832
 20
-0.28525390625
 10
-72.00387369791666
 20
-0.105419921875
 10
-72.05847846137152
 20
0.0854383680555556
 10
-72.05847846137152
 20
0.2866319444444444
 97
        0
 75
     2
 76
     1
 98
        1
 10
0.0
 20
0.0
  0
HATCH
  5
7C
330
4A
100
AcDbEntity
  8
LAYER_2
 62
     3
100
AcDbHatch
 10
0.0
 20
0.0
 30
0.0
210
0.0
220
0.0
230
1.0
  2
SOLID
 70
     1
 71
     0
 91
        1
 92
        1
 93
        1
 72
     4
 94
        3
 73
     0
 74
     0
 95
       17
 96
       13
 40
0.0
 40
0.0
 40
0.0
 40
0.0
 40
1.0
 40
1.0
 40
1.0
 40
2.0
 40
2.0
 40
2.0
 40
3.0
 40
3.0
 40
3.0
 40
4.0
 40
4.0
 40
4.0
 40
4.0
 10
-67.66443142361111
 20
-0.8295789930555555
 10
-67.66443142361111
 20
-0.8295789930555555
 10
-67.66443142361111
 20
-0.5098741319444445
 10
-67.66443142361111
 20
-0.5098741319444445
 10
-67.66443142361111
 20
-0.5098741319444445
 10
-67.26204427083333
 20
-0.5098741319444445
 10
-67.26204427083333
 20
-0.5098741319444445
 10
-67.26204427083333
 20
-0.5098741319444445
 10
-67.26204427083333
 20
-0.8295789930555555
 10
-67.26204427083333
 20
-0.8295789930555555
 10
-67.26204427083333
 20
-0.8295789930555555
 10
-67.66443142361111
 20
-0.8295789930555555
 10
-67.66443142361111
 20
-0.8295789930555555
 97
        0
 75
     2
 76
     1
 98
        1
 10
0.0
 20
0.0
  0
HATCH
  5
7B
330
4A
100
AcDbEntity
  8
LAYER_2
 62
     3
100
AcDbHatch
 10
0.0
 20
0.0
 30
0.0
210
0.0
220
0.0
230
1.0
  2
SOLID
 70
     1
 71
     0
 91
        1
 92
        1
 93
        1
 72
     4
 94
        3
 73
     0
 74
     0
 95
       32
 96
       28
 40
0.0
 40
0.0
 40
0.0
 40
0.0
 40
1.0
 40
1.0
 40
1.0
 40
2.0
 40
2.0
 40
2.0
 40
3.0
 40
3.0
 40
3.0
 40
4.0
 40
4.0
 40
4.0
 40
5.0
 40
5.0
 40
5.0
 40
6.0
 40
6.0
 40
6.0
 40
7.0
 40
7.0
 40
7.0
 40
8.0
 40
8.0
 40
8.0
 40
9.0
 40
9.0
 40
9.0
 40
9.0
 10
-65.44716796874999
 20
-0.8295789930555555
 10
-65.44716796874999
 20
-0.8295789930555555
 10
-65.44716796874999
 20
-0.5098741319444445
 10
-65.44716796874999
 20
-0.5098741319444445
 10
-65.44716796874999
 20
-0.5098741319444445
 10
-65.04478081597222
 20
-0.5098741319444445
 10
-65.04478081597222
 20
-0.5098741319444445
 10
-65.04478081597222
 20
-0.5098741319444445
 10
-65.04478081597222
 20
-0.8295789930555555
 10
-65.04478081597222
 20
-0.8295789930555555
 10
-65.04478081597222
 20
-0.9470567491319442
 10
-65.07130805121526
 20
-1.041796874999999
 10
-65.12401801215277
 20
-1.114143880208333
 10
-65.17690022786458
 20
-1.186146375868055
 10
-65.26078830295138
 20
-1.241956922743055
 10
-65.37550998263888
 20
-1.281575520833333
 10
-65.37550998263888
 20
-1.281575520833333
 10
-65.46921657986111
 20
-1.165820312499999
 10
-65.46921657986111
 20
-1.165820312499999
 10
-65.39514702690971
 20
-1.139637586805555
 10
-65.34054226345485
 20
-1.1007080078125
 10
-65.30540228949653
 20
-1.049720594618055
 10
-65.27043457031249
 20
-0.998733181423611
 10
-65.25079752604167
 20
-0.9253526475694442
 10
-65.24700792100694
 20
-0.8295789930555555
 10
-65.24700792100694
 20
-0.8295789930555555
 10
-65.44716796874999
 20
-0.8295789930555555
 10
-65.44716796874999
 20
-0.8295789930555555
 97
        0
 75
     2
 76
     1
 98
        1
 10
0.0
 20
0.0
  0
HATCH
  5
7A
330
4A
100
AcDbEntity
  8
LAYER_2
 62
     3
100
AcDbHatch
 10
0.0
 20
0.0
 30
0.0
210
0.0
220
0.0
230
1.0
  2
SOLID
 70
     1
 71
     0
 91
        1
 92
        1
 93
        1
 72
     4
 94
        3
 73
     0
 74
     0
 95
       17
 96
       13
 40
0.0
 40
0.0
 40
0.0
 40
0.0
 40
1.0
 40
1.0
 40
1.0
 40
2.0
 40
2.0
 40
2.0
 40
3.0
 40
3.0
 40
3.0
 40
4.0
 40
4.0
 40
4.0
 40
4.0
 10
-62.09612358940971
 20
-0.8295789930555555
 10
-62.09612358940971
 20
-0.8295789930555555
 10
-62.09612358940971
 20
1.463476562499999
 10
-62.09612358940971
 20
1.463476562499999
 10
-62.09612358940971
 20
1.463476562499999
 10
-61.71578504774305
 20
1.463476562499999
 10
-61.71578504774305
 20
1.463476562499999
 10
-61.71578504774305
 20
1.463476562499999
 10
-61.71578504774305
 20
-0.8295789930555555
 10
-61.71578504774305
 20
-0.8295789930555555
 10
-61.71578504774305
 20
-0.8295789930555555
 10
-62.09612358940971
 20
-0.8295789930555555
 10
-62.09612358940971
 20
-0.8295789930555555
 97
        0
 75
     2
 76
     1
 98
        1
 10
0.0
 20
0.0
  0
HATCH
  5
79
330
4A
100
AcDbEntity
  8
LAYER_2
 62
     3
100
AcDbHatch
 10
0.0
 20
0.0
 30
0.0
210
0.0
220
0.0
230
1.0
  2
SOLID
 70
     1
 71
     0
 91
        1
 92
        1
 93
        1
 72
     4
 94
        3
 73
     0
 74
     0
 95
       35
 96
       31
 40
0.0
 40
0.0
 40
0.0
 40
0.0
 40
1.0
 40
1.0
 40
1.0
 40
2.0
 40
2.0
 40
2.0
 40
3.0
 40
3.0
 40
3.0
 40
4.0
 40
4.0
 40
4.0
 40
5.0
 40
5.0
 40
5.0
 40
6.0
 40
6.0
 40
6.0
 40
7.0
 40
7.0
 40
7.0
 40
8.0
 40
8.0
 40
8.0
 40
9.0
 40
9.0
 40
9.0
 40
10.0
 40
10.0
 40
10.0
 40
10.0
 10
-59.94483371310764
 20
-0.8295789930555555
 10
-59.94483371310764
 20
-0.8295789930555555
 10
-59.94483371310764
 20
1.463476562499999
 10
-59.94483371310764
 20
1.463476562499999
 10
-59.94483371310764
 20
1.463476562499999
 10
-59.55553792317708
 20
1.463476562499999
 10
-59.55553792317708
 20
1.463476562499999
 10
-59.55553792317708
 20
1.463476562499999
 10
-58.0431410047743
 20
-0.3386528862847222
 10
-58.0431410047743
 20
-0.3386528862847222
 10
-58.0431410047743
 20
-0.3386528862847222
 10
-58.0431410047743
 20
1.463476562499999
 10
-58.0431410047743
 20
1.463476562499999
 10
-58.0431410047743
 20
1.463476562499999
 10
-57.67933892144096
 20
1.463476562499999
 10
-57.67933892144096
 20
1.463476562499999
 10
-57.67933892144096
 20
1.463476562499999
 10
-57.67933892144096
 20
-0.8295789930555555
 10
-57.67933892144096
 20
-0.8295789930555555
 10
-57.67933892144096
 20
-0.8295789930555555
 10
-58.06863471137152
 20
-0.8295789930555555
 10
-58.06863471137152
 20
-0.8295789930555555
 10
-58.06863471137152
 20
-0.8295789930555555
 10
-59.5810316297743
 20
0.9725504557291666
 10
-59.5810316297743
 20
0.9725504557291666
 10
-59.5810316297743
 20
0.9725504557291666
 10
-59.5810316297743
 20
-0.8295789930555555
 10
-59.5810316297743
 20
-0.8295789930555555
 10
-59.5810316297743
 20
-0.8295789930555555
 10
-59.94483371310764
 20
-0.8295789930555555
 10
-59.94483371310764
 20
-0.8295789930555555
 97
        0
 75
     2
 76
     1
 98
        1
 10
0.0
 20
0.0
  0
HATCH
  5
78
330
4A
100
AcDbEntity
  8
LAYER_2
 62
     3
100
AcDbHatch
 10
0.0
 20
0.0
 30
0.0
210
0.0
220
0.0
230
1.0
  2
SOLID
 70
     1
 71
     0
 91
        1
 92
        1
 93
        1
 72
     4
 94
        3
 73
     0
 74
     0
 95
       71
 96
       67
 40
0.0
 40
0.0
 40
0.0
 40
0.0
 40
1.0
 40
1.0
 40
1.0
 40
2.0
 40
2.0
 40
2.0
 40
3.0
 40
3.0
 40
3.0
 40
4.0
 40
4.0
 40
4.0
 40
5.0
 40
5.0
 40
5.0
 40
6.0
 40
6.0
 40
6.0
 40
7.0
 40
7.0
 40
7.0
 40
8.0
 40
8.0
 40
8.0
 40
9.0
 40
9.0
 40
9.0
 40
10.0
 40
10.0
 40
10.0
 40
11.0
 40
11.0
 40
11.0
 40
12.0
 40
12.0
 40
12.0
 40
13.0
 40
13.0
 40
13.0
 40
14.0
 40
14.0
 40
14.0
 40
15.0
 40
15.0
 40
15.0
 40
16.0
 40
16.0
 40
16.0
 40
17.0
 40
17.0
 40
17.0
 40
18.0
 40
18.0
 40
18.0
 40
19.0
 40
19.0
 40
19.0
 40
20.0
 40
20.0
 40
20.0
 40
21.0
 40
21.0
 40
21.0
 40
22.0
 40
22.0
 40
22.0
 40
22.0
 10
-53.89938015407985
 20
-0.0254937065972222
 10
-53.89938015407985
 20
-0.0254937065972222
 10
-53.51904161241319
 20
-0.1023193359375
 10
-53.51904161241319
 20
-0.1023193359375
 10
-53.59845106336805
 20
-0.3513997395833333
 10
-53.74142252604166
 20
-0.5412245008680556
 10
-53.94761149088541
 20
-0.6721381293402777
 10
-54.15380045572916
 20
-0.8027072482638889
 10
-54.4059814453125
 20
-0.8681640624999998
 10
-54.7039822048611
 20
-0.8681640624999998
 10
-55.01266276041666
 20
-0.8681640624999998
 10
-55.26346571180555
 20
-0.8178656684027776
 10
-55.45673556857638
 20
-0.7172688802083333
 10
-55.65000542534722
 20
-0.6166720920138889
 10
-55.79711100260416
 20
-0.4709445529513889
 10
-55.89788004557291
 20
-0.2804307725694444
 10
-55.99864908854166
 20
-0.0895724826388889
 10
-56.04911973741319
 20
0.1150661892361111
 10
-56.04911973741319
 20
0.3341742621527777
 10
-56.04911973741319
 20
0.5729193793402777
 10
-55.99227566189235
 20
0.7810031467013889
 10
-55.87841525607639
 20
0.9587700737847221
 10
-55.76455485026041
 20
1.136537000868055
 10
-55.60263536241318
 20
1.271240234374999
 10
-55.39248453776041
 20
1.363568793402777
 10
-55.18233371310763
 20
1.455897352430555
 10
-54.95099555121527
 20
1.502061631944444
 10
-54.69864230685764
 20
1.502061631944444
 10
-54.41252712673611
 20
1.502061631944444
 10
-54.17171495225694
 20
1.443495008680555
 10
-53.97655029296874
 20
1.327050781249999
 10
-53.78138563368055
 20
1.210262044270833
 10
-53.64547661675347
 20
1.046275499131944
 10
-53.56865098741319
 20
0.8347466362847221
 10
-53.56865098741319
 20
0.8347466362847221
 10
-53.94347737630208
 20
0.7641221788194443
 10
-53.94347737630208
 20
0.7641221788194443
 10
-54.00979546440972
 20
0.9312093098958332
 10
-54.10591362847221
 20
1.052821180555555
 10
-54.23183186848958
 20
1.128613281249999
 10
-54.35775010850694
 20
1.205094401041666
 10
-54.51622450086805
 20
1.242990451388888
 10
-54.70708279079861
 20
1.242990451388888
 10
-54.92653537326388
 20
1.242990451388888
 10
-55.11015896267361
 20
1.200615776909722
 10
-55.25743679470486
 20
1.1162109375
 10
-55.40488688151041
 20
1.031806098090277
 10
-55.50841200086805
 20
0.9184624565972221
 10
-55.56818440755208
 20
0.7758355034722222
 10
-55.62795681423611
 20
0.6335530598958333
 10
-55.65775689019097
 20
0.4867919921875
 10
-55.65775689019097
 20
0.3355523003472221
 10
-55.65775689019097
 20
0.1405598958333333
 10
-55.62244466145833
 20
-0.0296278211805556
 10
-55.55147569444444
 20
-0.1750108506944444
 10
-55.48085123697916
 20
-0.3203938802083333
 10
-55.37060818142361
 20
-0.4292588975694444
 10
-55.22109103732638
 20
-0.5012613932291666
 10
-55.07157389322916
 20
-0.5732638888888888
 10
-54.90982666015624
 20
-0.6090928819444445
 10
-54.73567708333333
 20
-0.6090928819444445
 10
-54.52380371093749
 20
-0.6090928819444445
 10
-54.34465874565971
 20
-0.5601725260416666
 10
-54.19755316840277
 20
-0.4619873046875
 10
-54.05079210069444
 20
-0.3641465928819444
 10
-53.95140109592013
 20
-0.2184190538194444
 10
-53.89938015407985
 20
-0.0254937065972222
 97
        0
 75
     2
 76
     1
 98
        1
 10
0.0
 20
0.0
  0
HATCH
  5
77
330
4A
100
AcDbEntity
  8
LAYER_2
 62
     3
100
AcDbHatch
 10
0.0
 20
0.0
 30
0.0
210
0.0
220
0.0
230
1.0
  2
SOLID
 70
     1
 71
     0
 91
        1
 92
        1
 93
        1
 72
     4
 94
        3
 73
     0
 74
     0
 95
       17
 96
       13
 40
0.0
 40
0.0
 40
0.0
 40
0.0
 40
1.0
 40
1.0
 40
1.0
 40
2.0
 40
2.0
 40
2.0
 40
3.0
 40
3.0
 40
3.0
 40
4.0
 40
4.0
 40
4.0
 40
4.0
 10
-51.88331027560764
 20
-0.8295789930555555
 10
-51.88331027560764
 20
-0.8295789930555555
 10
-51.88331027560764
 20
-0.5098741319444445
 10
-51.88331027560764
 20
-0.5098741319444445
 10
-51.88331027560764
 20
-0.5098741319444445
 10
-51.48092312282986
 20
-0.5098741319444445
 10
-51.48092312282986
 20
-0.5098741319444445
 10
-51.48092312282986
 20
-0.5098741319444445
 10
-51.48092312282986
 20
-0.8295789930555555
 10
-51.48092312282986
 20
-0.8295789930555555
 10
-51.48092312282986
 20
-0.8295789930555555
 10
-51.88331027560764
 20
-0.8295789930555555
 10
-51.88331027560764
 20
-0.8295789930555555
 97
        0
 75
     2
 76
     1
 98
        1
 10
0.0
 20
0.0
  0
HATCH
  5
76
330
4A
100
AcDbEntity
  8
LAYER_2
 62
     3
100
AcDbHatch
 10
0.0
 20
0.0
 30
0.0
210
0.0
220
0.0
230
1.0
  2
SOLID
 70
     1
 71
     0
 91
        1
 92
        1
 93
        1
 72
     4
 94
        3
 73
     0
 74
     0
 95
       35
 96
       31
 40
0.0
 40
0.0
 40
0.0
 40
0.0
 40
1.0
 40
1.0
 40
1.0
 40
2.0
 40
2.0
 40
2.0
 40
3.0
 40
3.0
 40
3.0
 40
4.0
 40
4.0
 40
4.0
 40
5.0
 40
5.0
 40
5.0
 40
6.0
 40
6.0
 40
6.0
 40
7.0
 40
7.0
 40
7.0
 40
8.0
 40
8.0
 40
8.0
 40
9.0
 40
9.0
 40
9.0
 40
10.0
 40
10.0
 40
10.0
 40
10.0
 10
-43.52430284288193
 20
-1.502061631944444
 10
-43.7186062282986
 20
-1.306035698784722
 10
-43.8829372829861
 20
-1.076936848958333
 10
-44.01729600694443
 20
-0.8144205729166666
 10
-44.15165473090278
 20
-0.551904296875
 10
-44.21883409288194
 20
-0.2797417534722222
 10
-44.21883409288194
 20
0.0013780381944444
 10
-44.21883409288194
 20
0.2494249131944444
 10
-44.16853569878472
 20
0.4871365017361111
 10
-44.06828342013888
 20
0.7145128038194444
 10
-43.95080566406249
 20
0.9777180989583332
 10
-43.76959364149305
 20
1.24057888454861
 10
-43.52430284288193
 20
1.502061631944444
 10
-43.52430284288193
 20
1.502061631944444
 10
-43.27074381510416
 20
1.502061631944444
 10
-43.27074381510416
 20
1.502061631944444
 10
-43.42835693359375
 20
1.285365125868055
 10
-43.5325710720486
 20
1.130680338541666
 10
-43.58338623046875
 20
1.037662760416666
 10
-43.66279568142361
 20
0.8940022786458332
 10
-43.72549641927083
 20
0.744140625
 10
-43.7709716796875
 20
0.5877332899305556
 10
-43.8271267361111
 20
0.3927408854166666
 10
-43.8550320095486
 20
0.1970594618055555
 10
-43.8550320095486
 20
0.0
 10
-43.8550320095486
 20
-0.5012613932291666
 10
-43.66038411458332
 20
-1.001833767361111
 10
-43.27074381510416
 20
-1.502061631944444
 10
-43.27074381510416
 20
-1.502061631944444
 10
-43.52430284288193
 20
-1.502061631944444
 10
-43.52430284288193
 20
-1.502061631944444
 97
        0
 75
     2
 76
     1
 98
        1
 10
0.0
 20
0.0
  0
HATCH
  5
75
330
4A
100
AcDbEntity
  8
LAYER_2
 62
     3
100
AcDbHatch
 10
0.0
 20
0.0
 30
0.0
210
0.0
220
0.0
230
1.0
  2
SOLID
 70
     1
 71
     0
 91
        3
 92
       16
 93
        1
 72
     4
 94
        3
 73
     0
 74
     0
 95
       29
 96
       25
 40
0.0
 40
0.0
 40
0.0
 40
0.0
 40
1.0
 40
1.0
 40
1.0
 40
2.0
 40
2.0
 40
2.0
 40
3.0
 40
3.0
 40
3.0
 40
4.0
 40
4.0
 40
4.0
 40
5.0
 40
5.0
 40
5.0
 40
6.0
 40
6.0
 40
6.0
 40
7.0
 40
7.0
 40
7.0
 40
8.0
 40
8.0
 40
8.0
 40
8.0
 10
-41.3836927625868
 20
0.8940022786458332
 10
-41.3836927625868
 20
0.7861707899305555
 10
-41.34062906901041
 20
0.6976318359375
 10
-41.25450168185763
 20
0.629074435763889
 10
-41.16837429470485
 20
0.5605170355902778
 10
-41.05485839843749
 20
0.5264105902777777
 10
-40.91395399305555
 20
0.5264105902777777
 10
-40.77718370225694
 20
0.5264105902777777
 10
-40.66590711805555
 20
0.5601725260416666
 10
-40.58046874999999
 20
0.6283854166666666
 10
-40.49503038194443
 20
0.6965983072916666
 10
-40.45213894314236
 20
0.7799696180555556
 10
-40.45213894314236
 20
0.8784993489583332
 10
-40.45213894314236
 20
0.9811631944444442
 10
-40.49623616536457
 20
1.067635091145833
 10
-40.58425835503472
 20
1.137915039062499
 10
-40.67245279947916
 20
1.207850477430555
 10
-40.78355712890624
 20
1.242990451388888
 10
-40.91791585286458
 20
1.242990451388888
 10
-41.05365261501735
 20
1.242990451388888
 10
-41.16510145399305
 20
1.208539496527777
 10
-41.25260687934027
 20
1.140326605902777
 10
-41.34011230468749
 20
1.071424696180555
 10
-41.3836927625868
 20
0.989431423611111
 10
-41.3836927625868
 20
0.8940022786458332
 97
        0
 92
       16
 93
        1
 72
     4
 94
        3
 73
     0
 74
     0
 95
       32
 96
       28
 40
0.0
 40
0.0
 40
0.0
 40
0.0
 40
1.0
 40
1.0
 40
1.0
 40
2.0
 40
2.0
 40
2.0
 40
3.0
 40
3.0
 40
3.0
 40
4.0
 40
4.0
 40
4.0
 40
5.0
 40
5.0
 40
5.0
 40
6.0
 40
6.0
 40
6.0
 40
7.0
 40
7.0
 40
7.0
 40
8.0
 40
8.0
 40
8.0
 40
9.0
 40
9.0
 40
9.0
 40
9.0
 10
-41.49944797092014
 20
-0.1660536024305555
 10
-41.49944797092014
 20
-0.2466688368055555
 10
-41.47619357638888
 20
-0.3245279947916666
 10
-41.42968478732639
 20
-0.3999755859375
 10
-41.38317599826389
 20
-0.4750786675347222
 10
-41.31289605034722
 20
-0.53330078125
 10
-41.21850043402777
 20
-0.5746419270833333
 10
-41.12410481770832
 20
-0.6159830729166666
 10
-41.02281901041666
 20
-0.6366536458333333
 10
-40.91498752170138
 20
-0.6366536458333333
 10
-40.74566107855902
 20
-0.6366536458333333
 10
-40.60682373046875
 20
-0.5932454427083333
 10
-40.49864773220486
 20
-0.5064290364583333
 10
-40.39047173394097
 20
-0.4196126302083333
 10
-40.33638373480902
 20
-0.3093695746527778
 10
-40.33638373480902
 20
-0.1756998697916666
 10
-40.33638373480902
 20
-0.0396185980902778
 10
-40.39202202690971
 20
0.0726915147569445
 10
-40.50364312065972
 20
0.1615749782986111
 10
-40.61491970486111
 20
0.2504584418402778
 10
-40.75599636501736
 20
0.2949001736111111
 10
-40.92670084635416
 20
0.2949001736111111
 10
-41.09344346788193
 20
0.2949001736111111
 10
-41.23055826822915
 20
0.2508029513888888
 10
-41.33804524739583
 20
0.1632975260416666
 10
-41.4457044813368
 20
0.0751030815972222
 10
-41.49944797092014
 20
-0.0344509548611111
 10
-41.49944797092014
 20
-0.1660536024305555
 97
        0
 92
        1
 93
        1
 72
     4
 94
        3
 73
     0
 74
     0
 95
       53
 96
       49
 40
0.0
 40
0.0
 40
0.0
 40
0.0
 40
1.0
 40
1.0
 40
1.0
 40
2.0
 40
2.0
 40
2.0
 40
3.0
 40
3.0
 40
3.0
 40
4.0
 40
4.0
 40
4.0
 40
5.0
 40
5.0
 40
5.0
 40
6.0
 40
6.0
 40
6.0
 40
7.0
 40
7.0
 40
7.0
 40
8.0
 40
8.0
 40
8.0
 40
9.0
 40
9.0
 40
9.0
 40
10.0
 40
10.0
 40
10.0
 40
11.0
 40
11.0
 40
11.0
 40
12.0
 40
12.0
 40
12.0
 40
13.0
 40
13.0
 40
13.0
 40
14.0
 40
14.0
 40
14.0
 40
15.0
 40
15.0
 40
15.0
 40
16.0
 40
16.0
 40
16.0
 40
16.0
 10
-41.31358506944444
 20
0.4175455729166666
 10
-41.46069064670139
 20
0.4602647569444444
 10
-41.56990017361111
 20
0.5212429470486111
 10
-41.64086914062499
 20
0.6001356336805555
 10
-41.71201036241319
 20
0.6793728298611111
 10
-41.74749484592013
 20
0.7741129557291666
 10
-41.74749484592013
 20
0.8843560112847221
 10
-41.74749484592013
 20
1.050754123263888
 10
-41.67256401909721
 20
1.190969509548611
 10
-41.52235785590277
 20
1.304313151041666
 10
-41.37215169270833
 20
1.417656792534722
 10
-41.17233615451389
 20
1.474500868055555
 10
-40.92291124131944
 20
1.474500868055555
 10
-40.67210828993054
 20
1.474500868055555
 10
-40.47022569444444
 20
1.416623263888888
 10
-40.31760796440972
 20
1.300523546006944
 10
-40.16464572482639
 20
1.184423828124999
 10
-40.08833685980902
 20
1.043174913194444
 10
-40.08833685980902
 20
0.8764322916666666
 10
-40.08833685980902
 20
0.7703233506944444
 10
-40.12330457899305
 20
0.6779947916666666
 10
-40.19341227213541
 20
0.5994466145833333
 10
-40.26351996527777
 20
0.5208984375
 10
-40.3699734157986
 20
0.4602647569444444
 10
-40.51260036892361
 20
0.4175455729166666
 10
-40.33655598958333
 20
0.3717258029513888
 10
-40.20254177517361
 20
0.29765625
 10
-40.11055772569444
 20
0.1949924045138889
 10
-40.01857367621528
 20
0.0923285590277778
 10
-39.97258165147569
 20
-0.0296278211805556
 10
-39.97258165147569
 20
-0.1719102647569444
 10
-39.97258165147569
 20
-0.3686252170138888
 10
-40.05939805772569
 20
-0.5336452907986111
 10
-40.23285861545138
 20
-0.6676595052083333
 10
-40.40649142795138
 20
-0.8013292100694442
 10
-40.63490125868055
 20
-0.8681640624999998
 10
-40.91791585286458
 20
-0.8681640624999998
 10
-41.20110270182291
 20
-0.8681640624999998
 10
-41.42934027777777
 20
-0.8009847005208332
 10
-41.60297309027777
 20
-0.6666259765625
 10
-41.77660590277777
 20
-0.5322672526041666
 10
-41.86325005425347
 20
-0.3648356119791666
 10
-41.86325005425347
 20
-0.1639865451388889
 10
-41.86325005425347
 20
-0.0144694010416667
 10
-41.81570773654513
 20
0.1105875651041666
 10
-41.72045084635416
 20
0.2115288628472222
 10
-41.62519395616318
 20
0.3124701605902778
 10
-41.48962944878472
 20
0.3810275607638888
 10
-41.31358506944444
 20
0.4175455729166666
 97
        0
 75
     2
 76
     1
 98
        1
 10
0.0
 20
0.0
  0
HATCH
  5
74
330
4A
100
AcDbEntity
  8
LAYER_2
 62
     3
100
AcDbHatch
 10
0.0
 20
0.0
 30
0.0
210
0.0
220
0.0
230
1.0
  2
SOLID
 70
     1
 71
     0
 91
        2
 92
       16
 93
        1
 72
     4
 94
        3
 73
     0
 74
     0
 95
       29
 96
       25
 40
0.0
 40
0.0
 40
0.0
 40
0.0
 40
1.0
 40
1.0
 40
1.0
 40
2.0
 40
2.0
 40
2.0
 40
3.0
 40
3.0
 40
3.0
 40
4.0
 40
4.0
 40
4.0
 40
5.0
 40
5.0
 40
5.0
 40
6.0
 40
6.0
 40
6.0
 40
7.0
 40
7.0
 40
7.0
 40
8.0
 40
8.0
 40
8.0
 40
8.0
 10
-38.15770534939236
 20
0.3031684027777777
 10
-38.15770534939236
 20
-0.0751030815972222
 10
-38.10292833116319
 20
-0.3265950520833333
 10
-37.99320203993055
 20
-0.4506184895833333
 10
-37.88347574869791
 20
-0.5746419270833333
 10
-37.74825575086806
 20
-0.6366536458333333
 10
-37.58719753689236
 20
-0.6366536458333333
 10
-37.42631157769097
 20
-0.6366536458333333
 10
-37.29109157986111
 20
-0.5742974175347222
 10
-37.18119303385416
 20
-0.4499294704861111
 10
-37.07163899739583
 20
-0.3252170138888888
 10
-37.01668972439236
 20
-0.0744140625
 10
-37.01668972439236
 20
0.3031684027777777
 10
-37.01668972439236
 20
0.6810953776041666
 10
-37.07129448784722
 20
0.9322428385416666
 10
-37.18050401475694
 20
1.056610785590277
 10
-37.28971354166667
 20
1.180978732638888
 10
-37.42665608723958
 20
1.242990451388888
 10
-37.59115939670139
 20
1.242990451388888
 10
-37.75204535590277
 20
1.242990451388888
 10
-37.88106418185764
 20
1.188213433159722
 10
-37.97804361979166
 20
1.078314887152777
 10
-38.09793294270833
 20
0.9384440104166666
 10
-38.15770534939236
 20
0.6800618489583333
 10
-38.15770534939236
 20
0.3031684027777777
 97
        0
 92
        1
 93
        1
 72
     4
 94
        3
 73
     0
 74
     0
 95
       41
 96
       37
 40
0.0
 40
0.0
 40
0.0
 40
0.0
 40
1.0
 40
1.0
 40
1.0
 40
2.0
 40
2.0
 40
2.0
 40
3.0
 40
3.0
 40
3.0
 40
4.0
 40
4.0
 40
4.0
 40
5.0
 40
5.0
 40
5.0
 40
6.0
 40
6.0
 40
6.0
 40
7.0
 40
7.0
 40
7.0
 40
8.0
 40
8.0
 40
8.0
 40
9.0
 40
9.0
 40
9.0
 40
10.0
 40
10.0
 40
10.0
 40
11.0
 40
11.0
 40
11.0
 40
12.0
 40
12.0
 40
12.0
 40
12.0
 10
-38.52150743272569
 20
0.3024793836805555
 10
-38.52150743272569
 20
0.5736083984375
 10
-38.48671196831597
 20
0.7923719618055555
 10
-38.41694878472221
 20
0.958425564236111
 10
-38.34735785590277
 20
1.124479166666666
 10
-38.24366048177083
 20
1.251947699652777
 10
-38.106201171875
 20
1.340831163194444
 10
-37.96874186197916
 20
1.430059136284722
 10
-37.79579806857639
 20
1.474500868055555
 10
-37.58719753689236
 20
1.474500868055555
 10
-37.4333740234375
 20
1.474500868055555
 10
-37.29815402560764
 20
1.449696180555555
 10
-37.18119303385416
 20
1.400086805555555
 10
-37.064404296875
 20
1.350477430555555
 10
-36.96863064236111
 20
1.279163953993055
 10
-36.8938720703125
 20
1.185801866319444
 10
-36.8192857530382
 20
1.092439778645833
 10
-36.760546875
 20
0.9787516276041666
 10
-36.71748318142361
 20
0.8447374131944444
 10
-36.67441948784722
 20
0.7103786892361111
 10
-36.65288764105902
 20
0.5298556857638889
 10
-36.65288764105902
 20
0.3024793836805555
 10
-36.65288764105902
 20
0.0330729166666667
 10
-36.68751085069445
 20
-0.1846571180555555
 10
-36.75641276041667
 20
-0.3507107204861111
 10
-36.8256591796875
 20
-0.5167643229166666
 10
-36.92883978949652
 20
-0.644577365451389
 10
-37.06629909939236
 20
-0.7338053385416666
 10
-37.20375840928819
 20
-0.8233778211805555
 10
-37.37739122178819
 20
-0.8681640624999998
 10
-37.58719753689236
 20
-0.8681640624999998
 10
-37.86349419487847
 20
-0.8681640624999998
 10
-38.08036295572917
 20
-0.7896158854166666
 10
-38.23814832899305
 20
-0.63251953125
 10
-38.42693956163194
 20
-0.440283203125
 10
-38.52150743272569
 20
-0.1285020616319444
 10
-38.52150743272569
 20
0.3024793836805555
 97
        0
 75
     2
 76
     1
 98
        1
 10
0.0
 20
0.0
  0
HATCH
  5
73
330
4A
100
AcDbEntity
  8
LAYER_2
 62
     3
100
AcDbHatch
 10
0.0
 20
0.0
 30
0.0
210
0.0
220
0.0
230
1.0
  2
SOLID
 70
     1
 71
     0
 91
        2
 92
       16
 93
        1
 72
     4
 94
        3
 73
     0
 74
     0
 95
       29
 96
       25
 40
0.0
 40
0.0
 40
0.0
 40
0.0
 40
1.0
 40
1.0
 40
1.0
 40
2.0
 40
2.0
 40
2.0
 40
3.0
 40
3.0
 40
3.0
 40
4.0
 40
4.0
 40
4.0
 40
5.0
 40
5.0
 40
5.0
 40
6.0
 40
6.0
 40
6.0
 40
7.0
 40
7.0
 40
7.0
 40
8.0
 40
8.0
 40
8.0
 40
8.0
 10
-34.82130262586805
 20
0.3031684027777777
 10
-34.82130262586805
 20
-0.0751030815972222
 10
-34.76652560763888
 20
-0.3265950520833333
 10
-34.65679931640625
 20
-0.4506184895833333
 10
-34.54707302517361
 20
-0.5746419270833333
 10
-34.41168077256944
 20
-0.6366536458333333
 10
-34.25079481336805
 20
-0.6366536458333333
 10
-34.08990885416667
 20
-0.6366536458333333
 10
-33.9545166015625
 20
-0.5742974175347222
 10
-33.84496256510416
 20
-0.4499294704861111
 10
-33.73506401909722
 20
-0.3252170138888888
 10
-33.68028700086806
 20
-0.0744140625
 10
-33.68028700086806
 20
0.3031684027777777
 10
-33.68028700086806
 20
0.6810953776041666
 10
-33.73506401909722
 20
0.9322428385416666
 10
-33.84427354600694
 20
1.056610785590277
 10
-33.95348307291666
 20
1.180978732638888
 10
-34.09025336371528
 20
1.242990451388888
 10
-34.25458441840277
 20
1.242990451388888
 10
-34.41581488715278
 20
1.242990451388888
 10
-34.54466145833333
 20
1.188213433159722
 10
-34.64164089626736
 20
1.078314887152777
 10
-34.76135796440972
 20
0.9384440104166666
 10
-34.82130262586805
 20
0.6800618489583333
 10
-34.82130262586805
 20
0.3031684027777777
 97
        0
 92
        1
 93
        1
 72
     4
 94
        3
 73
     0
 74
     0
 95
       41
 96
       37
 40
0.0
 40
0.0
 40
0.0
 40
0.0
 40
1.0
 40
1.0
 40
1.0
 40
2.0
 40
2.0
 40
2.0
 40
3.0
 40
3.0
 40
3.0
 40
4.0
 40
4.0
 40
4.0
 40
5.0
 40
5.0
 40
5.0
 40
6.0
 40
6.0
 40
6.0
 40
7.0
 40
7.0
 40
7.0
 40
8.0
 40
8.0
 40
8.0
 40
9.0
 40
9.0
 40
9.0
 40
10.0
 40
10.0
 40
10.0
 40
11.0
 40
11.0
 40
11.0
 40
12.0
 40
12.0
 40
12.0
 40
12.0
 10
-35.18510470920138
 20
0.3024793836805555
 10
-35.18510470920138
 20
0.5736083984375
 10
-35.15030924479166
 20
0.7923719618055555
 10
-35.08054606119792
 20
0.958425564236111
 10
-35.01078287760416
 20
1.124479166666666
 10
-34.90725775824652
 20
1.251947699652777
 10
-34.76979844835069
 20
1.340831163194444
 10
-34.63233913845486
 20
1.430059136284722
 10
-34.45922309027777
 20
1.474500868055555
 10
-34.25079481336805
 20
1.474500868055555
 10
-34.0971435546875
 20
1.474500868055555
 10
-33.96175130208333
 20
1.449696180555555
 10
-33.84479031032986
 20
1.400086805555555
 10
-33.72782931857638
 20
1.350477430555555
 10
-33.6320556640625
 20
1.279163953993055
 10
-33.55746934678819
 20
1.185801866319444
 10
-33.48288302951389
 20
1.092439778645833
 10
-33.42397189670139
 20
0.9787516276041666
 10
-33.380908203125
 20
0.8447374131944444
 10
-33.33801676432292
 20
0.7103786892361111
 10
-33.31648491753472
 20
0.5298556857638889
 10
-33.31648491753472
 20
0.3024793836805555
 10
-33.31648491753472
 20
0.0330729166666667
 10
-33.35093587239583
 20
-0.1846571180555555
 10
-33.42018229166666
 20
-0.3507107204861111
 10
-33.48908420138889
 20
-0.5167643229166666
 10
-33.59243706597222
 20
-0.644577365451389
 10
-33.72989637586805
 20
-0.7338053385416666
 10
-33.86735568576388
 20
-0.8233778211805555
 10
-34.04098849826389
 20
-0.8681640624999998
 10
-34.25079481336805
 20
-0.8681640624999998
 10
-34.52709147135416
 20
-0.8681640624999998
 10
-34.74413248697916
 20
-0.7896158854166666
 10
-34.90157335069444
 20
-0.63251953125
 10
-35.09070909288194
 20
-0.440283203125
 10
-35.18510470920138
 20
-0.1285020616319444
 10
-35.18510470920138
 20
0.3024793836805555
 97
        0
 75
     2
 76
     1
 98
        1
 10
0.0
 20
0.0
  0
HATCH
  5
72
330
4A
100
AcDbEntity
  8
LAYER_2
 62
     3
100
AcDbHatch
 10
0.0
 20
0.0
 30
0.0
210
0.0
220
0.0
230
1.0
  2
SOLID
 70
     1
 71
     0
 91
        1
 92
        1
 93
        1
 72
     4
 94
        3
 73
     0
 74
     0
 95
       35
 96
       31
 40
0.0
 40
0.0
 40
0.0
 40
0.0
 40
1.0
 40
1.0
 40
1.0
 40
2.0
 40
2.0
 40
2.0
 40
3.0
 40
3.0
 40
3.0
 40
4.0
 40
4.0
 40
4.0
 40
5.0
 40
5.0
 40
5.0
 40
6.0
 40
6.0
 40
6.0
 40
7.0
 40
7.0
 40
7.0
 40
8.0
 40
8.0
 40
8.0
 40
9.0
 40
9.0
 40
9.0
 40
10.0
 40
10.0
 40
10.0
 40
10.0
 10
-31.51797281901041
 20
-1.502061631944444
 10
-31.51797281901041
 20
-1.502061631944444
 10
-31.77153184678819
 20
-1.502061631944444
 10
-31.77153184678819
 20
-1.502061631944444
 10
-31.38206380208333
 20
-1.001833767361111
 10
-31.18724365234375
 20
-0.5012613932291666
 10
-31.18724365234375
 20
0.0
 10
-31.18724365234375
 20
0.1956814236111111
 10
-31.21532118055555
 20
0.3903293185763888
 10
-31.27130398220486
 20
0.58291015625
 10
-31.31557345920139
 20
0.7393174913194444
 10
-31.37758517795139
 20
0.8895236545138887
 10
-31.45682237413194
 20
1.033184136284722
 10
-31.50780978732639
 20
1.126890733506944
 10
-31.61254069010416
 20
1.283298068576388
 10
-31.77153184678819
 20
1.502061631944444
 10
-31.77153184678819
 20
1.502061631944444
 10
-31.51797281901041
 20
1.502061631944444
 10
-31.51797281901041
 20
1.502061631944444
 10
-31.27285427517361
 20
1.24057888454861
 10
-31.09146999782986
 20
0.9777180989583332
 10
-30.97416449652778
 20
0.7145128038194444
 10
-30.87356770833333
 20
0.4871365017361111
 10
-30.82344156901041
 20
0.2494249131944444
 10
-30.82344156901041
 20
0.0013780381944444
 10
-30.82344156901041
 20
-0.2797417534722222
 10
-30.89096544053819
 20
-0.551904296875
 10
-31.02584092881944
 20
-0.8144205729166666
 10
-31.160888671875
 20
-1.076936848958333
 10
-31.32487521701389
 20
-1.306035698784722
 10
-31.51797281901041
 20
-1.502061631944444
 97
        0
 75
     2
 76
     1
 98
        1
 10
0.0
 20
0.0
  0
HATCH
  5
71
330
4A
100
AcDbEntity
  8
LAYER_2
 62
     3
100
AcDbHatch
 10
0.0
 20
0.0
 30
0.0
210
0.0
220
0.0
230
1.0
  2
SOLID
 70
     1
 71
     0
 91
        1
 92
        1
 93
        1
 72
     4
 94
        3
 73
     0
 74
     0
 95
       71
 96
       67
 40
0.0
 40
0.0
 40
0.0
 40
0.0
 40
1.0
 40
1.0
 40
1.0
 40
2.0
 40
2.0
 40
2.0
 40
3.0
 40
3.0
 40
3.0
 40
4.0
 40
4.0
 40
4.0
 40
5.0
 40
5.0
 40
5.0
 40
6.0
 40
6.0
 40
6.0
 40
7.0
 40
7.0
 40
7.0
 40
8.0
 40
8.0
 40
8.0
 40
9.0
 40
9.0
 40
9.0
 40
10.0
 40
10.0
 40
10.0
 40
11.0
 40
11.0
 40
11.0
 40
12.0
 40
12.0
 40
12.0
 40
13.0
 40
13.0
 40
13.0
 40
14.0
 40
14.0
 40
14.0
 40
15.0
 40
15.0
 40
15.0
 40
16.0
 40
16.0
 40
16.0
 40
17.0
 40
17.0
 40
17.0
 40
18.0
 40
18.0
 40
18.0
 40
19.0
 40
19.0
 40
19.0
 40
20.0
 40
20.0
 40
20.0
 40
21.0
 40
21.0
 40
21.0
 40
22.0
 40
22.0
 40
22.0
 40
22.0
 10
-28.29370795355903
 20
-0.2287543402777778
 10
-28.29370795355903
 20
-0.2287543402777778
 10
-27.92439371744791
 20
-0.2067057291666666
 10
-27.92439371744791
 20
-0.2067057291666666
 10
-27.89700520833333
 20
-0.3493326822916666
 10
-27.8339599609375
 20
-0.4568196614583333
 10
-27.73508572048611
 20
-0.5288221571180555
 10
-27.63638373480903
 20
-0.6008246527777778
 10
-27.51563313802083
 20
-0.6366536458333333
 10
-27.37300618489583
 20
-0.6366536458333333
 10
-27.20075141059028
 20
-0.6366536458333333
 10
-27.05674641927083
 20
-0.5856662326388889
 10
-26.94064670138889
 20
-0.4833468967013889
 10
-26.82489149305555
 20
-0.3810275607638888
 10
-26.76684163411458
 20
-0.2452907986111111
 10
-26.76684163411458
 20
-0.0761366102430556
 10
-26.76684163411458
 20
0.0847493489583333
 10
-26.82265218098959
 20
0.2115288628472222
 10
-26.93410101996528
 20
0.3045464409722222
 10
-27.04572211371528
 20
0.3972195095486111
 10
-27.19420572916666
 20
0.4437282986111111
 10
-27.37955186631944
 20
0.4437282986111111
 10
-27.49496256510417
 20
0.4437282986111111
 10
-27.59797092013889
 20
0.4227132161458333
 10
-27.6884046766493
 20
0.3810275607638888
 10
-27.77883843315972
 20
0.3389973958333333
 10
-27.85015190972222
 20
0.2845648871527778
 10
-27.9023451063368
 20
0.2177300347222222
 10
-27.9023451063368
 20
0.2177300347222222
 10
-28.23307427300347
 20
0.2563151041666666
 10
-28.23307427300347
 20
0.2563151041666666
 10
-28.23307427300347
 20
0.2563151041666666
 10
-27.95746663411458
 20
1.435915798611111
 10
-27.95746663411458
 20
1.435915798611111
 10
-27.95746663411458
 20
1.435915798611111
 10
-26.52430691189236
 20
1.435915798611111
 10
-26.52430691189236
 20
1.435915798611111
 10
-26.52430691189236
 20
1.435915798611111
 10
-26.52430691189236
 20
1.165820312499999
 10
-26.52430691189236
 20
1.165820312499999
 10
-26.52430691189236
 20
1.165820312499999
 10
-27.67944742838542
 20
1.165820312499999
 10
-27.67944742838542
 20
1.165820312499999
 10
-27.67944742838542
 20
1.165820312499999
 10
-27.83034261067709
 20
0.5484592013888889
 10
-27.83034261067709
 20
0.5484592013888889
 10
-27.65774332682291
 20
0.6438883463541666
 10
-27.47653130425347
 20
0.6917751736111111
 10
-27.28687879774306
 20
0.6917751736111111
 10
-27.03573133680555
 20
0.6917751736111111
 10
-26.82385796440972
 20
0.6221842447916666
 10
-26.65108642578125
 20
0.48369140625
 10
-26.47831488715278
 20
0.3448540581597222
 10
-26.39201524522569
 20
0.1667426215277778
 10
-26.39201524522569
 20
-0.0513319227430556
 10
-26.39201524522569
 20
-0.2590711805555555
 10
-26.46763509114583
 20
-0.4382161458333333
 10
-26.61887478298611
 20
-0.5898003472222222
 10
-26.80284288194445
 20
-0.775146484375
 10
-27.05399034288194
 20
-0.8681640624999998
 10
-27.37231716579861
 20
-0.8681640624999998
 10
-27.63311089409722
 20
-0.8681640624999998
 10
-27.84601779513889
 20
-0.8099419487847221
 10
-28.01103786892361
 20
-0.6931532118055555
 10
-28.17605794270833
 20
-0.5763644748263889
 10
-28.27028130425347
 20
-0.4216796875
 10
-28.29370795355903
 20
-0.2287543402777778
 97
        0
 75
     2
 76
     1
 98
        1
 10
0.0
 20
0.0
  0
HATCH
  5
70
330
4A
100
AcDbEntity
  8
LAYER_2
 62
     3
100
AcDbHatch
 10
0.0
 20
0.0
 30
0.0
210
0.0
220
0.0
230
1.0
  2
SOLID
 70
     1
 71
     0
 91
        1
 92
        1
 93
        1
 72
     4
 94
        3
 73
     0
 74
     0
 95
       71
 96
       67
 40
0.0
 40
0.0
 40
0.0
 40
0.0
 40
1.0
 40
1.0
 40
1.0
 40
2.0
 40
2.0
 40
2.0
 40
3.0
 40
3.0
 40
3.0
 40
4.0
 40
4.0
 40
4.0
 40
5.0
 40
5.0
 40
5.0
 40
6.0
 40
6.0
 40
6.0
 40
7.0
 40
7.0
 40
7.0
 40
8.0
 40
8.0
 40
8.0
 40
9.0
 40
9.0
 40
9.0
 40
10.0
 40
10.0
 40
10.0
 40
11.0
 40
11.0
 40
11.0
 40
12.0
 40
12.0
 40
12.0
 40
13.0
 40
13.0
 40
13.0
 40
14.0
 40
14.0
 40
14.0
 40
15.0
 40
15.0
 40
15.0
 40
16.0
 40
16.0
 40
16.0
 40
17.0
 40
17.0
 40
17.0
 40
18.0
 40
18.0
 40
18.0
 40
19.0
 40
19.0
 40
19.0
 40
20.0
 40
20.0
 40
20.0
 40
21.0
 40
21.0
 40
21.0
 40
22.0
 40
22.0
 40
22.0
 40
22.0
 10
-23.10522189670139
 20
-0.5594835069444444
 10
-23.10522189670139
 20
-0.5594835069444444
 10
-23.10522189670139
 20
-0.8295789930555555
 10
-23.10522189670139
 20
-0.8295789930555555
 10
-23.10522189670139
 20
-0.8295789930555555
 10
-25.00691460503472
 20
-0.8295789930555555
 10
-25.00691460503472
 20
-0.8295789930555555
 10
-25.00967068142361
 20
-0.7617106119791666
 10
-24.99571804470486
 20
-0.6965983072916666
 10
-24.96540120442708
 20
-0.6338975694444445
 10
-24.91665310329861
 20
-0.5305447048611111
 10
-24.8387939453125
 20
-0.4285698784722222
 10
-24.73130696614583
 20
-0.328662109375
 10
-24.62416449652778
 20
-0.2287543402777778
 10
-24.47016872829861
 20
-0.1136881510416666
 10
-24.26931966145833
 20
0.0172254774305556
 10
-23.95771077473958
 20
0.2222086588541666
 10
-23.7473876953125
 20
0.3848171657986111
 10
-23.63817816840278
 20
0.5043619791666666
 10
-23.52914089626736
 20
0.6239067925347222
 10
-23.4745361328125
 20
0.7375949435763888
 10
-23.4745361328125
 20
0.8447374131944444
 10
-23.4745361328125
 20
0.9567030164930553
 10
-23.52449001736111
 20
1.050754123263888
 10
-23.62439778645833
 20
1.127924262152777
 10
-23.72430555555555
 20
1.204405381944444
 10
-23.85453016493055
 20
1.242990451388888
 10
-24.01507161458333
 20
1.242990451388888
 10
-24.1847425672743
 20
1.242990451388888
 10
-24.32047932942708
 20
1.202338324652777
 10
-24.42228190104167
 20
1.121723090277777
 10
-24.52408447265625
 20
1.040418836805555
 10
-24.57558865017361
 20
0.9287977430555555
 10
-24.57696668836805
 20
0.7854817708333333
 10
-24.57696668836805
 20
0.7854817708333333
 10
-24.94076877170139
 20
0.8130425347222221
 10
-24.94076877170139
 20
0.8130425347222221
 10
-24.91596408420139
 20
1.028361002604166
 10
-24.82242974175347
 20
1.192347547743055
 10
-24.66033799913195
 20
1.305002170138888
 10
-24.49807400173611
 20
1.418001302083333
 10
-24.28034396701389
 20
1.474500868055555
 10
-24.00714789496527
 20
1.474500868055555
 10
-23.73119574652777
 20
1.474500868055555
 10
-23.51277669270833
 20
1.413522677951388
 10
-23.35189073350694
 20
1.291221788194444
 10
-23.19117702907986
 20
1.16926540798611
 10
-23.11073404947916
 20
1.018025716145833
 10
-23.11073404947916
 20
0.837502712673611
 10
-23.11073404947916
 20
0.7455186631944444
 10
-23.13416069878472
 20
0.6552571614583333
 10
-23.18118625217014
 20
0.5667182074652777
 10
-23.22821180555555
 20
0.4781792534722222
 10
-23.30607096354166
 20
0.38447265625
 10
-23.41493598090278
 20
0.2866319444444444
 10
-23.52380099826389
 20
0.1884467230902778
 10
-23.70466851128472
 20
0.0537434895833333
 10
-23.95753851996528
 20
-0.1174777560763889
 10
-24.16941189236111
 20
-0.2597601996527778
 10
-24.3054931640625
 20
-0.3562228732638888
 10
-24.36578233506944
 20
-0.4065212673611111
 10
-24.42589925130208
 20
-0.4575086805555556
 10
-24.47568088107639
 20
-0.50849609375
 10
-24.51495496961805
 20
-0.5594835069444444
 10
-24.51495496961805
 20
-0.5594835069444444
 10
-23.10522189670139
 20
-0.5594835069444444
 10
-23.10522189670139
 20
-0.5594835069444444
 97
        0
 75
     2
 76
     1
 98
        1
 10
0.0
 20
0.0
  0
HATCH
  5
6F
330
4A
100
AcDbEntity
  8
LAYER_2
 62
     3
100
AcDbHatch
 10
0.0
 20
0.0
 30
0.0
210
0.0
220
0.0
230
1.0
  2
SOLID
 70
     1
 71
     0
 91
        2
 92
       16
 93
        1
 72
     4
 94
        3
 73
     0
 74
     0
 95
       32
 96
       28
 40
0.0
 40
0.0
 40
0.0
 40
0.0
 40
1.0
 40
1.0
 40
1.0
 40
2.0
 40
2.0
 40
2.0
 40
3.0
 40
3.0
 40
3.0
 40
4.0
 40
4.0
 40
4.0
 40
5.0
 40
5.0
 40
5.0
 40
6.0
 40
6.0
 40
6.0
 40
7.0
 40
7.0
 40
7.0
 40
8.0
 40
8.0
 40
8.0
 40
9.0
 40
9.0
 40
9.0
 40
9.0
 10
-21.23505181206597
 20
-0.0854383680555556
 10
-21.23505181206597
 20
-0.1825900607638889
 10
-21.20938585069444
 20
-0.2756076388888888
 10
-21.15770941840278
 20
-0.3641465928819444
 10
-21.10620524088542
 20
-0.4530300564236111
 10
-21.0345472547743
 20
-0.520553927951389
 10
-20.94273546006944
 20
-0.567062717013889
 10
-20.85092366536458
 20
-0.613571506076389
 10
-20.75325520833333
 20
-0.6366536458333333
 10
-20.64955783420139
 20
-0.6366536458333333
 10
-20.49883490668403
 20
-0.6366536458333333
 10
-20.37050509982639
 20
-0.5887668185763888
 10
-20.26439615885417
 20
-0.4926486545138889
 10
-20.15828721788194
 20
-0.396875
 10
-20.10506049262152
 20
-0.2663058810763888
 10
-20.10506049262152
 20
-0.1012858072916666
 10
-20.10506049262152
 20
0.0571885850694445
 10
-20.15759819878472
 20
0.1822455512152778
 10
-20.2623291015625
 20
0.2735405815972222
 10
-20.36723225911458
 20
0.3648356119791666
 10
-20.50072970920139
 20
0.4106553819444444
 10
-20.66316596137153
 20
0.4106553819444444
 10
-20.82250162760416
 20
0.4106553819444444
 10
-20.95754937065972
 20
0.3648356119791666
 10
-21.0684814453125
 20
0.2735405815972222
 10
-21.17958577473958
 20
0.1822455512152778
 10
-21.23505181206597
 20
0.0627007378472222
 10
-21.23505181206597
 20
-0.0854383680555556
 97
        0
 92
        1
 93
        1
 72
     4
 94
        3
 73
     0
 74
     0
 95
       62
 96
       58
 40
0.0
 40
0.0
 40
0.0
 40
0.0
 40
1.0
 40
1.0
 40
1.0
 40
2.0
 40
2.0
 40
2.0
 40
3.0
 40
3.0
 40
3.0
 40
4.0
 40
4.0
 40
4.0
 40
5.0
 40
5.0
 40
5.0
 40
6.0
 40
6.0
 40
6.0
 40
7.0
 40
7.0
 40
7.0
 40
8.0
 40
8.0
 40
8.0
 40
9.0
 40
9.0
 40
9.0
 40
10.0
 40
10.0
 40
10.0
 40
11.0
 40
11.0
 40
11.0
 40
12.0
 40
12.0
 40
12.0
 40
13.0
 40
13.0
 40
13.0
 40
14.0
 40
14.0
 40
14.0
 40
15.0
 40
15.0
 40
15.0
 40
16.0
 40
16.0
 40
16.0
 40
17.0
 40
17.0
 40
17.0
 40
18.0
 40
18.0
 40
18.0
 40
19.0
 40
19.0
 40
19.0
 40
19.0
 10
-19.79086778428819
 20
0.9012369791666666
 10
-19.79086778428819
 20
0.9012369791666666
 10
-20.1381334092882
 20
0.8791883680555553
 10
-20.1381334092882
 20
0.8791883680555553
 10
-20.16965603298611
 20
0.9904649522569442
 10
-20.21444227430555
 20
1.071424696180555
 10
-20.27231987847222
 20
1.121723090277777
 10
-20.36826578776041
 20
1.202338324652777
 10
-20.48660481770833
 20
1.242990451388888
 10
-20.62733696831597
 20
1.242990451388888
 10
-20.74050835503472
 20
1.242990451388888
 10
-20.84076063368055
 20
1.217841254340277
 10
-20.92792154947916
 20
1.167887369791666
 10
-21.03799235026041
 20
1.103119574652777
 10
-21.12515326605903
 20
1.008379448784722
 10
-21.1895765516493
 20
0.8843560112847221
 10
-21.25399983723958
 20
0.7599880642361111
 10
-21.28758951822916
 20
0.5832546657986111
 10
-21.29017333984375
 20
0.3538113064236111
 10
-21.2050794813368
 20
0.4568196614583333
 10
-21.10103759765625
 20
0.5336452907986111
 10
-20.97804768880208
 20
0.5835991753472222
 10
-20.85505777994792
 20
0.6335530598958333
 10
-20.72603895399305
 20
0.6587022569444444
 10
-20.59133572048611
 20
0.6587022569444444
 10
-20.35569118923611
 20
0.6587022569444444
 10
-20.15518663194444
 20
0.5894558376736111
 10
-19.9896497938368
 20
0.4513075086805556
 10
-19.82411295572916
 20
0.3131591796875
 10
-19.74125840928819
 20
0.1347032335069444
 10
-19.74125840928819
 20
-0.0844048394097222
 10
-19.74125840928819
 20
-0.2284098307291666
 10
-19.78018798828125
 20
-0.3620795355902777
 10
-19.85787489149305
 20
-0.4857584635416666
 10
-19.93556179470486
 20
-0.6090928819444445
 10
-20.0423597547743
 20
-0.7038330078125
 10
-20.17809651692708
 20
-0.7696343315972222
 10
-20.31400553385417
 20
-0.8350911458333332
 10
-20.46800130208333
 20
-0.8681640624999998
 10
-20.64025607638889
 20
-0.8681640624999998
 10
-20.93412272135417
 20
-0.8681640624999998
 10
-21.1739013671875
 20
-0.7820366753472222
 10
-21.35924750434027
 20
-0.6090928819444445
 10
-21.54476589626736
 20
-0.4364935980902777
 10
-21.63743896484375
 20
-0.1519287109375
 10
-21.63743896484375
 20
0.2446017795138889
 10
-21.63743896484375
 20
0.6879855685763889
 10
-21.53494737413194
 20
1.010101996527777
 10
-21.32961968315972
 20
1.211640082465277
 10
-21.15081922743055
 20
1.386995442708333
 10
-20.90966254340278
 20
1.474500868055555
 10
-20.60632188585069
 20
1.474500868055555
 10
-20.3803236219618
 20
1.474500868055555
 10
-20.19514973958333
 20
1.423513454861111
 10
-20.05062798394097
 20
1.322227647569444
 10
-19.90627848307291
 20
1.220597330729166
 10
-19.81963433159722
 20
1.080381944444444
 10
-19.79086778428819
 20
0.9012369791666666
 97
        0
 75
     2
 76
     1
 98
        1
 10
0.0
 20
0.0
  0
HATCH
  5
6E
330
4A
100
AcDbEntity
  8
LAYER_2
 62
     3
100
AcDbHatch
 10
0.0
 20
0.0
 30
0.0
210
0.0
220
0.0
230
1.0
  2
SOLID
 70
     1
 71
     0
 91
        1
 92
        1
 93
        1
 72
     4
 94
        3
 73
     0
 74
     0
 95
       17
 96
       13
 40
0.0
 40
0.0
 40
0.0
 40
0.0
 40
1.0
 40
1.0
 40
1.0
 40
2.0
 40
2.0
 40
2.0
 40
3.0
 40
3.0
 40
3.0
 40
4.0
 40
4.0
 40
4.0
 40
4.0
 10
-18.32308485243055
 20
-0.1405598958333333
 10
-18.32308485243055
 20
-0.1405598958333333
 10
-18.32308485243055
 20
0.1405598958333333
 10
-18.32308485243055
 20
0.1405598958333333
 10
-18.32308485243055
 20
0.1405598958333333
 10
-17.24270290798611
 20
0.1405598958333333
 10
-17.24270290798611
 20
0.1405598958333333
 10
-17.24270290798611
 20
0.1405598958333333
 10
-17.24270290798611
 20
-0.1405598958333333
 10
-17.24270290798611
 20
-0.1405598958333333
 10
-17.24270290798611
 20
-0.1405598958333333
 10
-18.32308485243055
 20
-0.1405598958333333
 10
-18.32308485243055
 20
-0.1405598958333333
 97
        0
 75
     2
 76
     1
 98
        1
 10
0.0
 20
0.0
  0
HATCH
  5
6D
330
4A
100
AcDbEntity
  8
LAYER_2
 62
     3
100
AcDbHatch
 10
0.0
 20
0.0
 30
0.0
210
0.0
220
0.0
230
1.0
  2
SOLID
 70
     1
 71
     0
 91
        2
 92
       16
 93
        1
 72
     4
 94
        3
 73
     0
 74
     0
 95
       32
 96
       28
 40
0.0
 40
0.0
 40
0.0
 40
0.0
 40
1.0
 40
1.0
 40
1.0
 40
2.0
 40
2.0
 40
2.0
 40
3.0
 40
3.0
 40
3.0
 40
4.0
 40
4.0
 40
4.0
 40
5.0
 40
5.0
 40
5.0
 40
6.0
 40
6.0
 40
6.0
 40
7.0
 40
7.0
 40
7.0
 40
8.0
 40
8.0
 40
8.0
 40
9.0
 40
9.0
 40
9.0
 40
9.0
 10
-15.45504286024305
 20
-0.0854383680555556
 10
-15.45504286024305
 20
-0.1825900607638889
 10
-15.42920464409722
 20
-0.2756076388888888
 10
-15.37770046657986
 20
-0.3641465928819444
 10
-15.3261962890625
 20
-0.4530300564236111
 10
-15.25453830295139
 20
-0.520553927951389
 10
-15.16272650824652
 20
-0.567062717013889
 10
-15.07091471354166
 20
-0.613571506076389
 10
-14.97307400173611
 20
-0.6366536458333333
 10
-14.86937662760416
 20
-0.6366536458333333
 10
-14.71882595486111
 20
-0.6366536458333333
 10
-14.59032389322916
 20
-0.5887668185763888
 10
-14.48421495225694
 20
-0.4926486545138889
 10
-14.37810601128472
 20
-0.396875
 10
-14.32505154079861
 20
-0.2663058810763888
 10
-14.32505154079861
 20
-0.1012858072916666
 10
-14.32505154079861
 20
0.0571885850694445
 10
-14.3774169921875
 20
0.1822455512152778
 10
-14.48232014973958
 20
0.2735405815972222
 10
-14.58722330729166
 20
0.3648356119791666
 10
-14.72089301215278
 20
0.4106553819444444
 10
-14.88315700954861
 20
0.4106553819444444
 10
-15.04249267578125
 20
0.4106553819444444
 10
-15.17771267361111
 20
0.3648356119791666
 10
-15.28864474826389
 20
0.2735405815972222
 10
-15.39957682291666
 20
0.1822455512152778
 10
-15.45504286024305
 20
0.0627007378472222
 10
-15.45504286024305
 20
-0.0854383680555556
 97
        0
 92
        1
 93
        1
 72
     4
 94
        3
 73
     0
 74
     0
 95
       62
 96
       58
 40
0.0
 40
0.0
 40
0.0
 40
0.0
 40
1.0
 40
1.0
 40
1.0
 40
2.0
 40
2.0
 40
2.0
 40
3.0
 40
3.0
 40
3.0
 40
4.0
 40
4.0
 40
4.0
 40
5.0
 40
5.0
 40
5.0
 40
6.0
 40
6.0
 40
6.0
 40
7.0
 40
7.0
 40
7.0
 40
8.0
 40
8.0
 40
8.0
 40
9.0
 40
9.0
 40
9.0
 40
10.0
 40
10.0
 40
10.0
 40
11.0
 40
11.0
 40
11.0
 40
12.0
 40
12.0
 40
12.0
 40
13.0
 40
13.0
 40
13.0
 40
14.0
 40
14.0
 40
14.0
 40
15.0
 40
15.0
 40
15.0
 40
16.0
 40
16.0
 40
16.0
 40
17.0
 40
17.0
 40
17.0
 40
18.0
 40
18.0
 40
18.0
 40
19.0
 40
19.0
 40
19.0
 40
19.0
 10
-14.01085883246527
 20
0.9012369791666666
 10
-14.01085883246527
 20
0.9012369791666666
 10
-14.35812445746527
 20
0.8791883680555553
 10
-14.35812445746527
 20
0.8791883680555553
 10
-14.3898193359375
 20
0.9904649522569442
 10
-14.43443332248263
 20
1.071424696180555
 10
-14.492138671875
 20
1.121723090277777
 10
-14.5882568359375
 20
1.202338324652777
 10
-14.70659586588541
 20
1.242990451388888
 10
-14.84732801649305
 20
1.242990451388888
 10
-14.9604994032118
 20
1.242990451388888
 10
-15.06057942708333
 20
1.217841254340277
 10
-15.14808485243055
 20
1.167887369791666
 10
-15.2579833984375
 20
1.103119574652777
 10
-15.34514431423611
 20
1.008379448784722
 10
-15.40956759982639
 20
0.8843560112847221
 10
-15.47399088541666
 20
0.7599880642361111
 10
-15.50758056640625
 20
0.5832546657986111
 10
-15.51016438802083
 20
0.3538113064236111
 10
-15.42507052951388
 20
0.4568196614583333
 10
-15.32102864583333
 20
0.5336452907986111
 10
-15.19803873697916
 20
0.5835991753472222
 10
-15.075048828125
 20
0.6335530598958333
 10
-14.94620225694444
 20
0.6587022569444444
 10
-14.81132676866319
 20
0.6587022569444444
 10
-14.5758544921875
 20
0.6587022569444444
 10
-14.37517768012152
 20
0.5894558376736111
 10
-14.20964084201389
 20
0.4513075086805556
 10
-14.04410400390625
 20
0.3131591796875
 10
-13.96124945746527
 20
0.1347032335069444
 10
-13.96124945746527
 20
-0.0844048394097222
 10
-13.96124945746527
 20
-0.2284098307291666
 10
-14.00017903645833
 20
-0.3620795355902777
 10
-14.07786593967014
 20
-0.4857584635416666
 10
-14.15555284288194
 20
-0.6090928819444445
 10
-14.26235080295138
 20
-0.7038330078125
 10
-14.39808756510416
 20
-0.7696343315972222
 10
-14.53382432725694
 20
-0.8350911458333332
 10
-14.68799235026041
 20
-0.8681640624999998
 10
-14.86041937934027
 20
-0.8681640624999998
 10
-15.15428602430555
 20
-0.8681640624999998
 10
-15.39389241536458
 20
-0.7820366753472222
 10
-15.57941080729166
 20
-0.6090928819444445
 10
-15.76475694444444
 20
-0.4364935980902777
 10
-15.85743001302083
 20
-0.1519287109375
 10
-15.85743001302083
 20
0.2446017795138889
 10
-15.85743001302083
 20
0.6879855685763889
 10
-15.75476616753472
 20
1.010101996527777
 10
-15.54978298611111
 20
1.211640082465277
 10
-15.37063802083333
 20
1.386995442708333
 10
-15.12948133680555
 20
1.474500868055555
 10
-14.82631293402777
 20
1.474500868055555
 10
-14.60031467013888
 20
1.474500868055555
 10
-14.41496853298611
 20
1.423513454861111
 10
-14.27061903211805
 20
1.322227647569444
 10
-14.12626953125
 20
1.220597330729166
 10
-14.0396253797743
 20
1.080381944444444
 10
-14.01085883246527
 20
0.9012369791666666
 97
        0
 75
     2
 76
     1
 98
        1
 10
0.0
 20
0.0
  0
HATCH
  5
6C
330
4A
100
AcDbEntity
  8
LAYER_2
 62
     3
100
AcDbHatch
 10
0.0
 20
0.0
 30
0.0
210
0.0
220
0.0
230
1.0
  2
SOLID
 70
     1
 71
     0
 91
        1
 92
        1
 93
        1
 72
     4
 94
        3
 73
     0
 74
     0
 95
       71
 96
       67
 40
0.0
 40
0.0
 40
0.0
 40
0.0
 40
1.0
 40
1.0
 40
1.0
 40
2.0
 40
2.0
 40
2.0
 40
3.0
 40
3.0
 40
3.0
 40
4.0
 40
4.0
 40
4.0
 40
5.0
 40
5.0
 40
5.0
 40
6.0
 40
6.0
 40
6.0
 40
7.0
 40
7.0
 40
7.0
 40
8.0
 40
8.0
 40
8.0
 40
9.0
 40
9.0
 40
9.0
 40
10.0
 40
10.0
 40
10.0
 40
11.0
 40
11.0
 40
11.0
 40
12.0
 40
12.0
 40
12.0
 40
13.0
 40
13.0
 40
13.0
 40
14.0
 40
14.0
 40
14.0
 40
15.0
 40
15.0
 40
15.0
 40
16.0
 40
16.0
 40
16.0
 40
17.0
 40
17.0
 40
17.0
 40
18.0
 40
18.0
 40
18.0
 40
19.0
 40
19.0
 40
19.0
 40
20.0
 40
20.0
 40
20.0
 40
21.0
 40
21.0
 40
21.0
 40
22.0
 40
22.0
 40
22.0
 40
22.0
 10
-10.65257975260416
 20
-0.5594835069444444
 10
-10.65257975260416
 20
-0.5594835069444444
 10
-10.65257975260416
 20
-0.8295789930555555
 10
-10.65257975260416
 20
-0.8295789930555555
 10
-10.65257975260416
 20
-0.8295789930555555
 10
-12.5542724609375
 20
-0.8295789930555555
 10
-12.5542724609375
 20
-0.8295789930555555
 10
-12.55702853732639
 20
-0.7617106119791666
 10
-12.54307590060764
 20
-0.6965983072916666
 10
-12.51275906032986
 20
-0.6338975694444445
 10
-12.46401095920139
 20
-0.5305447048611111
 10
-12.38615180121527
 20
-0.4285698784722222
 10
-12.27866482204861
 20
-0.328662109375
 10
-12.17152235243055
 20
-0.2287543402777778
 10
-12.01752658420139
 20
-0.1136881510416666
 10
-11.81667751736111
 20
0.0172254774305556
 10
-11.50506863064236
 20
0.2222086588541666
 10
-11.29474555121527
 20
0.3848171657986111
 10
-11.18553602430555
 20
0.5043619791666666
 10
-11.07649875217014
 20
0.6239067925347222
 10
-11.02189398871527
 20
0.7375949435763888
 10
-11.02189398871527
 20
0.8447374131944444
 10
-11.02189398871527
 20
0.9567030164930553
 10
-11.07184787326389
 20
1.050754123263888
 10
-11.17175564236111
 20
1.127924262152777
 10
-11.27166341145833
 20
1.204405381944444
 10
-11.40188802083333
 20
1.242990451388888
 10
-11.56242947048611
 20
1.242990451388888
 10
-11.73210042317708
 20
1.242990451388888
 10
-11.86783718532986
 20
1.202338324652777
 10
-11.96963975694444
 20
1.121723090277777
 10
-12.07144232855902
 20
1.040418836805555
 10
-12.12294650607639
 20
0.9287977430555555
 10
-12.12432454427083
 20
0.7854817708333333
 10
-12.12432454427083
 20
0.7854817708333333
 10
-12.48812662760416
 20
0.8130425347222221
 10
-12.48812662760416
 20
0.8130425347222221
 10
-12.46332194010416
 20
1.028361002604166
 10
-12.36978759765625
 20
1.192347547743055
 10
-12.20769585503472
 20
1.305002170138888
 10
-12.04543185763889
 20
1.418001302083333
 10
-11.82770182291666
 20
1.474500868055555
 10
-11.55450575086805
 20
1.474500868055555
 10
-11.27855360243055
 20
1.474500868055555
 10
-11.06013454861111
 20
1.413522677951388
 10
-10.89924858940972
 20
1.291221788194444
 10
-10.73870713975694
 20
1.16926540798611
 10
-10.65809190538194
 20
1.018025716145833
 10
-10.65809190538194
 20
0.837502712673611
 10
-10.65809190538194
 20
0.7455186631944444
 10
-10.6815185546875
 20
0.6552571614583333
 10
-10.72837185329861
 20
0.5667182074652777
 10
-10.77556966145833
 20
0.4781792534722222
 10
-10.85342881944444
 20
0.38447265625
 10
-10.96229383680555
 20
0.2866319444444444
 10
-11.07115885416666
 20
0.1884467230902778
 10
-11.2520263671875
 20
0.0537434895833333
 10
-11.50489637586805
 20
-0.1174777560763889
 10
-11.71676974826389
 20
-0.2597601996527778
 10
-11.85285101996528
 20
-0.3562228732638888
 10
-11.91314019097222
 20
-0.4065212673611111
 10
-11.97325710720486
 20
-0.4575086805555556
 10
-12.02303873697916
 20
-0.50849609375
 10
-12.06231282552083
 20
-0.5594835069444444
 10
-12.06231282552083
 20
-0.5594835069444444
 10
-10.65257975260416
 20
-0.5594835069444444
 10
-10.65257975260416
 20
-0.5594835069444444
 97
        0
 75
     2
 76
     1
 98
        1
 10
0.0
 20
0.0
  0
HATCH
  5
6B
330
4A
100
AcDbEntity
  8
LAYER_2
 62
     3
100
AcDbHatch
 10
0.0
 20
0.0
 30
0.0
210
0.0
220
0.0
230
1.0
  2
SOLID
 70
     1
 71
     0
 91
        2
 92
       16
 93
        1
 72
     4
 94
        3
 73
     0
 74
     0
 95
       29
 96
       25
 40
0.0
 40
0.0
 40
0.0
 40
0.0
 40
1.0
 40
1.0
 40
1.0
 40
2.0
 40
2.0
 40
2.0
 40
3.0
 40
3.0
 40
3.0
 40
4.0
 40
4.0
 40
4.0
 40
5.0
 40
5.0
 40
5.0
 40
6.0
 40
6.0
 40
6.0
 40
7.0
 40
7.0
 40
7.0
 40
8.0
 40
8.0
 40
8.0
 40
8.0
 10
-7.679806857638888
 20
0.7138237847222222
 10
-7.679806857638888
 20
0.8760877821180555
 10
-7.732861328124998
 20
1.004934353298611
 10
-7.83862575954861
 20
1.100018988715277
 10
-7.944734700520832
 20
1.195448133680555
 10
-8.073581271701387
 20
1.242990451388888
 10
-8.225509982638888
 20
1.242990451388888
 10
-8.382950846354166
 20
1.242990451388888
 10
-8.518687608506944
 20
1.191658528645833
 10
-8.632720269097221
 20
1.088994683159722
 10
-8.74709743923611
 20
0.9866753472222221
 10
-8.804286024305554
 20
0.8536946614583332
 10
-8.804286024305554
 20
0.6903971354166666
 10
-8.804286024305554
 20
0.5436360677083333
 10
-8.75019802517361
 20
0.4244357638888889
 10
-8.64167751736111
 20
0.3331407335069444
 10
-8.53315700954861
 20
0.2415011935763888
 10
-8.397764756944443
 20
0.1956814236111111
 10
-8.235156249999999
 20
0.1956814236111111
 10
-8.073581271701387
 20
0.1956814236111111
 10
-7.940256076388887
 20
0.2415011935763888
 10
-7.836214192708332
 20
0.3331407335069444
 10
-7.731827799479165
 20
0.4244357638888889
 10
-7.679806857638888
 20
0.551559787326389
 10
-7.679806857638888
 20
0.7138237847222222
 97
        0
 92
        1
 93
        1
 72
     4
 94
        3
 73
     0
 74
     0
 95
       71
 96
       67
 40
0.0
 40
0.0
 40
0.0
 40
0.0
 40
1.0
 40
1.0
 40
1.0
 40
2.0
 40
2.0
 40
2.0
 40
3.0
 40
3.0
 40
3.0
 40
4.0
 40
4.0
 40
4.0
 40
5.0
 40
5.0
 40
5.0
 40
6.0
 40
6.0
 40
6.0
 40
7.0
 40
7.0
 40
7.0
 40
8.0
 40
8.0
 40
8.0
 40
9.0
 40
9.0
 40
9.0
 40
10.0
 40
10.0
 40
10.0
 40
11.0
 40
11.0
 40
11.0
 40
12.0
 40
12.0
 40
12.0
 40
13.0
 40
13.0
 40
13.0
 40
14.0
 40
14.0
 40
14.0
 40
15.0
 40
15.0
 40
15.0
 40
16.0
 40
16.0
 40
16.0
 40
17.0
 40
17.0
 40
17.0
 40
18.0
 40
18.0
 40
18.0
 40
19.0
 40
19.0
 40
19.0
 40
20.0
 40
20.0
 40
20.0
 40
21.0
 40
21.0
 40
21.0
 40
22.0
 40
22.0
 40
22.0
 40
22.0
 10
-9.118478732638887
 20
-0.3004123263888889
 10
-9.118478732638887
 20
-0.3004123263888889
 10
-8.782237413194444
 20
-0.2783637152777778
 10
-8.782237413194444
 20
-0.2783637152777778
 10
-8.75364312065972
 20
-0.4041097005208333
 10
-8.698866102430555
 20
-0.4950602213541666
 10
-8.618250868055554
 20
-0.551904296875
 10
-8.537291124131943
 20
-0.6084038628472222
 10
-8.433938259548609
 20
-0.6366536458333333
 10
-8.307503255208333
 20
-0.6366536458333333
 10
-8.199327256944442
 20
-0.6366536458333333
 10
-8.104242621527777
 20
-0.6170166015625
 10
-8.021904839409721
 20
-0.5773980034722222
 10
-7.939567057291665
 20
-0.5377794053819444
 10
-7.87273220486111
 20
-0.4850694444444444
 10
-7.821400282118054
 20
-0.4189236111111111
 10
-7.77041286892361
 20
-0.3527777777777778
 10
-7.72700466579861
 20
-0.2632052951388888
 10
-7.691864691840277
 20
-0.1508951822916666
 10
-7.656724717881943
 20
-0.0382405598958333
 10
-7.639154730902776
 20
0.0764811197916667
 10
-7.639154730902776
 20
0.1929253472222222
 10
-7.639154730902776
 20
0.2056722005208333
 10
-7.639843749999998
 20
0.2242757161458333
 10
-7.641221788194443
 20
0.2494249131944444
 10
-7.711157226562499
 20
0.1598524305555555
 10
-7.806930881076388
 20
0.08681640625
 10
-7.92854275173611
 20
0.0313503689236111
 10
-8.050154622395831
 20
-0.0244601779513889
 10
-8.181412760416666
 20
-0.0523654513888889
 10
-8.323006184895833
 20
-0.0523654513888889
 10
-8.559339735243055
 20
-0.0523654513888889
 10
-8.7591552734375
 20
0.0165364583333333
 10
-8.922797309027776
 20
0.1543402777777778
 10
-9.086439344618055
 20
0.2921440972222222
 10
-9.168088107638888
 20
0.4737006293402778
 10
-9.168088107638888
 20
0.6993543836805555
 10
-9.168088107638888
 20
0.9322428385416666
 10
-9.082649739583333
 20
1.11965603298611
 10
-8.911773003472221
 20
1.261593967013888
 10
-8.74089626736111
 20
1.403531901041666
 10
-8.526611328125
 20
1.474500868055555
 10
-8.269262695312498
 20
1.474500868055555
 10
-8.083227539062498
 20
1.474500868055555
 10
-7.913384331597221
 20
1.434193250868055
 10
-7.759388563368054
 20
1.353922526041666
 10
-7.605392795138888
 20
1.273651801215277
 10
-7.48825954861111
 20
1.159274631076388
 10
-7.408333333333332
 20
1.010446506076388
 10
-7.328407118055555
 20
0.8619628906249998
 10
-7.288444010416665
 20
0.6466444227430555
 10
-7.288444010416665
 20
0.3651801215277777
 10
-7.288444010416665
 20
0.0716579861111111
 10
-7.328062608506943
 20
-0.1615749782986111
 10
-7.40764431423611
 20
-0.3352077907986111
 10
-7.487226019965277
 20
-0.5091851128472222
 10
-7.605048285590276
 20
-0.6411322699652777
 10
-7.762144639756943
 20
-0.7320827907986111
 10
-7.91924099392361
 20
-0.8226888020833332
 10
-8.102864583333332
 20
-0.8681640624999998
 10
-8.313704427083331
 20
-0.8681640624999998
 10
-8.537980143229166
 20
-0.8681640624999998
 10
-8.720570203993053
 20
-0.8185546875
 10
-8.862508138020832
 20
-0.7193359375
 10
-9.00444607204861
 20
-0.6201171875
 10
-9.089884440104166
 20
-0.4802463107638889
 10
-9.118478732638887
 20
-0.3004123263888889
 97
        0
 75
     2
 76
     1
 98
        1
 10
0.0
 20
0.0
  0
HATCH
  5
6A
330
4A
100
AcDbEntity
  8
LAYER_2
 62
     3
100
AcDbHatch
 10
0.0
 20
0.0
 30
0.0
210
0.0
220
0.0
230
1.0
  2
SOLID
 70
     1
 71
     0
 91
        1
 92
        1
 93
        1
 72
     4
 94
        3
 73
     0
 74
     0
 95
       95
 96
       91
 40
0.0
 40
0.0
 40
0.0
 40
0.0
 40
1.0
 40
1.0
 40
1.0
 40
2.0
 40
2.0
 40
2.0
 40
3.0
 40
3.0
 40
3.0
 40
4.0
 40
4.0
 40
4.0
 40
5.0
 40
5.0
 40
5.0
 40
6.0
 40
6.0
 40
6.0
 40
7.0
 40
7.0
 40
7.0
 40
8.0
 40
8.0
 40
8.0
 40
9.0
 40
9.0
 40
9.0
 40
10.0
 40
10.0
 40
10.0
 40
11.0
 40
11.0
 40
11.0
 40
12.0
 40
12.0
 40
12.0
 40
13.0
 40
13.0
 40
13.0
 40
14.0
 40
14.0
 40
14.0
 40
15.0
 40
15.0
 40
15.0
 40
16.0
 40
16.0
 40
16.0
 40
17.0
 40
17.0
 40
17.0
 40
18.0
 40
18.0
 40
18.0
 40
19.0
 40
19.0
 40
19.0
 40
20.0
 40
20.0
 40
20.0
 40
21.0
 40
21.0
 40
21.0
 40
22.0
 40
22.0
 40
22.0
 40
23.0
 40
23.0
 40
23.0
 40
24.0
 40
24.0
 40
24.0
 40
25.0
 40
25.0
 40
25.0
 40
26.0
 40
26.0
 40
26.0
 40
27.0
 40
27.0
 40
27.0
 40
28.0
 40
28.0
 40
28.0
 40
29.0
 40
29.0
 40
29.0
 40
30.0
 40
30.0
 40
30.0
 40
30.0
 10
-5.831857638888888
 20
-0.2287543402777778
 10
-5.831857638888888
 20
-0.2287543402777778
 10
-5.47907986111111
 20
-0.1901692708333333
 10
-5.47907986111111
 20
-0.1901692708333333
 10
-5.43877224392361
 20
-0.3482991536458333
 10
-5.37055935329861
 20
-0.4623318142361111
 10
-5.274096679687499
 20
-0.5319227430555556
 10
-5.177978515624999
 20
-0.6018581814236111
 10
-5.059122721354166
 20
-0.6366536458333333
 10
-4.91787380642361
 20
-0.6366536458333333
 10
-4.75044216579861
 20
-0.6366536458333333
 10
-4.609882269965277
 20
-0.5908338758680555
 10
-4.496883138020832
 20
-0.4988498263888889
 10
-4.383539496527776
 20
-0.4072102864583333
 10
-4.327039930555555
 20
-0.2935221354166666
 10
-4.327039930555555
 20
-0.1581298828125
 10
-4.327039930555555
 20
-0.0289388020833333
 10
-4.379749891493054
 20
0.0778591579861111
 10
-4.485514322916666
 20
0.1619194878472222
 10
-4.591278754340277
 20
0.2456353081597222
 10
-4.72563747829861
 20
0.2876654730902777
 10
-4.888245985243055
 20
0.2876654730902777
 10
-4.955080837673611
 20
0.2876654730902777
 10
-5.037763129340277
 20
0.2769856770833333
 10
-5.136981879340277
 20
0.2563151041666666
 10
-5.136981879340277
 20
0.2563151041666666
 10
-5.09770779079861
 20
0.5043619791666666
 10
-5.09770779079861
 20
0.5043619791666666
 10
-5.074281141493055
 20
0.502294921875
 10
-5.055333116319443
 20
0.5012613932291666
 10
-5.041208224826388
 20
0.5012613932291666
 10
-4.892035590277777
 20
0.5012613932291666
 10
-4.757676866319443
 20
0.5326117621527777
 10
-4.638476562499999
 20
0.5953125
 10
-4.518931749131944
 20
0.657668728298611
 10
-4.459331597222221
 20
0.7541314019097222
 10
-4.459331597222221
 20
0.8847005208333332
 10
-4.459331597222221
 20
0.9880533854166666
 10
-4.503084309895832
 20
1.073491753472222
 10
-4.590245225694443
 20
1.141360134548611
 10
-4.677406141493055
 20
1.209228515625
 10
-4.7904052734375
 20
1.242990451388888
 10
-4.928209092881943
 20
1.242990451388888
 10
-5.064979383680555
 20
1.242990451388888
 10
-5.179012044270832
 20
1.208539496527777
 10
-5.269962565104166
 20
1.139637586805555
 10
-5.36125759548611
 20
1.070735677083333
 10
-5.42016872829861
 20
0.9673828125
 10
-5.446006944444444
 20
0.8295789930555555
 10
-5.446006944444444
 20
0.8295789930555555
 10
-5.798784722222221
 20
0.8791883680555553
 10
-5.798784722222221
 20
0.8791883680555553
 10
-5.755721028645832
 20
1.067979600694444
 10
-5.657880316840277
 20
1.214740668402777
 10
-5.505262586805555
 20
1.318782552083333
 10
-5.352644856770832
 20
1.422479926215277
 10
-5.162475585937499
 20
1.474500868055555
 10
-4.935443793402777
 20
1.474500868055555
 10
-4.778691948784722
 20
1.474500868055555
 10
-4.634686957465277
 20
1.447629123263888
 10
-4.502739800347221
 20
1.393885633680555
 10
-4.370792643229166
 20
1.340142144097222
 10
-4.270195855034721
 20
1.266761610243055
 10
-4.200260416666666
 20
1.174088541666666
 10
-4.13032497829861
 20
1.081070963541666
 10
-4.095529513888888
 20
0.9825412326388887
 10
-4.095529513888888
 20
0.8781548394097221
 10
-4.095529513888888
 20
0.7789360894097222
 10
-4.128946940104166
 20
0.688674587673611
 10
-4.195092773437499
 20
0.6073703342013889
 10
-4.261583116319443
 20
0.5260660807291666
 10
-4.360112847222222
 20
0.4612982855902778
 10
-4.490337456597221
 20
0.4134114583333333
 10
-4.320838758680555
 20
0.3820610894097221
 10
-4.188891601562499
 20
0.3172932942708333
 10
-4.094151475694443
 20
0.2187635633680555
 10
-3.999411349826388
 20
0.1202338324652778
 10
-3.952213541666666
 20
-0.0027560763888889
 10
-3.952213541666666
 20
-0.1508951822916666
 10
-3.952213541666666
 20
-0.3507107204861111
 10
-4.04350857204861
 20
-0.520553927951389
 10
-4.226443142361111
 20
-0.6593912760416666
 10
-4.409033203124999
 20
-0.7985731336805556
 10
-4.640199110243055
 20
-0.8681640624999998
 10
-4.919251844618055
 20
-0.8681640624999998
 10
-5.171432834201388
 20
-0.8681640624999998
 10
-5.380550130208332
 20
-0.8089084201388889
 10
-5.546948242187499
 20
-0.6900526258680556
 10
-5.713346354166666
 20
-0.5715413411458333
 10
-5.808430989583333
 20
-0.4175455729166666
 10
-5.831857638888888
 20
-0.2287543402777778
 97
        0
 75
     2
 76
     1
 98
        1
 10
0.0
 20
0.0
  0
HATCH
  5
69
330
4A
100
AcDbEntity
  8
LAYER_2
 62
     3
100
AcDbHatch
 10
0.0
 20
0.0
 30
0.0
210
0.0
220
0.0
230
1.0
  2
SOLID
 70
     1
 71
     0
 91
        1
 92
        1
 93
        1
 72
     4
 94
        3
 73
     0
 74
     0
 95
       62
 96
       58
 40
0.0
 40
0.0
 40
0.0
 40
0.0
 40
1.0
 40
1.0
 40
1.0
 40
2.0
 40
2.0
 40
2.0
 40
3.0
 40
3.0
 40
3.0
 40
4.0
 40
4.0
 40
4.0
 40
5.0
 40
5.0
 40
5.0
 40
6.0
 40
6.0
 40
6.0
 40
7.0
 40
7.0
 40
7.0
 40
8.0
 40
8.0
 40
8.0
 40
9.0
 40
9.0
 40
9.0
 40
10.0
 40
10.0
 40
10.0
 40
11.0
 40
11.0
 40
11.0
 40
12.0
 40
12.0
 40
12.0
 40
13.0
 40
13.0
 40
13.0
 40
14.0
 40
14.0
 40
14.0
 40
15.0
 40
15.0
 40
15.0
 40
16.0
 40
16.0
 40
16.0
 40
17.0
 40
17.0
 40
17.0
 40
18.0
 40
18.0
 40
18.0
 40
19.0
 40
19.0
 40
19.0
 40
19.0
 10
5.91936306423611
 20
-0.8295789930555555
 10
5.91936306423611
 20
-0.8295789930555555
 10
5.16902126736111
 20
1.463476562499999
 10
5.16902126736111
 20
1.463476562499999
 10
5.16902126736111
 20
1.463476562499999
 10
5.562451171874999
 20
1.463476562499999
 10
5.562451171874999
 20
1.463476562499999
 10
5.562451171874999
 20
1.463476562499999
 10
5.989298502604166
 20
-0.0409966362847222
 10
5.989298502604166
 20
-0.0409966362847222
 10
6.036840820312499
 20
-0.1980929904513889
 10
6.078870985243055
 20
-0.3541558159722222
 10
6.114355468749999
 20
-0.5088406032986111
 10
6.189803059895832
 20
-0.2649278428819444
 10
6.234244791666665
 20
-0.1240234375
 10
6.246991644965277
 20
-0.08681640625
 10
6.246991644965277
 20
-0.08681640625
 10
6.788560655381943
 20
1.463476562499999
 10
6.788560655381943
 20
1.463476562499999
 10
6.788560655381943
 20
1.463476562499999
 10
7.245724826388888
 20
1.463476562499999
 10
7.245724826388888
 20
1.463476562499999
 10
7.245724826388888
 20
1.463476562499999
 10
7.653279622395833
 20
0.3017903645833333
 10
7.653279622395833
 20
0.3017903645833333
 10
7.756632486979166
 20
0.0141248914930556
 10
7.831735568576387
 20
-0.2559705946180555
 10
7.878244357638887
 20
-0.5088406032986111
 10
7.917518446180555
 20
-0.3648356119791666
 10
7.965405273437498
 20
-0.1987820095486111
 10
8.021904839409721
 20
-0.0103352864583333
 10
8.021904839409721
 20
-0.0103352864583333
 10
8.470111762152777
 20
1.463476562499999
 10
8.470111762152777
 20
1.463476562499999
 10
8.470111762152777
 20
1.463476562499999
 10
8.851139322916665
 20
1.463476562499999
 10
8.851139322916665
 20
1.463476562499999
 10
8.851139322916665
 20
1.463476562499999
 10
8.070825195312499
 20
-0.8295789930555555
 10
8.070825195312499
 20
-0.8295789930555555
 10
8.070825195312499
 20
-0.8295789930555555
 10
7.700132921006943
 20
-0.8295789930555555
 10
7.700132921006943
 20
-0.8295789930555555
 10
7.700132921006943
 20
-0.8295789930555555
 10
7.099652777777777
 20
0.918117947048611
 10
7.099652777777777
 20
0.918117947048611
 10
7.049354383680555
 20
1.064189995659722
 10
7.018693033854166
 20
1.153762478298611
 10
7.007324218749999
 20
1.186490885416666
 10
6.975284830729165
 20
1.081759982638888
 10
6.946346028645832
 20
0.9921874999999998
 10
6.921196831597221
 20
0.9177734375
 10
6.921196831597221
 20
0.9177734375
 10
6.318305121527776
 20
-0.8295789930555555
 10
6.318305121527776
 20
-0.8295789930555555
 10
6.318305121527776
 20
-0.8295789930555555
 10
5.91936306423611
 20
-0.8295789930555555
 10
5.91936306423611
 20
-0.8295789930555555
 97
        0
 75
     2
 76
     1
 98
        1
 10
0.0
 20
0.0
  0
HATCH
  5
68
330
4A
100
AcDbEntity
  8
LAYER_2
 62
     3
100
AcDbHatch
 10
0.0
 20
0.0
 30
0.0
210
0.0
220
0.0
230
1.0
  2
SOLID
 70
     1
 71
     0
 91
        1
 92
        1
 93
        1
 72
     4
 94
        3
 73
     0
 74
     0
 95
       62
 96
       58
 40
0.0
 40
0.0
 40
0.0
 40
0.0
 40
1.0
 40
1.0
 40
1.0
 40
2.0
 40
2.0
 40
2.0
 40
3.0
 40
3.0
 40
3.0
 40
4.0
 40
4.0
 40
4.0
 40
5.0
 40
5.0
 40
5.0
 40
6.0
 40
6.0
 40
6.0
 40
7.0
 40
7.0
 40
7.0
 40
8.0
 40
8.0
 40
8.0
 40
9.0
 40
9.0
 40
9.0
 40
10.0
 40
10.0
 40
10.0
 40
11.0
 40
11.0
 40
11.0
 40
12.0
 40
12.0
 40
12.0
 40
13.0
 40
13.0
 40
13.0
 40
14.0
 40
14.0
 40
14.0
 40
15.0
 40
15.0
 40
15.0
 40
16.0
 40
16.0
 40
16.0
 40
17.0
 40
17.0
 40
17.0
 40
18.0
 40
18.0
 40
18.0
 40
19.0
 40
19.0
 40
19.0
 40
19.0
 10
10.80657552083333
 20
-0.8295789930555555
 10
10.80657552083333
 20
-0.8295789930555555
 10
10.05623372395833
 20
1.463476562499999
 10
10.05623372395833
 20
1.463476562499999
 10
10.05623372395833
 20
1.463476562499999
 10
10.44966362847222
 20
1.463476562499999
 10
10.44966362847222
 20
1.463476562499999
 10
10.44966362847222
 20
1.463476562499999
 10
10.87651095920139
 20
-0.0409966362847222
 10
10.87651095920139
 20
-0.0409966362847222
 10
10.92405327690972
 20
-0.1980929904513889
 10
10.96608344184027
 20
-0.3541558159722222
 10
11.00156792534722
 20
-0.5088406032986111
 10
11.07701551649305
 20
-0.2649278428819444
 10
11.12145724826389
 20
-0.1240234375
 10
11.1342041015625
 20
-0.08681640625
 10
11.1342041015625
 20
-0.08681640625
 10
11.67577311197916
 20
1.463476562499999
 10
11.67577311197916
 20
1.463476562499999
 10
11.67577311197916
 20
1.463476562499999
 10
12.13293728298611
 20
1.463476562499999
 10
12.13293728298611
 20
1.463476562499999
 10
12.13293728298611
 20
1.463476562499999
 10
12.54049207899305
 20
0.3017903645833333
 10
12.54049207899305
 20
0.3017903645833333
 10
12.64384494357639
 20
0.0141248914930556
 10
12.71894802517361
 20
-0.2559705946180555
 10
12.76545681423611
 20
-0.5088406032986111
 10
12.80473090277778
 20
-0.3648356119791666
 10
12.85261773003472
 20
-0.1987820095486111
 10
12.90911729600694
 20
-0.0103352864583333
 10
12.90911729600694
 20
-0.0103352864583333
 10
13.35732421875
 20
1.463476562499999
 10
13.35732421875
 20
1.463476562499999
 10
13.35732421875
 20
1.463476562499999
 10
13.73835177951389
 20
1.463476562499999
 10
13.73835177951389
 20
1.463476562499999
 10
13.73835177951389
 20
1.463476562499999
 10
12.95803765190972
 20
-0.8295789930555555
 10
12.95803765190972
 20
-0.8295789930555555
 10
12.95803765190972
 20
-0.8295789930555555
 10
12.58734537760416
 20
-0.8295789930555555
 10
12.58734537760416
 20
-0.8295789930555555
 10
12.58734537760416
 20
-0.8295789930555555
 10
11.986865234375
 20
0.918117947048611
 10
11.986865234375
 20
0.918117947048611
 10
11.93656684027778
 20
1.064189995659722
 10
11.90590549045139
 20
1.153762478298611
 10
11.89453667534722
 20
1.186490885416666
 10
11.86249728732638
 20
1.081759982638888
 10
11.83355848524305
 20
0.9921874999999998
 10
11.80840928819444
 20
0.9177734375
 10
11.80840928819444
 20
0.9177734375
 10
11.205517578125
 20
-0.8295789930555555
 10
11.205517578125
 20
-0.8295789930555555
 10
11.205517578125
 20
-0.8295789930555555
 10
10.80657552083333
 20
-0.8295789930555555
 10
10.80657552083333
 20
-0.8295789930555555
 97
        0
 75
     2
 76
     1
 98
        1
 10
0.0
 20
0.0
  0
HATCH
  5
67
330
4A
100
AcDbEntity
  8
LAYER_2
 62
     3
100
AcDbHatch
 10
0.0
 20
0.0
 30
0.0
210
0.0
220
0.0
230
1.0
  2
SOLID
 70
     1
 71
     0
 91
        1
 92
        1
 93
        1
 72
     4
 94
        3
 73
     0
 74
     0
 95
       62
 96
       58
 40
0.0
 40
0.0
 40
0.0
 40
0.0
 40
1.0
 40
1.0
 40
1.0
 40
2.0
 40
2.0
 40
2.0
 40
3.0
 40
3.0
 40
3.0
 40
4.0
 40
4.0
 40
4.0
 40
5.0
 40
5.0
 40
5.0
 40
6.0
 40
6.0
 40
6.0
 40
7.0
 40
7.0
 40
7.0
 40
8.0
 40
8.0
 40
8.0
 40
9.0
 40
9.0
 40
9.0
 40
10.0
 40
10.0
 40
10.0
 40
11.0
 40
11.0
 40
11.0
 40
12.0
 40
12.0
 40
12.0
 40
13.0
 40
13.0
 40
13.0
 40
14.0
 40
14.0
 40
14.0
 40
15.0
 40
15.0
 40
15.0
 40
16.0
 40
16.0
 40
16.0
 40
17.0
 40
17.0
 40
17.0
 40
18.0
 40
18.0
 40
18.0
 40
19.0
 40
19.0
 40
19.0
 40
19.0
 10
15.69378797743055
 20
-0.8295789930555555
 10
15.69378797743055
 20
-0.8295789930555555
 10
14.94344618055555
 20
1.463476562499999
 10
14.94344618055555
 20
1.463476562499999
 10
14.94344618055555
 20
1.463476562499999
 10
15.33687608506944
 20
1.463476562499999
 10
15.33687608506944
 20
1.463476562499999
 10
15.33687608506944
 20
1.463476562499999
 10
15.76372341579861
 20
-0.0409966362847222
 10
15.76372341579861
 20
-0.0409966362847222
 10
15.81126573350694
 20
-0.1980929904513889
 10
15.8532958984375
 20
-0.3541558159722222
 10
15.88878038194444
 20
-0.5088406032986111
 10
15.96422797309027
 20
-0.2649278428819444
 10
16.00866970486111
 20
-0.1240234375
 10
16.02141655815972
 20
-0.08681640625
 10
16.02141655815972
 20
-0.08681640625
 10
16.56298556857638
 20
1.463476562499999
 10
16.56298556857638
 20
1.463476562499999
 10
16.56298556857638
 20
1.463476562499999
 10
17.02014973958333
 20
1.463476562499999
 10
17.02014973958333
 20
1.463476562499999
 10
17.02014973958333
 20
1.463476562499999
 10
17.42770453559027
 20
0.3017903645833333
 10
17.42770453559027
 20
0.3017903645833333
 10
17.53105740017361
 20
0.0141248914930556
 10
17.60616048177083
 20
-0.2559705946180555
 10
17.65266927083333
 20
-0.5088406032986111
 10
17.691943359375
 20
-0.3648356119791666
 10
17.73983018663194
 20
-0.1987820095486111
 10
17.79632975260416
 20
-0.0103352864583333
 10
17.79632975260416
 20
-0.0103352864583333
 10
18.24453667534722
 20
1.463476562499999
 10
18.24453667534722
 20
1.463476562499999
 10
18.24453667534722
 20
1.463476562499999
 10
18.62556423611111
 20
1.463476562499999
 10
18.62556423611111
 20
1.463476562499999
 10
18.62556423611111
 20
1.463476562499999
 10
17.84525010850694
 20
-0.8295789930555555
 10
17.84525010850694
 20
-0.8295789930555555
 10
17.84525010850694
 20
-0.8295789930555555
 10
17.47455783420139
 20
-0.8295789930555555
 10
17.47455783420139
 20
-0.8295789930555555
 10
17.47455783420139
 20
-0.8295789930555555
 10
16.87407769097222
 20
0.918117947048611
 10
16.87407769097222
 20
0.918117947048611
 10
16.823779296875
 20
1.064189995659722
 10
16.79311794704861
 20
1.153762478298611
 10
16.78174913194444
 20
1.186490885416666
 10
16.74970974392361
 20
1.081759982638888
 10
16.72077094184027
 20
0.9921874999999998
 10
16.69562174479166
 20
0.9177734375
 10
16.69562174479166
 20
0.9177734375
 10
16.09273003472222
 20
-0.8295789930555555
 10
16.09273003472222
 20
-0.8295789930555555
 10
16.09273003472222
 20
-0.8295789930555555
 10
15.69378797743055
 20
-0.8295789930555555
 10
15.69378797743055
 20
-0.8295789930555555
 97
        0
 75
     2
 76
     1
 98
        1
 10
0.0
 20
0.0
  0
HATCH
  5
66
330
4A
100
AcDbEntity
  8
LAYER_2
 62
     3
100
AcDbHatch
 10
0.0
 20
0.0
 30
0.0
210
0.0
220
0.0
230
1.0
  2
SOLID
 70
     1
 71
     0
 91
        1
 92
        1
 93
        1
 72
     4
 94
        3
 73
     0
 74
     0
 95
       17
 96
       13
 40
0.0
 40
0.0
 40
0.0
 40
0.0
 40
1.0
 40
1.0
 40
1.0
 40
2.0
 40
2.0
 40
2.0
 40
3.0
 40
3.0
 40
3.0
 40
4.0
 40
4.0
 40
4.0
 40
4.0
 10
20.14519585503472
 20
-0.8295789930555555
 10
20.14519585503472
 20
-0.8295789930555555
 10
20.14519585503472
 20
-0.5098741319444445
 10
20.14519585503472
 20
-0.5098741319444445
 10
20.14519585503472
 20
-0.5098741319444445
 10
20.5475830078125
 20
-0.5098741319444445
 10
20.5475830078125
 20
-0.5098741319444445
 10
20.5475830078125
 20
-0.5098741319444445
 10
20.5475830078125
 20
-0.8295789930555555
 10
20.5475830078125
 20
-0.8295789930555555
 10
20.5475830078125
 20
-0.8295789930555555
 10
20.14519585503472
 20
-0.8295789930555555
 10
20.14519585503472
 20
-0.8295789930555555
 97
        0
 75
     2
 76
     1
 98
        1
 10
0.0
 20
0.0
  0
HATCH
  5
65
330
4A
100
AcDbEntity
  8
LAYER_2
 62
     3
100
AcDbHatch
 10
0.0
 20
0.0
 30
0.0
210
0.0
220
0.0
230
1.0
  2
SOLID
 70
     1
 71
     0
 91
        1
 92
        1
 93
        1
 72
     4
 94
        3
 73
     0
 74
     0
 95
       47
 96
       43
 40
0.0
 40
0.0
 40
0.0
 40
0.0
 40
1.0
 40
1.0
 40
1.0
 40
2.0
 40
2.0
 40
2.0
 40
3.0
 40
3.0
 40
3.0
 40
4.0
 40
4.0
 40
4.0
 40
5.0
 40
5.0
 40
5.0
 40
6.0
 40
6.0
 40
6.0
 40
7.0
 40
7.0
 40
7.0
 40
8.0
 40
8.0
 40
8.0
 40
9.0
 40
9.0
 40
9.0
 40
10.0
 40
10.0
 40
10.0
 40
11.0
 40
11.0
 40
11.0
 40
12.0
 40
12.0
 40
12.0
 40
13.0
 40
13.0
 40
13.0
 40
14.0
 40
14.0
 40
14.0
 40
14.0
 10
22.11992458767361
 20
-0.1781114366319444
 10
22.11992458767361
 20
-0.1781114366319444
 10
22.46167805989583
 20
-0.1405598958333333
 10
22.46167805989583
 20
-0.1405598958333333
 10
22.47063530815972
 20
-0.316259765625
 10
22.51197645399305
 20
-0.4361490885416666
 10
22.58501247829861
 20
-0.5009168836805556
 10
22.65770399305555
 20
-0.5656846788194444
 10
22.75864529079861
 20
-0.598068576388889
 10
22.88783637152778
 20
-0.598068576388889
 10
22.98292100694444
 20
-0.598068576388889
 10
23.0652587890625
 20
-0.5808430989583333
 10
23.13416069878472
 20
-0.545703125
 10
23.20340711805556
 20
-0.5105631510416666
 10
23.25094943576389
 20
-0.4633653428819445
 10
23.27678765190972
 20
-0.4034206814236111
 10
23.30297037760416
 20
-0.3434760199652778
 10
23.31606174045139
 20
-0.2477023654513889
 10
23.31606174045139
 20
-0.1164442274305555
 10
23.31606174045139
 20
-0.1164442274305555
 10
23.31606174045139
 20
1.463476562499999
 10
23.31606174045139
 20
1.463476562499999
 10
23.31606174045139
 20
1.463476562499999
 10
23.69640028211805
 20
1.463476562499999
 10
23.69640028211805
 20
1.463476562499999
 10
23.69640028211805
 20
1.463476562499999
 10
23.69640028211805
 20
-0.0988742404513889
 10
23.69640028211805
 20
-0.0988742404513889
 10
23.69640028211805
 20
-0.2907660590277778
 10
23.66746148003472
 20
-0.4392496744791666
 10
23.60923936631944
 20
-0.5443250868055555
 10
23.55136176215278
 20
-0.6497450086805556
 10
23.45937771267361
 20
-0.7300157335069444
 10
23.33363172743055
 20
-0.7854817708333333
 10
23.2078857421875
 20
-0.840603298611111
 10
23.06009114583333
 20
-0.8681640624999998
 10
22.89059244791666
 20
-0.8681640624999998
 10
22.63875596788194
 20
-0.8681640624999998
 10
22.44617513020833
 20
-0.8102864583333332
 10
22.31250542534722
 20
-0.69453125
 10
22.17883572048611
 20
-0.5787760416666666
 10
22.11475694444444
 20
-0.4065212673611111
 10
22.11992458767361
 20
-0.1781114366319444
 97
        0
 75
     2
 76
     1
 98
        1
 10
0.0
 20
0.0
  0
HATCH
  5
64
330
4A
100
AcDbEntity
  8
LAYER_2
 62
     3
100
AcDbHatch
 10
0.0
 20
0.0
 30
0.0
210
0.0
220
0.0
230
1.0
  2
SOLID
 70
     1
 71
     0
 91
        1
 92
        1
 93
        1
 72
     4
 94
        3
 73
     0
 74
     0
 95
       56
 96
       52
 40
0.0
 40
0.0
 40
0.0
 40
0.0
 40
1.0
 40
1.0
 40
1.0
 40
2.0
 40
2.0
 40
2.0
 40
3.0
 40
3.0
 40
3.0
 40
4.0
 40
4.0
 40
4.0
 40
5.0
 40
5.0
 40
5.0
 40
6.0
 40
6.0
 40
6.0
 40
7.0
 40
7.0
 40
7.0
 40
8.0
 40
8.0
 40
8.0
 40
9.0
 40
9.0
 40
9.0
 40
10.0
 40
10.0
 40
10.0
 40
11.0
 40
11.0
 40
11.0
 40
12.0
 40
12.0
 40
12.0
 40
13.0
 40
13.0
 40
13.0
 40
14.0
 40
14.0
 40
14.0
 40
15.0
 40
15.0
 40
15.0
 40
16.0
 40
16.0
 40
16.0
 40
17.0
 40
17.0
 40
17.0
 40
17.0
 10
27.30410427517361
 20
1.463476562499999
 10
27.30410427517361
 20
1.463476562499999
 10
27.68444281684028
 20
1.463476562499999
 10
27.68444281684028
 20
1.463476562499999
 10
27.68444281684028
 20
1.463476562499999
 10
27.68444281684028
 20
0.1388373480902778
 10
27.68444281684028
 20
0.1388373480902778
 10
27.68444281684028
 20
-0.0916395399305556
 10
27.65171440972222
 20
-0.2745741102430555
 10
27.58660210503472
 20
-0.4099663628472223
 10
27.52148980034722
 20
-0.545703125
 10
27.40401204427084
 20
-0.6559461805555556
 10
27.23382432725694
 20
-0.7406955295138889
 10
27.06363661024305
 20
-0.8257893880208332
 10
26.84039442274305
 20
-0.8681640624999998
 10
26.56409776475694
 20
-0.8681640624999998
 10
26.29538031684028
 20
-0.8681640624999998
 10
26.075927734375
 20
-0.83095703125
 10
25.90505099826389
 20
-0.7572319878472222
 10
25.73451877170139
 20
-0.6831624348958333
 10
25.61256239149305
 20
-0.5760199652777778
 10
25.5395263671875
 20
-0.4358045789930556
 10
25.46649034288194
 20
-0.2955891927083333
 10
25.42997233072917
 20
-0.1040418836805555
 10
25.42997233072917
 20
0.1388373480902778
 10
25.42997233072917
 20
0.1388373480902778
 10
25.42997233072917
 20
1.463476562499999
 10
25.42997233072917
 20
1.463476562499999
 10
25.42997233072917
 20
1.463476562499999
 10
25.81031087239583
 20
1.463476562499999
 10
25.81031087239583
 20
1.463476562499999
 10
25.81031087239583
 20
1.463476562499999
 10
25.81031087239583
 20
0.1419379340277778
 10
25.81031087239583
 20
0.1419379340277778
 10
25.81031087239583
 20
-0.0571885850694445
 10
25.83339301215278
 20
-0.2039496527777778
 10
25.87955729166667
 20
-0.2980007595486111
 10
25.92572157118055
 20
-0.3923963758680555
 10
26.00530327690972
 20
-0.465087890625
 10
26.11795789930555
 20
-0.5160753038194445
 10
26.23061252170139
 20
-0.567062717013889
 10
26.36807183159722
 20
-0.5925564236111111
 10
26.53102484809028
 20
-0.5925564236111111
 10
26.80938856336805
 20
-0.5925564236111111
 10
27.00782606336805
 20
-0.5422580295138888
 10
27.12633734809028
 20
-0.4409722222222223
 10
27.2448486328125
 20
-0.3400309244791666
 10
27.30410427517361
 20
-0.1457275390625
 10
27.30410427517361
 20
0.1419379340277778
 10
27.30410427517361
 20
0.1419379340277778
 10
27.30410427517361
 20
1.463476562499999
 10
27.30410427517361
 20
1.463476562499999
 97
        0
 75
     2
 76
     1
 98
        1
 10
0.0
 20
0.0
  0
HATCH
  5
63
330
4A
100
AcDbEntity
  8
LAYER_2
 62
     3
100
AcDbHatch
 10
0.0
 20
0.0
 30
0.0
210
0.0
220
0.0
230
1.0
  2
SOLID
 70
     1
 71
     0
 91
        1
 92
        1
 93
        1
 72
     4
 94
        3
 73
     0
 74
     0
 95
       23
 96
       19
 40
0.0
 40
0.0
 40
0.0
 40
0.0
 40
1.0
 40
1.0
 40
1.0
 40
2.0
 40
2.0
 40
2.0
 40
3.0
 40
3.0
 40
3.0
 40
4.0
 40
4.0
 40
4.0
 40
5.0
 40
5.0
 40
5.0
 40
6.0
 40
6.0
 40
6.0
 40
6.0
 10
29.40871310763889
 20
-0.8295789930555555
 10
29.40871310763889
 20
-0.8295789930555555
 10
29.40871310763889
 20
1.463476562499999
 10
29.40871310763889
 20
1.463476562499999
 10
29.40871310763889
 20
1.463476562499999
 10
29.78905164930555
 20
1.463476562499999
 10
29.78905164930555
 20
1.463476562499999
 10
29.78905164930555
 20
1.463476562499999
 10
29.78905164930555
 20
-0.5594835069444444
 10
29.78905164930555
 20
-0.5594835069444444
 10
29.78905164930555
 20
-0.5594835069444444
 10
31.20016276041666
 20
-0.5594835069444444
 10
31.20016276041666
 20
-0.5594835069444444
 10
31.20016276041666
 20
-0.5594835069444444
 10
31.20016276041666
 20
-0.8295789930555555
 10
31.20016276041666
 20
-0.8295789930555555
 10
31.20016276041666
 20
-0.8295789930555555
 10
29.40871310763889
 20
-0.8295789930555555
 10
29.40871310763889
 20
-0.8295789930555555
 97
        0
 75
     2
 76
     1
 98
        1
 10
0.0
 20
0.0
  0
HATCH
  5
62
330
4A
100
AcDbEntity
  8
LAYER_2
 62
     3
100
AcDbHatch
 10
0.0
 20
0.0
 30
0.0
210
0.0
220
0.0
230
1.0
  2
SOLID
 70
     1
 71
     0
 91
        1
 92
        1
 93
        1
 72
     4
 94
        3
 73
     0
 74
     0
 95
       17
 96
       13
 40
0.0
 40
0.0
 40
0.0
 40
0.0
 40
1.0
 40
1.0
 40
1.0
 40
2.0
 40
2.0
 40
2.0
 40
3.0
 40
3.0
 40
3.0
 40
4.0
 40
4.0
 40
4.0
 40
4.0
 10
32.67914225260417
 20
-0.8295789930555555
 10
32.67914225260417
 20
-0.8295789930555555
 10
32.67914225260417
 20
1.463476562499999
 10
32.67914225260417
 20
1.463476562499999
 10
32.67914225260417
 20
1.463476562499999
 10
33.05948079427083
 20
1.463476562499999
 10
33.05948079427083
 20
1.463476562499999
 10
33.05948079427083
 20
1.463476562499999
 10
33.05948079427083
 20
-0.8295789930555555
 10
33.05948079427083
 20
-0.8295789930555555
 10
33.05948079427083
 20
-0.8295789930555555
 10
32.67914225260417
 20
-0.8295789930555555
 10
32.67914225260417
 20
-0.8295789930555555
 97
        0
 75
     2
 76
     1
 98
        1
 10
0.0
 20
0.0
  0
HATCH
  5
61
330
4A
100
AcDbEntity
  8
LAYER_2
 62
     3
100
AcDbHatch
 10
0.0
 20
0.0
 30
0.0
210
0.0
220
0.0
230
1.0
  2
SOLID
 70
     1
 71
     0
 91
        1
 92
        1
 93
        1
 72
     4
 94
        3
 73
     0
 74
     0
 95
       56
 96
       52
 40
0.0
 40
0.0
 40
0.0
 40
0.0
 40
1.0
 40
1.0
 40
1.0
 40
2.0
 40
2.0
 40
2.0
 40
3.0
 40
3.0
 40
3.0
 40
4.0
 40
4.0
 40
4.0
 40
5.0
 40
5.0
 40
5.0
 40
6.0
 40
6.0
 40
6.0
 40
7.0
 40
7.0
 40
7.0
 40
8.0
 40
8.0
 40
8.0
 40
9.0
 40
9.0
 40
9.0
 40
10.0
 40
10.0
 40
10.0
 40
11.0
 40
11.0
 40
11.0
 40
12.0
 40
12.0
 40
12.0
 40
13.0
 40
13.0
 40
13.0
 40
14.0
 40
14.0
 40
14.0
 40
15.0
 40
15.0
 40
15.0
 40
16.0
 40
16.0
 40
16.0
 40
17.0
 40
17.0
 40
17.0
 40
17.0
 10
36.71541612413194
 20
1.463476562499999
 10
36.71541612413194
 20
1.463476562499999
 10
37.09575466579861
 20
1.463476562499999
 10
37.09575466579861
 20
1.463476562499999
 10
37.09575466579861
 20
1.463476562499999
 10
37.09575466579861
 20
0.1388373480902778
 10
37.09575466579861
 20
0.1388373480902778
 10
37.09575466579861
 20
-0.0916395399305556
 10
37.06302625868055
 20
-0.2745741102430555
 10
36.99791395399306
 20
-0.4099663628472223
 10
36.93280164930555
 20
-0.545703125
 10
36.81532389322916
 20
-0.6559461805555556
 10
36.64513617621528
 20
-0.7406955295138889
 10
36.47494845920139
 20
-0.8257893880208332
 10
36.25170627170139
 20
-0.8681640624999998
 10
35.97540961371527
 20
-0.8681640624999998
 10
35.70669216579861
 20
-0.8681640624999998
 10
35.48723958333333
 20
-0.83095703125
 10
35.31636284722222
 20
-0.7572319878472222
 10
35.14583062065972
 20
-0.6831624348958333
 10
35.02387424045139
 20
-0.5760199652777778
 10
34.95083821614584
 20
-0.4358045789930556
 10
34.87780219184028
 20
-0.2955891927083333
 10
34.8412841796875
 20
-0.1040418836805555
 10
34.8412841796875
 20
0.1388373480902778
 10
34.8412841796875
 20
0.1388373480902778
 10
34.8412841796875
 20
1.463476562499999
 10
34.8412841796875
 20
1.463476562499999
 10
34.8412841796875
 20
1.463476562499999
 10
35.22162272135417
 20
1.463476562499999
 10
35.22162272135417
 20
1.463476562499999
 10
35.22162272135417
 20
1.463476562499999
 10
35.22162272135417
 20
0.1419379340277778
 10
35.22162272135417
 20
0.1419379340277778
 10
35.22162272135417
 20
-0.0571885850694445
 10
35.24470486111111
 20
-0.2039496527777778
 10
35.290869140625
 20
-0.2980007595486111
 10
35.33703342013889
 20
-0.3923963758680555
 10
35.41661512586806
 20
-0.465087890625
 10
35.52926974826389
 20
-0.5160753038194445
 10
35.64192437065972
 20
-0.567062717013889
 10
35.77938368055555
 20
-0.5925564236111111
 10
35.94233669704861
 20
-0.5925564236111111
 10
36.22070041232639
 20
-0.5925564236111111
 10
36.41913791232639
 20
-0.5422580295138888
 10
36.53764919704861
 20
-0.4409722222222223
 10
36.65616048177084
 20
-0.3400309244791666
 10
36.71541612413194
 20
-0.1457275390625
 10
36.71541612413194
 20
0.1419379340277778
 10
36.71541612413194
 20
0.1419379340277778
 10
36.71541612413194
 20
1.463476562499999
 10
36.71541612413194
 20
1.463476562499999
 97
        0
 75
     2
 76
     1
 98
        1
 10
0.0
 20
0.0
  0
HATCH
  5
60
330
4A
100
AcDbEntity
  8
LAYER_2
 62
     3
100
AcDbHatch
 10
0.0
 20
0.0
 30
0.0
210
0.0
220
0.0
230
1.0
  2
SOLID
 70
     1
 71
     0
 91
        1
 92
        1
 93
        1
 72
     4
 94
        3
 73
     0
 74
     0
 95
      110
 96
      106
 40
0.0
 40
0.0
 40
0.0
 40
0.0
 40
1.0
 40
1.0
 40
1.0
 40
2.0
 40
2.0
 40
2.0
 40
3.0
 40
3.0
 40
3.0
 40
4.0
 40
4.0
 40
4.0
 40
5.0
 40
5.0
 40
5.0
 40
6.0
 40
6.0
 40
6.0
 40
7.0
 40
7.0
 40
7.0
 40
8.0
 40
8.0
 40
8.0
 40
9.0
 40
9.0
 40
9.0
 40
10.0
 40
10.0
 40
10.0
 40
11.0
 40
11.0
 40
11.0
 40
12.0
 40
12.0
 40
12.0
 40
13.0
 40
13.0
 40
13.0
 40
14.0
 40
14.0
 40
14.0
 40
15.0
 40
15.0
 40
15.0
 40
16.0
 40
16.0
 40
16.0
 40
17.0
 40
17.0
 40
17.0
 40
18.0
 40
18.0
 40
18.0
 40
19.0
 40
19.0
 40
19.0
 40
20.0
 40
20.0
 40
20.0
 40
21.0
 40
21.0
 40
21.0
 40
22.0
 40
22.0
 40
22.0
 40
23.0
 40
23.0
 40
23.0
 40
24.0
 40
24.0
 40
24.0
 40
25.0
 40
25.0
 40
25.0
 40
26.0
 40
26.0
 40
26.0
 40
27.0
 40
27.0
 40
27.0
 40
28.0
 40
28.0
 40
28.0
 40
29.0
 40
29.0
 40
29.0
 40
30.0
 40
30.0
 40
30.0
 40
31.0
 40
31.0
 40
31.0
 40
32.0
 40
32.0
 40
32.0
 40
33.0
 40
33.0
 40
33.0
 40
34.0
 40
34.0
 40
34.0
 40
35.0
 40
35.0
 40
35.0
 40
35.0
 10
38.70978190104167
 20
-0.0964626736111111
 10
38.70978190104167
 20
-0.0964626736111111
 10
39.06807183159722
 20
-0.0689019097222222
 10
39.06807183159722
 20
-0.0689019097222222
 10
39.08495279947916
 20
-0.1839680989583333
 10
39.12422688802083
 20
-0.2780192057291666
 10
39.18554958767361
 20
-0.3513997395833333
 10
39.24721679687499
 20
-0.4251247829861111
 10
39.34264594184027
 20
-0.4847249348958333
 10
39.47218153211805
 20
-0.5298556857638889
 10
39.60171712239583
 20
-0.5753309461805555
 10
39.74778917100694
 20
-0.598068576388889
 10
39.90970865885417
 20
-0.598068576388889
 10
40.05336914062499
 20
-0.598068576388889
 10
40.1804931640625
 20
-0.5808430989583333
 10
40.29039171006944
 20
-0.5463921440972222
 10
40.40063476562499
 20
-0.5119411892361111
 10
40.48262803819444
 20
-0.4647433810763889
 10
40.53637152777777
 20
-0.4047987196180556
 10
40.59011501736111
 20
-0.3448540581597222
 10
40.61698676215278
 20
-0.2793972439236111
 10
40.61698676215278
 20
-0.2087727864583333
 10
40.61698676215278
 20
-0.1367702907986111
 10
40.59045952690971
 20
-0.0740695529513889
 10
40.53706054687499
 20
-0.0206705729166667
 10
40.48366156684028
 20
0.0330729166666667
 10
40.39753417968749
 20
0.0778591579861111
 10
40.27867838541665
 20
0.1143771701388889
 10
40.20254177517361
 20
0.1384928385416666
 10
40.03373209635416
 20
0.1756998697916666
 10
39.77293836805555
 20
0.2263427734375
 10
39.51214463975694
 20
0.2769856770833333
 10
39.32886555989583
 20
0.3245279947916666
 10
39.22413465711805
 20
0.3693142361111111
 10
39.08805338541667
 20
0.4268473307291666
 10
38.986767578125
 20
0.4981608072916666
 10
38.91993272569445
 20
0.5832546657986111
 10
38.8534423828125
 20
0.6683485243055555
 10
38.82002495659722
 20
0.7637776692708333
 10
38.82002495659722
 20
0.8691975911458332
 10
38.82002495659722
 20
0.9852973090277776
 10
38.86067708333333
 20
1.093473307291666
 10
38.94232584635417
 20
1.19407009548611
 10
39.023974609375
 20
1.295011393229166
 10
39.14317491319444
 20
1.371492513020833
 10
39.2999267578125
 20
1.423513454861111
 10
39.45633409288194
 20
1.47587890625
 10
39.63065592447917
 20
1.502061631944444
 10
39.82220323350694
 20
1.502061631944444
 10
40.03338758680555
 20
1.502061631944444
 10
40.21942274305555
 20
1.474845377604166
 10
40.38065321180555
 20
1.420068359374999
 10
40.54188368055554
 20
1.365635850694444
 10
40.66590711805555
 20
1.285020616319444
 10
40.75272352430554
 20
1.178911675347222
 10
40.83953993055555
 20
1.072802734374999
 10
40.88604871961805
 20
0.9529134114583332
 10
40.89259440104166
 20
0.8185546875
 10
40.89259440104166
 20
0.8185546875
 10
40.52879231770833
 20
0.7965060763888889
 10
40.52879231770833
 20
0.7965060763888889
 10
40.50915527343749
 20
0.9401665581597221
 10
40.44369845920138
 20
1.048687065972222
 10
40.33207736545138
 20
1.121723090277777
 10
40.22045627170139
 20
1.195448133680555
 10
40.05509168836804
 20
1.231966145833333
 10
39.83701714409722
 20
1.231966145833333
 10
39.60964084201389
 20
1.231966145833333
 10
39.44393174913194
 20
1.198204210069444
 10
39.33988986545138
 20
1.131024848090277
 10
39.23584798177083
 20
1.063845486111111
 10
39.18382703993055
 20
0.9828857421875
 10
39.18382703993055
 20
0.8881456163194442
 10
39.18382703993055
 20
0.8058078342013887
 10
39.22068956163194
 20
0.737939453125
 10
39.29441460503472
 20
0.6848849826388889
 10
39.36676161024305
 20
0.6318305121527778
 10
39.55555284288195
 20
0.5773980034722222
 10
39.8611328125
 20
0.5215874565972222
 10
40.16671278211805
 20
0.4657769097222222
 10
40.37686360677083
 20
0.4172010633680556
 10
40.49158528645833
 20
0.3755154079861111
 10
40.65867241753472
 20
0.3141927083333333
 10
40.78200683593749
 20
0.2363335503472222
 10
40.86124403211805
 20
0.1422824435763889
 10
40.94117024739583
 20
0.0482313368055556
 10
40.98078884548611
 20
-0.0602891710069445
 10
40.98078884548611
 20
-0.1832790798611111
 10
40.98078884548611
 20
-0.3048909505208333
 10
40.9373806423611
 20
-0.4196126302083333
 10
40.85021972656249
 20
-0.527099609375
 10
40.76340332031249
 20
-0.6349310980902777
 10
40.63869086371528
 20
-0.7186469184027777
 10
40.47573784722222
 20
-0.7785915798611111
 10
40.31278483072916
 20
-0.8381917317708332
 10
40.12950575086804
 20
-0.8681640624999998
 10
39.9262451171875
 20
-0.8681640624999998
 10
39.66786295572916
 20
-0.8681640624999998
 10
39.45151095920138
 20
-0.8378472222222221
 10
39.27718912760416
 20
-0.7779025607638889
 10
39.10252278645833
 20
-0.7179578993055556
 10
38.96575249565972
 20
-0.6273518880208333
 10
38.86653374565972
 20
-0.5064290364583333
 10
38.76731499565972
 20
-0.3855061848958333
 10
38.71494954427083
 20
-0.2487358940972222
 10
38.70978190104167
 20
-0.0964626736111111
 97
        0
 75
     2
 76
     1
 98
        1
 10
0.0
 20
0.0
  0
HATCH
  5
5F
330
4A
100
AcDbEntity
  8
LAYER_2
 62
     3
100
AcDbHatch
 10
0.0
 20
0.0
 30
0.0
210
0.0
220
0.0
230
1.0
  2
SOLID
 70
     1
 71
     0
 91
        3
 92
       16
 93
        1
 72
     4
 94
        3
 73
     0
 74
     0
 95
       35
 96
       31
 40
0.0
 40
0.0
 40
0.0
 40
0.0
 40
1.0
 40
1.0
 40
1.0
 40
2.0
 40
2.0
 40
2.0
 40
3.0
 40
3.0
 40
3.0
 40
4.0
 40
4.0
 40
4.0
 40
5.0
 40
5.0
 40
5.0
 40
6.0
 40
6.0
 40
6.0
 40
7.0
 40
7.0
 40
7.0
 40
8.0
 40
8.0
 40
8.0
 40
9.0
 40
9.0
 40
9.0
 40
10.0
 40
10.0
 40
10.0
 40
10.0
 10
42.97997775607639
 20
-0.5594835069444444
 10
42.97997775607639
 20
-0.5594835069444444
 10
43.69207899305555
 20
-0.5594835069444444
 10
43.69207899305555
 20
-0.5594835069444444
 10
43.81437988281249
 20
-0.5594835069444444
 10
43.90016276041666
 20
-0.5560384114583333
 10
43.94942762586805
 20
-0.5484592013888889
 10
44.03693305121527
 20
-0.536056857638889
 10
44.10962456597221
 20
-0.5153862847222222
 10
44.1681911892361
 20
-0.4861029730902777
 10
44.22641330295138
 20
-0.4568196614583333
 10
44.27464463975694
 20
-0.4144449869791666
 10
44.31254069010416
 20
-0.3586344401041666
 10
44.35009223090277
 20
-0.3028238932291666
 10
44.36904025607637
 20
-0.2384006076388889
 10
44.36904025607637
 20
-0.1653645833333333
 10
44.36904025607637
 20
-0.0799262152777778
 10
44.3414794921875
 20
-0.0055121527777778
 10
44.2860134548611
 20
0.0575330946180556
 10
44.23054741753471
 20
0.1205783420138889
 10
44.15475531684027
 20
0.1646755642361111
 10
44.05794813368055
 20
0.1905137803819444
 10
43.96114095052083
 20
0.2160074869791666
 10
43.82195909288194
 20
0.2287543402777778
 10
43.64005805121528
 20
0.2287543402777778
 10
43.64005805121528
 20
0.2287543402777778
 10
42.97997775607639
 20
0.2287543402777778
 10
42.97997775607639
 20
0.2287543402777778
 10
42.97997775607639
 20
0.2287543402777778
 10
42.97997775607639
 20
-0.5594835069444444
 10
42.97997775607639
 20
-0.5594835069444444
 97
        0
 92
       16
 93
        1
 72
     4
 94
        3
 73
     0
 74
     0
 95
       32
 96
       28
 40
0.0
 40
0.0
 40
0.0
 40
0.0
 40
1.0
 40
1.0
 40
1.0
 40
2.0
 40
2.0
 40
2.0
 40
3.0
 40
3.0
 40
3.0
 40
4.0
 40
4.0
 40
4.0
 40
5.0
 40
5.0
 40
5.0
 40
6.0
 40
6.0
 40
6.0
 40
7.0
 40
7.0
 40
7.0
 40
8.0
 40
8.0
 40
8.0
 40
9.0
 40
9.0
 40
9.0
 40
9.0
 10
42.97997775607639
 20
0.4988498263888889
 10
42.97997775607639
 20
0.4988498263888889
 10
43.59733886718749
 20
0.4988498263888889
 10
43.59733886718749
 20
0.4988498263888889
 10
43.76477050781249
 20
0.4988498263888889
 10
43.88500434027777
 20
0.5078070746527778
 10
43.95769585503471
 20
0.5253770616319445
 10
44.0534695095486
 20
0.5484592013888889
 10
44.12581651475694
 20
0.5866997612847222
 10
44.17473687065972
 20
0.6400987413194443
 10
44.22331271701388
 20
0.6931532118055555
 10
44.24777289496527
 20
0.7599880642361111
 10
44.24777289496527
 20
0.840603298611111
 10
44.24777289496527
 20
0.9170844184027776
 10
44.22503526475694
 20
0.9839192708333332
 10
44.17956000434027
 20
1.04214138454861
 10
44.13408474392361
 20
1.100018988715277
 10
44.06931694878472
 20
1.139637586805555
 10
43.98491210937499
 20
1.161341688368055
 10
43.90050726996527
 20
1.182701280381944
 10
43.7558132595486
 20
1.193381076388888
 10
43.55048556857638
 20
1.193381076388888
 10
43.55048556857638
 20
1.193381076388888
 10
42.97997775607639
 20
1.193381076388888
 10
42.97997775607639
 20
1.193381076388888
 10
42.97997775607639
 20
1.193381076388888
 10
42.97997775607639
 20
0.4988498263888889
 10
42.97997775607639
 20
0.4988498263888889
 97
        0
 92
        1
 93
        1
 72
     4
 94
        3
 73
     0
 74
     0
 95
       47
 96
       43
 40
0.0
 40
0.0
 40
0.0
 40
0.0
 40
1.0
 40
1.0
 40
1.0
 40
2.0
 40
2.0
 40
2.0
 40
3.0
 40
3.0
 40
3.0
 40
4.0
 40
4.0
 40
4.0
 40
5.0
 40
5.0
 40
5.0
 40
6.0
 40
6.0
 40
6.0
 40
7.0
 40
7.0
 40
7.0
 40
8.0
 40
8.0
 40
8.0
 40
9.0
 40
9.0
 40
9.0
 40
10.0
 40
10.0
 40
10.0
 40
11.0
 40
11.0
 40
11.0
 40
12.0
 40
12.0
 40
12.0
 40
13.0
 40
13.0
 40
13.0
 40
14.0
 40
14.0
 40
14.0
 40
14.0
 10
42.59963921440972
 20
-0.8295789930555555
 10
42.59963921440972
 20
-0.8295789930555555
 10
42.59963921440972
 20
1.463476562499999
 10
42.59963921440972
 20
1.463476562499999
 10
42.59963921440972
 20
1.463476562499999
 10
43.67347547743055
 20
1.463476562499999
 10
43.67347547743055
 20
1.463476562499999
 10
43.89223904079861
 20
1.463476562499999
 10
44.06759440104166
 20
1.440049913194444
 10
44.19988606770832
 20
1.393885633680555
 10
44.33183322482638
 20
1.347032335069444
 10
44.43553059895832
 20
1.275718858506944
 10
44.51028917100694
 20
1.178911675347222
 10
44.58504774305555
 20
1.082449001736111
 10
44.62259928385416
 20
0.9811631944444442
 10
44.62259928385416
 20
0.8757432725694444
 10
44.62259928385416
 20
0.7779025607638889
 10
44.58918185763888
 20
0.6852294921875
 10
44.52269151475694
 20
0.5987575954861111
 10
44.45585666232638
 20
0.5119411892361111
 10
44.35525987413194
 20
0.4416612413194444
 10
44.220556640625
 20
0.3886067708333333
 10
44.39384494357638
 20
0.3479546440972222
 10
44.52717013888888
 20
0.2787082248263888
 10
44.62053222656249
 20
0.1808675130208333
 10
44.71354980468749
 20
0.0830268012152778
 10
44.7604031032986
 20
-0.0323838975694445
 10
44.7604031032986
 20
-0.1657090928819444
 10
44.7604031032986
 20
-0.2731960720486111
 10
44.7321533203125
 20
-0.3727593315972222
 10
44.67565375434027
 20
-0.465087890625
 10
44.61880967881944
 20
-0.5570719401041666
 10
44.54887424045138
 20
-0.6280409071180556
 10
44.46550292968749
 20
-0.6779947916666666
 10
44.38213161892361
 20
-0.7279486762152777
 10
44.27808973524305
 20
-0.7658447265625
 10
44.15234374999999
 20
-0.7913384331597222
 10
44.02659776475694
 20
-0.8168321397569442
 10
43.87294650607638
 20
-0.8295789930555555
 10
43.69070095486111
 20
-0.8295789930555555
 10
43.69070095486111
 20
-0.8295789930555555
 10
42.59963921440972
 20
-0.8295789930555555
 10
42.59963921440972
 20
-0.8295789930555555
 97
        0
 75
     2
 76
     1
 98
        1
 10
0.0
 20
0.0
  0
HATCH
  5
5E
330
4A
100
AcDbEntity
  8
LAYER_2
 62
     3
100
AcDbHatch
 10
0.0
 20
0.0
 30
0.0
210
0.0
220
0.0
230
1.0
  2
SOLID
 70
     1
 71
     0
 91
        1
 92
        1
 93
        1
 72
     4
 94
        3
 73
     0
 74
     0
 95
       23
 96
       19
 40
0.0
 40
0.0
 40
0.0
 40
0.0
 40
1.0
 40
1.0
 40
1.0
 40
2.0
 40
2.0
 40
2.0
 40
3.0
 40
3.0
 40
3.0
 40
4.0
 40
4.0
 40
4.0
 40
5.0
 40
5.0
 40
5.0
 40
6.0
 40
6.0
 40
6.0
 40
6.0
 10
46.37925347222221
 20
-0.8295789930555555
 10
46.37925347222221
 20
-0.8295789930555555
 10
46.37925347222221
 20
1.463476562499999
 10
46.37925347222221
 20
1.463476562499999
 10
46.37925347222221
 20
1.463476562499999
 10
46.75959201388888
 20
1.463476562499999
 10
46.75959201388888
 20
1.463476562499999
 10
46.75959201388888
 20
1.463476562499999
 10
46.75959201388888
 20
-0.5594835069444444
 10
46.75959201388888
 20
-0.5594835069444444
 10
46.75959201388888
 20
-0.5594835069444444
 10
48.170703125
 20
-0.5594835069444444
 10
48.170703125
 20
-0.5594835069444444
 10
48.170703125
 20
-0.5594835069444444
 10
48.170703125
 20
-0.8295789930555555
 10
48.170703125
 20
-0.8295789930555555
 10
48.170703125
 20
-0.8295789930555555
 10
46.37925347222221
 20
-0.8295789930555555
 10
46.37925347222221
 20
-0.8295789930555555
 97
        0
 75
     2
 76
     1
 98
        1
 10
0.0
 20
0.0
  0
HATCH
  5
5D
330
4A
100
AcDbEntity
  8
LAYER_2
 62
     3
100
AcDbHatch
 10
0.0
 20
0.0
 30
0.0
210
0.0
220
0.0
230
1.0
  2
SOLID
 70
     1
 71
     0
 91
        1
 92
        1
 93
        1
 72
     4
 94
        3
 73
     0
 74
     0
 95
       56
 96
       52
 40
0.0
 40
0.0
 40
0.0
 40
0.0
 40
1.0
 40
1.0
 40
1.0
 40
2.0
 40
2.0
 40
2.0
 40
3.0
 40
3.0
 40
3.0
 40
4.0
 40
4.0
 40
4.0
 40
5.0
 40
5.0
 40
5.0
 40
6.0
 40
6.0
 40
6.0
 40
7.0
 40
7.0
 40
7.0
 40
8.0
 40
8.0
 40
8.0
 40
9.0
 40
9.0
 40
9.0
 40
10.0
 40
10.0
 40
10.0
 40
11.0
 40
11.0
 40
11.0
 40
12.0
 40
12.0
 40
12.0
 40
13.0
 40
13.0
 40
13.0
 40
14.0
 40
14.0
 40
14.0
 40
15.0
 40
15.0
 40
15.0
 40
16.0
 40
16.0
 40
16.0
 40
17.0
 40
17.0
 40
17.0
 40
17.0
 10
51.46352539062499
 20
1.463476562499999
 10
51.46352539062499
 20
1.463476562499999
 10
51.84386393229166
 20
1.463476562499999
 10
51.84386393229166
 20
1.463476562499999
 10
51.84386393229166
 20
1.463476562499999
 10
51.84386393229166
 20
0.1388373480902778
 10
51.84386393229166
 20
0.1388373480902778
 10
51.84386393229166
 20
-0.0916395399305556
 10
51.8111355251736
 20
-0.2745741102430555
 10
51.74602322048611
 20
-0.4099663628472223
 10
51.6809109157986
 20
-0.545703125
 10
51.5630886501736
 20
-0.6559461805555556
 10
51.39324544270833
 20
-0.7406955295138889
 10
51.22305772569443
 20
-0.8257893880208332
 10
50.99981553819444
 20
-0.8681640624999998
 10
50.72351888020833
 20
-0.8681640624999998
 10
50.45480143229166
 20
-0.8681640624999998
 10
50.23534884982638
 20
-0.83095703125
 10
50.06447211371527
 20
-0.7572319878472222
 10
49.89359537760416
 20
-0.6831624348958333
 10
49.77198350694443
 20
-0.5760199652777778
 10
49.69894748263889
 20
-0.4358045789930556
 10
49.62591145833332
 20
-0.2955891927083333
 10
49.58939344618055
 20
-0.1040418836805555
 10
49.58939344618055
 20
0.1388373480902778
 10
49.58939344618055
 20
0.1388373480902778
 10
49.58939344618055
 20
1.463476562499999
 10
49.58939344618055
 20
1.463476562499999
 10
49.58939344618055
 20
1.463476562499999
 10
49.96973198784722
 20
1.463476562499999
 10
49.96973198784722
 20
1.463476562499999
 10
49.96973198784722
 20
1.463476562499999
 10
49.96973198784722
 20
0.1419379340277778
 10
49.96973198784722
 20
0.1419379340277778
 10
49.96973198784722
 20
-0.0571885850694445
 10
49.99281412760416
 20
-0.2039496527777778
 10
50.03897840711805
 20
-0.2980007595486111
 10
50.08514268663194
 20
-0.3923963758680555
 10
50.1647243923611
 20
-0.465087890625
 10
50.27737901475694
 20
-0.5160753038194445
 10
50.38968912760417
 20
-0.567062717013889
 10
50.5274929470486
 20
-0.5925564236111111
 10
50.69010145399305
 20
-0.5925564236111111
 10
50.96880967881944
 20
-0.5925564236111111
 10
51.16724717881943
 20
-0.5422580295138888
 10
51.28575846354166
 20
-0.4409722222222223
 10
51.40426974826389
 20
-0.3400309244791666
 10
51.46352539062499
 20
-0.1457275390625
 10
51.46352539062499
 20
0.1419379340277778
 10
51.46352539062499
 20
0.1419379340277778
 10
51.46352539062499
 20
1.463476562499999
 10
51.46352539062499
 20
1.463476562499999
 97
        0
 75
     2
 76
     1
 98
        1
 10
0.0
 20
0.0
  0
HATCH
  5
5C
330
4A
100
AcDbEntity
  8
LAYER_2
 62
     3
100
AcDbHatch
 10
0.0
 20
0.0
 30
0.0
210
0.0
220
0.0
230
1.0
  2
SOLID
 70
     1
 71
     0
 91
        1
 92
        1
 93
        1
 72
     4
 94
        3
 73
     0
 74
     0
 95
       50
 96
       46
 40
0.0
 40
0.0
 40
0.0
 40
0.0
 40
1.0
 40
1.0
 40
1.0
 40
2.0
 40
2.0
 40
2.0
 40
3.0
 40
3.0
 40
3.0
 40
4.0
 40
4.0
 40
4.0
 40
5.0
 40
5.0
 40
5.0
 40
6.0
 40
6.0
 40
6.0
 40
7.0
 40
7.0
 40
7.0
 40
8.0
 40
8.0
 40
8.0
 40
9.0
 40
9.0
 40
9.0
 40
10.0
 40
10.0
 40
10.0
 40
11.0
 40
11.0
 40
11.0
 40
12.0
 40
12.0
 40
12.0
 40
13.0
 40
13.0
 40
13.0
 40
14.0
 40
14.0
 40
14.0
 40
15.0
 40
15.0
 40
15.0
 40
15.0
 10
53.57330186631944
 20
-0.8295789930555555
 10
53.57330186631944
 20
-0.8295789930555555
 10
53.57330186631944
 20
1.463476562499999
 10
53.57330186631944
 20
1.463476562499999
 10
53.57330186631944
 20
1.463476562499999
 10
54.14139811197916
 20
1.463476562499999
 10
54.14139811197916
 20
1.463476562499999
 10
54.14139811197916
 20
1.463476562499999
 10
54.82214898003472
 20
-0.1598524305555555
 10
54.82214898003472
 20
-0.1598524305555555
 10
54.88484971788194
 20
-0.3107476128472222
 10
54.93101399739583
 20
-0.4240912543402777
 10
54.95960828993055
 20
-0.4988498263888889
 10
54.9923366970486
 20
-0.415478515625
 10
55.04401312934027
 20
-0.2931776258680555
 10
55.11360405815971
 20
-0.1316026475694444
 10
55.11360405815971
 20
-0.1316026475694444
 10
55.80675726996528
 20
1.463476562499999
 10
55.80675726996528
 20
1.463476562499999
 10
55.80675726996528
 20
1.463476562499999
 10
56.30732964409721
 20
1.463476562499999
 10
56.30732964409721
 20
1.463476562499999
 10
56.30732964409721
 20
1.463476562499999
 10
56.30732964409721
 20
-0.8295789930555555
 10
56.30732964409721
 20
-0.8295789930555555
 10
56.30732964409721
 20
-0.8295789930555555
 10
55.94352756076388
 20
-0.8295789930555555
 10
55.94352756076388
 20
-0.8295789930555555
 10
55.94352756076388
 20
-0.8295789930555555
 10
55.94352756076388
 20
1.08865017361111
 10
55.94352756076388
 20
1.08865017361111
 10
55.94352756076388
 20
1.08865017361111
 10
55.10395779079861
 20
-0.8295789930555555
 10
55.10395779079861
 20
-0.8295789930555555
 10
55.10395779079861
 20
-0.8295789930555555
 10
54.76840549045139
 20
-0.8295789930555555
 10
54.76840549045139
 20
-0.8295789930555555
 10
54.76840549045139
 20
-0.8295789930555555
 10
53.93710394965277
 20
1.121723090277777
 10
53.93710394965277
 20
1.121723090277777
 10
53.93710394965277
 20
1.121723090277777
 10
53.93710394965277
 20
-0.8295789930555555
 10
53.93710394965277
 20
-0.8295789930555555
 10
53.93710394965277
 20
-0.8295789930555555
 10
53.57330186631944
 20
-0.8295789930555555
 10
53.57330186631944
 20
-0.8295789930555555
 97
        0
 75
     2
 76
     1
 98
        1
 10
0.0
 20
0.0
  0
HATCH
  5
5B
330
4A
100
AcDbEntity
  8
LAYER_2
 62
     3
100
AcDbHatch
 10
0.0
 20
0.0
 30
0.0
210
0.0
220
0.0
230
1.0
  2
SOLID
 70
     1
 71
     0
 91
        1
 92
        1
 93
        1
 72
     4
 94
        3
 73
     0
 74
     0
 95
       17
 96
       13
 40
0.0
 40
0.0
 40
0.0
 40
0.0
 40
1.0
 40
1.0
 40
1.0
 40
2.0
 40
2.0
 40
2.0
 40
3.0
 40
3.0
 40
3.0
 40
4.0
 40
4.0
 40
4.0
 40
4.0
 10
58.08327636718749
 20
-0.8295789930555555
 10
58.08327636718749
 20
-0.8295789930555555
 10
58.08327636718749
 20
-0.5098741319444445
 10
58.08327636718749
 20
-0.5098741319444445
 10
58.08327636718749
 20
-0.5098741319444445
 10
58.48566351996527
 20
-0.5098741319444445
 10
58.48566351996527
 20
-0.5098741319444445
 10
58.48566351996527
 20
-0.5098741319444445
 10
58.48566351996527
 20
-0.8295789930555555
 10
58.48566351996527
 20
-0.8295789930555555
 10
58.48566351996527
 20
-0.8295789930555555
 10
58.08327636718749
 20
-0.8295789930555555
 10
58.08327636718749
 20
-0.8295789930555555
 97
        0
 75
     2
 76
     1
 98
        1
 10
0.0
 20
0.0
  0
HATCH
  5
5A
330
4A
100
AcDbEntity
  8
LAYER_2
 62
     3
100
AcDbHatch
 10
0.0
 20
0.0
 30
0.0
210
0.0
220
0.0
230
1.0
  2
SOLID
 70
     1
 71
     0
 91
        1
 92
        1
 93
        1
 72
     4
 94
        3
 73
     0
 74
     0
 95
       71
 96
       67
 40
0.0
 40
0.0
 40
0.0
 40
0.0
 40
1.0
 40
1.0
 40
1.0
 40
2.0
 40
2.0
 40
2.0
 40
3.0
 40
3.0
 40
3.0
 40
4.0
 40
4.0
 40
4.0
 40
5.0
 40
5.0
 40
5.0
 40
6.0
 40
6.0
 40
6.0
 40
7.0
 40
7.0
 40
7.0
 40
8.0
 40
8.0
 40
8.0
 40
9.0
 40
9.0
 40
9.0
 40
10.0
 40
10.0
 40
10.0
 40
11.0
 40
11.0
 40
11.0
 40
12.0
 40
12.0
 40
12.0
 40
13.0
 40
13.0
 40
13.0
 40
14.0
 40
14.0
 40
14.0
 40
15.0
 40
15.0
 40
15.0
 40
16.0
 40
16.0
 40
16.0
 40
17.0
 40
17.0
 40
17.0
 40
18.0
 40
18.0
 40
18.0
 40
19.0
 40
19.0
 40
19.0
 40
20.0
 40
20.0
 40
20.0
 40
21.0
 40
21.0
 40
21.0
 40
22.0
 40
22.0
 40
22.0
 40
22.0
 10
62.29077148437499
 20
-0.0254937065972222
 10
62.29077148437499
 20
-0.0254937065972222
 10
62.67111002604166
 20
-0.1023193359375
 10
62.67111002604166
 20
-0.1023193359375
 10
62.59152832031249
 20
-0.3513997395833333
 10
62.44890136718749
 20
-0.5412245008680556
 10
62.24254014756944
 20
-0.6721381293402777
 10
62.03617892795138
 20
-0.8027072482638889
 10
61.78399793836805
 20
-0.8681640624999998
 10
61.48599717881944
 20
-0.8681640624999998
 10
61.17766113281249
 20
-0.8681640624999998
 10
60.9268581814236
 20
-0.8178656684027776
 10
60.73358832465277
 20
-0.7172688802083333
 10
60.54031846788194
 20
-0.6166720920138889
 10
60.39321289062499
 20
-0.4709445529513889
 10
60.29227159288193
 20
-0.2804307725694444
 10
60.19133029513888
 20
-0.0895724826388889
 10
60.14103190104166
 20
0.1150661892361111
 10
60.14103190104166
 20
0.3341742621527777
 10
60.14103190104166
 20
0.5729193793402777
 10
60.19787597656249
 20
0.7810031467013889
 10
60.31156412760417
 20
0.9587700737847221
 10
60.42559678819444
 20
1.136537000868055
 10
60.58751627604166
 20
1.271240234374999
 10
60.79766710069444
 20
1.363568793402777
 10
61.00781792534721
 20
1.455897352430555
 10
61.23898383246527
 20
1.502061631944444
 10
61.49150933159721
 20
1.502061631944444
 10
61.77779676649304
 20
1.502061631944444
 10
62.0182644314236
 20
1.443495008680555
 10
62.21360134548611
 20
1.327050781249999
 10
62.4089382595486
 20
1.210262044270833
 10
62.54467502170138
 20
1.046275499131944
 10
62.62150065104166
 20
0.8347466362847221
 10
62.62150065104166
 20
0.8347466362847221
 10
62.24667426215277
 20
0.7641221788194443
 10
62.24667426215277
 20
0.7641221788194443
 10
62.18018391927082
 20
0.9312093098958332
 10
62.08441026475694
 20
1.052821180555555
 10
61.95831976996527
 20
1.128613281249999
 10
61.8322292751736
 20
1.205094401041666
 10
61.67375488281249
 20
1.242990451388888
 10
61.48289659288193
 20
1.242990451388888
 10
61.26344401041666
 20
1.242990451388888
 10
61.08016493055554
 20
1.200615776909722
 10
60.93271484374999
 20
1.1162109375
 10
60.78526475694443
 20
1.031806098090277
 10
60.68156738281249
 20
0.9184624565972221
 10
60.62196723090277
 20
0.7758355034722222
 10
60.56236707899305
 20
0.6335530598958333
 10
60.53239474826388
 20
0.4867919921875
 10
60.53239474826388
 20
0.3355523003472221
 10
60.53239474826388
 20
0.1405598958333333
 10
60.56787923177083
 20
-0.0296278211805556
 10
60.6385036892361
 20
-0.1750108506944444
 10
60.70947265624999
 20
-0.3203938802083333
 10
60.81937120225694
 20
-0.4292588975694444
 10
60.96888834635416
 20
-0.5012613932291666
 10
61.11840549045138
 20
-0.5732638888888888
 10
61.28032497829861
 20
-0.6090928819444445
 10
61.45464680989583
 20
-0.6090928819444445
 10
61.66617567274305
 20
-0.6090928819444445
 10
61.84566514756944
 20
-0.5601725260416666
 10
61.99242621527777
 20
-0.4619873046875
 10
62.13953179253472
 20
-0.3641465928819444
 10
62.23875054253472
 20
-0.2184190538194444
 10
62.29077148437499
 20
-0.0254937065972222
 97
        0
 75
     2
 76
     1
 98
        1
 10
0.0
 20
0.0
  0
HATCH
  5
59
330
4A
100
AcDbEntity
  8
LAYER_2
 62
     3
100
AcDbHatch
 10
0.0
 20
0.0
 30
0.0
210
0.0
220
0.0
230
1.0
  2
SOLID
 70
     1
 71
     0
 91
        2
 92
       16
 93
        1
 72
     4
 94
        3
 73
     0
 74
     0
 95
       32
 96
       28
 40
0.0
 40
0.0
 40
0.0
 40
0.0
 40
1.0
 40
1.0
 40
1.0
 40
2.0
 40
2.0
 40
2.0
 40
3.0
 40
3.0
 40
3.0
 40
4.0
 40
4.0
 40
4.0
 40
5.0
 40
5.0
 40
5.0
 40
6.0
 40
6.0
 40
6.0
 40
7.0
 40
7.0
 40
7.0
 40
8.0
 40
8.0
 40
8.0
 40
9.0
 40
9.0
 40
9.0
 40
9.0
 10
64.52732747395832
 20
0.2824978298611111
 10
64.52732747395832
 20
0.006201171875
 10
64.62000054253471
 20
-0.2115288628472222
 10
64.8056911892361
 20
-0.3706922743055555
 10
64.99103732638888
 20
-0.5295111762152778
 10
65.22392578124999
 20
-0.6090928819444445
 10
65.50366753472221
 20
-0.6090928819444445
 10
65.78892144097221
 20
-0.6090928819444445
 10
66.02353244357638
 20
-0.5288221571180555
 10
66.20784505208333
 20
-0.3682807074652778
 10
66.39215766059027
 20
-0.2077392578125
 10
66.48414171006944
 20
0.0203260633680556
 10
66.48414171006944
 20
0.3155707465277777
 10
66.48414171006944
 20
0.5019504123263889
 10
66.44452311197916
 20
0.6649034288194445
 10
66.36597493489583
 20
0.8040852864583332
 10
66.28708224826389
 20
0.9432671440972221
 10
66.17201605902777
 20
1.051443142361111
 10
66.02008734809027
 20
1.127924262152777
 10
65.86850314670138
 20
1.204749891493055
 10
65.69831542968749
 20
1.242990451388888
 10
65.5095241970486
 20
1.242990451388888
 10
65.24149576822916
 20
1.242990451388888
 10
65.01067437065971
 20
1.16926540798611
 10
64.81740451388889
 20
1.021815321180555
 10
64.62413465711804
 20
0.8740207248263887
 10
64.52732747395832
 20
0.6276963975694444
 10
64.52732747395832
 20
0.2824978298611111
 97
        0
 92
        1
 93
        1
 72
     4
 94
        3
 73
     0
 74
     0
 95
       38
 96
       34
 40
0.0
 40
0.0
 40
0.0
 40
0.0
 40
1.0
 40
1.0
 40
1.0
 40
2.0
 40
2.0
 40
2.0
 40
3.0
 40
3.0
 40
3.0
 40
4.0
 40
4.0
 40
4.0
 40
5.0
 40
5.0
 40
5.0
 40
6.0
 40
6.0
 40
6.0
 40
7.0
 40
7.0
 40
7.0
 40
8.0
 40
8.0
 40
8.0
 40
9.0
 40
9.0
 40
9.0
 40
10.0
 40
10.0
 40
10.0
 40
11.0
 40
11.0
 40
11.0
 40
11.0
 10
64.13596462673611
 20
0.2866319444444444
 10
64.13596462673611
 20
0.6666259765625
 10
64.26377766927082
 20
0.9642822265625
 10
64.51905924479166
 20
1.179600694444444
 10
64.77434082031249
 20
1.394574652777777
 10
65.10369194878471
 20
1.502061631944444
 10
65.50780164930555
 20
1.502061631944444
 10
65.77204047309027
 20
1.502061631944444
 10
66.01044108072916
 20
1.451418728298611
 10
66.22265896267361
 20
1.350477430555555
 10
66.43522135416666
 20
1.249536132812499
 10
66.59679633246527
 20
1.108631727430555
 10
66.70841742621528
 20
0.9277642144097221
 10
66.81969401041666
 20
0.7472412109375
 10
66.87550455729166
 20
0.5422580295138888
 10
66.87550455729166
 20
0.3131591796875
 10
66.87550455729166
 20
0.080615234375
 10
66.81693793402778
 20
-0.1271240234375
 10
66.69946017795138
 20
-0.3104031032986111
 10
66.58232693142361
 20
-0.4936821831597222
 10
66.41627332899304
 20
-0.63251953125
 10
66.20129937065971
 20
-0.7269151475694445
 10
65.98632541232638
 20
-0.8209662543402776
 10
65.7544704861111
 20
-0.8681640624999998
 10
65.50573459201388
 20
-0.8681640624999998
 10
65.23598361545139
 20
-0.8681640624999998
 10
64.99517144097222
 20
-0.8161431206597221
 10
64.78260904947916
 20
-0.7117567274305556
 10
64.57039116753472
 20
-0.60771484375
 10
64.40950520833332
 20
-0.4657769097222222
 10
64.3002956814236
 20
-0.28525390625
 10
64.19074164496527
 20
-0.105419921875
 10
64.13596462673611
 20
0.0854383680555556
 10
64.13596462673611
 20
0.2866319444444444
 97
        0
 75
     2
 76
     1
 98
        1
 10
0.0
 20
0.0
  0
HATCH
  5
58
330
4A
100
AcDbEntity
  8
LAYER_2
 62
     3
100
AcDbHatch
 10
0.0
 20
0.0
 30
0.0
210
0.0
220
0.0
230
1.0
  2
SOLID
 70
     1
 71
     0
 91
        1
 92
        1
 93
        1
 72
     4
 94
        3
 73
     0
 74
     0
 95
       50
 96
       46
 40
0.0
 40
0.0
 40
0.0
 40
0.0
 40
1.0
 40
1.0
 40
1.0
 40
2.0
 40
2.0
 40
2.0
 40
3.0
 40
3.0
 40
3.0
 40
4.0
 40
4.0
 40
4.0
 40
5.0
 40
5.0
 40
5.0
 40
6.0
 40
6.0
 40
6.0
 40
7.0
 40
7.0
 40
7.0
 40
8.0
 40
8.0
 40
8.0
 40
9.0
 40
9.0
 40
9.0
 40
10.0
 40
10.0
 40
10.0
 40
11.0
 40
11.0
 40
11.0
 40
12.0
 40
12.0
 40
12.0
 40
13.0
 40
13.0
 40
13.0
 40
14.0
 40
14.0
 40
14.0
 40
15.0
 40
15.0
 40
15.0
 40
15.0
 10
68.46369357638888
 20
-0.8295789930555555
 10
68.46369357638888
 20
-0.8295789930555555
 10
68.46369357638888
 20
1.463476562499999
 10
68.46369357638888
 20
1.463476562499999
 10
68.46369357638888
 20
1.463476562499999
 10
69.03178982204861
 20
1.463476562499999
 10
69.03178982204861
 20
1.463476562499999
 10
69.03178982204861
 20
1.463476562499999
 10
69.71254069010416
 20
-0.1598524305555555
 10
69.71254069010416
 20
-0.1598524305555555
 10
69.77524142795139
 20
-0.3107476128472222
 10
69.82140570746527
 20
-0.4240912543402777
 10
69.84999999999999
 20
-0.4988498263888889
 10
69.88272840711805
 20
-0.415478515625
 10
69.93440483940972
 20
-0.2931776258680555
 10
70.00399576822916
 20
-0.1316026475694444
 10
70.00399576822916
 20
-0.1316026475694444
 10
70.69714898003471
 20
1.463476562499999
 10
70.69714898003471
 20
1.463476562499999
 10
70.69714898003471
 20
1.463476562499999
 10
71.19772135416666
 20
1.463476562499999
 10
71.19772135416666
 20
1.463476562499999
 10
71.19772135416666
 20
1.463476562499999
 10
71.19772135416666
 20
-0.8295789930555555
 10
71.19772135416666
 20
-0.8295789930555555
 10
71.19772135416666
 20
-0.8295789930555555
 10
70.83391927083332
 20
-0.8295789930555555
 10
70.83391927083332
 20
-0.8295789930555555
 10
70.83391927083332
 20
-0.8295789930555555
 10
70.83391927083332
 20
1.08865017361111
 10
70.83391927083332
 20
1.08865017361111
 10
70.83391927083332
 20
1.08865017361111
 10
69.99434950086805
 20
-0.8295789930555555
 10
69.99434950086805
 20
-0.8295789930555555
 10
69.99434950086805
 20
-0.8295789930555555
 10
69.65879720052083
 20
-0.8295789930555555
 10
69.65879720052083
 20
-0.8295789930555555
 10
69.65879720052083
 20
-0.8295789930555555
 10
68.82749565972222
 20
1.121723090277777
 10
68.82749565972222
 20
1.121723090277777
 10
68.82749565972222
 20
1.121723090277777
 10
68.82749565972222
 20
-0.8295789930555555
 10
68.82749565972222
 20
-0.8295789930555555
 10
68.82749565972222
 20
-0.8295789930555555
 10
68.46369357638888
 20
-0.8295789930555555
 10
68.46369357638888
 20
-0.8295789930555555
 97
        0
 75
     2
 76
     1
 98
        1
 10
0.0
 20
0.0
  0
HATCH
  5
57
330
4A
100
AcDbEntity
  8
LAYER_2
 62
     3
100
AcDbHatch
 10
0.0
 20
0.0
 30
0.0
210
0.0
220
0.0
230
1.0
  2
SOLID
 70
     1
 71
     0
 91
        2
 92
       16
 93
        1
 72
     4
 94
        3
 73
     0
 74
     0
 95
       29
 96
       25
 40
0.0
 40
0.0
 40
0.0
 40
0.0
 40
1.0
 40
1.0
 40
1.0
 40
2.0
 40
2.0
 40
2.0
 40
3.0
 40
3.0
 40
3.0
 40
4.0
 40
4.0
 40
4.0
 40
5.0
 40
5.0
 40
5.0
 40
6.0
 40
6.0
 40
6.0
 40
7.0
 40
7.0
 40
7.0
 40
8.0
 40
8.0
 40
8.0
 40
8.0
 10
81.07928873697916
 20
0.3720703125
 10
81.07928873697916
 20
0.3720703125
 10
81.81688368055555
 20
0.3720703125
 10
81.81688368055555
 20
0.3720703125
 10
82.0607964409722
 20
0.3720703125
 10
82.23408474392361
 20
0.4085883246527777
 10
82.3367485894097
 20
0.4816243489583333
 10
82.43906792534721
 20
0.5550048828125
 10
82.49039984809028
 20
0.6580132378472223
 10
82.49039984809028
 20
0.7906494140625
 10
82.49039984809028
 20
0.886767578125
 10
82.46008300781248
 20
0.9687608506944444
 10
82.39979383680553
 20
1.037318250868055
 10
82.33950466579861
 20
1.105875651041666
 10
82.25992296006943
 20
1.151006401909722
 10
82.16139322916665
 20
1.173055013020833
 10
82.09800347222222
 20
1.186490885416666
 10
81.98052571614582
 20
1.193381076388888
 10
81.80895996093749
 20
1.193381076388888
 10
81.80895996093749
 20
1.193381076388888
 10
81.07928873697916
 20
1.193381076388888
 10
81.07928873697916
 20
1.193381076388888
 10
81.07928873697916
 20
1.193381076388888
 10
81.07928873697916
 20
0.3720703125
 10
81.07928873697916
 20
0.3720703125
 97
        0
 92
        1
 93
        1
 72
     4
 94
        3
 73
     0
 74
     0
 95
       38
 96
       34
 40
0.0
 40
0.0
 40
0.0
 40
0.0
 40
1.0
 40
1.0
 40
1.0
 40
2.0
 40
2.0
 40
2.0
 40
3.0
 40
3.0
 40
3.0
 40
4.0
 40
4.0
 40
4.0
 40
5.0
 40
5.0
 40
5.0
 40
6.0
 40
6.0
 40
6.0
 40
7.0
 40
7.0
 40
7.0
 40
8.0
 40
8.0
 40
8.0
 40
9.0
 40
9.0
 40
9.0
 40
10.0
 40
10.0
 40
10.0
 40
11.0
 40
11.0
 40
11.0
 40
11.0
 10
80.6989501953125
 20
-0.8295789930555555
 10
80.6989501953125
 20
-0.8295789930555555
 10
80.6989501953125
 20
1.463476562499999
 10
80.6989501953125
 20
1.463476562499999
 10
80.6989501953125
 20
1.463476562499999
 10
81.77760959201387
 20
1.463476562499999
 10
81.77760959201387
 20
1.463476562499999
 10
81.9674343532986
 20
1.463476562499999
 10
82.11247287326388
 20
1.456241861979166
 10
82.21272515190971
 20
1.441427951388888
 10
82.35328504774305
 20
1.422824435763888
 10
82.47076280381945
 20
1.386995442708333
 10
82.5658474392361
 20
1.334285481770833
 10
82.66058756510416
 20
1.281575520833333
 10
82.73706868489583
 20
1.207850477430555
 10
82.79494628906249
 20
1.112765842013888
 10
82.85282389322915
 20
1.018025716145833
 10
82.88176269531248
 20
0.9136393229166666
 10
82.88176269531248
 20
0.799951171875
 10
82.88176269531248
 20
0.6049587673611111
 10
82.80459255642361
 20
0.4395941840277777
 10
82.64990776909721
 20
0.3045464409722222
 10
82.49522298177081
 20
0.1694986979166666
 10
82.2158257378472
 20
0.1019748263888889
 10
81.81206054687498
 20
0.1019748263888889
 10
81.81206054687498
 20
0.1019748263888889
 10
81.07928873697916
 20
0.1019748263888889
 10
81.07928873697916
 20
0.1019748263888889
 10
81.07928873697916
 20
0.1019748263888889
 10
81.07928873697916
 20
-0.8295789930555555
 10
81.07928873697916
 20
-0.8295789930555555
 10
81.07928873697916
 20
-0.8295789930555555
 10
80.6989501953125
 20
-0.8295789930555555
 10
80.6989501953125
 20
-0.8295789930555555
 97
        0
 75
     2
 76
     1
 98
        1
 10
0.0
 20
0.0
  0
HATCH
  5
56
330
4A
100
AcDbEntity
  8
LAYER_2
 62
     3
100
AcDbHatch
 10
0.0
 20
0.0
 30
0.0
210
0.0
220
0.0
230
1.0
  2
SOLID
 70
     1
 71
     0
 91
        2
 92
       16
 93
        1
 72
     4
 94
        3
 73
     0
 74
     0
 95
       20
 96
       16
 40
0.0
 40
0.0
 40
0.0
 40
0.0
 40
1.0
 40
1.0
 40
1.0
 40
2.0
 40
2.0
 40
2.0
 40
3.0
 40
3.0
 40
3.0
 40
4.0
 40
4.0
 40
4.0
 40
5.0
 40
5.0
 40
5.0
 40
5.0
 10
84.91746961805555
 20
0.1129991319444444
 10
84.91746961805555
 20
0.1129991319444444
 10
85.89312065972221
 20
0.1129991319444444
 10
85.89312065972221
 20
0.1129991319444444
 10
85.89312065972221
 20
0.1129991319444444
 10
85.59856499565972
 20
0.750341796875
 10
85.59856499565972
 20
0.750341796875
 10
85.50554741753471
 20
0.942578125
 10
85.43630099826387
 20
1.10105251736111
 10
85.39048122829859
 20
1.226453993055555
 10
85.3498291015625
 20
1.077625868055555
 10
85.29746365017359
 20
0.9301757812499998
 10
85.23372938368055
 20
0.7837592230902777
 10
85.23372938368055
 20
0.7837592230902777
 10
84.91746961805555
 20
0.1129991319444444
 10
84.91746961805555
 20
0.1129991319444444
 97
        0
 92
        1
 93
        1
 72
     4
 94
        3
 73
     0
 74
     0
 95
       29
 96
       25
 40
0.0
 40
0.0
 40
0.0
 40
0.0
 40
1.0
 40
1.0
 40
1.0
 40
2.0
 40
2.0
 40
2.0
 40
3.0
 40
3.0
 40
3.0
 40
4.0
 40
4.0
 40
4.0
 40
5.0
 40
5.0
 40
5.0
 40
6.0
 40
6.0
 40
6.0
 40
7.0
 40
7.0
 40
7.0
 40
8.0
 40
8.0
 40
8.0
 40
8.0
 10
84.09202473958332
 20
-0.8295789930555555
 10
84.09202473958332
 20
-0.8295789930555555
 10
85.19342176649304
 20
1.463476562499999
 10
85.19342176649304
 20
1.463476562499999
 10
85.19342176649304
 20
1.463476562499999
 10
85.60924479166665
 20
1.463476562499999
 10
85.60924479166665
 20
1.463476562499999
 10
85.60924479166665
 20
1.463476562499999
 10
86.77265353732638
 20
-0.8295789930555555
 10
86.77265353732638
 20
-0.8295789930555555
 10
86.77265353732638
 20
-0.8295789930555555
 10
86.34132758246527
 20
-0.8295789930555555
 10
86.34132758246527
 20
-0.8295789930555555
 10
86.34132758246527
 20
-0.8295789930555555
 10
86.0140435112847
 20
-0.1350477430555555
 10
86.0140435112847
 20
-0.1350477430555555
 10
86.0140435112847
 20
-0.1350477430555555
 10
84.80929361979166
 20
-0.1350477430555555
 10
84.80929361979166
 20
-0.1350477430555555
 10
84.80929361979166
 20
-0.1350477430555555
 10
84.49475640190971
 20
-0.8295789930555555
 10
84.49475640190971
 20
-0.8295789930555555
 10
84.49475640190971
 20
-0.8295789930555555
 10
84.09202473958332
 20
-0.8295789930555555
 10
84.09202473958332
 20
-0.8295789930555555
 97
        0
 75
     2
 76
     1
 98
        1
 10
0.0
 20
0.0
  0
HATCH
  5
55
330
4A
100
AcDbEntity
  8
LAYER_2
 62
     3
100
AcDbHatch
 10
0.0
 20
0.0
 30
0.0
210
0.0
220
0.0
230
1.0
  2
SOLID
 70
     1
 71
     0
 91
        2
 92
       16
 93
        1
 72
     4
 94
        3
 73
     0
 74
     0
 95
       29
 96
       25
 40
0.0
 40
0.0
 40
0.0
 40
0.0
 40
1.0
 40
1.0
 40
1.0
 40
2.0
 40
2.0
 40
2.0
 40
3.0
 40
3.0
 40
3.0
 40
4.0
 40
4.0
 40
4.0
 40
5.0
 40
5.0
 40
5.0
 40
6.0
 40
6.0
 40
6.0
 40
7.0
 40
7.0
 40
7.0
 40
8.0
 40
8.0
 40
8.0
 40
8.0
 10
88.35119628906248
 20
0.4547526041666666
 10
88.35119628906248
 20
0.4547526041666666
 10
89.16423882378472
 20
0.4547526041666666
 10
89.16423882378472
 20
0.4547526041666666
 10
89.3371826171875
 20
0.4547526041666666
 10
89.47223036024304
 20
0.4688774956597223
 10
89.56938205295138
 20
0.4974717881944444
 10
89.66653374565972
 20
0.5260660807291666
 10
89.7406032986111
 20
0.5718858506944445
 10
89.79124620225695
 20
0.6345865885416666
 10
89.84154459635416
 20
0.6972873263888888
 10
89.86703830295139
 20
0.7655002170138889
 10
89.86703830295139
 20
0.8392252604166666
 10
89.86703830295139
 20
0.9474012586805555
 10
89.8181179470486
 20
1.035940212673611
 10
89.72027723524304
 20
1.105531141493055
 10
89.62209201388887
 20
1.175122070312499
 10
89.46740722656249
 20
1.209917534722222
 10
89.25587836371526
 20
1.209917534722222
 10
89.25587836371526
 20
1.209917534722222
 10
88.35119628906248
 20
1.209917534722222
 10
88.35119628906248
 20
1.209917534722222
 10
88.35119628906248
 20
1.209917534722222
 10
88.35119628906248
 20
0.4547526041666666
 10
88.35119628906248
 20
0.4547526041666666
 97
        0
 92
        1
 93
        1
 72
     4
 94
        3
 73
     0
 74
     0
 95
       62
 96
       58
 40
0.0
 40
0.0
 40
0.0
 40
0.0
 40
1.0
 40
1.0
 40
1.0
 40
2.0
 40
2.0
 40
2.0
 40
3.0
 40
3.0
 40
3.0
 40
4.0
 40
4.0
 40
4.0
 40
5.0
 40
5.0
 40
5.0
 40
6.0
 40
6.0
 40
6.0
 40
7.0
 40
7.0
 40
7.0
 40
8.0
 40
8.0
 40
8.0
 40
9.0
 40
9.0
 40
9.0
 40
10.0
 40
10.0
 40
10.0
 40
11.0
 40
11.0
 40
11.0
 40
12.0
 40
12.0
 40
12.0
 40
13.0
 40
13.0
 40
13.0
 40
14.0
 40
14.0
 40
14.0
 40
15.0
 40
15.0
 40
15.0
 40
16.0
 40
16.0
 40
16.0
 40
17.0
 40
17.0
 40
17.0
 40
18.0
 40
18.0
 40
18.0
 40
19.0
 40
19.0
 40
19.0
 40
19.0
 10
87.97085774739583
 20
-0.8295789930555555
 10
87.97085774739583
 20
-0.8295789930555555
 10
87.97085774739583
 20
1.463476562499999
 10
87.97085774739583
 20
1.463476562499999
 10
87.97085774739583
 20
1.463476562499999
 10
89.24037543402777
 20
1.463476562499999
 10
89.24037543402777
 20
1.463476562499999
 10
89.49531249999999
 20
1.463476562499999
 10
89.68892686631944
 20
1.442805989583333
 10
89.82156304253472
 20
1.40180935329861
 10
89.95419921874999
 20
1.360812717013888
 10
90.0599636501736
 20
1.288465711805555
 10
90.13954535590277
 20
1.184423828124999
 10
90.21878255208333
 20
1.080381944444444
 10
90.25840115017359
 20
0.9656602647569442
 10
90.25840115017359
 20
0.8399142795138889
 10
90.25840115017359
 20
0.6776502821180555
 10
90.19259982638889
 20
0.5408799913194445
 10
90.06134168836805
 20
0.4299479166666666
 10
89.93008355034723
 20
0.3183268229166666
 10
89.72716742621527
 20
0.248046875
 10
89.45293782552083
 20
0.2177300347222222
 10
89.55319010416666
 20
0.1791449652777778
 10
89.6289822048611
 20
0.1405598958333333
 10
89.68100314670138
 20
0.1030083550347222
 10
89.79159071180555
 20
0.0213595920138889
 10
89.89597710503472
 20
-0.080615234375
 10
89.99416232638887
 20
-0.2032606336805555
 10
89.99416232638887
 20
-0.2032606336805555
 10
90.48922254774305
 20
-0.8295789930555555
 10
90.48922254774305
 20
-0.8295789930555555
 10
90.48922254774305
 20
-0.8295789930555555
 10
90.0165554470486
 20
-0.8295789930555555
 10
90.0165554470486
 20
-0.8295789930555555
 10
90.0165554470486
 20
-0.8295789930555555
 10
89.63828396267359
 20
-0.3507107204861111
 10
89.63828396267359
 20
-0.3507107204861111
 10
89.52872992621527
 20
-0.2125623914930555
 10
89.43812391493054
 20
-0.1067979600694444
 10
89.36681043836804
 20
-0.0334174262152778
 10
89.29515245225694
 20
0.0396185980902778
 10
89.23107367621527
 20
0.0906060112847222
 10
89.17388509114582
 20
0.1195448133680555
 10
89.11669650607638
 20
0.1481391059027778
 10
89.05916341145832
 20
0.1681206597222222
 10
89.00059678819443
 20
0.1794894748263889
 10
88.95753309461804
 20
0.1867241753472222
 10
88.88725314670137
 20
0.1901692708333333
 10
88.79010145399304
 20
0.1901692708333333
 10
88.79010145399304
 20
0.1901692708333333
 10
88.35119628906248
 20
0.1901692708333333
 10
88.35119628906248
 20
0.1901692708333333
 10
88.35119628906248
 20
0.1901692708333333
 10
88.35119628906248
 20
-0.8295789930555555
 10
88.35119628906248
 20
-0.8295789930555555
 10
88.35119628906248
 20
-0.8295789930555555
 10
87.97085774739583
 20
-0.8295789930555555
 10
87.97085774739583
 20
-0.8295789930555555
 97
        0
 75
     2
 76
     1
 98
        1
 10
0.0
 20
0.0
  0
HATCH
  5
54
330
4A
100
AcDbEntity
  8
LAYER_2
 62
     3
100
AcDbHatch
 10
0.0
 20
0.0
 30
0.0
210
0.0
220
0.0
230
1.0
  2
SOLID
 70
     1
 71
     0
 91
        1
 92
        1
 93
        1
 72
     4
 94
        3
 73
     0
 74
     0
 95
       29
 96
       25
 40
0.0
 40
0.0
 40
0.0
 40
0.0
 40
1.0
 40
1.0
 40
1.0
 40
2.0
 40
2.0
 40
2.0
 40
3.0
 40
3.0
 40
3.0
 40
4.0
 40
4.0
 40
4.0
 40
5.0
 40
5.0
 40
5.0
 40
6.0
 40
6.0
 40
6.0
 40
7.0
 40
7.0
 40
7.0
 40
8.0
 40
8.0
 40
8.0
 40
8.0
 10
92.69373914930554
 20
-0.8295789930555555
 10
92.69373914930554
 20
-0.8295789930555555
 10
92.69373914930554
 20
1.193381076388888
 10
92.69373914930554
 20
1.193381076388888
 10
92.69373914930554
 20
1.193381076388888
 10
91.75116102430555
 20
1.193381076388888
 10
91.75116102430555
 20
1.193381076388888
 10
91.75116102430555
 20
1.193381076388888
 10
91.75116102430555
 20
1.463476562499999
 10
91.75116102430555
 20
1.463476562499999
 10
91.75116102430555
 20
1.463476562499999
 10
94.01665581597221
 20
1.463476562499999
 10
94.01665581597221
 20
1.463476562499999
 10
94.01665581597221
 20
1.463476562499999
 10
94.01665581597221
 20
1.193381076388888
 10
94.01665581597221
 20
1.193381076388888
 10
94.01665581597221
 20
1.193381076388888
 10
93.07407769097222
 20
1.193381076388888
 10
93.07407769097222
 20
1.193381076388888
 10
93.07407769097222
 20
1.193381076388888
 10
93.07407769097222
 20
-0.8295789930555555
 10
93.07407769097222
 20
-0.8295789930555555
 10
93.07407769097222
 20
-0.8295789930555555
 10
92.69373914930554
 20
-0.8295789930555555
 10
92.69373914930554
 20
-0.8295789930555555
 97
        0
 75
     2
 76
     1
 98
        1
 10
0.0
 20
0.0
  0
HATCH
  5
53
330
4A
100
AcDbEntity
  8
LAYER_2
 62
     3
100
AcDbHatch
 10
0.0
 20
0.0
 30
0.0
210
0.0
220
0.0
230
1.0
  2
SOLID
 70
     1
 71
     0
 91
        1
 92
        1
 93
        1
 72
     4
 94
        3
 73
     0
 74
     0
 95
       35
 96
       31
 40
0.0
 40
0.0
 40
0.0
 40
0.0
 40
1.0
 40
1.0
 40
1.0
 40
2.0
 40
2.0
 40
2.0
 40
3.0
 40
3.0
 40
3.0
 40
4.0
 40
4.0
 40
4.0
 40
5.0
 40
5.0
 40
5.0
 40
6.0
 40
6.0
 40
6.0
 40
7.0
 40
7.0
 40
7.0
 40
8.0
 40
8.0
 40
8.0
 40
9.0
 40
9.0
 40
9.0
 40
10.0
 40
10.0
 40
10.0
 40
10.0
 10
96.55465766059027
 20
-0.8295789930555555
 10
96.55465766059027
 20
-0.8295789930555555
 10
96.55465766059027
 20
1.463476562499999
 10
96.55465766059027
 20
1.463476562499999
 10
96.55465766059027
 20
1.463476562499999
 10
96.94395345052083
 20
1.463476562499999
 10
96.94395345052083
 20
1.463476562499999
 10
96.94395345052083
 20
1.463476562499999
 10
98.4563503689236
 20
-0.3386528862847222
 10
98.4563503689236
 20
-0.3386528862847222
 10
98.4563503689236
 20
-0.3386528862847222
 10
98.4563503689236
 20
1.463476562499999
 10
98.4563503689236
 20
1.463476562499999
 10
98.4563503689236
 20
1.463476562499999
 10
98.82015245225694
 20
1.463476562499999
 10
98.82015245225694
 20
1.463476562499999
 10
98.82015245225694
 20
1.463476562499999
 10
98.82015245225694
 20
-0.8295789930555555
 10
98.82015245225694
 20
-0.8295789930555555
 10
98.82015245225694
 20
-0.8295789930555555
 10
98.43085666232639
 20
-0.8295789930555555
 10
98.43085666232639
 20
-0.8295789930555555
 10
98.43085666232639
 20
-0.8295789930555555
 10
96.91845974392361
 20
0.9725504557291666
 10
96.91845974392361
 20
0.9725504557291666
 10
96.91845974392361
 20
0.9725504557291666
 10
96.91845974392361
 20
-0.8295789930555555
 10
96.91845974392361
 20
-0.8295789930555555
 10
96.91845974392361
 20
-0.8295789930555555
 10
96.55465766059027
 20
-0.8295789930555555
 10
96.55465766059027
 20
-0.8295789930555555
 97
        0
 75
     2
 76
     1
 98
        1
 10
0.0
 20
0.0
  0
HATCH
  5
52
330
4A
100
AcDbEntity
  8
LAYER_2
 62
     3
100
AcDbHatch
 10
0.0
 20
0.0
 30
0.0
210
0.0
220
0.0
230
1.0
  2
SOLID
 70
     1
 71
     0
 91
        2
 92
       16
 93
        1
 72
     4
 94
        3
 73
     0
 74
     0
 95
       29
 96
       25
 40
0.0
 40
0.0
 40
0.0
 40
0.0
 40
1.0
 40
1.0
 40
1.0
 40
2.0
 40
2.0
 40
2.0
 40
3.0
 40
3.0
 40
3.0
 40
4.0
 40
4.0
 40
4.0
 40
5.0
 40
5.0
 40
5.0
 40
6.0
 40
6.0
 40
6.0
 40
7.0
 40
7.0
 40
7.0
 40
8.0
 40
8.0
 40
8.0
 40
8.0
 10
100.7480278862847
 20
0.0034450954861111
 10
100.7480278862847
 20
-0.2104953342013888
 10
100.8059054904514
 20
-0.3706922743055555
 10
100.9216606987847
 20
-0.4771457248263889
 10
101.0370713975694
 20
-0.5835991753472222
 10
101.1827989366319
 20
-0.6366536458333333
 10
101.358154296875
 20
-0.6366536458333333
 10
101.5321316189236
 20
-0.6366536458333333
 10
101.6771701388889
 20
-0.5832546657986111
 10
101.7925808376736
 20
-0.4761121961805556
 10
101.9083360460069
 20
-0.3693142361111111
 10
101.9662136501736
 20
-0.2060167100694444
 10
101.9662136501736
 20
0.0130913628472222
 10
101.9662136501736
 20
0.2194525824652778
 10
101.9079915364583
 20
0.3762044270833333
 10
101.7918918185763
 20
0.4823133680555556
 10
101.6754475911458
 20
0.589111328125
 10
101.5307535807291
 20
0.642165798611111
 10
101.358154296875
 20
0.642165798611111
 10
101.1827989366319
 20
0.642165798611111
 10
101.0370713975694
 20
0.589111328125
 10
100.9216606987847
 20
0.4833468967013889
 10
100.8059054904514
 20
0.3772379557291666
 10
100.7480278862847
 20
0.2173855251736111
 10
100.7480278862847
 20
0.0034450954861111
 97
        0
 92
        1
 93
        1
 72
     4
 94
        3
 73
     0
 74
     0
 95
       32
 96
       28
 40
0.0
 40
0.0
 40
0.0
 40
0.0
 40
1.0
 40
1.0
 40
1.0
 40
2.0
 40
2.0
 40
2.0
 40
3.0
 40
3.0
 40
3.0
 40
4.0
 40
4.0
 40
4.0
 40
5.0
 40
5.0
 40
5.0
 40
6.0
 40
6.0
 40
6.0
 40
7.0
 40
7.0
 40
7.0
 40
8.0
 40
8.0
 40
8.0
 40
9.0
 40
9.0
 40
9.0
 40
9.0
 10
100.3842258029514
 20
0.0027560763888889
 10
100.3842258029514
 20
0.3114366319444444
 10
100.4910237630208
 20
0.5398464626736111
 10
100.7049641927083
 20
0.688330078125
 10
100.8834201388889
 20
0.8120090060763887
 10
101.1011501736111
 20
0.8736762152777776
 10
101.358154296875
 20
0.8736762152777776
 10
101.6437527126736
 20
0.8736762152777776
 10
101.8769856770833
 20
0.7985731336805556
 10
102.0581976996527
 20
0.6483669704861111
 10
102.2394097222222
 20
0.4981608072916666
 10
102.3300157335069
 20
0.2907660590277778
 10
102.3300157335069
 20
0.0261827256944445
 10
102.3300157335069
 20
-0.1881022135416666
 10
102.290052625868
 20
-0.3569118923611111
 10
102.2097819010416
 20
-0.4799018012152778
 10
102.1295111762152
 20
-0.6028917100694445
 10
102.0127224392361
 20
-0.6979763454861111
 10
101.8597601996527
 20
-0.766189236111111
 10
101.7064534505208
 20
-0.8340576171875
 10
101.5393663194444
 20
-0.8681640624999998
 10
101.358154296875
 20
-0.8681640624999998
 10
101.0673882378472
 20
-0.8681640624999998
 10
100.8324327256944
 20
-0.7934054904513889
 10
100.652943250868
 20
-0.6438883463541666
 10
100.4737982855902
 20
-0.4940266927083333
 10
100.3842258029514
 20
-0.2787082248263888
 10
100.3842258029514
 20
0.0027560763888889
 97
        0
 75
     2
 76
     1
 98
        1
 10
0.0
 20
0.0
  0
HATCH
  5
51
330
4A
100
AcDbEntity
  8
LAYER_2
 62
     3
100
AcDbHatch
 10
0.0
 20
0.0
 30
0.0
210
0.0
220
0.0
230
1.0
  2
SOLID
 70
     1
 71
     0
 91
        1
 92
        1
 93
        1
 72
     4
 94
        3
 73
     0
 74
     0
 95
       17
 96
       13
 40
0.0
 40
0.0
 40
0.0
 40
0.0
 40
1.0
 40
1.0
 40
1.0
 40
2.0
 40
2.0
 40
2.0
 40
3.0
 40
3.0
 40
3.0
 40
4.0
 40
4.0
 40
4.0
 40
4.0
 10
103.9523111979166
 20
-0.8295789930555555
 10
103.9523111979166
 20
-0.8295789930555555
 10
103.9523111979166
 20
-0.5098741319444445
 10
103.9523111979166
 20
-0.5098741319444445
 10
103.9523111979166
 20
-0.5098741319444445
 10
104.3546983506944
 20
-0.5098741319444445
 10
104.3546983506944
 20
-0.5098741319444445
 10
104.3546983506944
 20
-0.5098741319444445
 10
104.3546983506944
 20
-0.8295789930555555
 10
104.3546983506944
 20
-0.8295789930555555
 10
104.3546983506944
 20
-0.8295789930555555
 10
103.9523111979166
 20
-0.8295789930555555
 10
103.9523111979166
 20
-0.8295789930555555
 97
        0
 75
     2
 76
     1
 98
        1
 10
0.0
 20
0.0
  0
HATCH
  5
50
330
4A
100
AcDbEntity
  8
LAYER_2
 62
     3
100
AcDbHatch
 10
0.0
 20
0.0
 30
0.0
210
0.0
220
0.0
230
1.0
  2
SOLID
 70
     1
 71
     0
 91
        2
 92
       16
 93
        1
 72
     4
 94
        3
 73
     0
 74
     0
 95
       14
 96
       10
 40
0.0
 40
0.0
 40
0.0
 40
0.0
 40
1.0
 40
1.0
 40
1.0
 40
2.0
 40
2.0
 40
2.0
 40
3.0
 40
3.0
 40
3.0
 40
3.0
 10
108.218372938368
 20
-0.0192925347222222
 10
108.218372938368
 20
-0.0192925347222222
 10
108.218372938368
 20
1.005278862847222
 10
108.218372938368
 20
1.005278862847222
 10
108.218372938368
 20
1.005278862847222
 10
107.319203016493
 20
-0.0192925347222222
 10
107.319203016493
 20
-0.0192925347222222
 10
107.319203016493
 20
-0.0192925347222222
 10
108.218372938368
 20
-0.0192925347222222
 10
108.218372938368
 20
-0.0192925347222222
 97
        0
 92
        1
 93
        1
 72
     4
 94
        3
 73
     0
 74
     0
 95
       38
 96
       34
 40
0.0
 40
0.0
 40
0.0
 40
0.0
 40
1.0
 40
1.0
 40
1.0
 40
2.0
 40
2.0
 40
2.0
 40
3.0
 40
3.0
 40
3.0
 40
4.0
 40
4.0
 40
4.0
 40
5.0
 40
5.0
 40
5.0
 40
6.0
 40
6.0
 40
6.0
 40
7.0
 40
7.0
 40
7.0
 40
8.0
 40
8.0
 40
8.0
 40
9.0
 40
9.0
 40
9.0
 40
10.0
 40
10.0
 40
10.0
 40
11.0
 40
11.0
 40
11.0
 40
11.0
 10
108.218372938368
 20
-0.8295789930555555
 10
108.218372938368
 20
-0.8295789930555555
 10
108.218372938368
 20
-0.2783637152777778
 10
108.218372938368
 20
-0.2783637152777778
 10
108.218372938368
 20
-0.2783637152777778
 10
106.9726264105902
 20
-0.2783637152777778
 10
106.9726264105902
 20
-0.2783637152777778
 10
106.9726264105902
 20
-0.2783637152777778
 10
106.9726264105902
 20
-0.0192925347222222
 10
106.9726264105902
 20
-0.0192925347222222
 10
106.9726264105902
 20
-0.0192925347222222
 10
108.2845187717014
 20
1.463476562499999
 10
108.2845187717014
 20
1.463476562499999
 10
108.2845187717014
 20
1.463476562499999
 10
108.5711507161458
 20
1.463476562499999
 10
108.5711507161458
 20
1.463476562499999
 10
108.5711507161458
 20
1.463476562499999
 10
108.5711507161458
 20
-0.0192925347222222
 10
108.5711507161458
 20
-0.0192925347222222
 10
108.5711507161458
 20
-0.0192925347222222
 10
108.9570014105902
 20
-0.0192925347222222
 10
108.9570014105902
 20
-0.0192925347222222
 10
108.9570014105902
 20
-0.0192925347222222
 10
108.9570014105902
 20
-0.2783637152777778
 10
108.9570014105902
 20
-0.2783637152777778
 10
108.9570014105902
 20
-0.2783637152777778
 10
108.5711507161458
 20
-0.2783637152777778
 10
108.5711507161458
 20
-0.2783637152777778
 10
108.5711507161458
 20
-0.2783637152777778
 10
108.5711507161458
 20
-0.8295789930555555
 10
108.5711507161458
 20
-0.8295789930555555
 10
108.5711507161458
 20
-0.8295789930555555
 10
108.218372938368
 20
-0.8295789930555555
 10
108.218372938368
 20
-0.8295789930555555
 97
        0
 75
     2
 76
     1
 98
        1
 10
0.0
 20
0.0
  0
HATCH
  5
4F
330
4A
100
AcDbEntity
  8
LAYER_2
 62
     3
100
AcDbHatch
 10
0.0
 20
0.0
 30
0.0
210
0.0
220
0.0
230
1.0
  2
SOLID
 70
     1
 71
     0
 91
        1
 92
        1
 93
        1
 72
     4
 94
        3
 73
     0
 74
     0
 95
       38
 96
       34
 40
0.0
 40
0.0
 40
0.0
 40
0.0
 40
1.0
 40
1.0
 40
1.0
 40
2.0
 40
2.0
 40
2.0
 40
3.0
 40
3.0
 40
3.0
 40
4.0
 40
4.0
 40
4.0
 40
5.0
 40
5.0
 40
5.0
 40
6.0
 40
6.0
 40
6.0
 40
7.0
 40
7.0
 40
7.0
 40
8.0
 40
8.0
 40
8.0
 40
9.0
 40
9.0
 40
9.0
 40
10.0
 40
10.0
 40
10.0
 40
11.0
 40
11.0
 40
11.0
 40
11.0
 10
110.4466606987847
 20
1.165820312499999
 10
110.4466606987847
 20
1.165820312499999
 10
110.4466606987847
 20
1.435915798611111
 10
110.4466606987847
 20
1.435915798611111
 10
110.4466606987847
 20
1.435915798611111
 10
112.3042561848958
 20
1.435915798611111
 10
112.3042561848958
 20
1.435915798611111
 10
112.3042561848958
 20
1.435915798611111
 10
112.3042561848958
 20
1.217496744791666
 10
112.3042561848958
 20
1.217496744791666
 10
112.1220106336805
 20
1.061778428819444
 10
111.9414876302083
 20
0.8550726996527776
 10
111.7623426649305
 20
0.5973795572916666
 10
111.5835422092014
 20
0.3393419053819444
 10
111.4450493706597
 20
0.0740695529513889
 10
111.3475531684027
 20
-0.1984375
 10
111.2772732204861
 20
-0.390673828125
 10
111.232142469618
 20
-0.6008246527777778
 10
111.2128499348958
 20
-0.8295789930555555
 10
111.2128499348958
 20
-0.8295789930555555
 10
110.8490478515625
 20
-0.8295789930555555
 10
110.8490478515625
 20
-0.8295789930555555
 10
110.8528374565972
 20
-0.6490559895833333
 10
110.897279188368
 20
-0.4306369357638889
 10
110.9820285373264
 20
-0.1750108506944444
 10
111.0667778862847
 20
0.0809597439236111
 10
111.1883897569444
 20
0.3276285807291666
 10
111.3465196397569
 20
0.5649956597222223
 10
111.504994032118
 20
0.8027072482638889
 10
111.6738037109375
 20
1.002867296006944
 10
111.852259657118
 20
1.165820312499999
 10
111.852259657118
 20
1.165820312499999
 10
110.4466606987847
 20
1.165820312499999
 10
110.4466606987847
 20
1.165820312499999
 97
        0
 75
     2
 76
     1
 98
        1
 10
0.0
 20
0.0
  0
HATCH
  5
4E
330
4A
100
AcDbEntity
  8
LAYER_2
 62
     3
100
AcDbHatch
 10
0.0
 20
0.0
 30
0.0
210
0.0
220
0.0
230
1.0
  2
SOLID
 70
     1
 71
     0
 91
        1
 92
        1
 93
        1
 72
     4
 94
        3
 73
     0
 74
     0
 95
       95
 96
       91
 40
0.0
 40
0.0
 40
0.0
 40
0.0
 40
1.0
 40
1.0
 40
1.0
 40
2.0
 40
2.0
 40
2.0
 40
3.0
 40
3.0
 40
3.0
 40
4.0
 40
4.0
 40
4.0
 40
5.0
 40
5.0
 40
5.0
 40
6.0
 40
6.0
 40
6.0
 40
7.0
 40
7.0
 40
7.0
 40
8.0
 40
8.0
 40
8.0
 40
9.0
 40
9.0
 40
9.0
 40
10.0
 40
10.0
 40
10.0
 40
11.0
 40
11.0
 40
11.0
 40
12.0
 40
12.0
 40
12.0
 40
13.0
 40
13.0
 40
13.0
 40
14.0
 40
14.0
 40
14.0
 40
15.0
 40
15.0
 40
15.0
 40
16.0
 40
16.0
 40
16.0
 40
17.0
 40
17.0
 40
17.0
 40
18.0
 40
18.0
 40
18.0
 40
19.0
 40
19.0
 40
19.0
 40
20.0
 40
20.0
 40
20.0
 40
21.0
 40
21.0
 40
21.0
 40
22.0
 40
22.0
 40
22.0
 40
23.0
 40
23.0
 40
23.0
 40
24.0
 40
24.0
 40
24.0
 40
25.0
 40
25.0
 40
25.0
 40
26.0
 40
26.0
 40
26.0
 40
27.0
 40
27.0
 40
27.0
 40
28.0
 40
28.0
 40
28.0
 40
29.0
 40
29.0
 40
29.0
 40
30.0
 40
30.0
 40
30.0
 40
30.0
 10
113.7608425564236
 20
-0.2287543402777778
 10
113.7608425564236
 20
-0.2287543402777778
 10
114.1136203342014
 20
-0.1901692708333333
 10
114.1136203342014
 20
-0.1901692708333333
 10
114.1539279513889
 20
-0.3482991536458333
 10
114.2224853515624
 20
-0.4623318142361111
 10
114.318603515625
 20
-0.5319227430555556
 10
114.4147216796875
 20
-0.6018581814236111
 10
114.5335774739583
 20
-0.6366536458333333
 10
114.6751708984375
 20
-0.6366536458333333
 10
114.8426025390625
 20
-0.6366536458333333
 10
114.9828179253472
 20
-0.5908338758680555
 10
115.0958170572916
 20
-0.4988498263888889
 10
115.2091606987847
 20
-0.4072102864583333
 10
115.2656602647569
 20
-0.2935221354166666
 10
115.2656602647569
 20
-0.1581298828125
 10
115.2656602647569
 20
-0.0289388020833333
 10
115.2126057942708
 20
0.0778591579861111
 10
115.1071858723958
 20
0.1619194878472222
 10
115.0017659505208
 20
0.2456353081597222
 10
114.8674072265625
 20
0.2876654730902777
 10
114.7041097005208
 20
0.2876654730902777
 10
114.6379638671875
 20
0.2876654730902777
 10
114.5549370659722
 20
0.2769856770833333
 10
114.4560628255208
 20
0.2563151041666666
 10
114.4560628255208
 20
0.2563151041666666
 10
114.4949924045139
 20
0.5043619791666666
 10
114.4949924045139
 20
0.5043619791666666
 10
114.5184190538194
 20
0.502294921875
 10
114.537367078993
 20
0.5012613932291666
 10
114.5514919704861
 20
0.5012613932291666
 10
114.7006646050347
 20
0.5012613932291666
 10
114.835023328993
 20
0.5326117621527777
 10
114.9542236328125
 20
0.5953125
 10
115.0737684461805
 20
0.657668728298611
 10
115.1333685980902
 20
0.7541314019097222
 10
115.1333685980902
 20
0.8847005208333332
 10
115.1333685980902
 20
0.9880533854166666
 10
115.0896158854166
 20
1.073491753472222
 10
115.002454969618
 20
1.141360134548611
 10
114.9149495442708
 20
1.209228515625
 10
114.8026394314236
 20
1.242990451388888
 10
114.6644911024305
 20
1.242990451388888
 10
114.5277208116319
 20
1.242990451388888
 10
114.4136881510416
 20
1.208539496527777
 10
114.3223931206597
 20
1.139637586805555
 10
114.2314425998264
 20
1.070735677083333
 10
114.1728759765625
 20
0.9673828125
 10
114.146693250868
 20
0.8295789930555555
 10
114.146693250868
 20
0.8295789930555555
 10
113.7939154730903
 20
0.8791883680555553
 10
113.7939154730903
 20
0.8791883680555553
 10
113.8369791666666
 20
1.067979600694444
 10
113.9348198784722
 20
1.214740668402777
 10
114.0874376085069
 20
1.318782552083333
 10
114.2403998480902
 20
1.422479926215277
 10
114.430224609375
 20
1.474500868055555
 10
114.6572564019097
 20
1.474500868055555
 10
114.8136637369791
 20
1.474500868055555
 10
114.9580132378472
 20
1.447629123263888
 10
115.0899603949653
 20
1.393885633680555
 10
115.2215630425347
 20
1.340142144097222
 10
115.3225043402777
 20
1.266761610243055
 10
115.3924397786458
 20
1.174088541666666
 10
115.4620307074653
 20
1.081070963541666
 10
115.4971706814236
 20
0.9825412326388887
 10
115.4971706814236
 20
0.8781548394097221
 10
115.4971706814236
 20
0.7789360894097222
 10
115.4640977647569
 20
0.688674587673611
 10
115.397607421875
 20
0.6073703342013889
 10
115.331117078993
 20
0.5260660807291666
 10
115.2325873480902
 20
0.4612982855902778
 10
115.1023627387153
 20
0.4134114583333333
 10
115.2718614366319
 20
0.3820610894097221
 10
115.40380859375
 20
0.3172932942708333
 10
115.498548719618
 20
0.2187635633680555
 10
115.5929443359375
 20
0.1202338324652778
 10
115.6404866536458
 20
-0.0027560763888889
 10
115.6404866536458
 20
-0.1508951822916666
 10
115.6404866536458
 20
-0.3507107204861111
 10
115.5491916232639
 20
-0.520553927951389
 10
115.3662570529514
 20
-0.6593912760416666
 10
115.1836669921875
 20
-0.7985731336805556
 10
114.9525010850694
 20
-0.8681640624999998
 10
114.6731038411458
 20
-0.8681640624999998
 10
114.4212673611111
 20
-0.8681640624999998
 10
114.2121500651041
 20
-0.8089084201388889
 10
114.045751953125
 20
-0.6900526258680556
 10
113.8793538411458
 20
-0.5715413411458333
 10
113.7842692057291
 20
-0.4175455729166666
 10
113.7608425564236
 20
-0.2287543402777778
 97
        0
 75
     2
 76
     1
 98
        1
 10
0.0
 20
0.0
  0
HATCH
  5
4D
330
4A
100
AcDbEntity
  8
LAYER_2
 62
     3
100
AcDbHatch
 10
0.0
 20
0.0
 30
0.0
210
0.0
220
0.0
230
1.0
  2
SOLID
 70
     1
 71
     0
 91
        2
 92
       16
 93
        1
 72
     4
 94
        3
 73
     0
 74
     0
 95
       29
 96
       25
 40
0.0
 40
0.0
 40
0.0
 40
0.0
 40
1.0
 40
1.0
 40
1.0
 40
2.0
 40
2.0
 40
2.0
 40
3.0
 40
3.0
 40
3.0
 40
4.0
 40
4.0
 40
4.0
 40
5.0
 40
5.0
 40
5.0
 40
6.0
 40
6.0
 40
6.0
 40
7.0
 40
7.0
 40
7.0
 40
8.0
 40
8.0
 40
8.0
 40
8.0
 10
117.4612196180555
 20
0.3031684027777777
 10
117.4612196180555
 20
-0.0751030815972222
 10
117.5159966362847
 20
-0.3265950520833333
 10
117.625550672743
 20
-0.4506184895833333
 10
117.73544921875
 20
-0.5746419270833333
 10
117.8708414713541
 20
-0.6366536458333333
 10
118.0317274305555
 20
-0.6366536458333333
 10
118.1926133897569
 20
-0.6366536458333333
 10
118.3280056423611
 20
-0.5742974175347222
 10
118.4375596788194
 20
-0.4499294704861111
 10
118.5474582248263
 20
-0.3252170138888888
 10
118.6022352430555
 20
-0.0744140625
 10
118.6022352430555
 20
0.3031684027777777
 10
118.6022352430555
 20
0.6810953776041666
 10
118.5474582248263
 20
0.9322428385416666
 10
118.4382486979166
 20
1.056610785590277
 10
118.3290391710069
 20
1.180978732638888
 10
118.1922688802083
 20
1.242990451388888
 10
118.0279378255208
 20
1.242990451388888
 10
117.8667073567708
 20
1.242990451388888
 10
117.7378607855902
 20
1.188213433159722
 10
117.6407090928819
 20
1.078314887152777
 10
117.5211642795139
 20
0.9384440104166666
 10
117.4612196180555
 20
0.6800618489583333
 10
117.4612196180555
 20
0.3031684027777777
 97
        0
 92
        1
 93
        1
 72
     4
 94
        3
 73
     0
 74
     0
 95
       41
 96
       37
 40
0.0
 40
0.0
 40
0.0
 40
0.0
 40
1.0
 40
1.0
 40
1.0
 40
2.0
 40
2.0
 40
2.0
 40
3.0
 40
3.0
 40
3.0
 40
4.0
 40
4.0
 40
4.0
 40
5.0
 40
5.0
 40
5.0
 40
6.0
 40
6.0
 40
6.0
 40
7.0
 40
7.0
 40
7.0
 40
8.0
 40
8.0
 40
8.0
 40
9.0
 40
9.0
 40
9.0
 40
10.0
 40
10.0
 40
10.0
 40
11.0
 40
11.0
 40
11.0
 40
12.0
 40
12.0
 40
12.0
 40
12.0
 10
117.0974175347222
 20
0.3024793836805555
 10
117.0974175347222
 20
0.5736083984375
 10
117.1322129991319
 20
0.7923719618055555
 10
117.2018039279514
 20
0.958425564236111
 10
117.2717393663194
 20
1.124479166666666
 10
117.3754367404514
 20
1.251947699652777
 10
117.5125515407986
 20
1.340831163194444
 10
117.650355360243
 20
1.430059136284722
 10
117.8232991536458
 20
1.474500868055555
 10
118.0317274305555
 20
1.474500868055555
 10
118.1853786892361
 20
1.474500868055555
 10
118.3207709418402
 20
1.449696180555555
 10
118.437904188368
 20
1.400086805555555
 10
118.5546929253472
 20
1.350477430555555
 10
118.6504665798611
 20
1.279163953993055
 10
118.7252251519097
 20
1.185801866319444
 10
118.7996392144097
 20
1.092439778645833
 10
118.8585503472222
 20
0.9787516276041666
 10
118.9016140407986
 20
0.8447374131944444
 10
118.9443332248264
 20
0.7103786892361111
 10
118.9660373263889
 20
0.5298556857638889
 10
118.9660373263889
 20
0.3024793836805555
 10
118.9660373263889
 20
0.0330729166666667
 10
118.9315863715277
 20
-0.1846571180555555
 10
118.8623399522569
 20
-0.3507107204861111
 10
118.7934380425347
 20
-0.5167643229166666
 10
118.6900851779514
 20
-0.644577365451389
 10
118.5526258680555
 20
-0.7338053385416666
 10
118.4151665581597
 20
-0.8233778211805555
 10
118.2415337456597
 20
-0.8681640624999998
 10
118.0317274305555
 20
-0.8681640624999998
 10
117.7554307725694
 20
-0.8681640624999998
 10
117.5383897569444
 20
-0.7896158854166666
 10
117.3809488932291
 20
-0.63251953125
 10
117.1918131510416
 20
-0.440283203125
 10
117.0974175347222
 20
-0.1285020616319444
 10
117.0974175347222
 20
0.3024793836805555
 97
        0
 75
     2
 76
     1
 98
        1
 10
0.0
 20
0.0
  0
ENDBLK
  5
8A
330
4A
100
AcDbEntity
  8
LAYER_2
100
AcDbBlockEnd
  0
BLOCK
  5
B4
330
B3
100
AcDbEntity
  8
0
100
AcDbBlockBegin
  2
_OBLIQUE
 70
     0
 10
0.0
 20
0.0
 30
0.0
  3
_OBLIQUE
  1

  0
LINE
  5
B5
330
B3
100
AcDbEntity
  8
0
  6
ByBlock
 62
     0
100
AcDbLine
 10
-0.5
 20
-0.5
 30
0.0
 11
0.5
 21
0.5
 31
0.0
  0
ENDBLK
  5
B6
330
B3
100
AcDbEntity
  8
0
100
AcDbBlockEnd
  0
BLOCK
  5
EE
330
E3
100
AcDbEntity
  8
0
 62
     3
370
     0
100
AcDbBlockBegin
  2
*D8
 70
     1
 10
0.0
 20
0.0
 30
0.0
  3
*D8
  1

  0
LINE
  5
167
330
E3
100
AcDbEntity
  8
ADPDIM
  6
Continuous
 62
     0
370
     0
100
AcDbLine
 10
-3.135088261220971
 20
-23.45061207396248
 30
0.0
 11
-3.135088261220971
 21
-22.72119850632027
 31
0.0
  0
LINE
  5
168
330
E3
100
AcDbEntity
  8
ADPDIM
  6
Continuous
 62
     0
370
     0
100
AcDbLine
 10
-2.635132655942813
 20
-23.45727486248909
 30
0.0
 11
-2.635132655942813
 21
-22.72119850632027
 31
0.0
  0
LINE
  5
169
330
E3
100
AcDbEntity
  8
ADPDIM
  6
Continuous
 62
     0
370
     0
100
AcDbLine
 10
-3.315088261220971
 20
-22.90119850632027
 30
0.0
 11
-3.495088261220971
 21
-22.90119850632027
 31
0.0
  0
LINE
  5
16A
330
E3
100
AcDbEntity
  8
ADPDIM
  6
Continuous
 62
     0
370
     0
100
AcDbLine
 10
-2.455132655942813
 20
-22.90119850632027
 30
0.0
 11
-2.275132655942813
 21
-22.90119850632027
 31
0.0
  0
SOLID
  5
16B
330
E3
100
AcDbEntity
  8
ADPDIM
  6
Continuous
 62
     0
370
     0
100
AcDbTrace
 10
-3.315088261220971
 20
-22.87119850632027
 30
0.0
 11
-3.315088261220971
 21
-22.93119850632027
 31
0.0
 12
-3.135088261220971
 22
-22.90119850632027
 32
0.0
 13
-3.135088261220971
 23
-22.90119850632027
 33
0.0
  0
SOLID
  5
16C
330
E3
100
AcDbEntity
  8
ADPDIM
  6
Continuous
 62
     0
370
     0
100
AcDbTrace
 10
-2.455132655942813
 20
-22.87119850632027
 30
0.0
 11
-2.455132655942813
 21
-22.93119850632027
 31
0.0
 12
-2.635132655942813
 22
-22.90119850632027
 32
0.0
 13
-2.635132655942813
 23
-22.90119850632027
 33
0.0
  0
MTEXT
  5
16D
330
E3
100
AcDbEntity
  8
ADPDIM
  6
Continuous
 62
     0
370
     0
100
AcDbMText
 10
-2.885110458581892
 20
-22.90119850632027
 30
0.0
 40
0.1
 41
0.0
 71
     5
 72
     1
  1
\A1;1/2
 73
     1
 44
1.0
1001
ACAD
1000
MTEXTBEGIN
1070
    73
1070
     1
1070
    44
1040
1.0
1070
    74
1070
     0
1000
MTEXTEND
  0
POINT
  5
16E
330
E3
100
AcDbEntity
  8
Defpoints
  6
Continuous
 62
     0
370
     0
100
AcDbPoint
 10
-3.135088261220971
 20
-23.51311207396248
 30
0.0
  0
POINT
  5
16F
330
E3
100
AcDbEntity
  8
Defpoints
  6
Continuous
 62
     0
370
     0
100
AcDbPoint
 10
-2.635132655942813
 20
-23.51977486248909
 30
0.0
  0
POINT
  5
170
330
E3
100
AcDbEntity
  8
Defpoints
  6
Continuous
 62
     0
370
     0
100
AcDbPoint
 10
-2.635132655942813
 20
-22.90119850632027
 30
0.0
  0
ENDBLK
  5
EF
330
E3
100
AcDbEntity
  8
0
 62
     3
370
     0
100
AcDbBlockEnd
  0
BLOCK
  5
FC
330
F1
100
AcDbEntity
  8
0
 62
     3
370
     0
100
AcDbBlockBegin
  2
*D9
 70
     1
 10
0.0
 20
0.0
 30
0.0
  3
*D9
  1

  0
LINE
  5
112
330
F1
100
AcDbEntity
  8
ADPDIM
  6
Continuous
 62
     0
370
     0
100
AcDbLine
 10
-2.728359949484456
 20
-23.73092160736314
 30
0.0
 11
-2.728359949484456
 21
-23.56647570790376
 31
0.0
  0
LINE
  5
113
330
F1
100
AcDbEntity
  8
ADPDIM
  6
Continuous
 62
     0
370
     0
100
AcDbLine
 10
-2.635359949484456
 20
-23.73092160736314
 30
0.0
 11
-2.635359949484456
 21
-23.56647570790376
 31
0.0
  0
LINE
  5
114
330
F1
100
AcDbEntity
  8
ADPDIM
  6
Continuous
 62
     0
370
     0
100
AcDbLine
 10
-2.908359949484456
 20
-23.74647570790376
 30
0.0
 11
-3.088359949484456
 21
-23.74647570790376
 31
0.0
  0
LINE
  5
115
330
F1
100
AcDbEntity
  8
ADPDIM
  6
Continuous
 62
     0
370
     0
100
AcDbLine
 10
-2.455359949484456
 20
-23.74647570790376
 30
0.0
 11
-2.275359949484456
 21
-23.74647570790376
 31
0.0
  0
SOLID
  5
116
330
F1
100
AcDbEntity
  8
ADPDIM
  6
Continuous
 62
     0
370
     0
100
AcDbTrace
 10
-2.908359949484456
 20
-23.71647570790376
 30
0.0
 11
-2.908359949484456
 21
-23.77647570790376
 31
0.0
 12
-2.728359949484456
 22
-23.74647570790376
 32
0.0
 13
-2.728359949484456
 23
-23.74647570790376
 33
0.0
  0
SOLID
  5
117
330
F1
100
AcDbEntity
  8
ADPDIM
  6
Continuous
 62
     0
370
     0
100
AcDbTrace
 10
-2.455359949484456
 20
-23.71647570790376
 30
0.0
 11
-2.455359949484456
 21
-23.77647570790376
 31
0.0
 12
-2.635359949484456
 22
-23.74647570790376
 32
0.0
 13
-2.635359949484456
 23
-23.74647570790376
 33
0.0
  0
MTEXT
  5
118
330
F1
100
AcDbEntity
  8
ADPDIM
  6
Continuous
 62
     0
370
     0
100
AcDbMText
 10
-1.960359949484456
 20
-23.74647570790376
 30
0.0
 40
0.1
 41
0.0
 71
     5
 72
     1
  1
\A1;0.0930
 73
     1
 44
1.0
1001
ACAD
1000
MTEXTBEGIN
1070
    73
1070
     1
1070
    44
1040
1.0
1070
    74
1070
     0
1000
MTEXTEND
  0
POINT
  5
119
330
F1
100
AcDbEntity
  8
Defpoints
  6
Continuous
 62
     0
370
     0
100
AcDbPoint
 10
-2.728359949484456
 20
-23.79342160736314
 30
0.0
  0
POINT
  5
11A
330
F1
100
AcDbEntity
  8
Defpoints
  6
Continuous
 62
     0
370
     0
100
AcDbPoint
 10
-2.635359949484456
 20
-23.79342160736314
 30
0.0
  0
POINT
  5
11B
330
F1
100
AcDbEntity
  8
Defpoints
  6
Continuous
 62
     0
370
     0
100
AcDbPoint
 10
-2.635359949484456
 20
-23.74647570790376
 30
0.0
  0
ENDBLK
  5
FD
330
F1
100
AcDbEntity
  8
0
 62
     3
370
     0
100
AcDbBlockEnd
  0
BLOCK
  5
128
330
11D
100
AcDbEntity
  8
0
 62
     3
370
     0
100
AcDbBlockBegin
  2
*D10
 70
     1
 10
0.0
 20
0.0
 30
0.0
  3
*D10
  1

  0
LINE
  5
171
330
11D
100
AcDbEntity
  8
ADPDIM
  6
Continuous
 62
     0
370
     0
100
AcDbLine
 10
-3.196233151051274
 20
-23.43824964613941
 30
0.0
 11
-4.039892562036752
 21
-23.43824964613941
 31
0.0
  0
LINE
  5
172
330
11D
100
AcDbEntity
  8
ADPDIM
  6
Continuous
 62
     0
370
     0
100
AcDbLine
 10
-3.20294965053446
 20
-23.93820453273888
 30
0.0
 11
-4.039892562036752
 21
-23.93820453273888
 31
0.0
  0
LINE
  5
173
330
11D
100
AcDbEntity
  8
ADPDIM
  6
Continuous
 62
     0
370
     0
100
AcDbLine
 10
-3.859892562036752
 20
-23.25824964613941
 30
0.0
 11
-3.859892562036752
 21
-23.07824964613941
 31
0.0
  0
LINE
  5
174
330
11D
100
AcDbEntity
  8
ADPDIM
  6
Continuous
 62
     0
370
     0
100
AcDbLine
 10
-3.859892562036752
 20
-24.11820453273888
 30
0.0
 11
-3.859892562036752
 21
-24.29820453273888
 31
0.0
  0
SOLID
  5
175
330
11D
100
AcDbEntity
  8
ADPDIM
  6
Continuous
 62
     0
370
     0
100
AcDbTrace
 10
-3.889892562036751
 20
-23.25824964613941
 30
0.0
 11
-3.829892562036752
 21
-23.25824964613941
 31
0.0
 12
-3.859892562036752
 22
-23.43824964613941
 32
0.0
 13
-3.859892562036752
 23
-23.43824964613941
 33
0.0
  0
SOLID
  5
176
330
11D
100
AcDbEntity
  8
ADPDIM
  6
Continuous
 62
     0
370
     0
100
AcDbTrace
 10
-3.889892562036751
 20
-24.11820453273888
 30
0.0
 11
-3.829892562036752
 21
-24.11820453273888
 31
0.0
 12
-3.859892562036752
 22
-23.93820453273888
 32
0.0
 13
-3.859892562036752
 23
-23.93820453273888
 33
0.0
  0
MTEXT
  5
177
330
11D
100
AcDbEntity
  8
ADPDIM
  6
Continuous
 62
     0
370
     0
100
AcDbMText
 10
-3.859892562036748
 20
-23.68822708943914
 30
0.0
 40
0.1
 41
0.0
 71
     5
 72
     1
  1
\A1;1/2
 73
     1
 44
1.0
1001
ACAD
1000
MTEXTBEGIN
1070
    73
1070
     1
1070
    44
1040
1.0
1070
    74
1070
     0
1000
MTEXTEND
  0
POINT
  5
178
330
11D
100
AcDbEntity
  8
Defpoints
  6
Continuous
 62
     0
370
     0
100
AcDbPoint
 10
-3.133733151051274
 20
-23.43824964613941
 30
0.0
  0
POINT
  5
179
330
11D
100
AcDbEntity
  8
Defpoints
  6
Continuous
 62
     0
370
     0
100
AcDbPoint
 10
-3.14044965053446
 20
-23.93820453273888
 30
0.0
  0
POINT
  5
17A
330
11D
100
AcDbEntity
  8
Defpoints
  6
Continuous
 62
     0
370
     0
100
AcDbPoint
 10
-3.859892562036752
 20
-23.93820453273888
 30
0.0
  0
ENDBLK
  5
129
330
11D
100
AcDbEntity
  8
0
 62
     3
370
     0
100
AcDbBlockEnd
  0
BLOCK
  5
1B7
330
1AC
100
AcDbEntity
  8
0
 62
     3
370
     0
100
AcDbBlockBegin
  2
*D11
 70
     1
 10
0.0
 20
0.0
 30
0.0
  3
*D11
  1

  0
LINE
  5
220
330
1AC
100
AcDbEntity
  8
ADPDIM
  6
Continuous
 62
     0
370
     0
100
AcDbLine
 10
-2.632033876154764
 20
-23.46707932058416
 30
0.0
 11
-2.632033876154764
 21
-22.69562248884024
 31
0.0
  0
LINE
  5
221
330
1AC
100
AcDbEntity
  8
ADPDIM
  6
Continuous
 62
     0
370
     0
100
AcDbLine
 10
-3.382033876154764
 20
-23.46707932058416
 30
0.0
 11
-3.382033876154764
 21
-22.69562248884024
 31
0.0
  0
LINE
  5
222
330
1AC
100
AcDbEntity
  8
ADPDIM
  6
Continuous
 62
     0
370
     0
100
AcDbLine
 10
-2.452033876154764
 20
-22.87562248884023
 30
0.0
 11
-2.272033876154764
 21
-22.87562248884023
 31
0.0
  0
LINE
  5
223
330
1AC
100
AcDbEntity
  8
ADPDIM
  6
Continuous
 62
     0
370
     0
100
AcDbLine
 10
-3.562033876154764
 20
-22.87562248884023
 30
0.0
 11
-3.742033876154764
 21
-22.87562248884023
 31
0.0
  0
SOLID
  5
224
330
1AC
100
AcDbEntity
  8
ADPDIM
  6
Continuous
 62
     0
370
     0
100
AcDbTrace
 10
-2.452033876154764
 20
-22.84562248884023
 30
0.0
 11
-2.452033876154764
 21
-22.90562248884024
 31
0.0
 12
-2.632033876154764
 22
-22.87562248884023
 32
0.0
 13
-2.632033876154764
 23
-22.87562248884023
 33
0.0
  0
SOLID
  5
225
330
1AC
100
AcDbEntity
  8
ADPDIM
  6
Continuous
 62
     0
370
     0
100
AcDbTrace
 10
-3.562033876154764
 20
-22.84562248884023
 30
0.0
 11
-3.562033876154764
 21
-22.90562248884024
 31
0.0
 12
-3.382033876154764
 22
-22.87562248884023
 32
0.0
 13
-3.382033876154764
 23
-22.87562248884023
 33
0.0
  0
MTEXT
  5
226
330
1AC
100
AcDbEntity
  8
ADPDIM
  6
Continuous
 62
     0
370
     0
100
AcDbMText
 10
-3.01514343772942
 20
-22.87562248884023
 30
0.0
 40
0.1
 41
0.0
 71
     5
 72
     1
  1
\A1;3/4
 73
     1
 44
1.0
1001
ACAD
1000
MTEXTBEGIN
1070
    73
1070
     1
1070
    44
1040
1.0
1070
    74
1070
     0
1000
MTEXTEND
  0
POINT
  5
227
330
1AC
100
AcDbEntity
  8
Defpoints
  6
Continuous
 62
     0
370
     0
100
AcDbPoint
 10
-2.632033876154764
 20
-23.52957932058416
 30
0.0
  0
POINT
  5
228
330
1AC
100
AcDbEntity
  8
Defpoints
  6
Continuous
 62
     0
370
     0
100
AcDbPoint
 10
-3.382033876154764
 20
-23.52957932058416
 30
0.0
  0
POINT
  5
229
330
1AC
100
AcDbEntity
  8
Defpoints
  6
Continuous
 62
     0
370
     0
100
AcDbPoint
 10
-3.382033876154764
 20
-22.87562248884023
 30
0.0
  0
ENDBLK
  5
1B8
330
1AC
100
AcDbEntity
  8
0
 62
     3
370
     0
100
AcDbBlockEnd
  0
BLOCK
  5
1CC
330
1C0
100
AcDbEntity
  8
0
 62
     3
370
     0
100
AcDbBlockBegin
  2
*D13
 70
     1
 10
0.0
 20
0.0
 30
0.0
  3
*D13
  1

  0
LINE
  5
216
330
1C0
100
AcDbEntity
  8
ADPDIM
  6
Continuous
 62
     0
370
     0
100
AcDbLine
 10
-3.444788473731023
 20
-23.24779311703151
 30
0.0
 11
-4.333822596709691
 21
-23.24779311703151
 31
0.0
  0
LINE
  5
217
330
1C0
100
AcDbEntity
  8
ADPDIM
  6
Continuous
 62
     0
370
     0
100
AcDbLine
 10
-3.436446144023547
 20
-23.99774671928637
 30
0.0
 11
-4.333822596709691
 21
-23.99774671928637
 31
0.0
  0
LINE
  5
218
330
1C0
100
AcDbEntity
  8
ADPDIM
  6
Continuous
 62
     0
370
     0
100
AcDbLine
 10
-4.153822596709691
 20
-23.42779311703151
 30
0.0
 11
-4.153822596709691
 21
-23.45869788594915
 31
0.0
  0
LINE
  5
219
330
1C0
100
AcDbEntity
  8
ADPDIM
  6
Continuous
 62
     0
370
     0
100
AcDbLine
 10
-4.153822596709691
 20
-23.81774671928637
 30
0.0
 11
-4.153822596709691
 21
-23.73869788594915
 31
0.0
  0
SOLID
  5
21A
330
1C0
100
AcDbEntity
  8
ADPDIM
  6
Continuous
 62
     0
370
     0
100
AcDbTrace
 10
-4.183822596709691
 20
-23.42779311703151
 30
0.0
 11
-4.123822596709691
 21
-23.42779311703151
 31
0.0
 12
-4.153822596709691
 22
-23.24779311703151
 32
0.0
 13
-4.153822596709691
 23
-23.24779311703151
 33
0.0
  0
SOLID
  5
21B
330
1C0
100
AcDbEntity
  8
ADPDIM
  6
Continuous
 62
     0
370
     0
100
AcDbTrace
 10
-4.183822596709691
 20
-23.81774671928637
 30
0.0
 11
-4.123822596709691
 21
-23.81774671928637
 31
0.0
 12
-4.153822596709691
 22
-23.99774671928637
 32
0.0
 13
-4.153822596709691
 23
-23.99774671928637
 33
0.0
  0
MTEXT
  5
21C
330
1C0
100
AcDbEntity
  8
ADPDIM
  6
Continuous
 62
     0
370
     0
100
AcDbMText
 10
-4.153822596709687
 20
-23.59869788594915
 30
0.0
 40
0.1
 41
0.0
 71
     5
 72
     1
  1
\A1;3/4
 73
     1
 44
1.0
1001
ACAD
1000
MTEXTBEGIN
1070
    73
1070
     1
1070
    44
1040
1.0
1070
    74
1070
     0
1000
MTEXTEND
  0
POINT
  5
21D
330
1C0
100
AcDbEntity
  8
Defpoints
  6
Continuous
 62
     0
370
     0
100
AcDbPoint
 10
-3.382288473731023
 20
-23.24779311703151
 30
0.0
  0
POINT
  5
21E
330
1C0
100
AcDbEntity
  8
Defpoints
  6
Continuous
 62
     0
370
     0
100
AcDbPoint
 10
-3.373946144023547
 20
-23.99774671928637
 30
0.0
  0
POINT
  5
21F
330
1C0
100
AcDbEntity
  8
Defpoints
  6
Continuous
 62
     0
370
     0
100
AcDbPoint
 10
-4.153822596709691
 20
-23.99774671928637
 30
0.0
  0
ENDBLK
  5
1CD
330
1C0
100
AcDbEntity
  8
0
 62
     3
370
     0
100
AcDbBlockEnd
  0
BLOCK
  5
288
330
27D
100
AcDbEntity
  8
0
 62
     3
370
     0
100
AcDbBlockBegin
  2
*D15
 70
     1
 10
0.0
 20
0.0
 30
0.0
  3
*D15
  1

  0
LINE
  5
2BA
330
27D
100
AcDbEntity
  8
ADPDIM
  6
Continuous
 62
     0
370
     0
100
AcDbLine
 10
-2.292791612955625
 20
-22.96020381093786
 30
0.0
 11
-2.292791612955625
 21
-22.36860449911257
 31
0.0
  0
LINE
  5
2BB
330
27D
100
AcDbEntity
  8
ADPDIM
  6
Continuous
 62
     0
370
     0
100
AcDbLine
 10
-3.292603470218891
 20
-22.97960097763248
 30
0.0
 11
-3.292603470218891
 21
-22.36860449911257
 31
0.0
  0
LINE
  5
2BC
330
27D
100
AcDbEntity
  8
ADPDIM
  6
Continuous
 62
     0
370
     0
100
AcDbLine
 10
-2.472791612955625
 20
-22.54860449911257
 30
0.0
 11
-2.672697541587258
 21
-22.54860449911257
 31
0.0
  0
LINE
  5
2BD
330
27D
100
AcDbEntity
  8
ADPDIM
  6
Continuous
 62
     0
370
     0
100
AcDbLine
 10
-3.11260347021889
 20
-22.54860449911257
 30
0.0
 11
-2.912697541587258
 21
-22.54860449911257
 31
0.0
  0
SOLID
  5
2BE
330
27D
100
AcDbEntity
  8
ADPDIM
  6
Continuous
 62
     0
370
     0
100
AcDbTrace
 10
-2.472791612955625
 20
-22.51860449911257
 30
0.0
 11
-2.472791612955625
 21
-22.57860449911257
 31
0.0
 12
-2.292791612955625
 22
-22.54860449911257
 32
0.0
 13
-2.292791612955625
 23
-22.54860449911257
 33
0.0
  0
SOLID
  5
2BF
330
27D
100
AcDbEntity
  8
ADPDIM
  6
Continuous
 62
     0
370
     0
100
AcDbTrace
 10
-3.11260347021889
 20
-22.51860449911257
 30
0.0
 11
-3.11260347021889
 21
-22.57860449911257
 31
0.0
 12
-3.292603470218891
 22
-22.54860449911257
 32
0.0
 13
-3.292603470218891
 23
-22.54860449911257
 33
0.0
  0
MTEXT
  5
2C0
330
27D
100
AcDbEntity
  8
ADPDIM
  6
Continuous
 62
     0
370
     0
100
AcDbMText
 10
-2.792697541587258
 20
-22.54860449911257
 30
0.0
 40
0.18
 41
0.0
 71
     5
 72
     1
  1
\A1;1
 73
     1
 44
1.0
1001
ACAD
1000
MTEXTBEGIN
1070
    73
1070
     1
1070
    44
1040
1.0
1070
    74
1070
     0
1000
MTEXTEND
  0
POINT
  5
2C1
330
27D
100
AcDbEntity
  8
Defpoints
  6
Continuous
 62
     0
370
     0
100
AcDbPoint
 10
-2.292791612955625
 20
-23.02270381093785
 30
0.0
  0
POINT
  5
2C2
330
27D
100
AcDbEntity
  8
Defpoints
  6
Continuous
 62
     0
370
     0
100
AcDbPoint
 10
-3.292603470218891
 20
-23.04210097763248
 30
0.0
  0
POINT
  5
2C3
330
27D
100
AcDbEntity
  8
Defpoints
  6
Continuous
 62
     0
370
     0
100
AcDbPoint
 10
-3.292603470218891
 20
-22.54860449911257
 30
0.0
  0
ENDBLK
  5
289
330
27D
100
AcDbEntity
  8
0
 62
     3
370
     0
100
AcDbBlockEnd
  0
BLOCK
  5
296
330
28B
100
AcDbEntity
  8
0
 62
     3
370
     0
100
AcDbBlockBegin
  2
*D16
 70
     1
 10
0.0
 20
0.0
 30
0.0
  3
*D16
  1

  0
LINE
  5
2C4
330
28B
100
AcDbEntity
  8
ADPDIM
  6
Continuous
 62
     0
370
     0
100
AcDbLine
 10
-3.31706055350105
 20
-22.88842858848557
 30
0.0
 11
-4.392330552220464
 21
-22.88842858848557
 31
0.0
  0
LINE
  5
2C5
330
28B
100
AcDbEntity
  8
ADPDIM
  6
Continuous
 62
     0
370
     0
100
AcDbLine
 10
-3.31706055350105
 20
-23.88842858848557
 30
0.0
 11
-4.392330552220464
 21
-23.88842858848557
 31
0.0
  0
LINE
  5
2C6
330
28B
100
AcDbEntity
  8
ADPDIM
  6
Continuous
 62
     0
370
     0
100
AcDbLine
 10
-4.212330552220464
 20
-23.06842858848557
 30
0.0
 11
-4.212330552220464
 21
-23.20842858848557
 31
0.0
  0
LINE
  5
2C7
330
28B
100
AcDbEntity
  8
ADPDIM
  6
Continuous
 62
     0
370
     0
100
AcDbLine
 10
-4.212330552220464
 20
-23.70842858848557
 30
0.0
 11
-4.212330552220464
 21
-23.56842858848557
 31
0.0
  0
SOLID
  5
2C8
330
28B
100
AcDbEntity
  8
ADPDIM
  6
Continuous
 62
     0
370
     0
100
AcDbTrace
 10
-4.242330552220464
 20
-23.06842858848557
 30
0.0
 11
-4.182330552220464
 21
-23.06842858848557
 31
0.0
 12
-4.212330552220464
 22
-22.88842858848557
 32
0.0
 13
-4.212330552220464
 23
-22.88842858848557
 33
0.0
  0
SOLID
  5
2C9
330
28B
100
AcDbEntity
  8
ADPDIM
  6
Continuous
 62
     0
370
     0
100
AcDbTrace
 10
-4.242330552220464
 20
-23.70842858848557
 30
0.0
 11
-4.182330552220464
 21
-23.70842858848557
 31
0.0
 12
-4.212330552220464
 22
-23.88842858848557
 32
0.0
 13
-4.212330552220464
 23
-23.88842858848557
 33
0.0
  0
MTEXT
  5
2CA
330
28B
100
AcDbEntity
  8
ADPDIM
  6
Continuous
 62
     0
370
     0
100
AcDbMText
 10
-4.212330552220461
 20
-23.38842858848557
 30
0.0
 40
0.18
 41
0.0
 71
     5
 72
     1
  1
\A1;1
 73
     1
 44
1.0
1001
ACAD
1000
MTEXTBEGIN
1070
    73
1070
     1
1070
    44
1040
1.0
1070
    74
1070
     0
1000
MTEXTEND
  0
POINT
  5
2CB
330
28B
100
AcDbEntity
  8
Defpoints
  6
Continuous
 62
     0
370
     0
100
AcDbPoint
 10
-3.25456055350105
 20
-22.88842858848557
 30
0.0
  0
POINT
  5
2CC
330
28B
100
AcDbEntity
  8
Defpoints
  6
Continuous
 62
     0
370
     0
100
AcDbPoint
 10
-3.25456055350105
 20
-23.88842858848557
 30
0.0
  0
POINT
  5
2CD
330
28B
100
AcDbEntity
  8
Defpoints
  6
Continuous
 62
     0
370
     0
100
AcDbPoint
 10
-4.212330552220464
 20
-23.88842858848557
 30
0.0
  0
ENDBLK
  5
297
330
28B
100
AcDbEntity
  8
0
 62
     3
370
     0
100
AcDbBlockEnd
  0
BLOCK
  5
2A4
330
299
100
AcDbEntity
  8
0
 62
     3
370
     0
100
AcDbBlockBegin
  2
*D17
 70
     1
 10
0.0
 20
0.0
 30
0.0
  3
*D17
  1

  0
LINE
  5
2CE
330
299
100
AcDbEntity
  8
ADPDIM
  6
Continuous
 62
     0
370
     0
100
AcDbLine
 10
-2.397888802830038
 20
-23.50918679213555
 30
0.0
 11
-2.397888802830038
 21
-23.63200325695396
 31
0.0
  0
LINE
  5
2CF
330
299
100
AcDbEntity
  8
ADPDIM
  6
Continuous
 62
     0
370
     0
100
AcDbLine
 10
-2.289209318320029
 20
-23.39253961481047
 30
0.0
 11
-2.289209318320029
 21
-23.27200325695396
 31
0.0
  0
LINE
  5
2D0
330
299
100
AcDbEntity
  8
ADPDIM
  6
Continuous
 62
     0
370
     0
100
AcDbLine
 10
-2.577888802830039
 20
-23.45200325695396
 30
0.0
 11
-2.757888802830038
 21
-23.45200325695396
 31
0.0
  0
LINE
  5
2D1
330
299
100
AcDbEntity
  8
ADPDIM
  6
Continuous
 62
     0
370
     0
100
AcDbLine
 10
-2.109209318320028
 20
-23.45200325695396
 30
0.0
 11
-1.929209318320029
 21
-23.45200325695396
 31
0.0
  0
SOLID
  5
2D2
330
299
100
AcDbEntity
  8
ADPDIM
  6
Continuous
 62
     0
370
     0
100
AcDbTrace
 10
-2.577888802830039
 20
-23.42200325695396
 30
0.0
 11
-2.577888802830039
 21
-23.48200325695396
 31
0.0
 12
-2.397888802830038
 22
-23.45200325695396
 32
0.0
 13
-2.397888802830038
 23
-23.45200325695396
 33
0.0
  0
SOLID
  5
2D3
330
299
100
AcDbEntity
  8
ADPDIM
  6
Continuous
 62
     0
370
     0
100
AcDbTrace
 10
-2.109209318320028
 20
-23.42200325695396
 30
0.0
 11
-2.109209318320028
 21
-23.48200325695396
 31
0.0
 12
-2.289209318320029
 22
-23.45200325695396
 32
0.0
 13
-2.289209318320029
 23
-23.45200325695396
 33
0.0
  0
MTEXT
  5
2D4
330
299
100
AcDbEntity
  8
ADPDIM
  6
Continuous
 62
     0
370
     0
100
AcDbMText
 10
-1.449209318320029
 20
-23.45200325695396
 30
0.0
 40
0.18
 41
0.0
 71
     5
 72
     1
  1
\A1;0.1087
 73
     1
 44
1.0
1001
ACAD
1000
MTEXTBEGIN
1070
    73
1070
     1
1070
    44
1040
1.0
1070
    74
1070
     0
1000
MTEXTEND
  0
POINT
  5
2D5
330
299
100
AcDbEntity
  8
Defpoints
  6
Continuous
 62
     0
370
     0
100
AcDbPoint
 10
-2.397888802830038
 20
-23.44668679213555
 30
0.0
  0
POINT
  5
2D6
330
299
100
AcDbEntity
  8
Defpoints
  6
Continuous
 62
     0
370
     0
100
AcDbPoint
 10
-2.289209318320029
 20
-23.45503961481047
 30
0.0
  0
POINT
  5
2D7
330
299
100
AcDbEntity
  8
Defpoints
  6
Continuous
 62
     0
370
     0
100
AcDbPoint
 10
-2.289209318320029
 20
-23.45200325695396
 30
0.0
  0
ENDBLK
  5
2A5
330
299
100
AcDbEntity
  8
0
 62
     3
370
     0
100
AcDbBlockEnd
  0
BLOCK
  5
311
330
305
100
AcDbEntity
  8
0
 62
     3
370
     0
100
AcDbBlockBegin
  2
*D19
 70
     1
 10
0.0
 20
0.0
 30
0.0
  3
*D19
  1

  0
LINE
  5
3D9
330
305
100
AcDbEntity
  8
ADPDIM
  6
Continuous
 62
     0
370
     0
100
AcDbLine
 10
-3.676304627941857
 20
-23.25146532761811
 30
0.0
 11
-4.155897021951827
 21
-23.25146532761811
 31
0.0
  0
LINE
  5
3DA
330
305
100
AcDbEntity
  8
ADPDIM
  6
Continuous
 62
     0
370
     0
100
AcDbLine
 10
-3.661625626963541
 20
-23.62471709245074
 30
0.0
 11
-4.155897021951827
 21
-23.62471709245074
 31
0.0
  0
LINE
  5
3DB
330
305
100
AcDbEntity
  8
ADPDIM
  6
Continuous
 62
     0
370
     0
100
AcDbLine
 10
-3.975897021951827
 20
-23.07146532761811
 30
0.0
 11
-3.975897021951826
 21
-22.89146532761812
 31
0.0
  0
LINE
  5
3DC
330
305
100
AcDbEntity
  8
ADPDIM
  6
Continuous
 62
     0
370
     0
100
AcDbLine
 10
-3.975897021951827
 20
-23.80471709245074
 30
0.0
 11
-3.975897021951827
 21
-23.98471709245074
 31
0.0
  0
SOLID
  5
3DD
330
305
100
AcDbEntity
  8
ADPDIM
  6
Continuous
 62
     0
370
     0
100
AcDbTrace
 10
-4.005897021951827
 20
-23.07146532761811
 30
0.0
 11
-3.945897021951827
 21
-23.07146532761811
 31
0.0
 12
-3.975897021951827
 22
-23.25146532761811
 32
0.0
 13
-3.975897021951827
 23
-23.25146532761811
 33
0.0
  0
SOLID
  5
3DE
330
305
100
AcDbEntity
  8
ADPDIM
  6
Continuous
 62
     0
370
     0
100
AcDbTrace
 10
-4.005897021951827
 20
-23.80471709245074
 30
0.0
 11
-3.945897021951827
 21
-23.80471709245074
 31
0.0
 12
-3.975897021951827
 22
-23.62471709245074
 32
0.0
 13
-3.975897021951827
 23
-23.62471709245074
 33
0.0
  0
MTEXT
  5
3DF
330
305
100
AcDbEntity
  8
ADPDIM
  6
Continuous
 62
     0
370
     0
100
AcDbMText
 10
-3.975897021951823
 20
-23.43809121003443
 30
0.0
 40
0.1
 41
0.0
 71
     5
 72
     1
  1
\A1;3/8
 73
     1
 44
1.0
1001
ACAD
1000
MTEXTBEGIN
1070
    73
1070
     1
1070
    44
1040
1.0
1070
    74
1070
     0
1000
MTEXTEND
  0
POINT
  5
3E0
330
305
100
AcDbEntity
  8
Defpoints
  6
Continuous
 62
     0
370
     0
100
AcDbPoint
 10
-3.613804627941857
 20
-23.25146532761811
 30
0.0
  0
POINT
  5
3E1
330
305
100
AcDbEntity
  8
Defpoints
  6
Continuous
 62
     0
370
     0
100
AcDbPoint
 10
-3.599125626963541
 20
-23.62471709245074
 30
0.0
  0
POINT
  5
3E2
330
305
100
AcDbEntity
  8
Defpoints
  6
Continuous
 62
     0
370
     0
100
AcDbPoint
 10
-3.975897021951827
 20
-23.62471709245074
 30
0.0
  0
ENDBLK
  5
312
330
305
100
AcDbEntity
  8
0
 62
     3
370
     0
100
AcDbBlockEnd
  0
BLOCK
  5
31F
330
314
100
AcDbEntity
  8
0
 62
     3
370
     0
100
AcDbBlockBegin
  2
*D20
 70
     1
 10
0.0
 20
0.0
 30
0.0
  3
*D20
  1

  0
LINE
  5
3C5
330
314
100
AcDbEntity
  8
ADPDIM
  6
Continuous
 62
     0
370
     0
100
AcDbLine
 10
-3.599125626963541
 20
-23.68479521065319
 30
0.0
 11
-3.599125626963541
 21
-24.22381556735643
 31
0.0
  0
LINE
  5
3C6
330
314
100
AcDbEntity
  8
ADPDIM
  6
Continuous
 62
     0
370
     0
100
AcDbLine
 10
-2.849263444658557
 20
-23.69066338158093
 30
0.0
 11
-2.849263444658557
 21
-24.22381556735643
 31
0.0
  0
LINE
  5
3C7
330
314
100
AcDbEntity
  8
ADPDIM
  6
Continuous
 62
     0
370
     0
100
AcDbLine
 10
-3.779125626963541
 20
-24.04381556735643
 30
0.0
 11
-3.959125626963541
 21
-24.04381556735643
 31
0.0
  0
LINE
  5
3C8
330
314
100
AcDbEntity
  8
ADPDIM
  6
Continuous
 62
     0
370
     0
100
AcDbLine
 10
-2.669263444658557
 20
-24.04381556735643
 30
0.0
 11
-2.489263444658558
 21
-24.04381556735643
 31
0.0
  0
SOLID
  5
3C9
330
314
100
AcDbEntity
  8
ADPDIM
  6
Continuous
 62
     0
370
     0
100
AcDbTrace
 10
-3.779125626963541
 20
-24.01381556735643
 30
0.0
 11
-3.779125626963541
 21
-24.07381556735643
 31
0.0
 12
-3.599125626963541
 22
-24.04381556735643
 32
0.0
 13
-3.599125626963541
 23
-24.04381556735643
 33
0.0
  0
SOLID
  5
3CA
330
314
100
AcDbEntity
  8
ADPDIM
  6
Continuous
 62
     0
370
     0
100
AcDbTrace
 10
-2.669263444658557
 20
-24.01381556735643
 30
0.0
 11
-2.669263444658557
 21
-24.07381556735643
 31
0.0
 12
-2.849263444658557
 22
-24.04381556735643
 32
0.0
 13
-2.849263444658557
 23
-24.04381556735643
 33
0.0
  0
MTEXT
  5
3CB
330
314
100
AcDbEntity
  8
ADPDIM
  6
Continuous
 62
     0
370
     0
100
AcDbMText
 10
-3.20753393487439
 20
-24.04381556735643
 30
0.0
 40
0.1
 41
0.0
 71
     5
 72
     1
  1
\A1;3/4
 73
     1
 44
1.0
1001
ACAD
1000
MTEXTBEGIN
1070
    73
1070
     1
1070
    44
1040
1.0
1070
    74
1070
     0
1000
MTEXTEND
  0
POINT
  5
3CC
330
314
100
AcDbEntity
  8
Defpoints
  6
Continuous
 62
     0
370
     0
100
AcDbPoint
 10
-3.599125626963541
 20
-23.62229521065319
 30
0.0
  0
POINT
  5
3CD
330
314
100
AcDbEntity
  8
Defpoints
  6
Continuous
 62
     0
370
     0
100
AcDbPoint
 10
-2.849263444658557
 20
-23.62816338158093
 30
0.0
  0
POINT
  5
3CE
330
314
100
AcDbEntity
  8
Defpoints
  6
Continuous
 62
     0
370
     0
100
AcDbPoint
 10
-2.849263444658557
 20
-24.04381556735643
 30
0.0
  0
ENDBLK
  5
320
330
314
100
AcDbEntity
  8
0
 62
     3
370
     0
100
AcDbBlockEnd
  0
BLOCK
  5
389
330
37E
100
AcDbEntity
  8
0
 62
     3
370
     0
100
AcDbBlockBegin
  2
*D21
 70
     1
 10
0.0
 20
0.0
 30
0.0
  3
*D21
  1

  0
LINE
  5
3E3
330
37E
100
AcDbEntity
  8
ADPDIM
  6
Continuous
 62
     0
370
     0
100
AcDbLine
 10
-3.053758219740302
 20
-23.46891417539791
 30
0.0
 11
-3.053758219740302
 21
-23.60146807003655
 31
0.0
  0
LINE
  5
3E4
330
37E
100
AcDbEntity
  8
ADPDIM
  6
Continuous
 62
     0
370
     0
100
AcDbLine
 10
-2.963097071262846
 20
-23.46087083534345
 30
0.0
 11
-2.963097071262846
 21
-23.60146807003655
 31
0.0
  0
LINE
  5
3E5
330
37E
100
AcDbEntity
  8
ADPDIM
  6
Continuous
 62
     0
370
     0
100
AcDbLine
 10
-3.233758219740302
 20
-23.42146807003655
 30
0.0
 11
-3.413758219740302
 21
-23.42146807003655
 31
0.0
  0
LINE
  5
3E6
330
37E
100
AcDbEntity
  8
ADPDIM
  6
Continuous
 62
     0
370
     0
100
AcDbLine
 10
-2.783097071262846
 20
-23.42146807003655
 30
0.0
 11
-2.603097071262846
 21
-23.42146807003655
 31
0.0
  0
SOLID
  5
3E7
330
37E
100
AcDbEntity
  8
ADPDIM
  6
Continuous
 62
     0
370
     0
100
AcDbTrace
 10
-3.233758219740302
 20
-23.39146807003655
 30
0.0
 11
-3.233758219740302
 21
-23.45146807003656
 31
0.0
 12
-3.053758219740302
 22
-23.42146807003655
 32
0.0
 13
-3.053758219740302
 23
-23.42146807003655
 33
0.0
  0
SOLID
  5
3E8
330
37E
100
AcDbEntity
  8
ADPDIM
  6
Continuous
 62
     0
370
     0
100
AcDbTrace
 10
-2.783097071262846
 20
-23.39146807003655
 30
0.0
 11
-2.783097071262846
 21
-23.45146807003656
 31
0.0
 12
-2.963097071262846
 22
-23.42146807003655
 32
0.0
 13
-2.963097071262846
 23
-23.42146807003655
 33
0.0
  0
MTEXT
  5
3E9
330
37E
100
AcDbEntity
  8
ADPDIM
  6
Continuous
 62
     0
370
     0
100
AcDbMText
 10
-2.108097071262846
 20
-23.42146807003655
 30
0.0
 40
0.18
 41
0.0
 71
     5
 72
     1
  1
\A1;0.0907
 73
     1
 44
1.0
1001
ACAD
1000
MTEXTBEGIN
1070
    73
1070
     1
1070
    44
1040
1.0
1070
    74
1070
     0
1000
MTEXTEND
  0
POINT
  5
3EA
330
37E
100
AcDbEntity
  8
Defpoints
  6
Continuous
 62
     0
370
     0
100
AcDbPoint
 10
-3.053758219740302
 20
-23.40641417539791
 30
0.0
  0
POINT
  5
3EB
330
37E
100
AcDbEntity
  8
Defpoints
  6
Continuous
 62
     0
370
     0
100
AcDbPoint
 10
-2.963097071262846
 20
-23.39837083534344
 30
0.0
  0
POINT
  5
3EC
330
37E
100
AcDbEntity
  8
Defpoints
  6
Continuous
 62
     0
370
     0
100
AcDbPoint
 10
-2.963097071262846
 20
-23.42146807003655
 30
0.0
  0
ENDBLK
  5
38A
330
37E
100
AcDbEntity
  8
0
 62
     3
370
     0
100
AcDbBlockEnd
  0
BLOCK
  5
3F9
330
3EE
100
AcDbEntity
  8
0
 62
     3
370
     0
100
AcDbBlockBegin
  2
*D22
 70
     1
 10
0.0
 20
0.0
 30
0.0
  3
*D22
  1

  0
LINE
  5
405
330
3EE
100
AcDbEntity
  8
ADPDIM
  6
Continuous
 62
     0
370
     0
100
AcDbLine
 10
-2.849409949281834
 20
-23.50815019852143
 30
0.0
 11
-2.849409949281834
 21
-23.24014291121768
 31
0.0
  0
LINE
  5
406
330
3EE
100
AcDbEntity
  8
ADPDIM
  6
Continuous
 62
     0
370
     0
100
AcDbLine
 10
-2.932409949281835
 20
-23.50815019852143
 30
0.0
 11
-2.932409949281835
 21
-23.24014291121768
 31
0.0
  0
LINE
  5
407
330
3EE
100
AcDbEntity
  8
ADPDIM
  6
Continuous
 62
     0
370
     0
100
AcDbLine
 10
-3.112409949281835
 20
-23.42014291121768
 30
0.0
 11
-3.292409949281835
 21
-23.42014291121768
 31
0.0
  0
LINE
  5
408
330
3EE
100
AcDbEntity
  8
ADPDIM
  6
Continuous
 62
     0
370
     0
100
AcDbLine
 10
-2.669409949281834
 20
-23.42014291121768
 30
0.0
 11
-2.489409949281835
 21
-23.42014291121768
 31
0.0
  0
SOLID
  5
409
330
3EE
100
AcDbEntity
  8
ADPDIM
  6
Continuous
 62
     0
370
     0
100
AcDbTrace
 10
-3.112409949281835
 20
-23.39014291121768
 30
0.0
 11
-3.112409949281835
 21
-23.45014291121768
 31
0.0
 12
-2.932409949281835
 22
-23.42014291121768
 32
0.0
 13
-2.932409949281835
 23
-23.42014291121768
 33
0.0
  0
SOLID
  5
40A
330
3EE
100
AcDbEntity
  8
ADPDIM
  6
Continuous
 62
     0
370
     0
100
AcDbTrace
 10
-2.669409949281834
 20
-23.39014291121768
 30
0.0
 11
-2.669409949281834
 21
-23.45014291121768
 31
0.0
 12
-2.849409949281834
 22
-23.42014291121768
 32
0.0
 13
-2.849409949281834
 23
-23.42014291121768
 33
0.0
  0
MTEXT
  5
40B
330
3EE
100
AcDbEntity
  8
ADPDIM
  6
Continuous
 62
     0
370
     0
100
AcDbMText
 10
-1.994409949281835
 20
-23.42014291121768
 30
0.0
 40
0.18
 41
0.0
 71
     5
 72
     1
  1
\A1;0.0830
 73
     1
 44
1.0
1001
ACAD
1000
MTEXTBEGIN
1070
    73
1070
     1
1070
    44
1040
1.0
1070
    74
1070
     0
1000
MTEXTEND
  0
POINT
  5
40C
330
3EE
100
AcDbEntity
  8
Defpoints
  6
Continuous
 62
     0
370
     0
100
AcDbPoint
 10
-2.849409949281834
 20
-23.57065019852143
 30
0.0
  0
POINT
  5
40D
330
3EE
100
AcDbEntity
  8
Defpoints
  6
Continuous
 62
     0
370
     0
100
AcDbPoint
 10
-2.932409949281835
 20
-23.57065019852143
 30
0.0
  0
POINT
  5
40E
330
3EE
100
AcDbEntity
  8
Defpoints
  6
Continuous
 62
     0
370
     0
100
AcDbPoint
 10
-2.932409949281835
 20
-23.42014291121768
 30
0.0
  0
ENDBLK
  5
3FA
330
3EE
100
AcDbEntity
  8
0
 62
     3
370
     0
100
AcDbBlockEnd
  0
BLOCK
  5
451
330
446
100
AcDbEntity
  8
0
 62
     3
370
     0
100
AcDbBlockBegin
  2
*D24
 70
     1
 10
0.0
 20
0.0
 30
0.0
  3
*D24
  1

  0
LINE
  5
4B5
330
446
100
AcDbEntity
  8
ADPDIM
  6
Continuous
 62
     0
370
     0
100
AcDbLine
 10
-3.542438415497599
 20
-22.15391973917713
 30
0.0
 11
-4.619325173900673
 21
-22.15391973917713
 31
0.0
  0
LINE
  5
4B6
330
446
100
AcDbEntity
  8
ADPDIM
  6
Continuous
 62
     0
370
     0
100
AcDbLine
 10
-3.542438415497599
 20
-23.40391973917713
 30
0.0
 11
-4.619325173900673
 21
-23.40391973917713
 31
0.0
  0
LINE
  5
4B7
330
446
100
AcDbEntity
  8
ADPDIM
  6
Continuous
 62
     0
370
     0
100
AcDbLine
 10
-4.439325173900673
 20
-22.33391973917713
 30
0.0
 11
-4.439325173900673
 21
-22.59699313407493
 31
0.0
  0
LINE
  5
4B8
330
446
100
AcDbEntity
  8
ADPDIM
  6
Continuous
 62
     0
370
     0
100
AcDbLine
 10
-4.439325173900673
 20
-23.22391973917713
 30
0.0
 11
-4.439325173900673
 21
-22.95699313407493
 31
0.0
  0
SOLID
  5
4B9
330
446
100
AcDbEntity
  8
ADPDIM
  6
Continuous
 62
     0
370
     0
100
AcDbTrace
 10
-4.469325173900673
 20
-22.33391973917713
 30
0.0
 11
-4.409325173900673
 21
-22.33391973917713
 31
0.0
 12
-4.439325173900673
 22
-22.15391973917713
 32
0.0
 13
-4.439325173900673
 23
-22.15391973917713
 33
0.0
  0
SOLID
  5
4BA
330
446
100
AcDbEntity
  8
ADPDIM
  6
Continuous
 62
     0
370
     0
100
AcDbTrace
 10
-4.469325173900673
 20
-23.22391973917713
 30
0.0
 11
-4.409325173900673
 21
-23.22391973917713
 31
0.0
 12
-4.439325173900673
 22
-23.40391973917713
 32
0.0
 13
-4.439325173900673
 23
-23.40391973917713
 33
0.0
  0
MTEXT
  5
4BB
330
446
100
AcDbEntity
  8
ADPDIM
  6
Continuous
 62
     0
370
     0
100
AcDbMText
 10
-4.43932517390067
 20
-22.77699313407493
 30
0.0
 40
0.18
 41
0.0
 71
     5
 72
     1
  1
\A1;1 1/4
 73
     1
 44
1.0
1001
ACAD
1000
MTEXTBEGIN
1070
    73
1070
     1
1070
    44
1040
1.0
1070
    74
1070
     0
1000
MTEXTEND
  0
POINT
  5
4BC
330
446
100
AcDbEntity
  8
Defpoints
  6
Continuous
 62
     0
370
     0
100
AcDbPoint
 10
-3.479938415497599
 20
-22.15391973917713
 30
0.0
  0
POINT
  5
4BD
330
446
100
AcDbEntity
  8
Defpoints
  6
Continuous
 62
     0
370
     0
100
AcDbPoint
 10
-3.479938415497599
 20
-23.40391973917713
 30
0.0
  0
POINT
  5
4BE
330
446
100
AcDbEntity
  8
Defpoints
  6
Continuous
 62
     0
370
     0
100
AcDbPoint
 10
-4.439325173900673
 20
-23.40391973917713
 30
0.0
  0
ENDBLK
  5
452
330
446
100
AcDbEntity
  8
0
 62
     3
370
     0
100
AcDbBlockEnd
  0
BLOCK
  5
45F
330
454
100
AcDbEntity
  8
0
 62
     3
370
     0
100
AcDbBlockBegin
  2
*D25
 70
     1
 10
0.0
 20
0.0
 30
0.0
  3
*D25
  1

  0
LINE
  5
4BF
330
454
100
AcDbEntity
  8
ADPDIM
  6
Continuous
 62
     0
370
     0
100
AcDbLine
 10
-3.479938415497599
 20
-23.41896744700853
 30
0.0
 11
-3.479938415497599
 21
-24.24237457491216
 31
0.0
  0
LINE
  5
4C0
330
454
100
AcDbEntity
  8
ADPDIM
  6
Continuous
 62
     0
370
     0
100
AcDbLine
 10
-2.229938415497599
 20
-23.41896744700853
 30
0.0
 11
-2.229938415497599
 21
-24.24237457491216
 31
0.0
  0
LINE
  5
4C1
330
454
100
AcDbEntity
  8
ADPDIM
  6
Continuous
 62
     0
370
     0
100
AcDbLine
 10
-3.659938415497599
 20
-24.06237457491215
 30
0.0
 11
-3.839938415497599
 21
-24.06237457491215
 31
0.0
  0
LINE
  5
4C2
330
454
100
AcDbEntity
  8
ADPDIM
  6
Continuous
 62
     0
370
     0
100
AcDbLine
 10
-2.049938415497599
 20
-24.06237457491215
 30
0.0
 11
-1.869938415497599
 21
-24.06237457491215
 31
0.0
  0
SOLID
  5
4C3
330
454
100
AcDbEntity
  8
ADPDIM
  6
Continuous
 62
     0
370
     0
100
AcDbTrace
 10
-3.659938415497599
 20
-24.03237457491215
 30
0.0
 11
-3.659938415497599
 21
-24.09237457491216
 31
0.0
 12
-3.479938415497599
 22
-24.06237457491215
 32
0.0
 13
-3.479938415497599
 23
-24.06237457491215
 33
0.0
  0
SOLID
  5
4C4
330
454
100
AcDbEntity
  8
ADPDIM
  6
Continuous
 62
     0
370
     0
100
AcDbTrace
 10
-2.049938415497599
 20
-24.03237457491215
 30
0.0
 11
-2.049938415497599
 21
-24.09237457491216
 31
0.0
 12
-2.229938415497599
 22
-24.06237457491215
 32
0.0
 13
-2.229938415497599
 23
-24.06237457491215
 33
0.0
  0
MTEXT
  5
4C5
330
454
100
AcDbEntity
  8
ADPDIM
  6
Continuous
 62
     0
370
     0
100
AcDbMText
 10
-2.846238913380602
 20
-24.06237457491215
 30
0.0
 40
0.18
 41
0.0
 71
     5
 72
     1
  1
\A1;1 1/4
 73
     1
 44
1.0
1001
ACAD
1000
MTEXTBEGIN
1070
    73
1070
     1
1070
    44
1040
1.0
1070
    74
1070
     0
1000
MTEXTEND
  0
POINT
  5
4C6
330
454
100
AcDbEntity
  8
Defpoints
  6
Continuous
 62
     0
370
     0
100
AcDbPoint
 10
-3.479938415497599
 20
-23.35646744700853
 30
0.0
  0
POINT
  5
4C7
330
454
100
AcDbEntity
  8
Defpoints
  6
Continuous
 62
     0
370
     0
100
AcDbPoint
 10
-2.229938415497599
 20
-23.35646744700853
 30
0.0
  0
POINT
  5
4C8
330
454
100
AcDbEntity
  8
Defpoints
  6
Continuous
 62
     0
370
     0
100
AcDbPoint
 10
-2.229938415497599
 20
-24.06237457491215
 30
0.0
  0
ENDBLK
  5
460
330
454
100
AcDbEntity
  8
0
 62
     3
370
     0
100
AcDbBlockEnd
  0
BLOCK
  5
46D
330
462
100
AcDbEntity
  8
0
 62
     3
370
     0
100
AcDbBlockBegin
  2
*D26
 70
     1
 10
0.0
 20
0.0
 30
0.0
  3
*D26
  1

  0
LINE
  5
533
330
462
100
AcDbEntity
  8
ADPDIM
  6
Continuous
 62
     0
370
     0
100
AcDbLine
 10
-2.443044822692172
 20
-23.07275952940017
 30
0.0
 11
-2.443044822692172
 21
-23.19558051694474
 31
0.0
  0
LINE
  5
534
330
462
100
AcDbEntity
  8
ADPDIM
  6
Continuous
 62
     0
370
     0
100
AcDbLine
 10
-2.335525470720468
 20
-23.0548545314503
 30
0.0
 11
-2.335525470720468
 21
-23.19558051694474
 31
0.0
  0
LINE
  5
535
330
462
100
AcDbEntity
  8
ADPDIM
  6
Continuous
 62
     0
370
     0
100
AcDbLine
 10
-2.623044822692172
 20
-23.01558051694474
 30
0.0
 11
-2.803044822692172
 21
-23.01558051694474
 31
0.0
  0
LINE
  5
536
330
462
100
AcDbEntity
  8
ADPDIM
  6
Continuous
 62
     0
370
     0
100
AcDbLine
 10
-2.155525470720468
 20
-23.01558051694474
 30
0.0
 11
-1.975525470720469
 21
-23.01558051694474
 31
0.0
  0
SOLID
  5
537
330
462
100
AcDbEntity
  8
ADPDIM
  6
Continuous
 62
     0
370
     0
100
AcDbTrace
 10
-2.623044822692172
 20
-22.98558051694474
 30
0.0
 11
-2.623044822692172
 21
-23.04558051694474
 31
0.0
 12
-2.443044822692172
 22
-23.01558051694474
 32
0.0
 13
-2.443044822692172
 23
-23.01558051694474
 33
0.0
  0
SOLID
  5
538
330
462
100
AcDbEntity
  8
ADPDIM
  6
Continuous
 62
     0
370
     0
100
AcDbTrace
 10
-2.155525470720468
 20
-22.98558051694474
 30
0.0
 11
-2.155525470720468
 21
-23.04558051694474
 31
0.0
 12
-2.335525470720468
 22
-23.01558051694474
 32
0.0
 13
-2.335525470720468
 23
-23.01558051694474
 33
0.0
  0
MTEXT
  5
539
330
462
100
AcDbEntity
  8
ADPDIM
  6
Continuous
 62
     0
370
     0
100
AcDbMText
 10
-1.585525470720469
 20
-23.01558051694474
 30
0.0
 40
0.18
 41
0.0
 71
     5
 72
     1
  1
\A1;0.109
 73
     1
 44
1.0
1001
ACAD
1000
MTEXTBEGIN
1070
    73
1070
     1
1070
    44
1040
1.0
1070
    74
1070
     0
1000
MTEXTEND
  0
POINT
  5
53A
330
462
100
AcDbEntity
  8
Defpoints
  6
Continuous
 62
     0
370
     0
100
AcDbPoint
 10
-2.443044822692172
 20
-23.01025952940017
 30
0.0
  0
POINT
  5
53B
330
462
100
AcDbEntity
  8
Defpoints
  6
Continuous
 62
     0
370
     0
100
AcDbPoint
 10
-2.335525470720468
 20
-22.9923545314503
 30
0.0
  0
POINT
  5
53C
330
462
100
AcDbEntity
  8
Defpoints
  6
Continuous
 62
     0
370
     0
100
AcDbPoint
 10
-2.335525470720468
 20
-23.01558051694474
 30
0.0
  0
ENDBLK
  5
46E
330
462
100
AcDbEntity
  8
0
 62
     3
370
     0
100
AcDbBlockEnd
  0
BLOCK
  5
50B
330
500
100
AcDbEntity
  8
0
 62
     3
370
     0
100
AcDbBlockBegin
  2
*D28
 70
     1
 10
0.0
 20
0.0
 30
0.0
  3
*D28
  1

  0
LINE
  5
501
330
500
100
AcDbEntity
  8
ADPDIM
  6
Continuous
 62
     0
370
     0
100
AcDbLine
 10
-2.351096497201524
 20
-23.00942100830389
 30
0.0
 11
-2.351096497201524
 21
-23.28122964710035
 31
0.0
  0
LINE
  5
502
330
500
100
AcDbEntity
  8
ADPDIM
  6
Continuous
 62
     0
370
     0
100
AcDbLine
 10
-2.242176901543285
 20
-23.01360689908673
 30
0.0
 11
-2.242176901543285
 21
-23.28122964710035
 31
0.0
  0
LINE
  5
503
330
500
100
AcDbEntity
  8
ADPDIM
  6
Continuous
 62
     0
370
     0
100
AcDbLine
 10
-2.531096497201524
 20
-23.10122964710036
 30
0.0
 11
-2.711096497201524
 21
-23.10122964710036
 31
0.0
  0
LINE
  5
504
330
500
100
AcDbEntity
  8
ADPDIM
  6
Continuous
 62
     0
370
     0
100
AcDbLine
 10
-2.062176901543285
 20
-23.10122964710036
 30
0.0
 11
-1.882176901543286
 21
-23.10122964710036
 31
0.0
  0
SOLID
  5
505
330
500
100
AcDbEntity
  8
ADPDIM
  6
Continuous
 62
     0
370
     0
100
AcDbTrace
 10
-2.531096497201524
 20
-23.07122964710035
 30
0.0
 11
-2.531096497201524
 21
-23.13122964710036
 31
0.0
 12
-2.351096497201524
 22
-23.10122964710036
 32
0.0
 13
-2.351096497201524
 23
-23.10122964710036
 33
0.0
  0
SOLID
  5
506
330
500
100
AcDbEntity
  8
ADPDIM
  6
Continuous
 62
     0
370
     0
100
AcDbTrace
 10
-2.062176901543285
 20
-23.07122964710035
 30
0.0
 11
-2.062176901543285
 21
-23.13122964710036
 31
0.0
 12
-2.242176901543285
 22
-23.10122964710036
 32
0.0
 13
-2.242176901543285
 23
-23.10122964710036
 33
0.0
  0
MTEXT
  5
507
330
500
100
AcDbEntity
  8
ADPDIM
  6
Continuous
 62
     0
370
     0
100
AcDbMText
 10
-1.402176901543286
 20
-23.10122964710036
 30
0.0
 40
0.18
 41
0.0
 71
     5
 72
     1
  1
\A1;0.1089
 73
     1
 44
1.0
1001
ACAD
1000
MTEXTBEGIN
1070
    73
1070
     1
1070
    44
1040
1.0
1070
    74
1070
     0
1000
MTEXTEND
  0
POINT
  5
508
330
500
100
AcDbEntity
  8
Defpoints
  6
Continuous
 62
     0
370
     0
100
AcDbPoint
 10
-2.351096497201524
 20
-22.94692100830389
 30
0.0
  0
POINT
  5
509
330
500
100
AcDbEntity
  8
Defpoints
  6
Continuous
 62
     0
370
     0
100
AcDbPoint
 10
-2.242176901543285
 20
-22.95110689908673
 30
0.0
  0
POINT
  5
50A
330
500
100
AcDbEntity
  8
Defpoints
  6
Continuous
 62
     0
370
     0
100
AcDbPoint
 10
-2.242176901543285
 20
-23.10122964710036
 30
0.0
  0
ENDBLK
  5
50C
330
500
100
AcDbEntity
  8
0
 62
     3
370
     0
100
AcDbBlockEnd
  0
BLOCK
  5
519
330
50E
100
AcDbEntity
  8
0
 62
     3
370
     0
100
AcDbBlockBegin
  2
*D29
 70
     1
 10
0.0
 20
0.0
 30
0.0
  3
*D29
  1

  0
LINE
  5
53D
330
50E
100
AcDbEntity
  8
ADPDIM
  6
Continuous
 62
     0
370
     0
100
AcDbLine
 10
-3.835531820715914
 20
-23.99763219192619
 30
0.0
 11
-3.835531820715914
 21
-24.42344192412809
 31
0.0
  0
LINE
  5
53E
330
50E
100
AcDbEntity
  8
ADPDIM
  6
Continuous
 62
     0
370
     0
100
AcDbLine
 10
-2.335531820715914
 20
-23.99763219192619
 30
0.0
 11
-2.335531820715914
 21
-24.42344192412809
 31
0.0
  0
LINE
  5
53F
330
50E
100
AcDbEntity
  8
ADPDIM
  6
Continuous
 62
     0
370
     0
100
AcDbLine
 10
-3.655531820715914
 20
-24.24344192412809
 30
0.0
 11
-3.550531820715914
 21
-24.24344192412809
 31
0.0
  0
LINE
  5
540
330
50E
100
AcDbEntity
  8
ADPDIM
  6
Continuous
 62
     0
370
     0
100
AcDbLine
 10
-2.515531820715914
 20
-24.24344192412809
 30
0.0
 11
-2.620531820715914
 21
-24.24344192412809
 31
0.0
  0
SOLID
  5
541
330
50E
100
AcDbEntity
  8
ADPDIM
  6
Continuous
 62
     0
370
     0
100
AcDbTrace
 10
-3.655531820715914
 20
-24.21344192412809
 30
0.0
 11
-3.655531820715914
 21
-24.27344192412809
 31
0.0
 12
-3.835531820715914
 22
-24.24344192412809
 32
0.0
 13
-3.835531820715914
 23
-24.24344192412809
 33
0.0
  0
SOLID
  5
542
330
50E
100
AcDbEntity
  8
ADPDIM
  6
Continuous
 62
     0
370
     0
100
AcDbTrace
 10
-2.515531820715914
 20
-24.21344192412809
 30
0.0
 11
-2.515531820715914
 21
-24.27344192412809
 31
0.0
 12
-2.335531820715914
 22
-24.24344192412809
 32
0.0
 13
-2.335531820715914
 23
-24.24344192412809
 33
0.0
  0
MTEXT
  5
543
330
50E
100
AcDbEntity
  8
ADPDIM
  6
Continuous
 62
     0
370
     0
100
AcDbMText
 10
-3.085531820715914
 20
-24.24344192412809
 30
0.0
 40
0.18
 41
0.0
 71
     5
 72
     1
  1
\A1;1.5000
 73
     1
 44
1.0
1001
ACAD
1000
MTEXTBEGIN
1070
    73
1070
     1
1070
    44
1040
1.0
1070
    74
1070
     0
1000
MTEXTEND
  0
POINT
  5
544
330
50E
100
AcDbEntity
  8
Defpoints
  6
Continuous
 62
     0
370
     0
100
AcDbPoint
 10
-3.835531820715914
 20
-23.93513219192619
 30
0.0
  0
POINT
  5
545
330
50E
100
AcDbEntity
  8
Defpoints
  6
Continuous
 62
     0
370
     0
100
AcDbPoint
 10
-2.335531820715914
 20
-23.93513219192619
 30
0.0
  0
POINT
  5
546
330
50E
100
AcDbEntity
  8
Defpoints
  6
Continuous
 62
     0
370
     0
100
AcDbPoint
 10
-2.335531820715914
 20
-24.24344192412809
 30
0.0
  0
ENDBLK
  5
51A
330
50E
100
AcDbEntity
  8
0
 62
     3
370
     0
100
AcDbBlockEnd
  0
BLOCK
  5
531
330
526
100
AcDbEntity
  8
0
 62
     3
370
     0
100
AcDbBlockBegin
  2
*D30
 70
     1
 10
0.0
 20
0.0
 30
0.0
  3
*D30
  1

  0
LINE
  5
547
330
526
100
AcDbEntity
  8
ADPDIM
  6
Continuous
 62
     0
370
     0
100
AcDbLine
 10
-3.898410626728946
 20
-22.44149277108818
 30
0.0
 11
-4.601095622684333
 21
-22.44149277108818
 31
0.0
  0
LINE
  5
548
330
526
100
AcDbEntity
  8
ADPDIM
  6
Continuous
 62
     0
370
     0
100
AcDbLine
 10
-3.898410626728946
 20
-23.94149277108818
 30
0.0
 11
-4.601095622684333
 21
-23.94149277108818
 31
0.0
  0
LINE
  5
549
330
526
100
AcDbEntity
  8
ADPDIM
  6
Continuous
 62
     0
370
     0
100
AcDbLine
 10
-4.421095622684333
 20
-22.62149277108818
 30
0.0
 11
-4.421095622684333
 21
-23.01149277108818
 31
0.0
  0
LINE
  5
54A
330
526
100
AcDbEntity
  8
ADPDIM
  6
Continuous
 62
     0
370
     0
100
AcDbLine
 10
-4.421095622684333
 20
-23.76149277108818
 30
0.0
 11
-4.421095622684333
 21
-23.37149277108818
 31
0.0
  0
SOLID
  5
54B
330
526
100
AcDbEntity
  8
ADPDIM
  6
Continuous
 62
     0
370
     0
100
AcDbTrace
 10
-4.451095622684333
 20
-22.62149277108818
 30
0.0
 11
-4.391095622684333
 21
-22.62149277108818
 31
0.0
 12
-4.421095622684333
 22
-22.44149277108818
 32
0.0
 13
-4.421095622684333
 23
-22.44149277108818
 33
0.0
  0
SOLID
  5
54C
330
526
100
AcDbEntity
  8
ADPDIM
  6
Continuous
 62
     0
370
     0
100
AcDbTrace
 10
-4.451095622684333
 20
-23.76149277108818
 30
0.0
 11
-4.391095622684333
 21
-23.76149277108818
 31
0.0
 12
-4.421095622684333
 22
-23.94149277108818
 32
0.0
 13
-4.421095622684333
 23
-23.94149277108818
 33
0.0
  0
MTEXT
  5
54D
330
526
100
AcDbEntity
  8
ADPDIM
  6
Continuous
 62
     0
370
     0
100
AcDbMText
 10
-4.42109562268433
 20
-23.19149277108818
 30
0.0
 40
0.18
 41
0.0
 71
     5
 72
     1
  1
\A1;1.5000
 73
     1
 44
1.0
1001
ACAD
1000
MTEXTBEGIN
1070
    73
1070
     1
1070
    44
1040
1.0
1070
    74
1070
     0
1000
MTEXTEND
  0
POINT
  5
54E
330
526
100
AcDbEntity
  8
Defpoints
  6
Continuous
 62
     0
370
     0
100
AcDbPoint
 10
-3.835910626728946
 20
-22.44149277108818
 30
0.0
  0
POINT
  5
54F
330
526
100
AcDbEntity
  8
Defpoints
  6
Continuous
 62
     0
370
     0
100
AcDbPoint
 10
-3.835910626728946
 20
-23.94149277108818
 30
0.0
  0
POINT
  5
550
330
526
100
AcDbEntity
  8
Defpoints
  6
Continuous
 62
     0
370
     0
100
AcDbPoint
 10
-4.421095622684333
 20
-23.94149277108818
 30
0.0
  0
ENDBLK
  5
532
330
526
100
AcDbEntity
  8
0
 62
     3
370
     0
100
AcDbBlockEnd
  0
BLOCK
  5
589
330
57E
100
AcDbEntity
  8
0
 62
     3
370
     0
100
AcDbBlockBegin
  2
*D32
 70
     1
 10
0.0
 20
0.0
 30
0.0
  3
*D32
  1

  0
LINE
  5
57F
330
57E
100
AcDbEntity
  8
ADPDIM
  6
Continuous
 62
     0
370
     0
100
AcDbLine
 10
-4.142560865052473
 20
-22.00994553007877
 30
0.0
 11
-4.98961781450378
 21
-22.00994553007877
 31
0.0
  0
LINE
  5
580
330
57E
100
AcDbEntity
  8
ADPDIM
  6
Continuous
 62
     0
370
     0
100
AcDbLine
 10
-4.142560865052473
 20
-24.00994553007877
 30
0.0
 11
-4.98961781450378
 21
-24.00994553007877
 31
0.0
  0
LINE
  5
581
330
57E
100
AcDbEntity
  8
ADPDIM
  6
Continuous
 62
     0
370
     0
100
AcDbLine
 10
-4.809617814503781
 20
-22.18994553007877
 30
0.0
 11
-4.809617814503781
 21
-22.82994553007877
 31
0.0
  0
LINE
  5
582
330
57E
100
AcDbEntity
  8
ADPDIM
  6
Continuous
 62
     0
370
     0
100
AcDbLine
 10
-4.809617814503781
 20
-23.82994553007877
 30
0.0
 11
-4.809617814503781
 21
-23.18994553007877
 31
0.0
  0
SOLID
  5
583
330
57E
100
AcDbEntity
  8
ADPDIM
  6
Continuous
 62
     0
370
     0
100
AcDbTrace
 10
-4.839617814503781
 20
-22.18994553007877
 30
0.0
 11
-4.77961781450378
 21
-22.18994553007877
 31
0.0
 12
-4.809617814503781
 22
-22.00994553007877
 32
0.0
 13
-4.809617814503781
 23
-22.00994553007877
 33
0.0
  0
SOLID
  5
584
330
57E
100
AcDbEntity
  8
ADPDIM
  6
Continuous
 62
     0
370
     0
100
AcDbTrace
 10
-4.839617814503781
 20
-23.82994553007877
 30
0.0
 11
-4.77961781450378
 21
-23.82994553007877
 31
0.0
 12
-4.809617814503781
 22
-24.00994553007877
 32
0.0
 13
-4.809617814503781
 23
-24.00994553007877
 33
0.0
  0
MTEXT
  5
585
330
57E
100
AcDbEntity
  8
ADPDIM
  6
Continuous
 62
     0
370
     0
100
AcDbMText
 10
-4.809617814503777
 20
-23.00994553007877
 30
0.0
 40
0.18
 41
0.0
 71
     5
 72
     1
  1
\A1;2.0000
 73
     1
 44
1.0
1001
ACAD
1000
MTEXTBEGIN
1070
    73
1070
     1
1070
    44
1040
1.0
1070
    74
1070
     0
1000
MTEXTEND
  0
POINT
  5
586
330
57E
100
AcDbEntity
  8
Defpoints
  6
Continuous
 62
     0
370
     0
100
AcDbPoint
 10
-4.080060865052473
 20
-22.00994553007877
 30
0.0
  0
POINT
  5
587
330
57E
100
AcDbEntity
  8
Defpoints
  6
Continuous
 62
     0
370
     0
100
AcDbPoint
 10
-4.080060865052473
 20
-24.00994553007877
 30
0.0
  0
POINT
  5
588
330
57E
100
AcDbEntity
  8
Defpoints
  6
Continuous
 62
     0
370
     0
100
AcDbPoint
 10
-4.809617814503781
 20
-24.00994553007877
 30
0.0
  0
ENDBLK
  5
58A
330
57E
100
AcDbEntity
  8
0
 62
     3
370
     0
100
AcDbBlockEnd
  0
BLOCK
  5
597
330
58C
100
AcDbEntity
  8
0
 62
     3
370
     0
100
AcDbBlockBegin
  2
*D33
 70
     1
 10
0.0
 20
0.0
 30
0.0
  3
*D33
  1

  0
LINE
  5
58D
330
58C
100
AcDbEntity
  8
ADPDIM
  6
Continuous
 62
     0
370
     0
100
AcDbLine
 10
-4.08002962331966
 20
-23.96248382413751
 30
0.0
 11
-4.08002962331966
 21
-24.46309718871969
 31
0.0
  0
LINE
  5
58E
330
58C
100
AcDbEntity
  8
ADPDIM
  6
Continuous
 62
     0
370
     0
100
AcDbLine
 10
-2.08002962331966
 20
-23.96248382413751
 30
0.0
 11
-2.08002962331966
 21
-24.46309718871969
 31
0.0
  0
LINE
  5
58F
330
58C
100
AcDbEntity
  8
ADPDIM
  6
Continuous
 62
     0
370
     0
100
AcDbLine
 10
-3.90002962331966
 20
-24.2830971887197
 30
0.0
 11
-3.56002962331966
 21
-24.2830971887197
 31
0.0
  0
LINE
  5
590
330
58C
100
AcDbEntity
  8
ADPDIM
  6
Continuous
 62
     0
370
     0
100
AcDbLine
 10
-2.26002962331966
 20
-24.2830971887197
 30
0.0
 11
-2.60002962331966
 21
-24.2830971887197
 31
0.0
  0
SOLID
  5
591
330
58C
100
AcDbEntity
  8
ADPDIM
  6
Continuous
 62
     0
370
     0
100
AcDbTrace
 10
-3.90002962331966
 20
-24.25309718871969
 30
0.0
 11
-3.90002962331966
 21
-24.3130971887197
 31
0.0
 12
-4.08002962331966
 22
-24.2830971887197
 32
0.0
 13
-4.08002962331966
 23
-24.2830971887197
 33
0.0
  0
SOLID
  5
592
330
58C
100
AcDbEntity
  8
ADPDIM
  6
Continuous
 62
     0
370
     0
100
AcDbTrace
 10
-2.26002962331966
 20
-24.25309718871969
 30
0.0
 11
-2.26002962331966
 21
-24.3130971887197
 31
0.0
 12
-2.08002962331966
 22
-24.2830971887197
 32
0.0
 13
-2.08002962331966
 23
-24.2830971887197
 33
0.0
  0
MTEXT
  5
593
330
58C
100
AcDbEntity
  8
ADPDIM
  6
Continuous
 62
     0
370
     0
100
AcDbMText
 10
-3.08002962331966
 20
-24.2830971887197
 30
0.0
 40
0.18
 41
0.0
 71
     5
 72
     1
  1
\A1;2.0000
 73
     1
 44
1.0
1001
ACAD
1000
MTEXTBEGIN
1070
    73
1070
     1
1070
    44
1040
1.0
1070
    74
1070
     0
1000
MTEXTEND
  0
POINT
  5
594
330
58C
100
AcDbEntity
  8
Defpoints
  6
Continuous
 62
     0
370
     0
100
AcDbPoint
 10
-4.08002962331966
 20
-23.89998382413751
 30
0.0
  0
POINT
  5
595
330
58C
100
AcDbEntity
  8
Defpoints
  6
Continuous
 62
     0
370
     0
100
AcDbPoint
 10
-2.08002962331966
 20
-23.89998382413751
 30
0.0
  0
POINT
  5
596
330
58C
100
AcDbEntity
  8
Defpoints
  6
Continuous
 62
     0
370
     0
100
AcDbPoint
 10
-2.08002962331966
 20
-24.2830971887197
 30
0.0
  0
ENDBLK
  5
598
330
58C
100
AcDbEntity
  8
0
 62
     3
370
     0
100
AcDbBlockEnd
  0
BLOCK
  5
5A5
330
59A
100
AcDbEntity
  8
0
 62
     3
370
     0
100
AcDbBlockBegin
  2
*D34
 70
     1
 10
0.0
 20
0.0
 30
0.0
  3
*D34
  1

  0
LINE
  5
59B
330
59A
100
AcDbEntity
  8
ADPDIM
  6
Continuous
 62
     0
370
     0
100
AcDbLine
 10
-2.199359305146572
 20
-22.57561603756721
 30
0.0
 11
-2.199359305146572
 21
-22.45811603756722
 31
0.0
  0
LINE
  5
59C
330
59A
100
AcDbEntity
  8
ADPDIM
  6
Continuous
 62
     0
370
     0
100
AcDbLine
 10
-2.074359305146572
 20
-22.57561603756721
 30
0.0
 11
-2.074359305146572
 21
-22.45811603756722
 31
0.0
  0
LINE
  5
59D
330
59A
100
AcDbEntity
  8
ADPDIM
  6
Continuous
 62
     0
370
     0
100
AcDbLine
 10
-2.379359305146572
 20
-22.63811603756721
 30
0.0
 11
-2.559359305146572
 21
-22.63811603756721
 31
0.0
  0
LINE
  5
59E
330
59A
100
AcDbEntity
  8
ADPDIM
  6
Continuous
 62
     0
370
     0
100
AcDbLine
 10
-1.894359305146572
 20
-22.63811603756721
 30
0.0
 11
-1.714359305146572
 21
-22.63811603756721
 31
0.0
  0
SOLID
  5
59F
330
59A
100
AcDbEntity
  8
ADPDIM
  6
Continuous
 62
     0
370
     0
100
AcDbTrace
 10
-2.379359305146572
 20
-22.60811603756721
 30
0.0
 11
-2.379359305146572
 21
-22.66811603756722
 31
0.0
 12
-2.199359305146572
 22
-22.63811603756721
 32
0.0
 13
-2.199359305146572
 23
-22.63811603756721
 33
0.0
  0
SOLID
  5
5A0
330
59A
100
AcDbEntity
  8
ADPDIM
  6
Continuous
 62
     0
370
     0
100
AcDbTrace
 10
-1.894359305146572
 20
-22.60811603756721
 30
0.0
 11
-1.894359305146572
 21
-22.66811603756722
 31
0.0
 12
-2.074359305146572
 22
-22.63811603756721
 32
0.0
 13
-2.074359305146572
 23
-22.63811603756721
 33
0.0
  0
MTEXT
  5
5A1
330
59A
100
AcDbEntity
  8
ADPDIM
  6
Continuous
 62
     0
370
     0
100
AcDbMText
 10
-1.234359305146572
 20
-22.63811603756721
 30
0.0
 40
0.18
 41
0.0
 71
     5
 72
     1
  1
\A1;0.1250
 73
     1
 44
1.0
1001
ACAD
1000
MTEXTBEGIN
1070
    73
1070
     1
1070
    44
1040
1.0
1070
    74
1070
     0
1000
MTEXTEND
  0
POINT
  5
5A2
330
59A
100
AcDbEntity
  8
Defpoints
  6
Continuous
 62
     0
370
     0
100
AcDbPoint
 10
-2.199359305146572
 20
-22.63811603756721
 30
0.0
  0
POINT
  5
5A3
330
59A
100
AcDbEntity
  8
Defpoints
  6
Continuous
 62
     0
370
     0
100
AcDbPoint
 10
-2.074359305146572
 20
-22.63811603756721
 30
0.0
  0
POINT
  5
5A4
330
59A
100
AcDbEntity
  8
Defpoints
  6
Continuous
 62
     0
370
     0
100
AcDbPoint
 10
-2.074359305146572
 20
-22.63811603756721
 30
0.0
  0
ENDBLK
  5
5A6
330
59A
100
AcDbEntity
  8
0
 62
     3
370
     0
100
AcDbBlockEnd
  0
ENDSEC
  0
SECTION
  2
ENTITIES
  0
TEXT
  5
C0
330
A
100
AcDbEntity
  8
ADPDIM
100
AcDbText
 10
-7.983168046903074
 20
-24.78248146493775
 30
0.0
 40
0.09375
  1
J U L I U S  B L U M  &  C O . ,  I N C .      ( 8 0 0 )  5 2 6 - 6 2 9 3        W W W . J U L I U S B L U M . C O M        P A R T  N o .  4 7 5 2
 41
1.25
  7
ARIAL_WIDE
 72
     1
 11
-3.088871278485612
 21
-24.68873146493775
 31
0.0
100
AcDbText
 73
     3
  0
SPLINE
  5
57C
330
A
100
AcDbEntity
  8
LAYER_1
 62
     7
100
AcDbSpline
210
0.0
220
0.0
230
1.0
 70
    11
 71
     3
 72
    35
 73
    31
 74
     0
 42
0.0000000001
 43
0.0000000001
 40
0.0
 40
0.0
 40
0.0
 40
0.0
 40
1.0
 40
1.0
 40
1.0
 40
2.0
 40
2.0
 40
2.0
 40
3.0
 40
3.0
 40
3.0
 40
4.0
 40
4.0
 40
4.0
 40
5.0
 40
5.0
 40
5.0
 40
6.0
 40
6.0
 40
6.0
 40
7.0
 40
7.0
 40
7.0
 40
8.0
 40
8.0
 40
8.0
 40
9.0
 40
9.0
 40
9.0
 40
10.0
 40
10.0
 40
10.0
 40
10.0
 10
-2.199036268681755
 20
-23.9300593518865
 30
0.0
 10
-2.199036268681755
 20
-23.9300593518865
 30
0.0
 10
-3.962886576855552
 20
-23.9300593518865
 30
0.0
 10
-3.962886576855552
 20
-23.9300593518865
 30
0.0
 10
-3.962886576855552
 20
-23.9300593518865
 30
0.0
 10
-3.962886576855552
 20
-22.00634187075389
 30
0.0
 10
-3.962886576855552
 20
-22.00634187075389
 30
0.0
 10
-3.962886576855552
 20
-22.00634187075389
 30
0.0
 10
-4.082962526144482
 20
-22.00634187075389
 30
0.0
 10
-4.082962526144482
 20
-22.00634187075389
 30
0.0
 10
-4.082962526144482
 20
-22.00634187075389
 30
0.0
 10
-4.082962526144482
 20
-23.93524121103474
 30
0.0
 10
-4.082962526144482
 20
-23.93524121103474
 30
0.0
 10
-4.082962526144482
 20
-23.93524121103474
 30
0.0
 10
-4.094587618049406
 20
-24.01883278097865
 30
0.0
 10
-4.024925703684239
 20
-24.01883278097865
 30
0.0
 10
-4.024925703684239
 20
-24.01883278097865
 30
0.0
 10
-2.13684032243148
 20
-24.01920096570761
 30
0.0
 10
-2.13684032243148
 20
-24.01920096570761
 30
0.0
 10
-2.067171589830589
 20
-24.01920096570761
 30
0.0
 10
-2.07877622702835
 20
-23.9317502743454
 30
0.0
 10
-2.07877622702835
 20
-23.9317502743454
 30
0.0
 10
-2.07877622702835
 20
-23.9317502743454
 30
0.0
 10
-2.07877622702835
 20
-22.00285093406456
 30
0.0
 10
-2.07877622702835
 20
-22.00285093406456
 30
0.0
 10
-2.07877622702835
 20
-22.00285093406456
 30
0.0
 10
-2.199036268681755
 20
-22.00285093406456
 30
0.0
 10
-2.199036268681755
 20
-22.00285093406456
 30
0.0
 10
-2.199036268681755
 20
-22.00285093406456
 30
0.0
 10
-2.199036268681755
 20
-23.9300593518865
 30
0.0
 10
-2.199036268681755
 20
-23.9300593518865
 30
0.0
  0
DIMENSION
  5
57D
330
A
100
AcDbEntity
  8
ADPDIM
  6
Continuous
 62
     3
370
     0
100
AcDbDimension
  2
*D32
 10
-4.809617814503781
 20
-24.00994553007877
 30
0.0
 11
-4.809617814503777
 21
-23.00994553007877
 31
0.0
 70
    32
 71
     5
 42
2.0
  3
Standard
100
AcDbAlignedDimension
 13
-4.080060865052473
 23
-22.00994553007877
 33
0.0
 14
-4.080060865052473
 24
-24.00994553007877
 34
0.0
 50
90.0
100
AcDbRotatedDimension
1001
ACAD
1000
DSTYLE
1002
{
1070
   278
1070
     0
1070
   289
1070
     3
1070
   371
1070
     0
1070
   372
1070
     0
1002
}
  0
DIMENSION
  5
58B
330
A
100
AcDbEntity
  8
ADPDIM
  6
Continuous
 62
     3
370
     0
100
AcDbDimension
  2
*D33
 10
-2.08002962331966
 20
-24.2830971887197
 30
0.0
 11
-3.08002962331966
 21
-24.2830971887197
 31
0.0
 70
    32
 71
     5
 42
2.0
  3
Standard
100
AcDbAlignedDimension
 13
-4.08002962331966
 23
-23.89998382413751
 33
0.0
 14
-2.08002962331966
 24
-23.89998382413751
 34
0.0
100
AcDbRotatedDimension
1001
ACAD
1000
DSTYLE
1002
{
1070
   278
1070
     0
1070
   289
1070
     3
1070
   371
1070
     0
1070
   372
1070
     0
1002
}
  0
DIMENSION
  5
599
330
A
100
AcDbEntity
  8
ADPDIM
  6
Continuous
 62
     3
370
     0
100
AcDbDimension
  2
*D34
 10
-2.074359305146572
 20
-22.63811603756721
 30
0.0
 11
-1.234359305146572
 21
-22.63811603756721
 31
0.0
 70
    32
 71
     5
 42
0.125
  3
Standard
100
AcDbAlignedDimension
 13
-2.199359305146572
 23
-22.63811603756721
 33
0.0
 14
-2.074359305146572
 24
-22.63811603756721
 34
0.0
100
AcDbRotatedDimension
1001
ACAD
1000
DSTYLE
1002
{
1070
   278
1070
     0
1070
   289
1070
     3
1070
   371
1070
     0
1070
   372
1070
     0
1002
}
  0
ENDSEC
  0
SECTION
  2
OBJECTS
  0
DICTIONARY
  5
19
330
0
100
AcDbDictionary
281
     1
  3
ACAD_COLOR
350
AD
  3
ACAD_GROUP
350
1A
  3
ACAD_LAYOUT
350
1E
  3
ACAD_MATERIAL
350
98
  3
ACAD_MLINESTYLE
350
1B
  3
ACAD_PLOTSETTINGS
350
22
  3
ACAD_PLOTSTYLENAME
350
1F
  3
ACAD_TABLESTYLE
350
AE
  3
ACAD_VISUALSTYLE
350
9C
  3
ACAD_WIPEOUT_VARS
350
23
  3
AcDbVariableDictionary
350
199
  3
DWGPROPS
350
5A7
  0
DICTIONARY
  5
AD
102
{ACAD_REACTORS
330
19
102
}
330
19
100
AcDbDictionary
281
     1
  0
DICTIONARY
  5
1A
102
{ACAD_REACTORS
330
19
102
}
330
19
100
AcDbDictionary
281
     1
  0
DICTIONARY
  5
1E
102
{ACAD_REACTORS
330
19
102
}
330
19
100
AcDbDictionary
281
     1
  3
Layout1
350
21
  3
Model
350
20
  0
DICTIONARY
  5
98
102
{ACAD_REACTORS
330
19
102
}
330
19
100
AcDbDictionary
281
     1
  3
ByBlock
350
9A
  3
ByLayer
350
99
  3
Global
350
9B
  0
DICTIONARY
  5
1B
102
{ACAD_REACTORS
330
19
102
}
330
19
100
AcDbDictionary
281
     1
  3
Standard
350
1C
  0
DICTIONARY
  5
22
102
{ACAD_REACTORS
330
19
102
}
330
19
100
AcDbDictionary
281
     1
  0
ACDBDICTIONARYWDFLT
  5
1F
102
{ACAD_REACTORS
330
19
102
}
330
19
100
AcDbDictionary
281
     1
  3
Normal
350
1D
100
AcDbDictionaryWithDefault
340
1D
  0
DICTIONARY
  5
AE
102
{ACAD_REACTORS
330
19
102
}
330
19
100
AcDbDictionary
281
     1
  3
Standard
350
AF
  0
DICTIONARY
  5
9C
102
{ACAD_REACTORS
330
19
102
}
330
19
100
AcDbDictionary
281
     1
  3
2dWireframe
350
A2
  3
3D Hidden
350
A4
  3
3dWireframe
350
A3
  3
Basic
350
A1
  3
Brighten
350
A8
  3
ColorChange
350
AC
  3
Conceptual
350
A5
  3
Dim
350
A7
  3
Facepattern
350
AB
  3
Flat
350
9D
  3
FlatWithEdges
350
9E
  3
Gouraud
350
9F
  3
GouraudWithEdges
350
A0
  3
Linepattern
350
AA
  3
Realistic
350
A6
  3
Thicken
350
A9
  0
WIPEOUTVARIABLES
  5
23
330
19
100
AcDbWipeoutVariables
 70
     1
  0
DICTIONARY
  5
199
102
{ACAD_REACTORS
330
19
102
}
330
19
100
AcDbDictionary
281
     1
  3
CTABLESTYLE
350
19A
  3
DIMASSOC
350
19D
  3
INDEXCTL
350
19C
  3
SORTENTS
350
19B
  0
XRECORD
  5
5A7
102
{ACAD_REACTORS
330
19
102
}
330
19
100
AcDbXrecord
280
     1
  1
DWGPROPS COOKIE
  2

  3

  4

  6

  7

  8
Yu Hu
  9

300
=
301
=
302
=
303
=
304
=
305
=
306
=
307
=
308
=
309
=
 40
0.027058912037037
 41
2453963.879490035
 42
2453963.906514873
  1

 90
        0
  0
LAYOUT
  5
21
102
{ACAD_XDICTIONARY
360
5AA
102
}
102
{ACAD_REACTORS
330
1E
102
}
330
1E
100
AcDbPlotSettings
  1

  2

  4

  6

 40
0.0
 41
0.0
 42
0.0
 43
0.0
 44
0.0
 45
0.0
 46
0.0
 47
0.0
 48
0.0
 49
0.0
140
0.0
141
0.0
142
1.0
143
1.0
 70
     0
 72
     0
 73
     0
 74
     0
  7

 75
     0
147
1.0
148
0.0
149
0.0
100
AcDbLayout
  1
Layout1
 70
     0
 71
     1
 10
0.0
 20
0.0
 11
12.0
 21
9.0
 12
0.0
 22
0.0
 32
0.0
 14
1.000000000000000E+20
 24
1.000000000000000E+20
 34
1.000000000000000E+20
 15
-1.000000000000000E+20
 25
-1.000000000000000E+20
 35
-1.000000000000000E+20
146
0.0
 13
0.0
 23
0.0
 33
0.0
 16
1.0
 26
0.0
 36
0.0
 17
0.0
 27
1.0
 37
0.0
 76
     0
330
B
  0
LAYOUT
  5
20
102
{ACAD_XDICTIONARY
360
5A8
102
}
102
{ACAD_REACTORS
330
1E
102
}
330
1E
100
AcDbPlotSettings
  1

  2

  4

  6

 40
0.0
 41
0.0
 42
0.0
 43
0.0
 44
0.0
 45
0.0
 46
0.0
 47
0.0
 48
0.0
 49
0.0
140
0.0
141
0.0
142
1.0
143
1.0
 70
  1024
 72
     0
 73
     0
 74
     0
  7

 75
     0
147
1.0
148
0.0
149
0.0
100
AcDbLayout
  1
Model
 70
     0
 71
     0
 10
0.0
 20
0.0
 11
0.0
 21
0.0
 12
0.0
 22
0.0
 32
0.0
 14
0.0
 24
0.0
 34
0.0
 15
0.0
 25
0.0
 35
0.0
146
0.0
 13
0.0
 23
0.0
 33
0.0
 16
0.0
 26
0.0
 36
0.0
 17
0.0
 27
0.0
 37
0.0
 76
     0
330
A
331
15
  0
MATERIAL
  5
9A
102
{ACAD_XDICTIONARY
360
5AE
102
}
102
{ACAD_REACTORS
330
98
102
}
330
98
100
AcDbMaterial
  1
ByBlock
  0
MATERIAL
  5
99
102
{ACAD_XDICTIONARY
360
5AC
102
}
102
{ACAD_REACTORS
330
98
102
}
330
98
100
AcDbMaterial
  1
ByLayer
  0
MATERIAL
  5
9B
102
{ACAD_XDICTIONARY
360
5B0
102
}
102
{ACAD_REACTORS
330
98
102
}
330
98
100
AcDbMaterial
  1
Global
  0
MLINESTYLE
  5
1C
102
{ACAD_REACTORS
330
1B
102
}
330
1B
100
AcDbMlineStyle
  2
STANDARD
 70
     0
  3

 62
     0
 51
90.0
 52
90.0
 71
     2
 49
0.5
 62
   256
  6
BYLAYER
 49
-0.5
 62
   256
  6
BYLAYER
  0
ACDBPLACEHOLDER
  5
1D
102
{ACAD_REACTORS
330
1F
102
}
330
1F
  0
TABLESTYLE
  5
AF
102
{ACAD_XDICTIONARY
360
5B2
102
}
102
{ACAD_REACTORS
330
AE
102
}
330
AE
100
AcDbTableStyle
  3
Standard
 70
     0
 71
     0
 40
1.5
 41
1.5
280
     0
281
     0
  7
Standard
140
4.5
170
     2
 62
     0
 63
     7
283
     0
274
    -2
284
     1
 64
     0
275
    -2
285
     1
 65
     0
276
    -2
286
     1
 66
     0
277
    -2
287
     1
 67
     0
278
    -2
288
     1
 68
     0
279
    -2
289
     1
 69
     0
  7
Standard
140
6.0
170
     5
 62
     0
 63
     7
283
     0
274
    -2
284
     1
 64
     0
275
    -2
285
     1
 65
     0
276
    -2
286
     1
 66
     0
277
    -2
287
     1
 67
     0
278
    -2
288
     1
 68
     0
279
    -2
289
     1
 69
     0
  7
Standard
140
4.5
170
     5
 62
     0
 63
     7
283
     0
274
    -2
284
     1
 64
     0
275
    -2
285
     1
 65
     0
276
    -2
286
     1
 66
     0
277
    -2
287
     1
 67
     0
278
    -2
288
     1
 68
     0
279
    -2
289
     1
 69
     0
  0
VISUALSTYLE
  5
A2
102
{ACAD_REACTORS
330
9C
102
}
330
9C
100
AcDbVisualStyle
  2
2dWireframe
 70
     4
 71
     0
 72
     2
 73
     0
 90
        0
 40
-0.6
 41
-30.0
 62
     5
 63
     7
 74
     1
 91
        4
 64
     7
 65
   257
 75
     1
175
     1
 42
1.0
 92
        0
 66
   257
 43
1.0
 76
     1
 77
     6
 78
     2
 67
     7
 79
     5
170
     0
171
     0
290
     0
174
     0
 93
        1
 44
0.0
173
     0
291
     0
 45
0.0
1001
ACAD
1000
AcDbSavedByObjectVersion
1070
     0
  0
VISUALSTYLE
  5
A4
102
{ACAD_REACTORS
330
9C
102
}
330
9C
100
AcDbVisualStyle
  2
3D Hidden
 70
     6
 71
     1
 72
     2
 73
     2
 90
        0
 40
-0.6
 41
-30.0
 62
     5
 63
     7
 74
     2
 91
        2
 64
     7
 65
   257
 75
     2
175
     1
 42
40.0
 92
        0
 66
   257
 43
1.0
 76
     1
 77
     6
 78
     2
 67
     7
 79
     3
170
     0
171
     0
290
     0
174
     0
 93
        1
 44
0.0
173
     0
291
     0
 45
0.0
1001
ACAD
1000
AcDbSavedByObjectVersion
1070
     0
  0
VISUALSTYLE
  5
A3
102
{ACAD_REACTORS
330
9C
102
}
330
9C
100
AcDbVisualStyle
  2
3dWireframe
 70
     5
 71
     0
 72
     2
 73
     0
 90
        0
 40
-0.6
 41
-30.0
 62
     5
 63
     7
 74
     1
 91
        4
 64
     7
 65
   257
 75
     1
175
     1
 42
1.0
 92
        0
 66
   257
 43
1.0
 76
     1
 77
     6
 78
     2
 67
     7
 79
     5
170
     0
171
     0
290
     0
174
     0
 93
        1
 44
0.0
173
     0
291
     0
 45
0.0
1001
ACAD
1000
AcDbSavedByObjectVersion
1070
     0
  0
VISUALSTYLE
  5
A1
102
{ACAD_REACTORS
330
9C
102
}
330
9C
100
AcDbVisualStyle
  2
Basic
 70
     7
 71
     1
 72
     0
 73
     1
 90
        0
 40
-0.6
 41
-30.0
 62
     5
 63
     7
 74
     0
 91
        4
 64
     7
 65
   257
 75
     1
175
     1
 42
1.0
 92
        8
 66
     7
 43
1.0
 76
     1
 77
     6
 78
     2
 67
     7
 79
     5
170
     0
171
     0
290
     0
174
     0
 93
        1
 44
0.0
173
     0
291
     1
 45
0.0
1001
ACAD
1000
AcDbSavedByObjectVersion
1070
     0
  0
VISUALSTYLE
  5
A8
102
{ACAD_REACTORS
330
9C
102
}
330
9C
100
AcDbVisualStyle
  2
Brighten
 70
    12
 71
     2
 72
     2
 73
     0
 90
        0
 40
-0.6
 41
-30.0
 62
     5
 63
     7
 74
     1
 91
        4
 64
     7
 65
   257
 75
     1
175
     1
 42
1.0
 92
        8
 66
     7
 43
1.0
 76
     1
 77
     6
 78
     2
 67
     7
 79
     5
170
     0
171
     0
290
     0
174
     0
 93
        1
 44
50.0
173
     0
291
     1
 45
0.0
1001
ACAD
1000
AcDbSavedByObjectVersion
1070
     0
  0
VISUALSTYLE
  5
AC
102
{ACAD_REACTORS
330
9C
102
}
330
9C
100
AcDbVisualStyle
  2
ColorChange
 70
    16
 71
     2
 72
     2
 73
     3
 90
        0
 40
-0.6
 41
-30.0
 62
     5
 63
     8
 74
     1
 91
        4
 64
     7
 65
   257
 75
     1
175
     1
 42
1.0
 92
        8
 66
     8
 43
1.0
 76
     1
 77
     6
 78
     2
 67
     7
 79
     5
170
     0
171
     0
290
     0
174
     0
 93
        1
 44
0.0
173
     0
291
     1
 45
0.0
1001
ACAD
1000
AcDbSavedByObjectVersion
1070
     0
  0
VISUALSTYLE
  5
A5
102
{ACAD_REACTORS
330
9C
102
}
330
9C
100
AcDbVisualStyle
  2
Conceptual
 70
     9
 71
     3
 72
     2
 73
     0
 90
        0
 40
-0.6
 41
-30.0
 62
     5
 63
     7
 74
     2
 91
        2
 64
     7
 65
   257
 75
     1
175
     1
 42
40.0
 92
        8
 66
     7
 43
1.0
 76
     1
 77
     6
 78
     2
 67
     7
 79
     3
170
     0
171
     0
290
     0
174
     0
 93
        1
 44
0.0
173
     0
291
     0
 45
0.0
1001
ACAD
1000
AcDbSavedByObjectVersion
1070
     0
  0
VISUALSTYLE
  5
A7
102
{ACAD_REACTORS
330
9C
102
}
330
9C
100
AcDbVisualStyle
  2
Dim
 70
    11
 71
     2
 72
     2
 73
     0
 90
        0
 40
-0.6
 41
-30.0
 62
     5
 63
     7
 74
     1
 91
        4
 64
     7
 65
   257
 75
     1
175
     1
 42
1.0
 92
        8
 66
     7
 43
1.0
 76
     1
 77
     6
 78
     2
 67
     7
 79
     5
170
     0
171
     0
290
     0
174
     0
 93
        1
 44
-50.0
173
     0
291
     1
 45
0.0
1001
ACAD
1000
AcDbSavedByObjectVersion
1070
     0
  0
VISUALSTYLE
  5
AB
102
{ACAD_REACTORS
330
9C
102
}
330
9C
100
AcDbVisualStyle
  2
Facepattern
 70
    15
 71
     2
 72
     2
 73
     0
 90
        0
 40
-0.6
 41
-30.0
 62
     5
 63
     7
 74
     1
 91
        4
 64
     7
 65
   257
 75
     1
175
     1
 42
1.0
 92
        8
 66
     7
 43
1.0
 76
     1
 77
     6
 78
     2
 67
     7
 79
     5
170
     0
171
     0
290
     0
174
     0
 93
        1
 44
0.0
173
     0
291
     1
 45
0.0
1001
ACAD
1000
AcDbSavedByObjectVersion
1070
     0
  0
VISUALSTYLE
  5
9D
102
{ACAD_REACTORS
330
9C
102
}
330
9C
100
AcDbVisualStyle
  2
Flat
 70
     0
 71
     2
 72
     1
 73
     1
 90
        2
 40
-0.6
 41
30.0
 62
     5
 63
     7
 74
     0
 91
        4
 64
     7
 65
   257
 75
     1
175
     1
 42
1.0
 92
        8
 66
     7
 43
1.0
 76
     1
 77
     6
 78
     2
 67
     7
 79
     5
170
     0
171
     0
290
     0
174
     0
 93
       13
 44
0.0
173
     0
291
     1
 45
0.0
1001
ACAD
1000
AcDbSavedByObjectVersion
1070
     0
  0
VISUALSTYLE
  5
9E
102
{ACAD_REACTORS
330
9C
102
}
330
9C
100
AcDbVisualStyle
  2
FlatWithEdges
 70
     1
 71
     2
 72
     1
 73
     1
 90
        2
 40
-0.6
 41
30.0
 62
     5
 63
     7
 74
     1
 91
        4
 64
     7
 65
   257
 75
     1
175
     1
 42
1.0
 92
        0
 66
   257
 43
1.0
 76
     1
 77
     6
 78
     2
 67
     7
 79
     5
170
     0
171
     0
290
     0
174
     0
 93
       13
 44
0.0
173
     0
291
     1
 45
0.0
1001
ACAD
1000
AcDbSavedByObjectVersion
1070
     0
  0
VISUALSTYLE
  5
9F
102
{ACAD_REACTORS
330
9C
102
}
330
9C
100
AcDbVisualStyle
  2
Gouraud
 70
     2
 71
     2
 72
     2
 73
     1
 90
        2
 40
-0.6
 41
30.0
 62
     5
 63
     7
 74
     0
 91
        4
 64
     7
 65
   257
 75
     1
175
     1
 42
1.0
 92
        0
 66
     7
 43
1.0
 76
     1
 77
     6
 78
     2
 67
     7
 79
     5
170
     0
171
     0
290
     0
174
     0
 93
       13
 44
0.0
173
     0
291
     1
 45
0.0
1001
ACAD
1000
AcDbSavedByObjectVersion
1070
     0
  0
VISUALSTYLE
  5
A0
102
{ACAD_REACTORS
330
9C
102
}
330
9C
100
AcDbVisualStyle
  2
GouraudWithEdges
 70
     3
 71
     2
 72
     2
 73
     1
 90
        2
 40
-0.6
 41
30.0
 62
     5
 63
     7
 74
     1
 91
        4
 64
     7
 65
   257
 75
     1
175
     1
 42
1.0
 92
        0
 66
   257
 43
1.0
 76
     1
 77
     6
 78
     2
 67
     7
 79
     5
170
     0
171
     0
290
     0
174
     0
 93
       13
 44
0.0
173
     0
291
     1
 45
0.0
1001
ACAD
1000
AcDbSavedByObjectVersion
1070
     0
  0
VISUALSTYLE
  5
AA
102
{ACAD_REACTORS
330
9C
102
}
330
9C
100
AcDbVisualStyle
  2
Linepattern
 70
    14
 71
     2
 72
     2
 73
     0
 90
        0
 40
-0.6
 41
-30.0
 62
     5
 63
     7
 74
     1
 91
        4
 64
     7
 65
   257
 75
     7
175
     7
 42
1.0
 92
        8
 66
     7
 43
1.0
 76
     1
 77
     6
 78
     2
 67
     7
 79
     5
170
     0
171
     0
290
     0
174
     0
 93
        1
 44
0.0
173
     0
291
     1
 45
0.0
1001
ACAD
1000
AcDbSavedByObjectVersion
1070
     0
  0
VISUALSTYLE
  5
A6
102
{ACAD_REACTORS
330
9C
102
}
330
9C
100
AcDbVisualStyle
  2
Realistic
 70
     8
 71
     2
 72
     2
 73
     0
 90
        0
 40
-0.6
 41
-30.0
 62
     5
 63
     7
 74
     1
 91
        0
 64
     7
 65
   257
 75
     1
175
     1
 42
1.0
 92
        8
 66
     8
 43
1.0
 76
     1
 77
     6
 78
     2
 67
     7
 79
     5
170
     0
171
     0
290
     0
174
     0
 93
       13
 44
0.0
173
     0
291
     0
 45
0.0
1001
ACAD
1000
AcDbSavedByObjectVersion
1070
     0
  0
VISUALSTYLE
  5
A9
102
{ACAD_REACTORS
330
9C
102
}
330
9C
100
AcDbVisualStyle
  2
Thicken
 70
    13
 71
     2
 72
     2
 73
     0
 90
        0
 40
-0.6
 41
-30.0
 62
     5
 63
     7
 74
     1
 91
        4
 64
     7
 65
   257
 75
     1
175
     1
 42
1.0
 92
       12
 66
     7
 43
1.0
 76
     1
 77
     6
 78
     2
 67
     7
 79
     5
170
     0
171
     0
290
     0
174
     0
 93
        1
 44
0.0
173
     0
291
     1
 45
0.0
1001
ACAD
1000
AcDbSavedByObjectVersion
1070
     0
  0
DICTIONARYVAR
  5
19A
102
{ACAD_REACTORS
330
199
102
}
330
199
100
DictionaryVariables
280
     0
  1
STANDARD
  0
DICTIONARYVAR
  5
19D
102
{ACAD_REACTORS
330
199
102
}
330
199
100
DictionaryVariables
280
     0
  1
1
  0
DICTIONARYVAR
  5
19C
102
{ACAD_REACTORS
330
199
102
}
330
199
100
DictionaryVariables
280
     0
  1
0
  0
DICTIONARYVAR
  5
19B
102
{ACAD_REACTORS
330
199
102
}
330
199
100
DictionaryVariables
280
     0
  1
127
  0
DICTIONARY
  5
5AA
330
21
100
AcDbDictionary
280
     1
281
     1
  3
ACAD_XREC_ROUNDTRIP
360
5AB
  0
DICTIONARY
  5
5A8
330
20
100
AcDbDictionary
280
     1
281
     1
  3
ACAD_XREC_ROUNDTRIP
360
5A9
  0
DICTIONARY
  5
5AE
330
9A
100
AcDbDictionary
280
     1
281
     1
  3
ACAD_XREC_ROUNDTRIP
360
5AF
  0
DICTIONARY
  5
5AC
330
99
100
AcDbDictionary
280
     1
281
     1
  3
ACAD_XREC_ROUNDTRIP
360
5AD
  0
DICTIONARY
  5
5B0
330
9B
100
AcDbDictionary
280
     1
281
     1
  3
ACAD_XREC_ROUNDTRIP
360
5B1
  0
DICTIONARY
  5
5B2
330
AF
100
AcDbDictionary
280
     1
281
     1
  3
ACAD_XREC_ROUNDTRIP
360
5B3
  0
XRECORD
  5
5AB
102
{ACAD_REACTORS
330
5AA
102
}
330
5AA
100
AcDbXrecord
280
     1
102
SHADEPLOT
 70
     0
102
SHADEPLOTRESLEVEL
 70
     2
102
SHADEPLOTCUSTOMDPI
 70
   300
  0
XRECORD
  5
5A9
102
{ACAD_REACTORS
330
5A8
102
}
330
5A8
100
AcDbXrecord
280
     1
102
SHADEPLOT
 70
     0
102
SHADEPLOTRESLEVEL
 70
     2
102
SHADEPLOTCUSTOMDPI
 70
   300
  0
XRECORD
  5
5AF
102
{ACAD_REACTORS
330
5AE
102
}
330
5AE
100
AcDbXrecord
280
     1
102
MATERIAL
148
0.0
149
0.0
149
0.0
 93
        0
 94
       63
282
     0
 72
     1
 77
     1
171
     1
175
     1
179
     1
273
     0
  0
XRECORD
  5
5AD
102
{ACAD_REACTORS
330
5AC
102
}
330
5AC
100
AcDbXrecord
280
     1
102
MATERIAL
148
0.0
149
0.0
149
0.0
 93
        0
 94
       63
282
     0
 72
     1
 77
     1
171
     1
175
     1
179
     1
273
     0
  0
XRECORD
  5
5B1
102
{ACAD_REACTORS
330
5B0
102
}
330
5B0
100
AcDbXrecord
280
     1
102
MATERIAL
148
0.0
149
0.0
149
0.0
 93
        0
 94
       63
282
     0
 72
     1
 77
     1
171
     1
175
     1
179
     1
273
     0
  0
XRECORD
  5
5B3
102
{ACAD_REACTORS
330
5B2
102
}
330
5B2
100
AcDbXrecord
280
     1
102
ACAD_ROUNDTRIP_PRE2007_TABLESTYLE
 90
      512
 91
        0
  1

 92
      512
 93
        0
  2

 94
      512
 95
        0
  3

  0
ENDSEC
  0
EOF
