  0
SECTION
  2
HEADER
  9
$ACADVER
  1
AC1015
  9
$ACADMAINTVER
 70
    20
  9
$DWGCODEPAGE
  3
ANSI_1252
  9
$INSBASE
 10
22.91235367807821
 20
-16.73376831154113
 30
0.0
  9
$EXTMIN
 10
17.68414317081233
 20
-18.31487689139969
 30
-0.0015258207003583
  9
$EXTMAX
 10
31.09021003904079
 20
-13.79402409861642
 30
0.0000000349246037
  9
$LIMMIN
 10
0.0
 20
0.0
  9
$LIMMAX
 10
36.0
 20
36.0
  9
$ORTHOMODE
 70
     1
  9
$REGENMODE
 70
     1
  9
$FILLMODE
 70
     1
  9
$QTEXTMODE
 70
     0
  9
$MIRRTEXT
 70
     1
  9
$LTSCALE
 40
1.0
  9
$ATTMODE
 70
     1
  9
$TEXTSIZE
 40
0.2
  9
$TRACEWID
 40
0.05
  9
$TEXTSTYLE
  7
STANDARD
  9
$CLAYER
  8
ADPDIM
  9
$CELTYPE
  6
BYLAYER
  9
$CECOLOR
 62
   256
  9
$CELTSCALE
 40
1.0
  9
$DISPSILH
 70
     0
  9
$DIMSCALE
 40
1.0
  9
$DIMASZ
 40
0.125
  9
$DIMEXO
 40
0.0625
  9
$DIMDLI
 40
0.38
  9
$DIMRND
 40
0.0
  9
$DIMDLE
 40
0.0
  9
$DIMEXE
 40
0.18
  9
$DIMTP
 40
0.0
  9
$DIMTM
 40
0.0
  9
$DIMTXT
 40
0.125
  9
$DIMCEN
 40
0.1875
  9
$DIMTSZ
 40
0.125
  9
$DIMTOL
 70
     0
  9
$DIMLIM
 70
     0
  9
$DIMTIH
 70
     0
  9
$DIMTOH
 70
     0
  9
$DIMSE1
 70
     0
  9
$DIMSE2
 70
     0
  9
$DIMTAD
 70
     0
  9
$DIMZIN
 70
     2
  9
$DIMBLK
  1

  9
$DIMASO
 70
     1
  9
$DIMSHO
 70
     1
  9
$DIMPOST
  1

  9
$DIMAPOST
  1

  9
$DIMALT
 70
     0
  9
$DIMALTD
 70
     1
  9
$DIMALTF
 40
25.4
  9
$DIMLFAC
 40
1.0
  9
$DIMTOFL
 70
     0
  9
$DIMTVP
 40
0.0
  9
$DIMTIX
 70
     0
  9
$DIMSOXD
 70
     0
  9
$DIMSAH
 70
     0
  9
$DIMBLK1
  1

  9
$DIMBLK2
  1

  9
$DIMSTYLE
  2
STANDARD
  9
$DIMCLRD
 70
     0
  9
$DIMCLRE
 70
     0
  9
$DIMCLRT
 70
     0
  9
$DIMTFAC
 40
1.0
  9
$DIMGAP
 40
0.125
  9
$DIMJUST
 70
     0
  9
$DIMSD1
 70
     0
  9
$DIMSD2
 70
     0
  9
$DIMTOLJ
 70
     1
  9
$DIMTZIN
 70
     0
  9
$DIMALTZ
 70
     0
  9
$DIMALTTZ
 70
     0
  9
$DIMUPT
 70
     0
  9
$DIMDEC
 70
     2
  9
$DIMTDEC
 70
     4
  9
$DIMALTU
 70
     2
  9
$DIMALTTD
 70
     2
  9
$DIMTXSTY
  7
STANDARD
  9
$DIMAUNIT
 70
     0
  9
$DIMADEC
 70
     0
  9
$DIMALTRND
 40
0.0
  9
$DIMAZIN
 70
     0
  9
$DIMDSEP
 70
    46
  9
$DIMATFIT
 70
     3
  9
$DIMFRAC
 70
     2
  9
$DIMLDRBLK
  1

  9
$DIMLUNIT
 70
     5
  9
$DIMLWD
 70
    -2
  9
$DIMLWE
 70
    -2
  9
$DIMTMOVE
 70
     0
  9
$LUNITS
 70
     5
  9
$LUPREC
 70
     4
  9
$SKETCHINC
 40
0.1
  9
$FILLETRAD
 40
0.0
  9
$AUNITS
 70
     0
  9
$AUPREC
 70
     0
  9
$MENU
  1
acad
  9
$ELEVATION
 40
0.0
  9
$PELEVATION
 40
0.0
  9
$THICKNESS
 40
0.0
  9
$LIMCHECK
 70
     0
  9
$CHAMFERA
 40
0.0
  9
$CHAMFERB
 40
0.0
  9
$CHAMFERC
 40
0.0
  9
$CHAMFERD
 40
0.0
  9
$SKPOLY
 70
     0
  9
$TDCREATE
 40
2450406.662911644
  9
$TDUCREATE
 40
2450406.829578310
  9
$TDUPDATE
 40
2453963.969243750
  9
$TDUUPDATE
 40
2453964.135910417
  9
$TDINDWG
 40
0.0266728125
  9
$TDUSRTIMER
 40
0.0266728125
  9
$USRTIMER
 70
     1
  9
$ANGBASE
 50
0.0
  9
$ANGDIR
 70
     0
  9
$PDMODE
 70
     0
  9
$PDSIZE
 40
0.0
  9
$PLINEWID
 40
0.0
  9
$SPLFRAME
 70
     0
  9
$SPLINETYPE
 70
     6
  9
$SPLINESEGS
 70
     8
  9
$HANDSEED
  5
44B
  9
$SURFTAB1
 70
     6
  9
$SURFTAB2
 70
     6
  9
$SURFTYPE
 70
     6
  9
$SURFU
 70
     6
  9
$SURFV
 70
     6
  9
$UCSBASE
  2

  9
$UCSNAME
  2

  9
$UCSORG
 10
0.0
 20
0.0
 30
0.0
  9
$UCSXDIR
 10
1.0
 20
0.0
 30
0.0
  9
$UCSYDIR
 10
0.0
 20
1.0
 30
0.0
  9
$UCSORTHOREF
  2

  9
$UCSORTHOVIEW
 70
     0
  9
$UCSORGTOP
 10
0.0
 20
0.0
 30
0.0
  9
$UCSORGBOTTOM
 10
0.0
 20
0.0
 30
0.0
  9
$UCSORGLEFT
 10
0.0
 20
0.0
 30
0.0
  9
$UCSORGRIGHT
 10
0.0
 20
0.0
 30
0.0
  9
$UCSORGFRONT
 10
0.0
 20
0.0
 30
0.0
  9
$UCSORGBACK
 10
0.0
 20
0.0
 30
0.0
  9
$PUCSBASE
  2

  9
$PUCSNAME
  2

  9
$PUCSORG
 10
0.0
 20
0.0
 30
0.0
  9
$PUCSXDIR
 10
1.0
 20
0.0
 30
0.0
  9
$PUCSYDIR
 10
0.0
 20
1.0
 30
0.0
  9
$PUCSORTHOREF
  2

  9
$PUCSORTHOVIEW
 70
     0
  9
$PUCSORGTOP
 10
0.0
 20
0.0
 30
0.0
  9
$PUCSORGBOTTOM
 10
0.0
 20
0.0
 30
0.0
  9
$PUCSORGLEFT
 10
0.0
 20
0.0
 30
0.0
  9
$PUCSORGRIGHT
 10
0.0
 20
0.0
 30
0.0
  9
$PUCSORGFRONT
 10
0.0
 20
0.0
 30
0.0
  9
$PUCSORGBACK
 10
0.0
 20
0.0
 30
0.0
  9
$USERI1
 70
     0
  9
$USERI2
 70
     0
  9
$USERI3
 70
     0
  9
$USERI4
 70
     0
  9
$USERI5
 70
     0
  9
$USERR1
 40
0.0
  9
$USERR2
 40
0.0
  9
$USERR3
 40
0.0
  9
$USERR4
 40
0.0
  9
$USERR5
 40
0.0
  9
$WORLDVIEW
 70
     1
  9
$SHADEDGE
 70
     3
  9
$SHADEDIF
 70
    70
  9
$TILEMODE
 70
     1
  9
$MAXACTVP
 70
    15
  9
$PINSBASE
 10
0.0008545028977096
 20
1.250283272183907
 30
0.0
  9
$PLIMCHECK
 70
     0
  9
$PEXTMIN
 10
1.000000000000000E+20
 20
1.000000000000000E+20
 30
1.000000000000000E+20
  9
$PEXTMAX
 10
-1.000000000000000E+20
 20
-1.000000000000000E+20
 30
-1.000000000000000E+20
  9
$PLIMMIN
 10
0.0
 20
0.0
  9
$PLIMMAX
 10
12.0
 20
9.0
  9
$UNITMODE
 70
     0
  9
$VISRETAIN
 70
     0
  9
$PLINEGEN
 70
     0
  9
$PSLTSCALE
 70
     1
  9
$TREEDEPTH
 70
  3020
  9
$CMLSTYLE
  2
STANDARD
  9
$CMLJUST
 70
     0
  9
$CMLSCALE
 40
1.0
  9
$PROXYGRAPHICS
 70
     1
  9
$MEASUREMENT
 70
     0
  9
$CELWEIGHT
370
    -1
  9
$ENDCAPS
280
     0
  9
$JOINSTYLE
280
     0
  9
$LWDISPLAY
290
     0
  9
$INSUNITS
 70
     0
  9
$HYPERLINKBASE
  1

  9
$STYLESHEET
  1

  9
$XEDIT
290
     1
  9
$CEPSNTYPE
380
     0
  9
$PSTYLEMODE
290
     1
  9
$FINGERPRINTGUID
  2
{E3E48F11-FB65-4F00-A065-6ED173E4D66F}
  9
$VERSIONGUID
  2
{96889EB5-CEF8-4D4B-92A2-1A1010DB593A}
  9
$EXTNAMES
290
     1
  9
$PSVPSCALE
 40
0.0
  9
$OLESTARTUP
290
     0
  0
ENDSEC
  0
SECTION
  2
CLASSES
  0
CLASS
  1
ACDBDICTIONARYWDFLT
  2
AcDbDictionaryWithDefault
  3
ObjectDBX Classes
 90
        0
280
     0
281
     0
  0
CLASS
  1
ACDBPLACEHOLDER
  2
AcDbPlaceHolder
  3
ObjectDBX Classes
 90
        0
280
     0
281
     0
  0
CLASS
  1
LAYOUT
  2
AcDbLayout
  3
ObjectDBX Classes
 90
        0
280
     0
281
     0
  0
CLASS
  1
DICTIONARYVAR
  2
AcDbDictionaryVar
  3
ObjectDBX Classes
 90
        0
280
     0
281
     0
  0
CLASS
  1
MATERIAL
  2
AcDbMaterial
  3
ObjectDBX Classes
 90
     1024
280
     0
281
     0
  0
CLASS
  1
VISUALSTYLE
  2
AcDbVisualStyle
  3
ObjectDBX Classes
 90
     4095
280
     0
281
     0
  0
CLASS
  1
TABLESTYLE
  2
AcDbTableStyle
  3
ObjectDBX Classes
 90
     4095
280
     0
281
     0
  0
ENDSEC
  0
SECTION
  2
TABLES
  0
TABLE
  2
VPORT
  5
8
330
0
100
AcDbSymbolTable
 70
     1
  0
VPORT
  5
333
330
8
100
AcDbSymbolTableRecord
100
AcDbViewportTableRecord
  2
*Active
 70
     0
 10
0.0
 20
0.0
 11
1.0
 21
1.0
 12
24.38717660492656
 22
-16.05445049500805
 13
0.0
 23
0.0
 14
0.5740882589684922
 24
0.5740882589684922
 15
0.5
 25
0.5
 16
0.0
 26
0.0
 36
1.0
 17
0.0
 27
0.0
 37
0.0
 40
7.81364409069816
 41
1.726930320150659
 42
50.0
 43
0.0
 44
0.0
 50
0.0
 51
0.0
 71
     0
 72
   100
 73
     1
 74
     0
 75
     0
 76
     0
 77
     0
 78
     0
281
     0
 65
     1
110
0.0
120
0.0
130
0.0
111
1.0
121
0.0
131
0.0
112
0.0
122
1.0
132
0.0
 79
     0
146
0.0
  0
ENDTAB
  0
TABLE
  2
LTYPE
  5
5
330
0
100
AcDbSymbolTable
 70
     2
  0
LTYPE
  5
12
330
5
100
AcDbSymbolTableRecord
100
AcDbLinetypeTableRecord
  2
BYBLOCK
 70
     0
  3

 72
    65
 73
     0
 40
0.0
  0
LTYPE
  5
13
330
5
100
AcDbSymbolTableRecord
100
AcDbLinetypeTableRecord
  2
BYLAYER
 70
     0
  3

 72
    65
 73
     0
 40
0.0
  0
LTYPE
  5
14
330
5
100
AcDbSymbolTableRecord
100
AcDbLinetypeTableRecord
  2
CONTINUOUS
 70
     0
  3
Solid line
 72
    65
 73
     0
 40
0.0
  0
LTYPE
  5
154
330
5
100
AcDbSymbolTableRecord
100
AcDbLinetypeTableRecord
  2
HIDDEN2
 70
     0
  3
_ _ _ _ _ _ _ _ _ _ _ _ _ _ _ _ _ _ _ _ _ _ _ _
 72
    65
 73
     2
 40
0.1875
 49
0.125
 74
     0
 49
-0.0625
 74
     0
  0
ENDTAB
  0
TABLE
  2
LAYER
  5
2
330
0
100
AcDbSymbolTable
 70
     5
  0
LAYER
  5
F
330
2
100
AcDbSymbolTableRecord
100
AcDbLayerTableRecord
  2
0
 70
     0
 62
     7
  6
CONTINUOUS
370
    -3
390
1D5
  0
LAYER
  5
105
330
2
100
AcDbSymbolTableRecord
100
AcDbLayerTableRecord
  2
ADP1DETAIL
 70
     0
 62
     7
  6
CONTINUOUS
370
    -3
390
1D5
  0
LAYER
  5
107
330
2
100
AcDbSymbolTableRecord
100
AcDbLayerTableRecord
  2
DEFPOINTS
 70
     0
 62
     7
  6
CONTINUOUS
290
     0
370
    -3
390
1D5
  0
LAYER
  5
10A
330
2
100
AcDbSymbolTableRecord
100
AcDbLayerTableRecord
  2
ADPDIM
 70
     0
 62
     3
  6
CONTINUOUS
370
    -3
390
1D5
  0
LAYER
  5
149
330
2
100
AcDbSymbolTableRecord
100
AcDbLayerTableRecord
  2
ADP2DETAIL
 70
     0
 62
     5
  6
CONTINUOUS
370
    -3
390
1D5
  0
ENDTAB
  0
TABLE
  2
STYLE
  5
3
330
0
100
AcDbSymbolTable
 70
     2
  0
STYLE
  5
10
330
3
100
AcDbSymbolTableRecord
100
AcDbTextStyleTableRecord
  2
STANDARD
 70
     0
 40
0.0
 41
1.0
 50
0.0
 71
     0
 42
0.2
  3
txt
  4

  0
STYLE
  5
1DC
330
3
100
AcDbSymbolTableRecord
100
AcDbTextStyleTableRecord
  2
ARIAL_WIDE
 70
     0
 40
0.0
 41
1.25
 50
0.0
 71
     0
 42
0.2
  3
ARIAL.TTF
  4

1001
ACAD
1000
Arial
1071
       34
  0
ENDTAB
  0
TABLE
  2
VIEW
  5
6
330
0
100
AcDbSymbolTable
 70
     0
  0
ENDTAB
  0
TABLE
  2
UCS
  5
7
330
0
100
AcDbSymbolTable
 70
     0
  0
ENDTAB
  0
TABLE
  2
APPID
  5
9
330
0
100
AcDbSymbolTable
 70
     2
  0
APPID
  5
11
330
9
100
AcDbSymbolTableRecord
100
AcDbRegAppTableRecord
  2
ACAD
 70
     0
  0
APPID
  5
3C9
330
9
100
AcDbSymbolTableRecord
100
AcDbRegAppTableRecord
  2
DCO15
 70
     0
  0
ENDTAB
  0
TABLE
  2
DIMSTYLE
  5
A
330
0
100
AcDbSymbolTable
 70
     1
100
AcDbDimStyleTable
 71
     0
  0
DIMSTYLE
105
147
102
{ACAD_REACTORS
330
1D1
330
3D3
330
3D4
330
3D6
102
}
330
A
100
AcDbSymbolTableRecord
100
AcDbDimStyleTableRecord
  2
STANDARD
 70
     0
340
10
  0
ENDTAB
  0
TABLE
  2
BLOCK_RECORD
  5
1
330
0
100
AcDbSymbolTable
 70
    11
  0
BLOCK_RECORD
  5
18
102
{ACAD_XDICTIONARY
360
23D
102
}
330
1
100
AcDbSymbolTableRecord
100
AcDbBlockTableRecord
  2
*MODEL_SPACE
340
1D8
  0
BLOCK_RECORD
  5
15
102
{ACAD_XDICTIONARY
360
23B
102
}
330
1
100
AcDbSymbolTableRecord
100
AcDbBlockTableRecord
  2
*PAPER_SPACE
340
1D9
  0
BLOCK_RECORD
  5
FE
330
1
100
AcDbSymbolTableRecord
100
AcDbBlockTableRecord
  2
*D0
340
0
  0
BLOCK_RECORD
  5
101
330
1
100
AcDbSymbolTableRecord
100
AcDbBlockTableRecord
  2
*D1
340
0
  0
BLOCK_RECORD
  5
1C4
330
1
100
AcDbSymbolTableRecord
100
AcDbBlockTableRecord
  2
*D2
340
0
  0
BLOCK_RECORD
  5
385
330
1
100
AcDbSymbolTableRecord
100
AcDbBlockTableRecord
  2
4575
340
0
102
{BLKREFS
331
3CD
331
3D5
102
}
  0
BLOCK_RECORD
  5
3A2
330
1
100
AcDbSymbolTableRecord
100
AcDbBlockTableRecord
  2
*D4
340
0
  0
BLOCK_RECORD
  5
3AF
330
1
100
AcDbSymbolTableRecord
100
AcDbBlockTableRecord
  2
*D5
340
0
  0
BLOCK_RECORD
  5
3BC
330
1
100
AcDbSymbolTableRecord
100
AcDbBlockTableRecord
  2
*D6
340
0
  0
BLOCK_RECORD
  5
3D7
330
1
100
AcDbSymbolTableRecord
100
AcDbBlockTableRecord
  2
*D8
340
0
  0
BLOCK_RECORD
  5
3E4
330
1
100
AcDbSymbolTableRecord
100
AcDbBlockTableRecord
  2
*D9
340
0
  0
BLOCK_RECORD
  5
3F1
330
1
100
AcDbSymbolTableRecord
100
AcDbBlockTableRecord
  2
*D10
340
0
  0
ENDTAB
  0
ENDSEC
  0
SECTION
  2
BLOCKS
  0
BLOCK
  5
10D
330
18
100
AcDbEntity
  8
0
100
AcDbBlockBegin
  2
*MODEL_SPACE
 70
     0
 10
0.0
 20
0.0
 30
0.0
  3
*MODEL_SPACE
  1

  0
ENDBLK
  5
10E
330
18
100
AcDbEntity
  8
0
100
AcDbBlockEnd
  0
BLOCK
  5
10B
330
15
100
AcDbEntity
 67
     1
  8
0
100
AcDbBlockBegin
  2
*PAPER_SPACE
 70
     0
 10
0.0
 20
0.0
 30
0.0
  3
*PAPER_SPACE
  1

  0
ENDBLK
  5
10C
330
15
100
AcDbEntity
 67
     1
  8
0
100
AcDbBlockEnd
  0
BLOCK
  5
12C
330
FE
100
AcDbEntity
  8
0
100
AcDbBlockBegin
  2
*D0
 70
     1
 10
0.0
 20
0.0
 30
0.0
  3
*D0
  1

  0
LINE
  5
12D
330
FE
100
AcDbEntity
  8
0
  6
ByBlock
 62
     0
100
AcDbLine
 10
21.37969061967881
 20
-16.87389204012022
 30
0.0
 11
21.37969061967881
 21
-17.29301789411311
 31
0.0
  0
LINE
  5
12E
330
FE
100
AcDbEntity
  8
0
  6
ByBlock
 62
     0
100
AcDbLine
 10
22.92635917884732
 20
-16.87389204012022
 30
0.0
 11
22.92635917884732
 21
-17.29301789411311
 31
0.0
  0
LINE
  5
12F
330
FE
100
AcDbEntity
  8
0
  6
ByBlock
 62
     0
100
AcDbLine
 10
21.37969061967881
 20
-17.11301789411311
 30
0.0
 11
21.71552489926307
 21
-17.11301789411311
 31
0.0
  0
LINE
  5
130
330
FE
100
AcDbEntity
  8
0
  6
ByBlock
 62
     0
100
AcDbLine
 10
22.92635917884732
 20
-17.11301789411311
 30
0.0
 11
22.59052489926307
 21
-17.11301789411311
 31
0.0
  0
LINE
  5
131
330
FE
100
AcDbEntity
  8
0
  6
ByBlock
 62
     0
100
AcDbLine
 10
21.25469061967881
 20
-17.23801789411311
 30
0.0
 11
21.50469061967881
 21
-16.98801789411311
 31
0.0
  0
LINE
  5
132
330
FE
100
AcDbEntity
  8
0
  6
ByBlock
 62
     0
100
AcDbLine
 10
22.80135917884733
 20
-17.23801789411311
 30
0.0
 11
23.05135917884733
 21
-16.98801789411311
 31
0.0
  0
TEXT
  5
133
330
FE
100
AcDbEntity
  8
0
  6
ByBlock
 62
     0
100
AcDbText
 10
21.84052489926306
 20
-17.17551789411311
 30
0.0
 40
0.125
  1
1 9/16
 72
     1
 11
22.15302489926306
 21
-17.11301789411311
 31
0.0
100
AcDbText
 73
     2
  0
POINT
  5
134
330
FE
100
AcDbEntity
  8
DEFPOINTS
  6
ByBlock
 62
     0
100
AcDbPoint
 10
21.37969061967881
 20
-16.81139204012022
 30
0.0
  0
POINT
  5
135
330
FE
100
AcDbEntity
  8
DEFPOINTS
  6
ByBlock
 62
     0
100
AcDbPoint
 10
22.92635917884732
 20
-16.81139204012022
 30
0.0
  0
POINT
  5
136
330
FE
100
AcDbEntity
  8
DEFPOINTS
  6
ByBlock
 62
     0
100
AcDbPoint
 10
22.92635917884732
 20
-17.11301789411311
 30
0.0
  0
ENDBLK
  5
137
330
FE
100
AcDbEntity
  8
0
100
AcDbBlockEnd
  0
BLOCK
  5
138
330
101
100
AcDbEntity
  8
0
100
AcDbBlockBegin
  2
*D1
 70
     1
 10
0.0
 20
0.0
 30
0.0
  3
*D1
  1

  0
LINE
  5
139
330
101
100
AcDbEntity
  8
0
  6
ByBlock
 62
     0
100
AcDbLine
 10
21.15334897811337
 20
-16.59740156558381
 30
0.0
 11
21.15334897811337
 21
-17.54437288081677
 31
0.0
  0
LINE
  5
13A
330
101
100
AcDbEntity
  8
0
  6
ByBlock
 62
     0
100
AcDbLine
 10
23.14012623976104
 20
-16.59740156558381
 30
0.0
 11
23.14012623976104
 21
-17.54437288081677
 31
0.0
  0
LINE
  5
13B
330
101
100
AcDbEntity
  8
0
  6
ByBlock
 62
     0
100
AcDbLine
 10
21.15334897811337
 20
-17.36437288081677
 30
0.0
 11
21.98007094227054
 21
-17.36437288081677
 31
0.0
  0
LINE
  5
13C
330
101
100
AcDbEntity
  8
0
  6
ByBlock
 62
     0
100
AcDbLine
 10
23.14012623976104
 20
-17.36437288081677
 30
0.0
 11
22.31340427560388
 21
-17.36437288081677
 31
0.0
  0
LINE
  5
13D
330
101
100
AcDbEntity
  8
0
  6
ByBlock
 62
     0
100
AcDbLine
 10
21.02834897811337
 20
-17.48937288081677
 30
0.0
 11
21.27834897811338
 21
-17.23937288081677
 31
0.0
  0
LINE
  5
13E
330
101
100
AcDbEntity
  8
0
  6
ByBlock
 62
     0
100
AcDbLine
 10
23.01512623976104
 20
-17.48937288081677
 30
0.0
 11
23.26512623976104
 21
-17.23937288081677
 31
0.0
  0
TEXT
  5
13F
330
101
100
AcDbEntity
  8
0
  6
ByBlock
 62
     0
100
AcDbText
 10
22.10507094227054
 20
-17.42687288081677
 30
0.0
 40
0.125
  1
2
 72
     1
 11
22.14673760893721
 21
-17.36437288081677
 31
0.0
100
AcDbText
 73
     2
  0
POINT
  5
140
330
101
100
AcDbEntity
  8
DEFPOINTS
  6
ByBlock
 62
     0
100
AcDbPoint
 10
21.15334897811337
 20
-16.53490156558381
 30
0.0
  0
POINT
  5
141
330
101
100
AcDbEntity
  8
DEFPOINTS
  6
ByBlock
 62
     0
100
AcDbPoint
 10
23.14012623976104
 20
-16.53490156558381
 30
0.0
  0
POINT
  5
142
330
101
100
AcDbEntity
  8
DEFPOINTS
  6
ByBlock
 62
     0
100
AcDbPoint
 10
23.14012623976104
 20
-17.36437288081677
 30
0.0
  0
ENDBLK
  5
143
330
101
100
AcDbEntity
  8
0
100
AcDbBlockEnd
  0
BLOCK
  5
1C5
330
1C4
100
AcDbEntity
  8
0
100
AcDbBlockBegin
  2
*D2
 70
     1
 10
0.0
 20
0.0
 30
0.0
  3
*D2
  1

  0
LINE
  5
35D
330
1C4
100
AcDbEntity
  8
ADPDIM
 62
     0
100
AcDbLine
 10
24.38613467970415
 20
-16.8041645535219
 30
0.0
 11
24.38613467970415
 21
-17.322162928376
 31
0.0
  0
LINE
  5
35E
330
1C4
100
AcDbEntity
  8
ADPDIM
 62
     0
100
AcDbLine
 10
27.89028076313629
 20
-16.33400080793541
 30
0.0
 11
27.89028076313629
 21
-17.322162928376
 31
0.0
  0
LINE
  5
35F
330
1C4
100
AcDbEntity
  8
ADPDIM
 62
     0
100
AcDbLine
 10
24.38613467970415
 20
-17.142162928376
 30
0.0
 11
25.74237438808689
 21
-17.142162928376
 31
0.0
  0
LINE
  5
360
330
1C4
100
AcDbEntity
  8
ADPDIM
 62
     0
100
AcDbLine
 10
27.89028076313629
 20
-17.142162928376
 30
0.0
 11
26.53404105475355
 21
-17.142162928376
 31
0.0
  0
LINE
  5
361
330
1C4
100
AcDbEntity
  8
ADPDIM
 62
     0
100
AcDbLine
 10
27.76528076313629
 20
-17.267162928376
 30
0.0
 11
28.01528076313629
 21
-17.017162928376
 31
0.0
  0
LINE
  5
362
330
1C4
100
AcDbEntity
  8
ADPDIM
 62
     0
100
AcDbLine
 10
24.26113467970415
 20
-17.267162928376
 30
0.0
 11
24.51113467970415
 21
-17.017162928376
 31
0.0
  0
MTEXT
  5
363
330
1C4
100
AcDbEntity
  8
ADPDIM
 62
     0
100
AcDbMText
 10
26.13820772142022
 20
-17.142162928376
 30
0.0
 40
0.125
 41
0.0
 71
     5
 72
     1
  1
\A1;3 1/2
 73
     1
 44
1.0
1001
ACAD
1000
MTEXTBEGIN
1070
    73
1070
     1
1070
    44
1040
1.0
1070
    74
1070
     0
1000
MTEXTEND
  0
POINT
  5
364
330
1C4
100
AcDbEntity
  8
DEFPOINTS
 62
     0
100
AcDbPoint
 10
24.38613467970415
 20
-16.74166455352191
 30
0.0
  0
POINT
  5
365
330
1C4
100
AcDbEntity
  8
DEFPOINTS
 62
     0
100
AcDbPoint
 10
27.89028076313629
 20
-16.27150080793541
 30
0.0
  0
POINT
  5
366
330
1C4
100
AcDbEntity
  8
DEFPOINTS
 62
     0
100
AcDbPoint
 10
27.89028076313629
 20
-17.142162928376
 30
0.0
  0
ENDBLK
  5
1D0
330
1C4
100
AcDbEntity
  8
0
100
AcDbBlockEnd
  0
BLOCK
  5
386
330
385
100
AcDbEntity
  8
0
100
AcDbBlockBegin
  2
4575
 70
     0
 10
0.0
 20
0.0
 30
0.0
  3
4575
  1

  0
LINE
  5
387
330
385
100
AcDbEntity
  8
0
100
AcDbLine
 10
1.046999999999998
 20
-0.0983686300711178
 30
0.0
 11
0.4164999999999992
 21
-0.0983686300711178
 31
0.0
  0
ARC
  5
388
330
385
100
AcDbEntity
  8
0
100
AcDbCircle
 10
1.047535575659015
 20
-2.344780794890237
 30
0.0
 40
2.562000000000001
100
AcDbArc
 50
90.01197744929548
 51
112.28618713698
  0
LINE
  5
389
330
385
100
AcDbEntity
  8
0
100
AcDbLine
 10
0.4064999999999995
 20
-0.1083686300711157
 30
0.0
 11
0.4064999999999995
 21
-0.2133686300711162
 31
0.0
  0
LINE
  5
38A
330
385
100
AcDbEntity
  8
0
100
AcDbLine
 10
0.0533072761446594
 20
-0.0177908938778657
 30
0.0
 11
0.1547151379251215
 21
-0.4612898178500587
 31
0.0
  0
ARC
  5
38B
330
385
100
AcDbEntity
  8
0
100
AcDbCircle
 10
0.3964999999999996
 20
-0.2133686300711162
 30
0.0
 40
0.01
100
AcDbArc
 50
270.0
 51
0.000000000000007
  0
ARC
  5
38C
330
385
100
AcDbEntity
  8
0
100
AcDbCircle
 10
0.2964999999999982
 20
-0.2383686300711183
 30
0.0
 40
0.0150000000000006
100
AcDbArc
 50
90.0
 51
180.0
  0
LINE
  5
38D
330
385
100
AcDbEntity
  8
0
100
AcDbLine
 10
0.3964999999999996
 20
-0.2233686300711177
 30
0.0
 11
0.2964999999999982
 21
-0.2233686300711177
 31
0.0
  0
LINE
  5
38E
330
385
100
AcDbEntity
  8
0
100
AcDbLine
 10
0.2814999999999976
 20
-0.2383686300711183
 30
0.0
 11
0.2814999999999976
 21
-0.4540904517811449
 31
0.0
  0
ARC
  5
38F
330
385
100
AcDbEntity
  8
0
100
AcDbCircle
 10
0.2664999999999988
 20
-0.4540904517811449
 30
0.0
 40
0.0149999999999988
100
AcDbArc
 50
255.7716723370217
 51
0.0000000000033911
  0
LINE
  5
390
330
385
100
AcDbEntity
  8
0
100
AcDbLine
 10
0.2628132000953318
 20
-0.468630311012344
 30
0.0
 11
0.1645073288009513
 21
-0.4690607077999687
 31
0.0
  0
ARC
  5
391
330
385
100
AcDbEntity
  8
0
100
AcDbCircle
 10
0.1644635478286585
 20
-0.4590608036391047
 30
0.0
 40
0.01
100
AcDbArc
 50
192.8795047964751
 51
270.2508472949044
  0
ARC
  5
392
330
385
100
AcDbEntity
  8
0
100
AcDbCircle
 10
0.0903512337780974
 20
-0.0093206398762362
 30
0.0
 40
0.038
100
AcDbArc
 50
112.2861871369808
 51
192.879504796478
  0
ARC
  5
393
330
385
100
AcDbEntity
  8
0
100
AcDbCircle
 10
0.4164999999999992
 20
-0.1083686300711157
 30
0.0
 40
0.01
100
AcDbArc
 50
90.0
 51
180.0
  0
LINE
  5
394
330
385
100
AcDbEntity
  8
0
100
AcDbLine
 10
2.040692723855338
 20
-0.0177908938778657
 30
0.0
 11
1.939284862074876
 21
-0.4612898178500587
 31
0.0
  0
LINE
  5
395
330
385
100
AcDbEntity
  8
0
100
AcDbLine
 10
1.687499999999998
 20
-0.1083686300711157
 30
0.0
 11
1.687499999999998
 21
-0.2133686300711162
 31
0.0
  0
LINE
  5
396
330
385
100
AcDbEntity
  8
0
100
AcDbLine
 10
1.697499999999998
 20
-0.2233686300711177
 30
0.0
 11
1.797499999999999
 21
-0.2233686300711177
 31
0.0
  0
ARC
  5
397
330
385
100
AcDbEntity
  8
0
100
AcDbCircle
 10
1.697499999999998
 20
-0.2133686300711162
 30
0.0
 40
0.01
100
AcDbArc
 50
180.0
 51
270.0
  0
LINE
  5
398
330
385
100
AcDbEntity
  8
0
100
AcDbLine
 10
1.8125
 20
-0.2383686300711183
 30
0.0
 11
1.8125
 21
-0.4540904517811449
 31
0.0
  0
ARC
  5
399
330
385
100
AcDbEntity
  8
0
100
AcDbCircle
 10
1.797499999999999
 20
-0.2383686300711183
 30
0.0
 40
0.0150000000000006
100
AcDbArc
 50
0.0
 51
90.0
  0
ARC
  5
39A
330
385
100
AcDbEntity
  8
0
100
AcDbCircle
 10
1.929536452171339
 20
-0.4590608036391047
 30
0.0
 40
0.01
100
AcDbArc
 50
269.7491527050956
 51
347.1204952035249
  0
LINE
  5
39B
330
385
100
AcDbEntity
  8
0
100
AcDbLine
 10
1.831186799904665
 20
-0.468630311012344
 30
0.0
 11
1.929492671199046
 21
-0.4690607077999687
 31
0.0
  0
ARC
  5
39C
330
385
100
AcDbEntity
  8
0
100
AcDbCircle
 10
1.827499999999998
 20
-0.4540904517811449
 30
0.0
 40
0.0149999999999988
100
AcDbArc
 50
179.9999999999966
 51
284.2283276629783
  0
ARC
  5
39D
330
385
100
AcDbEntity
  8
0
100
AcDbCircle
 10
1.046464424340982
 20
-2.344780794890237
 30
0.0
 40
2.562000000000001
100
AcDbArc
 50
67.71381286302001
 51
89.98802255070449
  0
LINE
  5
39E
330
385
100
AcDbEntity
  8
0
100
AcDbLine
 10
1.046999999999998
 20
-0.0983686300711178
 30
0.0
 11
1.677499999999998
 21
-0.0983686300711178
 31
0.0
  0
ARC
  5
39F
330
385
100
AcDbEntity
  8
0
100
AcDbCircle
 10
1.677499999999998
 20
-0.1083686300711157
 30
0.0
 40
0.01
100
AcDbArc
 50
0.0
 51
90.0
  0
ARC
  5
3A0
330
385
100
AcDbEntity
  8
0
100
AcDbCircle
 10
2.0036487662219
 20
-0.0093206398762362
 30
0.0
 40
0.038
100
AcDbArc
 50
347.120495203522
 51
67.71381286301917
  0
ENDBLK
  5
3A1
330
385
100
AcDbEntity
  8
0
100
AcDbBlockEnd
  0
BLOCK
  5
3A3
330
3A2
100
AcDbEntity
  8
0
100
AcDbBlockBegin
  2
*D4
 70
     1
 10
0.0
 20
0.0
 30
0.0
  3
*D4
  1

  0
LINE
  5
3A4
330
3A2
100
AcDbEntity
  8
ADPDIM
 62
     0
370
    -2
100
AcDbLine
 10
21.15334897811337
 20
-16.47240156558381
 30
0.0
 11
21.15334897811337
 21
-15.15456500073766
 31
0.0
  0
LINE
  5
3A5
330
3A2
100
AcDbEntity
  8
ADPDIM
 62
     0
370
    -2
100
AcDbLine
 10
23.14012623976104
 20
-16.47240156558381
 30
0.0
 11
23.14012623976104
 21
-15.15456500073766
 31
0.0
  0
LINE
  5
3A6
330
3A2
100
AcDbEntity
  8
ADPDIM
 62
     0
370
    -2
100
AcDbLine
 10
21.15334897811337
 20
-15.33456500073766
 30
0.0
 11
21.98007094227054
 21
-15.33456500073766
 31
0.0
  0
LINE
  5
3A7
330
3A2
100
AcDbEntity
  8
ADPDIM
 62
     0
370
    -2
100
AcDbLine
 10
23.14012623976104
 20
-15.33456500073766
 30
0.0
 11
22.31340427560388
 21
-15.33456500073766
 31
0.0
  0
LINE
  5
3A8
330
3A2
100
AcDbEntity
  8
ADPDIM
 62
     0
370
    -2
100
AcDbLine
 10
23.01512623976104
 20
-15.45956500073766
 30
0.0
 11
23.26512623976104
 21
-15.20956500073766
 31
0.0
  0
LINE
  5
3A9
330
3A2
100
AcDbEntity
  8
ADPDIM
 62
     0
370
    -2
100
AcDbLine
 10
21.02834897811337
 20
-15.45956500073766
 30
0.0
 11
21.27834897811338
 21
-15.20956500073766
 31
0.0
  0
MTEXT
  5
3AA
330
3A2
100
AcDbEntity
  8
ADPDIM
 62
     0
100
AcDbMText
 10
22.14673760893721
 20
-15.33456500073766
 30
0.0
 40
0.125
 41
0.0
 71
     5
 72
     1
  1
\A1;2
 73
     1
 44
1.0
1001
ACAD
1000
MTEXTBEGIN
1070
    73
1070
     1
1070
    44
1040
1.0
1070
    74
1070
     0
1000
MTEXTEND
  0
POINT
  5
3AB
330
3A2
100
AcDbEntity
  8
DEFPOINTS
 62
     0
100
AcDbPoint
 10
21.15334897811337
 20
-16.53490156558381
 30
0.0
  0
POINT
  5
3AC
330
3A2
100
AcDbEntity
  8
DEFPOINTS
 62
     0
100
AcDbPoint
 10
23.14012623976104
 20
-16.53490156558381
 30
0.0
  0
POINT
  5
3AD
330
3A2
100
AcDbEntity
  8
DEFPOINTS
 62
     0
100
AcDbPoint
 10
23.14012623976104
 20
-15.33456500073766
 30
0.0
  0
ENDBLK
  5
3AE
330
3A2
100
AcDbEntity
  8
0
100
AcDbBlockEnd
  0
BLOCK
  5
3B0
330
3AF
100
AcDbEntity
  8
0
100
AcDbBlockBegin
  2
*D5
 70
     1
 10
0.0
 20
0.0
 30
0.0
  3
*D5
  1

  0
LINE
  5
3B1
330
3AF
100
AcDbEntity
  8
ADPDIM
 62
     0
370
    -2
100
AcDbLine
 10
21.37969061967881
 20
-16.87389204012022
 30
0.0
 11
21.37969061967881
 21
-17.29301789411311
 31
0.0
  0
LINE
  5
3B2
330
3AF
100
AcDbEntity
  8
ADPDIM
 62
     0
370
    -2
100
AcDbLine
 10
22.92635917884732
 20
-16.87389204012022
 30
0.0
 11
22.92635917884732
 21
-17.29301789411311
 31
0.0
  0
LINE
  5
3B3
330
3AF
100
AcDbEntity
  8
ADPDIM
 62
     0
370
    -2
100
AcDbLine
 10
21.37969061967881
 20
-17.11301789411311
 30
0.0
 11
21.65302489926307
 21
-17.11301789411311
 31
0.0
  0
LINE
  5
3B4
330
3AF
100
AcDbEntity
  8
ADPDIM
 62
     0
370
    -2
100
AcDbLine
 10
22.92635917884732
 20
-17.11301789411311
 30
0.0
 11
22.65302489926307
 21
-17.11301789411311
 31
0.0
  0
LINE
  5
3B5
330
3AF
100
AcDbEntity
  8
ADPDIM
 62
     0
370
    -2
100
AcDbLine
 10
22.80135917884733
 20
-17.23801789411311
 30
0.0
 11
23.05135917884733
 21
-16.98801789411311
 31
0.0
  0
LINE
  5
3B6
330
3AF
100
AcDbEntity
  8
ADPDIM
 62
     0
370
    -2
100
AcDbLine
 10
21.25469061967881
 20
-17.23801789411311
 30
0.0
 11
21.50469061967881
 21
-16.98801789411311
 31
0.0
  0
MTEXT
  5
3B7
330
3AF
100
AcDbEntity
  8
ADPDIM
 62
     0
100
AcDbMText
 10
22.15302489926306
 20
-17.11301789411311
 30
0.0
 40
0.125
 41
0.0
 71
     5
 72
     1
  1
\A1;1 17/32
 73
     1
 44
1.0
1001
ACAD
1000
MTEXTBEGIN
1070
    73
1070
     1
1070
    44
1040
1.0
1070
    74
1070
     0
1000
MTEXTEND
  0
POINT
  5
3B8
330
3AF
100
AcDbEntity
  8
DEFPOINTS
 62
     0
100
AcDbPoint
 10
21.37969061967881
 20
-16.81139204012022
 30
0.0
  0
POINT
  5
3B9
330
3AF
100
AcDbEntity
  8
DEFPOINTS
 62
     0
100
AcDbPoint
 10
22.92635917884732
 20
-16.81139204012022
 30
0.0
  0
POINT
  5
3BA
330
3AF
100
AcDbEntity
  8
DEFPOINTS
 62
     0
100
AcDbPoint
 10
22.92635917884732
 20
-17.11301789411311
 30
0.0
  0
ENDBLK
  5
3BB
330
3AF
100
AcDbEntity
  8
0
100
AcDbBlockEnd
  0
BLOCK
  5
3BD
330
3BC
100
AcDbEntity
  8
0
 62
     3
100
AcDbBlockBegin
  2
*D6
 70
     1
 10
0.0
 20
0.0
 30
0.0
  3
*D6
  1

  0
LINE
  5
3BE
330
3BC
100
AcDbEntity
  8
ADPDIM
 62
     0
370
    -2
100
AcDbLine
 10
21.51100610737773
 20
-16.55433989369462
 30
0.0
 11
21.51100610737773
 21
-16.90484826715587
 31
0.0
  0
LINE
  5
3BF
330
3BC
100
AcDbEntity
  8
ADPDIM
 62
     0
370
    -2
100
AcDbLine
 10
22.79225610737773
 20
-16.55433989369462
 30
0.0
 11
22.79225610737773
 21
-16.90484826715587
 31
0.0
  0
LINE
  5
3C0
330
3BC
100
AcDbEntity
  8
ADPDIM
 62
     0
370
    -2
100
AcDbLine
 10
21.51100610737773
 20
-16.72484826715587
 30
0.0
 11
21.6932977740444
 21
-16.72484826715587
 31
0.0
  0
LINE
  5
3C1
330
3BC
100
AcDbEntity
  8
ADPDIM
 62
     0
370
    -2
100
AcDbLine
 10
22.79225610737773
 20
-16.72484826715587
 30
0.0
 11
22.60996444071106
 21
-16.72484826715587
 31
0.0
  0
LINE
  5
3C2
330
3BC
100
AcDbEntity
  8
ADPDIM
 62
     0
370
    -2
100
AcDbLine
 10
22.66725610737773
 20
-16.84984826715587
 30
0.0
 11
22.91725610737773
 21
-16.59984826715587
 31
0.0
  0
LINE
  5
3C3
330
3BC
100
AcDbEntity
  8
ADPDIM
 62
     0
370
    -2
100
AcDbLine
 10
21.38600610737773
 20
-16.84984826715587
 30
0.0
 11
21.63600610737773
 21
-16.59984826715587
 31
0.0
  0
MTEXT
  5
3C4
330
3BC
100
AcDbEntity
  8
ADPDIM
 62
     0
100
AcDbMText
 10
22.15163110737773
 20
-16.72484826715587
 30
0.0
 40
0.125
 41
0.0
 71
     5
 72
     1
  1
\A1;1 9/32
 73
     1
 44
1.0
1001
ACAD
1000
MTEXTBEGIN
1070
    73
1070
     1
1070
    44
1040
1.0
1070
    74
1070
     0
1000
MTEXTEND
  0
POINT
  5
3C5
330
3BC
100
AcDbEntity
  8
DEFPOINTS
 62
     0
100
AcDbPoint
 10
21.51100610737773
 20
-16.49183989369462
 30
0.0
  0
POINT
  5
3C6
330
3BC
100
AcDbEntity
  8
DEFPOINTS
 62
     0
100
AcDbPoint
 10
22.79225610737773
 20
-16.49183989369462
 30
0.0
  0
POINT
  5
3C7
330
3BC
100
AcDbEntity
  8
DEFPOINTS
 62
     0
100
AcDbPoint
 10
22.79225610737773
 20
-16.72484826715587
 30
0.0
  0
ENDBLK
  5
3C8
330
3BC
100
AcDbEntity
  8
0
 62
     3
100
AcDbBlockEnd
  0
BLOCK
  5
3E2
330
3D7
100
AcDbEntity
  8
0
100
AcDbBlockBegin
  2
*D8
 70
     1
 10
0.0
 20
0.0
 30
0.0
  3
*D8
  1

  0
LINE
  5
3FE
330
3D7
100
AcDbEntity
  8
ADPDIM
 62
     0
370
    -2
100
AcDbLine
 10
21.37450799783305
 20
-16.50857331894703
 30
0.0
 11
21.37450799783305
 21
-15.19073675410088
 31
0.0
  0
LINE
  5
3FF
330
3D7
100
AcDbEntity
  8
ADPDIM
 62
     0
370
    -2
100
AcDbLine
 10
23.36128525948071
 20
-16.50857331894703
 30
0.0
 11
23.36128525948071
 21
-15.19073675410088
 31
0.0
  0
LINE
  5
400
330
3D7
100
AcDbEntity
  8
ADPDIM
 62
     0
370
    -2
100
AcDbLine
 10
21.37450799783305
 20
-15.37073675410088
 30
0.0
 11
22.20122996199021
 21
-15.37073675410088
 31
0.0
  0
LINE
  5
401
330
3D7
100
AcDbEntity
  8
ADPDIM
 62
     0
370
    -2
100
AcDbLine
 10
23.36128525948071
 20
-15.37073675410088
 30
0.0
 11
22.53456329532355
 21
-15.37073675410088
 31
0.0
  0
LINE
  5
402
330
3D7
100
AcDbEntity
  8
ADPDIM
 62
     0
370
    -2
100
AcDbLine
 10
23.23628525948072
 20
-15.49573675410088
 30
0.0
 11
23.48628525948071
 21
-15.24573675410088
 31
0.0
  0
LINE
  5
403
330
3D7
100
AcDbEntity
  8
ADPDIM
 62
     0
370
    -2
100
AcDbLine
 10
21.24950799783305
 20
-15.49573675410088
 30
0.0
 11
21.49950799783305
 21
-15.24573675410088
 31
0.0
  0
MTEXT
  5
404
330
3D7
100
AcDbEntity
  8
ADPDIM
 62
     0
100
AcDbMText
 10
22.36789662865688
 20
-15.37073675410088
 30
0.0
 40
0.125
 41
0.0
 71
     5
 72
     1
  1
\A1;2
 73
     1
 44
1.0
1001
ACAD
1000
MTEXTBEGIN
1070
    73
1070
     1
1070
    44
1040
1.0
1070
    74
1070
     0
1000
MTEXTEND
  0
POINT
  5
405
330
3D7
100
AcDbEntity
  8
DEFPOINTS
 62
     0
100
AcDbPoint
 10
21.37450799783305
 20
-16.57107331894703
 30
0.0
  0
POINT
  5
406
330
3D7
100
AcDbEntity
  8
DEFPOINTS
 62
     0
100
AcDbPoint
 10
23.36128525948071
 20
-16.57107331894703
 30
0.0
  0
POINT
  5
407
330
3D7
100
AcDbEntity
  8
DEFPOINTS
 62
     0
100
AcDbPoint
 10
23.36128525948071
 20
-15.37073675410088
 30
0.0
  0
ENDBLK
  5
3E3
330
3D7
100
AcDbEntity
  8
0
100
AcDbBlockEnd
  0
BLOCK
  5
3EF
330
3E4
100
AcDbEntity
  8
0
100
AcDbBlockBegin
  2
*D9
 70
     1
 10
0.0
 20
0.0
 30
0.0
  3
*D9
  1

  0
LINE
  5
408
330
3E4
100
AcDbEntity
  8
ADPDIM
 62
     0
370
    -2
100
AcDbLine
 10
21.60084963939849
 20
-16.91006379348343
 30
0.0
 11
21.60084963939849
 21
-17.32918964747632
 31
0.0
  0
LINE
  5
409
330
3E4
100
AcDbEntity
  8
ADPDIM
 62
     0
370
    -2
100
AcDbLine
 10
23.147518198567
 20
-16.91006379348343
 30
0.0
 11
23.147518198567
 21
-17.32918964747632
 31
0.0
  0
LINE
  5
40A
330
3E4
100
AcDbEntity
  8
ADPDIM
 62
     0
370
    -2
100
AcDbLine
 10
21.60084963939849
 20
-17.14918964747633
 30
0.0
 11
21.87418391898274
 21
-17.14918964747633
 31
0.0
  0
LINE
  5
40B
330
3E4
100
AcDbEntity
  8
ADPDIM
 62
     0
370
    -2
100
AcDbLine
 10
23.147518198567
 20
-17.14918964747633
 30
0.0
 11
22.87418391898274
 21
-17.14918964747633
 31
0.0
  0
LINE
  5
40C
330
3E4
100
AcDbEntity
  8
ADPDIM
 62
     0
370
    -2
100
AcDbLine
 10
23.022518198567
 20
-17.27418964747633
 30
0.0
 11
23.272518198567
 21
-17.02418964747632
 31
0.0
  0
LINE
  5
40D
330
3E4
100
AcDbEntity
  8
ADPDIM
 62
     0
370
    -2
100
AcDbLine
 10
21.47584963939848
 20
-17.27418964747633
 30
0.0
 11
21.72584963939849
 21
-17.02418964747632
 31
0.0
  0
MTEXT
  5
40E
330
3E4
100
AcDbEntity
  8
ADPDIM
 62
     0
100
AcDbMText
 10
22.37418391898275
 20
-17.14918964747633
 30
0.0
 40
0.125
 41
0.0
 71
     5
 72
     1
  1
\A1;1 17/32
 73
     1
 44
1.0
1001
ACAD
1000
MTEXTBEGIN
1070
    73
1070
     1
1070
    44
1040
1.0
1070
    74
1070
     0
1000
MTEXTEND
  0
POINT
  5
40F
330
3E4
100
AcDbEntity
  8
DEFPOINTS
 62
     0
100
AcDbPoint
 10
21.60084963939849
 20
-16.84756379348343
 30
0.0
  0
POINT
  5
410
330
3E4
100
AcDbEntity
  8
DEFPOINTS
 62
     0
100
AcDbPoint
 10
23.147518198567
 20
-16.84756379348343
 30
0.0
  0
POINT
  5
411
330
3E4
100
AcDbEntity
  8
DEFPOINTS
 62
     0
100
AcDbPoint
 10
23.147518198567
 20
-17.14918964747633
 30
0.0
  0
ENDBLK
  5
3F0
330
3E4
100
AcDbEntity
  8
0
100
AcDbBlockEnd
  0
BLOCK
  5
3FC
330
3F1
100
AcDbEntity
  8
0
100
AcDbBlockBegin
  2
*D10
 70
     1
 10
0.0
 20
0.0
 30
0.0
  3
*D10
  1

  0
LINE
  5
412
330
3F1
100
AcDbEntity
  8
ADPDIM
 62
     0
370
    -2
100
AcDbLine
 10
21.7321651270974
 20
-16.59051164705783
 30
0.0
 11
21.7321651270974
 21
-16.94102002051909
 31
0.0
  0
LINE
  5
413
330
3F1
100
AcDbEntity
  8
ADPDIM
 62
     0
370
    -2
100
AcDbLine
 10
23.0134151270974
 20
-16.59051164705783
 30
0.0
 11
23.0134151270974
 21
-16.94102002051909
 31
0.0
  0
LINE
  5
414
330
3F1
100
AcDbEntity
  8
ADPDIM
 62
     0
370
    -2
100
AcDbLine
 10
21.7321651270974
 20
-16.76102002051909
 30
0.0
 11
21.91445679376407
 21
-16.76102002051909
 31
0.0
  0
LINE
  5
415
330
3F1
100
AcDbEntity
  8
ADPDIM
 62
     0
370
    -2
100
AcDbLine
 10
23.0134151270974
 20
-16.76102002051909
 30
0.0
 11
22.83112346043074
 21
-16.76102002051909
 31
0.0
  0
LINE
  5
416
330
3F1
100
AcDbEntity
  8
ADPDIM
 62
     0
370
    -2
100
AcDbLine
 10
22.88841512709741
 20
-16.88602002051909
 30
0.0
 11
23.1384151270974
 21
-16.63602002051909
 31
0.0
  0
LINE
  5
417
330
3F1
100
AcDbEntity
  8
ADPDIM
 62
     0
370
    -2
100
AcDbLine
 10
21.6071651270974
 20
-16.88602002051909
 30
0.0
 11
21.8571651270974
 21
-16.63602002051909
 31
0.0
  0
MTEXT
  5
418
330
3F1
100
AcDbEntity
  8
ADPDIM
 62
     0
100
AcDbMText
 10
22.3727901270974
 20
-16.76102002051909
 30
0.0
 40
0.125
 41
0.0
 71
     5
 72
     1
  1
\A1;1 9/32
 73
     1
 44
1.0
1001
ACAD
1000
MTEXTBEGIN
1070
    73
1070
     1
1070
    44
1040
1.0
1070
    74
1070
     0
1000
MTEXTEND
  0
POINT
  5
419
330
3F1
100
AcDbEntity
  8
DEFPOINTS
 62
     0
100
AcDbPoint
 10
21.7321651270974
 20
-16.52801164705783
 30
0.0
  0
POINT
  5
41A
330
3F1
100
AcDbEntity
  8
DEFPOINTS
 62
     0
100
AcDbPoint
 10
23.0134151270974
 20
-16.52801164705783
 30
0.0
  0
POINT
  5
41B
330
3F1
100
AcDbEntity
  8
DEFPOINTS
 62
     0
100
AcDbPoint
 10
23.0134151270974
 20
-16.76102002051909
 30
0.0
  0
ENDBLK
  5
3FD
330
3F1
100
AcDbEntity
  8
0
100
AcDbBlockEnd
  0
ENDSEC
  0
SECTION
  2
ENTITIES
  0
LINE
  5
150
330
18
100
AcDbEntity
  8
ADP1DETAIL
100
AcDbLine
 10
24.38613467970415
 20
-13.79437288081677
 30
0.0
 11
27.76113467970414
 21
-13.79437288081677
 31
0.0
  0
LINE
  5
151
330
18
100
AcDbEntity
  8
ADP1DETAIL
100
AcDbLine
 10
27.88613467970414
 20
-13.91937288081677
 30
0.0
 11
27.88613467970415
 21
-15.66937288081677
 31
0.0
  0
LINE
  5
152
330
18
100
AcDbEntity
  8
ADP1DETAIL
100
AcDbLine
 10
27.76113467970415
 20
-15.79437288081677
 30
0.0
 11
24.38613467970415
 21
-15.79437288081677
 31
0.0
  0
LINE
  5
153
330
18
100
AcDbEntity
  8
ADP1DETAIL
100
AcDbLine
 10
24.38613467970415
 20
-15.79437288081677
 30
0.0
 11
24.38613467970415
 21
-13.79437288081677
 31
0.0
  0
LINE
  5
157
330
18
100
AcDbEntity
  8
ADP2DETAIL
  6
HIDDEN2
100
AcDbLine
 10
24.38613467970415
 20
-15.67000476017582
 30
0.0
 11
27.76113467970415
 21
-15.67000476017582
 31
0.0
  0
LINE
  5
158
330
18
100
AcDbEntity
  8
ADP2DETAIL
  6
HIDDEN2
100
AcDbLine
 10
24.38613467970415
 20
-14.14905652634946
 30
0.0
 11
27.51113467970415
 21
-14.14905652634946
 31
0.0
  0
LINE
  5
159
330
18
100
AcDbEntity
  8
ADP2DETAIL
  6
HIDDEN2
100
AcDbLine
 10
24.38613467970415
 20
-15.55300874988351
 30
0.0
 11
27.63613467970415
 21
-15.55300874988351
 31
0.0
  0
LINE
  5
15A
330
18
100
AcDbEntity
  8
ADP2DETAIL
  6
HIDDEN2
100
AcDbLine
 10
24.38613467970415
 20
-13.91874100145772
 30
0.0
 11
27.76113467970415
 21
-13.91874100145772
 31
0.0
  0
LINE
  5
15B
330
18
100
AcDbEntity
  8
ADP2DETAIL
  6
HIDDEN2
100
AcDbLine
 10
24.38613467970415
 20
-14.03573701175004
 30
0.0
 11
27.63613467970415
 21
-14.03573701175004
 31
0.0
  0
LINE
  5
15C
330
18
100
AcDbEntity
  8
ADP2DETAIL
  6
HIDDEN2
100
AcDbLine
 10
24.38613467970415
 20
-15.43968923528408
 30
0.0
 11
27.51113467970415
 21
-15.43968923528409
 31
0.0
  0
LINE
  5
15D
330
18
100
AcDbEntity
  8
ADP2DETAIL
  6
HIDDEN2
100
AcDbLine
 10
27.76113467970415
 20
-13.91874100145772
 30
0.0
 11
27.76113467970415
 21
-15.67000476017582
 31
0.0
  0
LINE
  5
15E
330
18
100
AcDbEntity
  8
ADP2DETAIL
  6
HIDDEN2
100
AcDbLine
 10
27.63613467970415
 20
-14.03573701175004
 30
0.0
 11
27.63613467970415
 21
-15.55300874988351
 31
0.0
  0
LINE
  5
15F
330
18
100
AcDbEntity
  8
ADP2DETAIL
  6
HIDDEN2
100
AcDbLine
 10
27.51113467970415
 20
-14.14905652634946
 30
0.0
 11
27.51113467970415
 21
-15.43968923528409
 31
0.0
  0
LINE
  5
179
330
18
100
AcDbEntity
  8
ADP1DETAIL
100
AcDbLine
 10
24.38613467970415
 20
-16.74166455352191
 30
0.0
 11
24.38613467970415
 21
-16.06499788790707
 31
0.0
  0
LINE
  5
17A
330
18
100
AcDbEntity
  8
ADP1DETAIL
100
AcDbLine
 10
24.38613467970415
 20
-16.06499788790707
 30
0.0
 11
27.04108400501502
 21
-16.06499788790707
 31
0.0
  0
LINE
  5
17C
330
18
100
AcDbEntity
  8
ADP1DETAIL
100
AcDbLine
 10
27.79199908456263
 20
-16.74166455352191
 30
0.0
 11
24.38613467970415
 21
-16.74166455352191
 31
0.0
  0
ARC
  5
1B8
330
18
100
AcDbEntity
  8
0
100
AcDbCircle
 10
27.85654901569944
 20
-16.28899849963622
 30
0.0
 40
0.038
100
AcDbArc
 50
347.120495203522
 51
67.71381286301917
  0
ARC
  5
1B9
330
18
100
AcDbEntity
  8
0
100
AcDbCircle
 10
27.78243670164888
 20
-16.73873866339909
 30
0.0
 40
0.01
100
AcDbArc
 50
342.9869798424101
 51
347.1204952035249
  0
LINE
  5
1BA
330
18
100
AcDbEntity
  8
0
100
AcDbLine
 10
27.89359297333288
 20
-16.29746875363785
 30
0.0
 11
27.79218511155242
 21
-16.74096767761004
 31
0.0
  0
LINE
  5
1BB
330
18
100
AcDbEntity
  8
ADP1DETAIL
100
AcDbLine
 10
24.38613467970415
 20
-16.25908014284125
 30
0.0
 11
27.88613467970415
 21
-16.25908014284125
 31
0.0
  0
LINE
  5
1BC
330
18
100
AcDbEntity
  8
ADP1DETAIL
100
AcDbLine
 10
27.04108400501502
 20
-16.06499788790707
 30
0.0
 11
27.87095987346152
 21
-16.2538370551471
 31
0.0
  0
ARC
  5
1BD
330
18
100
AcDbEntity
  8
ADP1DETAIL
100
AcDbCircle
 10
27.76113467970414
 20
-13.91937288081677
 30
0.0
 40
0.125
100
AcDbArc
 50
0.0000000000001018
 51
90.00000000000005
  0
ARC
  5
1BE
330
18
100
AcDbEntity
  8
ADP1DETAIL
100
AcDbCircle
 10
27.76113467970415
 20
-15.66937288081677
 30
0.0
 40
0.125
100
AcDbArc
 50
270.0
 51
0.0000000000001145
  0
LINE
  5
1BF
330
18
100
AcDbEntity
  8
ADP2DETAIL
  6
HIDDEN2
100
AcDbLine
 10
24.38613467970415
 20
-16.37724359333954
 30
0.0
 11
27.51113467970415
 21
-16.37724359333953
 31
0.0
  0
LINE
  5
1C0
330
18
100
AcDbEntity
  8
ADP2DETAIL
  6
HIDDEN2
100
AcDbLine
 10
24.38613467970415
 20
-16.50851265935784
 30
0.0
 11
27.63613467970415
 21
-16.50851265935784
 31
0.0
  0
LINE
  5
1C1
330
18
100
AcDbEntity
  8
ADP2DETAIL
  6
HIDDEN2
100
AcDbLine
 10
27.63613467970415
 20
-16.50851265935784
 30
0.0
 11
27.63613467970415
 21
-16.74166455352191
 31
0.0
  0
LINE
  5
1C2
330
18
100
AcDbEntity
  8
ADP2DETAIL
  6
HIDDEN2
100
AcDbLine
 10
27.51113467970415
 20
-16.37724359333953
 30
0.0
 11
27.51113467970415
 21
-16.50851265935784
 31
0.0
  0
DIMENSION
  5
1D1
330
18
100
AcDbEntity
  8
ADPDIM
100
AcDbDimension
  2
*D2
 10
27.89028076313629
 20
-17.142162928376
 30
0.0
 11
26.13820772142022
 21
-17.142162928376
 31
0.0
 70
    32
 71
     5
 42
-1.0
  3
STANDARD
100
AcDbAlignedDimension
 13
24.38613467970415
 23
-16.74166455352191
 33
0.0
 14
27.89028076313629
 24
-16.27150080793541
 34
0.0
100
AcDbRotatedDimension
1001
ACAD
1000
DSTYLE
1002
{
1070
   270
1070
     7
1070
   270
1070
     7
1070
   270
1070
     7
1070
   270
1070
     7
1070
    41
1040
0.125
1070
    73
1070
     0
1070
    74
1070
     0
1070
    78
1070
     2
1070
   140
1040
0.125
1070
   141
1040
0.1875
1070
   142
1040
0.125
1070
   147
1040
0.125
1070
   171
1070
     1
1070
   271
1070
     2
1070
   276
1070
     2
1070
   277
1070
     5
1002
}
  0
TEXT
  5
1DD
330
18
100
AcDbEntity
  8
ADPDIM
100
AcDbText
 10
17.68459775951315
 20
-18.27621405291004
 30
0.0
 40
0.125
  1
J U L I U S  B L U M  &  C O . ,  I N C .      ( 8 0 0 )  5 2 6 - 6 2 9 3        W W W . J U L I U S B L U M . C O M        P A R T  N o .  4 5 7 5 - N
 41
1.25
  7
ARIAL_WIDE
 72
     1
 11
24.38613467970415
 21
-18.15121405291004
 31
0.0
100
AcDbText
 73
     3
  0
DIMENSION
  5
3D3
330
18
100
AcDbEntity
  8
ADPDIM
100
AcDbDimension
  2
*D8
 10
23.36128525948071
 20
-15.37073675410088
 30
0.0
 11
22.36789662865688
 21
-15.37073675410088
 31
0.0
 70
   160
 71
     5
 42
1.986777261647663
  3
STANDARD
100
AcDbAlignedDimension
 13
21.37450799783305
 23
-16.57107331894703
 33
0.0
 14
23.36128525948071
 24
-16.57107331894703
 34
0.0
100
AcDbRotatedDimension
1001
ACAD
1000
DSTYLE
1002
{
1070
   277
1070
     5
1070
    41
1040
0.125
1070
    73
1070
     0
1070
    74
1070
     0
1070
    78
1070
     3
1070
   140
1040
0.125
1070
   141
1040
0.1875
1070
   142
1040
0.125
1070
   147
1040
0.125
1070
   171
1070
     1
1002
}
  0
DIMENSION
  5
3D4
330
18
100
AcDbEntity
  8
ADPDIM
100
AcDbDimension
  2
*D9
 10
23.147518198567
 20
-17.14918964747633
 30
0.0
 11
22.37418391898275
 21
-17.14918964747633
 31
0.0
 70
    32
 71
     5
 42
1.546668559168512
  3
STANDARD
100
AcDbAlignedDimension
 13
21.60084963939849
 23
-16.84756379348343
 33
0.0
 14
23.147518198567
 24
-16.84756379348343
 34
0.0
100
AcDbRotatedDimension
1001
ACAD
1000
DSTYLE
1002
{
1070
   276
1070
     2
1070
   271
1070
     5
1070
   277
1070
     5
1070
    41
1040
0.125
1070
    73
1070
     0
1070
    74
1070
     0
1070
    78
1070
     3
1070
   140
1040
0.125
1070
   141
1040
0.1875
1070
   142
1040
0.125
1070
   147
1040
0.125
1070
   171
1070
     1
1002
}
  0
INSERT
  5
3D5
330
18
100
AcDbEntity
  8
ADP1DETAIL
100
AcDbBlockReference
  2
4575
 10
21.32101269779788
 20
-16.3158496131232
 30
0.0
  0
DIMENSION
  5
3D6
330
18
100
AcDbEntity
  8
ADPDIM
 62
     3
100
AcDbDimension
  2
*D10
 10
23.0134151270974
 20
-16.76102002051909
 30
0.0
 11
22.3727901270974
 21
-16.76102002051909
 31
0.0
 70
    32
 71
     5
 42
1.28125
  3
STANDARD
100
AcDbAlignedDimension
 13
21.7321651270974
 23
-16.52801164705783
 33
0.0
 14
23.0134151270974
 24
-16.52801164705783
 34
0.0
100
AcDbRotatedDimension
1001
ACAD
1000
DSTYLE
1002
{
1070
   271
1070
     5
1070
   276
1070
     2
1070
   277
1070
     5
1070
    41
1040
0.125
1070
    73
1070
     0
1070
    74
1070
     0
1070
    78
1070
     3
1070
   140
1040
0.125
1070
   141
1040
0.1875
1070
   142
1040
0.125
1070
   147
1040
0.125
1070
   171
1070
     1
1002
}
  0
ENDSEC
  0
SECTION
  2
OBJECTS
  0
DICTIONARY
  5
C
330
0
100
AcDbDictionary
281
     1
  3
ACAD_COLOR
350
37F
  3
ACAD_GROUP
350
D
  3
ACAD_LAYOUT
350
1D6
  3
ACAD_MATERIAL
350
36A
  3
ACAD_MLINESTYLE
350
E
  3
ACAD_PLOTSETTINGS
350
1D7
  3
ACAD_PLOTSTYLENAME
350
1D4
  3
ACAD_TABLESTYLE
350
380
  3
ACAD_VISUALSTYLE
350
36E
  3
AcDbVariableDictionary
350
24D
  3
ASE_INDEX_DICTIONARY
350
41D
  3
DWGPROPS
350
43E
  0
DICTIONARY
  5
23D
330
18
100
AcDbDictionary
280
     1
281
     1
  3
ACAD_LAYOUTSELFREF
360
35A
  0
DICTIONARY
  5
23B
330
15
100
AcDbDictionary
280
     1
281
     1
  3
ACAD_LAYOUTSELFREF
360
359
  0
DICTIONARY
  5
37F
102
{ACAD_REACTORS
330
C
102
}
330
C
100
AcDbDictionary
281
     1
  0
DICTIONARY
  5
D
102
{ACAD_REACTORS
330
C
102
}
330
C
100
AcDbDictionary
281
     1
  0
DICTIONARY
  5
1D6
102
{ACAD_REACTORS
330
C
102
}
330
C
100
AcDbDictionary
281
     1
  3
Layout1
350
1D9
  3
Model
350
1D8
  0
DICTIONARY
  5
36A
102
{ACAD_REACTORS
330
C
102
}
330
C
100
AcDbDictionary
281
     1
  3
ByBlock
350
36C
  3
ByLayer
350
36B
  3
Global
350
36D
  0
DICTIONARY
  5
E
102
{ACAD_REACTORS
330
C
102
}
330
C
100
AcDbDictionary
281
     1
  3
STANDARD
350
1B
  0
DICTIONARY
  5
1D7
102
{ACAD_REACTORS
330
C
102
}
330
C
100
AcDbDictionary
281
     1
  0
ACDBDICTIONARYWDFLT
  5
1D4
102
{ACAD_REACTORS
330
C
102
}
330
C
100
AcDbDictionary
281
     1
  3
Normal
350
1D5
100
AcDbDictionaryWithDefault
340
1D5
  0
DICTIONARY
  5
380
102
{ACAD_REACTORS
330
C
102
}
330
C
100
AcDbDictionary
281
     1
  3
Standard
350
381
  0
DICTIONARY
  5
36E
102
{ACAD_REACTORS
330
C
102
}
330
C
100
AcDbDictionary
281
     1
  3
2dWireframe
350
374
  3
3D Hidden
350
376
  3
3dWireframe
350
375
  3
Basic
350
373
  3
Brighten
350
37A
  3
ColorChange
350
37E
  3
Conceptual
350
377
  3
Dim
350
379
  3
Facepattern
350
37D
  3
Flat
350
36F
  3
FlatWithEdges
350
370
  3
Gouraud
350
371
  3
GouraudWithEdges
350
372
  3
Linepattern
350
37C
  3
Realistic
350
378
  3
Thicken
350
37B
  0
DICTIONARY
  5
24D
102
{ACAD_REACTORS
330
C
102
}
330
C
100
AcDbDictionary
281
     1
  3
CTABLESTYLE
350
43B
  3
DIMASSOC
350
24E
  3
INDEXCTL
350
43D
  3
SORTENTS
350
43C
  0
DICTIONARY
  5
41D
102
{ACAD_REACTORS
330
C
102
}
330
C
100
AcDbDictionary
281
     1
  3
ASEBlockHierarchyIndexRecord
350
41E
1001
DCO15
1040
1569089438.66
  0
XRECORD
  5
43E
102
{ACAD_REACTORS
330
C
102
}
330
C
100
AcDbXrecord
280
     1
  1
DWGPROPS COOKIE
  2

  3

  4

  6

  7

  8
Yu Hu
  9

300
=
301
=
302
=
303
=
304
=
305
=
306
=
307
=
308
=
309
=
 40
0.0266726967592593
 41
2450406.662911644
 42
2453963.96924375
  1

 90
        0
  0
XRECORD
  5
35A
102
{ACAD_REACTORS
330
23D
102
}
330
23D
100
AcDbXrecord
280
     1
340
18
  0
XRECORD
  5
359
102
{ACAD_REACTORS
330
23B
102
}
330
23B
100
AcDbXrecord
280
     1
340
15
  0
LAYOUT
  5
1D9
102
{ACAD_XDICTIONARY
360
441
102
}
102
{ACAD_REACTORS
330
1D6
102
}
330
1D6
100
AcDbPlotSettings
  1

  2
Fax
  4

  6

 40
0.0
 41
0.0
 42
0.0
 43
0.0
 44
0.0
 45
0.0
 46
0.0
 47
0.0
 48
0.0
 49
0.0
140
0.0
141
0.0
142
1.0
143
1.0
 70
   688
 72
     0
 73
     0
 74
     5
  7
Default R14 pen assignments.ctb
 75
    16
147
1.0
148
0.0
149
0.0
100
AcDbLayout
  1
Layout1
 70
     1
 71
     1
 10
0.0
 20
0.0
 11
12.0
 21
9.0
 12
0.0008545028977096
 22
1.250283272183907
 32
0.0
 14
1.000000000000000E+20
 24
1.000000000000000E+20
 34
1.000000000000000E+20
 15
-1.000000000000000E+20
 25
-1.000000000000000E+20
 35
-1.000000000000000E+20
146
0.0
 13
0.0
 23
0.0
 33
0.0
 16
1.0
 26
0.0
 36
0.0
 17
0.0
 27
1.0
 37
0.0
 76
     0
330
15
  0
LAYOUT
  5
1D8
102
{ACAD_XDICTIONARY
360
43F
102
}
102
{ACAD_REACTORS
330
1D6
102
}
330
1D6
100
AcDbPlotSettings
  1

  2
Fax
  4

  6

 40
0.0
 41
0.0
 42
0.0
 43
0.0
 44
0.0
 45
0.0
 46
0.0
 47
0.0
 48
0.0
 49
0.0
140
0.0
141
0.0
142
1.0
143
1.0
 70
  1712
 72
     0
 73
     0
 74
     0
  7
Default R14 pen assignments.ctb
 75
     0
147
1.0
148
0.0
149
0.0
100
AcDbLayout
  1
Model
 70
     1
 71
     0
 10
0.0
 20
0.0
 11
12.0
 21
9.0
 12
0.0
 22
0.0
 32
0.0
 14
0.0
 24
0.0
 34
0.0
 15
0.0
 25
0.0
 35
0.0
146
0.0
 13
0.0
 23
0.0
 33
0.0
 16
1.0
 26
0.0
 36
0.0
 17
0.0
 27
1.0
 37
0.0
 76
     0
330
18
331
333
  0
MATERIAL
  5
36C
102
{ACAD_XDICTIONARY
360
445
102
}
102
{ACAD_REACTORS
330
36A
102
}
330
36A
100
AcDbMaterial
  1
ByBlock
  0
MATERIAL
  5
36B
102
{ACAD_XDICTIONARY
360
443
102
}
102
{ACAD_REACTORS
330
36A
102
}
330
36A
100
AcDbMaterial
  1
ByLayer
  0
MATERIAL
  5
36D
102
{ACAD_XDICTIONARY
360
447
102
}
102
{ACAD_REACTORS
330
36A
102
}
330
36A
100
AcDbMaterial
  1
Global
  0
MLINESTYLE
  5
1B
102
{ACAD_REACTORS
330
E
102
}
330
E
100
AcDbMlineStyle
  2
STANDARD
 70
     0
  3

 62
     0
 51
90.0
 52
90.0
 71
     2
 49
0.5
 62
   256
  6
BYLAYER
 49
-0.5
 62
   256
  6
BYLAYER
  0
ACDBPLACEHOLDER
  5
1D5
102
{ACAD_REACTORS
330
1D4
102
}
330
1D4
  0
TABLESTYLE
  5
381
102
{ACAD_XDICTIONARY
360
449
102
}
102
{ACAD_REACTORS
330
380
102
}
330
380
100
AcDbTableStyle
  3
Standard
 70
     0
 71
     0
 40
0.06
 41
0.06
280
     0
281
     0
  7
STANDARD
140
0.18
170
     2
 62
     0
 63
     7
283
     0
274
    -2
284
     1
 64
     0
275
    -2
285
     1
 65
     0
276
    -2
286
     1
 66
     0
277
    -2
287
     1
 67
     0
278
    -2
288
     1
 68
     0
279
    -2
289
     1
 69
     0
  7
STANDARD
140
0.25
170
     5
 62
     0
 63
     7
283
     0
274
    -2
284
     1
 64
     0
275
    -2
285
     1
 65
     0
276
    -2
286
     1
 66
     0
277
    -2
287
     1
 67
     0
278
    -2
288
     1
 68
     0
279
    -2
289
     1
 69
     0
  7
STANDARD
140
0.18
170
     5
 62
     0
 63
     7
283
     0
274
    -2
284
     1
 64
     0
275
    -2
285
     1
 65
     0
276
    -2
286
     1
 66
     0
277
    -2
287
     1
 67
     0
278
    -2
288
     1
 68
     0
279
    -2
289
     1
 69
     0
  0
VISUALSTYLE
  5
374
102
{ACAD_REACTORS
330
36E
102
}
330
36E
100
AcDbVisualStyle
  2
2dWireframe
 70
     4
 71
     0
 72
     2
 73
     0
 90
        0
 40
-0.6
 41
-30.0
 62
     5
 63
     7
 74
     1
 91
        4
 64
     7
 65
   257
 75
     1
175
     1
 42
1.0
 92
        0
 66
   257
 43
1.0
 76
     1
 77
     6
 78
     2
 67
     7
 79
     5
170
     0
171
     0
290
     0
174
     0
 93
        1
 44
0.0
173
     0
291
     0
 45
0.0
1001
ACAD
1000
AcDbSavedByObjectVersion
1070
     0
  0
VISUALSTYLE
  5
376
102
{ACAD_REACTORS
330
36E
102
}
330
36E
100
AcDbVisualStyle
  2
3D Hidden
 70
     6
 71
     1
 72
     2
 73
     2
 90
        0
 40
-0.6
 41
-30.0
 62
     5
 63
     7
 74
     2
 91
        2
 64
     7
 65
   257
 75
     2
175
     1
 42
40.0
 92
        0
 66
   257
 43
1.0
 76
     1
 77
     6
 78
     2
 67
     7
 79
     3
170
     0
171
     0
290
     0
174
     0
 93
        1
 44
0.0
173
     0
291
     0
 45
0.0
1001
ACAD
1000
AcDbSavedByObjectVersion
1070
     0
  0
VISUALSTYLE
  5
375
102
{ACAD_REACTORS
330
36E
102
}
330
36E
100
AcDbVisualStyle
  2
3dWireframe
 70
     5
 71
     0
 72
     2
 73
     0
 90
        0
 40
-0.6
 41
-30.0
 62
     5
 63
     7
 74
     1
 91
        4
 64
     7
 65
   257
 75
     1
175
     1
 42
1.0
 92
        0
 66
   257
 43
1.0
 76
     1
 77
     6
 78
     2
 67
     7
 79
     5
170
     0
171
     0
290
     0
174
     0
 93
        1
 44
0.0
173
     0
291
     0
 45
0.0
1001
ACAD
1000
AcDbSavedByObjectVersion
1070
     0
  0
VISUALSTYLE
  5
373
102
{ACAD_REACTORS
330
36E
102
}
330
36E
100
AcDbVisualStyle
  2
Basic
 70
     7
 71
     1
 72
     0
 73
     1
 90
        0
 40
-0.6
 41
-30.0
 62
     5
 63
     7
 74
     0
 91
        4
 64
     7
 65
   257
 75
     1
175
     1
 42
1.0
 92
        8
 66
     7
 43
1.0
 76
     1
 77
     6
 78
     2
 67
     7
 79
     5
170
     0
171
     0
290
     0
174
     0
 93
        1
 44
0.0
173
     0
291
     1
 45
0.0
1001
ACAD
1000
AcDbSavedByObjectVersion
1070
     0
  0
VISUALSTYLE
  5
37A
102
{ACAD_REACTORS
330
36E
102
}
330
36E
100
AcDbVisualStyle
  2
Brighten
 70
    12
 71
     2
 72
     2
 73
     0
 90
        0
 40
-0.6
 41
-30.0
 62
     5
 63
     7
 74
     1
 91
        4
 64
     7
 65
   257
 75
     1
175
     1
 42
1.0
 92
        8
 66
     7
 43
1.0
 76
     1
 77
     6
 78
     2
 67
     7
 79
     5
170
     0
171
     0
290
     0
174
     0
 93
        1
 44
50.0
173
     0
291
     1
 45
0.0
1001
ACAD
1000
AcDbSavedByObjectVersion
1070
     0
  0
VISUALSTYLE
  5
37E
102
{ACAD_REACTORS
330
36E
102
}
330
36E
100
AcDbVisualStyle
  2
ColorChange
 70
    16
 71
     2
 72
     2
 73
     3
 90
        0
 40
-0.6
 41
-30.0
 62
     5
 63
     8
 74
     1
 91
        4
 64
     7
 65
   257
 75
     1
175
     1
 42
1.0
 92
        8
 66
     8
 43
1.0
 76
     1
 77
     6
 78
     2
 67
     7
 79
     5
170
     0
171
     0
290
     0
174
     0
 93
        1
 44
0.0
173
     0
291
     1
 45
0.0
1001
ACAD
1000
AcDbSavedByObjectVersion
1070
     0
  0
VISUALSTYLE
  5
377
102
{ACAD_REACTORS
330
36E
102
}
330
36E
100
AcDbVisualStyle
  2
Conceptual
 70
     9
 71
     3
 72
     2
 73
     0
 90
        0
 40
-0.6
 41
-30.0
 62
     5
 63
     7
 74
     2
 91
        2
 64
     7
 65
   257
 75
     1
175
     1
 42
40.0
 92
        8
 66
     7
 43
1.0
 76
     1
 77
     6
 78
     2
 67
     7
 79
     3
170
     0
171
     0
290
     0
174
     0
 93
        1
 44
0.0
173
     0
291
     0
 45
0.0
1001
ACAD
1000
AcDbSavedByObjectVersion
1070
     0
  0
VISUALSTYLE
  5
379
102
{ACAD_REACTORS
330
36E
102
}
330
36E
100
AcDbVisualStyle
  2
Dim
 70
    11
 71
     2
 72
     2
 73
     0
 90
        0
 40
-0.6
 41
-30.0
 62
     5
 63
     7
 74
     1
 91
        4
 64
     7
 65
   257
 75
     1
175
     1
 42
1.0
 92
        8
 66
     7
 43
1.0
 76
     1
 77
     6
 78
     2
 67
     7
 79
     5
170
     0
171
     0
290
     0
174
     0
 93
        1
 44
-50.0
173
     0
291
     1
 45
0.0
1001
ACAD
1000
AcDbSavedByObjectVersion
1070
     0
  0
VISUALSTYLE
  5
37D
102
{ACAD_REACTORS
330
36E
102
}
330
36E
100
AcDbVisualStyle
  2
Facepattern
 70
    15
 71
     2
 72
     2
 73
     0
 90
        0
 40
-0.6
 41
-30.0
 62
     5
 63
     7
 74
     1
 91
        4
 64
     7
 65
   257
 75
     1
175
     1
 42
1.0
 92
        8
 66
     7
 43
1.0
 76
     1
 77
     6
 78
     2
 67
     7
 79
     5
170
     0
171
     0
290
     0
174
     0
 93
        1
 44
0.0
173
     0
291
     1
 45
0.0
1001
ACAD
1000
AcDbSavedByObjectVersion
1070
     0
  0
VISUALSTYLE
  5
36F
102
{ACAD_REACTORS
330
36E
102
}
330
36E
100
AcDbVisualStyle
  2
Flat
 70
     0
 71
     2
 72
     1
 73
     1
 90
        2
 40
-0.6
 41
30.0
 62
     5
 63
     7
 74
     0
 91
        4
 64
     7
 65
   257
 75
     1
175
     1
 42
1.0
 92
        8
 66
     7
 43
1.0
 76
     1
 77
     6
 78
     2
 67
     7
 79
     5
170
     0
171
     0
290
     0
174
     0
 93
       13
 44
0.0
173
     0
291
     1
 45
0.0
1001
ACAD
1000
AcDbSavedByObjectVersion
1070
     0
  0
VISUALSTYLE
  5
370
102
{ACAD_REACTORS
330
36E
102
}
330
36E
100
AcDbVisualStyle
  2
FlatWithEdges
 70
     1
 71
     2
 72
     1
 73
     1
 90
        2
 40
-0.6
 41
30.0
 62
     5
 63
     7
 74
     1
 91
        4
 64
     7
 65
   257
 75
     1
175
     1
 42
1.0
 92
        0
 66
   257
 43
1.0
 76
     1
 77
     6
 78
     2
 67
     7
 79
     5
170
     0
171
     0
290
     0
174
     0
 93
       13
 44
0.0
173
     0
291
     1
 45
0.0
1001
ACAD
1000
AcDbSavedByObjectVersion
1070
     0
  0
VISUALSTYLE
  5
371
102
{ACAD_REACTORS
330
36E
102
}
330
36E
100
AcDbVisualStyle
  2
Gouraud
 70
     2
 71
     2
 72
     2
 73
     1
 90
        2
 40
-0.6
 41
30.0
 62
     5
 63
     7
 74
     0
 91
        4
 64
     7
 65
   257
 75
     1
175
     1
 42
1.0
 92
        0
 66
     7
 43
1.0
 76
     1
 77
     6
 78
     2
 67
     7
 79
     5
170
     0
171
     0
290
     0
174
     0
 93
       13
 44
0.0
173
     0
291
     1
 45
0.0
1001
ACAD
1000
AcDbSavedByObjectVersion
1070
     0
  0
VISUALSTYLE
  5
372
102
{ACAD_REACTORS
330
36E
102
}
330
36E
100
AcDbVisualStyle
  2
GouraudWithEdges
 70
     3
 71
     2
 72
     2
 73
     1
 90
        2
 40
-0.6
 41
30.0
 62
     5
 63
     7
 74
     1
 91
        4
 64
     7
 65
   257
 75
     1
175
     1
 42
1.0
 92
        0
 66
   257
 43
1.0
 76
     1
 77
     6
 78
     2
 67
     7
 79
     5
170
     0
171
     0
290
     0
174
     0
 93
       13
 44
0.0
173
     0
291
     1
 45
0.0
1001
ACAD
1000
AcDbSavedByObjectVersion
1070
     0
  0
VISUALSTYLE
  5
37C
102
{ACAD_REACTORS
330
36E
102
}
330
36E
100
AcDbVisualStyle
  2
Linepattern
 70
    14
 71
     2
 72
     2
 73
     0
 90
        0
 40
-0.6
 41
-30.0
 62
     5
 63
     7
 74
     1
 91
        4
 64
     7
 65
   257
 75
     7
175
     7
 42
1.0
 92
        8
 66
     7
 43
1.0
 76
     1
 77
     6
 78
     2
 67
     7
 79
     5
170
     0
171
     0
290
     0
174
     0
 93
        1
 44
0.0
173
     0
291
     1
 45
0.0
1001
ACAD
1000
AcDbSavedByObjectVersion
1070
     0
  0
VISUALSTYLE
  5
378
102
{ACAD_REACTORS
330
36E
102
}
330
36E
100
AcDbVisualStyle
  2
Realistic
 70
     8
 71
     2
 72
     2
 73
     0
 90
        0
 40
-0.6
 41
-30.0
 62
     5
 63
     7
 74
     1
 91
        0
 64
     7
 65
   257
 75
     1
175
     1
 42
1.0
 92
        8
 66
     8
 43
1.0
 76
     1
 77
     6
 78
     2
 67
     7
 79
     5
170
     0
171
     0
290
     0
174
     0
 93
       13
 44
0.0
173
     0
291
     0
 45
0.0
1001
ACAD
1000
AcDbSavedByObjectVersion
1070
     0
  0
VISUALSTYLE
  5
37B
102
{ACAD_REACTORS
330
36E
102
}
330
36E
100
AcDbVisualStyle
  2
Thicken
 70
    13
 71
     2
 72
     2
 73
     0
 90
        0
 40
-0.6
 41
-30.0
 62
     5
 63
     7
 74
     1
 91
        4
 64
     7
 65
   257
 75
     1
175
     1
 42
1.0
 92
       12
 66
     7
 43
1.0
 76
     1
 77
     6
 78
     2
 67
     7
 79
     5
170
     0
171
     0
290
     0
174
     0
 93
        1
 44
0.0
173
     0
291
     1
 45
0.0
1001
ACAD
1000
AcDbSavedByObjectVersion
1070
     0
  0
DICTIONARYVAR
  5
43B
102
{ACAD_REACTORS
330
24D
102
}
330
24D
100
DictionaryVariables
280
     0
  1
STANDARD
  0
DICTIONARYVAR
  5
24E
102
{ACAD_REACTORS
330
24D
102
}
330
24D
100
DictionaryVariables
280
     0
  1
1
  0
DICTIONARYVAR
  5
43D
102
{ACAD_REACTORS
330
24D
102
}
330
24D
100
DictionaryVariables
280
     0
  1
0
  0
DICTIONARYVAR
  5
43C
102
{ACAD_REACTORS
330
24D
102
}
330
24D
100
DictionaryVariables
280
     0
  1
127
  0
XRECORD
  5
41E
102
{ACAD_REACTORS
330
41D
102
}
330
41D
100
AcDbXrecord
280
     1
330
3D5
  0
DICTIONARY
  5
441
330
1D9
100
AcDbDictionary
280
     1
281
     1
  3
ACAD_XREC_ROUNDTRIP
360
442
  0
DICTIONARY
  5
43F
330
1D8
100
AcDbDictionary
280
     1
281
     1
  3
ACAD_XREC_ROUNDTRIP
360
440
  0
DICTIONARY
  5
445
330
36C
100
AcDbDictionary
280
     1
281
     1
  3
ACAD_XREC_ROUNDTRIP
360
446
  0
DICTIONARY
  5
443
330
36B
100
AcDbDictionary
280
     1
281
     1
  3
ACAD_XREC_ROUNDTRIP
360
444
  0
DICTIONARY
  5
447
330
36D
100
AcDbDictionary
280
     1
281
     1
  3
ACAD_XREC_ROUNDTRIP
360
448
  0
DICTIONARY
  5
449
330
381
100
AcDbDictionary
280
     1
281
     1
  3
ACAD_XREC_ROUNDTRIP
360
44A
  0
XRECORD
  5
442
102
{ACAD_REACTORS
330
441
102
}
330
441
100
AcDbXrecord
280
     1
102
SHADEPLOT
 70
     0
102
SHADEPLOTRESLEVEL
 70
     2
102
SHADEPLOTCUSTOMDPI
 70
   300
  0
XRECORD
  5
440
102
{ACAD_REACTORS
330
43F
102
}
330
43F
100
AcDbXrecord
280
     1
102
SHADEPLOT
 70
     0
102
SHADEPLOTRESLEVEL
 70
     2
102
SHADEPLOTCUSTOMDPI
 70
   300
  0
XRECORD
  5
446
102
{ACAD_REACTORS
330
445
102
}
330
445
100
AcDbXrecord
280
     1
102
MATERIAL
148
0.0
149
0.0
149
0.0
 93
        0
 94
       63
282
     0
 72
     1
 77
     1
171
     1
175
     1
179
     1
273
     0
  0
XRECORD
  5
444
102
{ACAD_REACTORS
330
443
102
}
330
443
100
AcDbXrecord
280
     1
102
MATERIAL
148
0.0
149
0.0
149
0.0
 93
        0
 94
       63
282
     0
 72
     1
 77
     1
171
     1
175
     1
179
     1
273
     0
  0
XRECORD
  5
448
102
{ACAD_REACTORS
330
447
102
}
330
447
100
AcDbXrecord
280
     1
102
MATERIAL
148
0.0
149
0.0
149
0.0
 93
        0
 94
       63
282
     0
 72
     1
 77
     1
171
     1
175
     1
179
     1
273
     0
  0
XRECORD
  5
44A
102
{ACAD_REACTORS
330
449
102
}
330
449
100
AcDbXrecord
280
     1
102
ACAD_ROUNDTRIP_PRE2007_TABLESTYLE
 90
      512
 91
        0
  1

 92
      512
 93
        0
  2

 94
      512
 95
        0
  3

  0
ENDSEC
  0
EOF
