  0
SECTION
  2
HEADER
  9
$ACADVER
  1
AC1015
  9
$ACADMAINTVER
 70
    20
  9
$DWGCODEPAGE
  3
ANSI_1252
  9
$INSBASE
 10
23.21897316441945
 20
-15.40170582795852
 30
0.0
  9
$EXTMIN
 10
14.50634775695664
 20
-18.39618225426596
 30
-0.0015258207003583
  9
$EXTMAX
 10
34.61407478923685
 20
-9.399041457393536
 30
0.0000000349246037
  9
$LIMMIN
 10
0.0
 20
0.0
  9
$LIMMAX
 10
36.0
 20
36.0
  9
$ORTHOMODE
 70
     1
  9
$REGENMODE
 70
     1
  9
$FILLMODE
 70
     1
  9
$QTEXTMODE
 70
     0
  9
$MIRRTEXT
 70
     1
  9
$LTSCALE
 40
1.0
  9
$ATTMODE
 70
     1
  9
$TEXTSIZE
 40
0.2
  9
$TRACEWID
 40
0.05
  9
$TEXTSTYLE
  7
STANDARD
  9
$CLAYER
  8
ADP1DETAIL
  9
$CELTYPE
  6
BYLAYER
  9
$CECOLOR
 62
   256
  9
$CELTSCALE
 40
1.0
  9
$DISPSILH
 70
     0
  9
$DIMSCALE
 40
1.0
  9
$DIMASZ
 40
0.125
  9
$DIMEXO
 40
0.0625
  9
$DIMDLI
 40
0.38
  9
$DIMRND
 40
0.0
  9
$DIMDLE
 40
0.0
  9
$DIMEXE
 40
0.18
  9
$DIMTP
 40
0.0
  9
$DIMTM
 40
0.0
  9
$DIMTXT
 40
0.125
  9
$DIMCEN
 40
0.1875
  9
$DIMTSZ
 40
0.125
  9
$DIMTOL
 70
     0
  9
$DIMLIM
 70
     0
  9
$DIMTIH
 70
     0
  9
$DIMTOH
 70
     0
  9
$DIMSE1
 70
     0
  9
$DIMSE2
 70
     0
  9
$DIMTAD
 70
     0
  9
$DIMZIN
 70
     3
  9
$DIMBLK
  1

  9
$DIMASO
 70
     1
  9
$DIMSHO
 70
     1
  9
$DIMPOST
  1

  9
$DIMAPOST
  1

  9
$DIMALT
 70
     0
  9
$DIMALTD
 70
     1
  9
$DIMALTF
 40
25.4
  9
$DIMLFAC
 40
1.0
  9
$DIMTOFL
 70
     0
  9
$DIMTVP
 40
0.0
  9
$DIMTIX
 70
     0
  9
$DIMSOXD
 70
     0
  9
$DIMSAH
 70
     0
  9
$DIMBLK1
  1

  9
$DIMBLK2
  1

  9
$DIMSTYLE
  2
STANDARD
  9
$DIMCLRD
 70
     0
  9
$DIMCLRE
 70
     0
  9
$DIMCLRT
 70
     0
  9
$DIMTFAC
 40
1.0
  9
$DIMGAP
 40
0.125
  9
$DIMJUST
 70
     0
  9
$DIMSD1
 70
     0
  9
$DIMSD2
 70
     0
  9
$DIMTOLJ
 70
     1
  9
$DIMTZIN
 70
     0
  9
$DIMALTZ
 70
     0
  9
$DIMALTTZ
 70
     0
  9
$DIMUPT
 70
     0
  9
$DIMDEC
 70
     4
  9
$DIMTDEC
 70
     4
  9
$DIMALTU
 70
     2
  9
$DIMALTTD
 70
     2
  9
$DIMTXSTY
  7
STANDARD
  9
$DIMAUNIT
 70
     0
  9
$DIMADEC
 70
     0
  9
$DIMALTRND
 40
0.0
  9
$DIMAZIN
 70
     0
  9
$DIMDSEP
 70
    46
  9
$DIMATFIT
 70
     3
  9
$DIMFRAC
 70
     0
  9
$DIMLDRBLK
  1

  9
$DIMLUNIT
 70
     2
  9
$DIMLWD
 70
    -2
  9
$DIMLWE
 70
    -2
  9
$DIMTMOVE
 70
     0
  9
$LUNITS
 70
     5
  9
$LUPREC
 70
     4
  9
$SKETCHINC
 40
0.1
  9
$FILLETRAD
 40
0.062
  9
$AUNITS
 70
     0
  9
$AUPREC
 70
     0
  9
$MENU
  1
acad
  9
$ELEVATION
 40
0.0
  9
$PELEVATION
 40
0.0
  9
$THICKNESS
 40
0.0
  9
$LIMCHECK
 70
     0
  9
$CHAMFERA
 40
0.0
  9
$CHAMFERB
 40
0.0
  9
$CHAMFERC
 40
0.0
  9
$CHAMFERD
 40
0.0
  9
$SKPOLY
 70
     0
  9
$TDCREATE
 40
2450406.663095671
  9
$TDUCREATE
 40
2450406.829762338
  9
$TDUPDATE
 40
2453963.968402500
  9
$TDUUPDATE
 40
2453964.135069167
  9
$TDINDWG
 40
0.0130852894
  9
$TDUSRTIMER
 40
0.0130852894
  9
$USRTIMER
 70
     1
  9
$ANGBASE
 50
0.0
  9
$ANGDIR
 70
     0
  9
$PDMODE
 70
     0
  9
$PDSIZE
 40
0.0
  9
$PLINEWID
 40
0.0
  9
$SPLFRAME
 70
     0
  9
$SPLINETYPE
 70
     6
  9
$SPLINESEGS
 70
     8
  9
$HANDSEED
  5
3C1
  9
$SURFTAB1
 70
     6
  9
$SURFTAB2
 70
     6
  9
$SURFTYPE
 70
     6
  9
$SURFU
 70
     6
  9
$SURFV
 70
     6
  9
$UCSBASE
  2

  9
$UCSNAME
  2

  9
$UCSORG
 10
0.0
 20
0.0
 30
0.0
  9
$UCSXDIR
 10
1.0
 20
0.0
 30
0.0
  9
$UCSYDIR
 10
0.0
 20
1.0
 30
0.0
  9
$UCSORTHOREF
  2

  9
$UCSORTHOVIEW
 70
     0
  9
$UCSORGTOP
 10
0.0
 20
0.0
 30
0.0
  9
$UCSORGBOTTOM
 10
0.0
 20
0.0
 30
0.0
  9
$UCSORGLEFT
 10
0.0
 20
0.0
 30
0.0
  9
$UCSORGRIGHT
 10
0.0
 20
0.0
 30
0.0
  9
$UCSORGFRONT
 10
0.0
 20
0.0
 30
0.0
  9
$UCSORGBACK
 10
0.0
 20
0.0
 30
0.0
  9
$PUCSBASE
  2

  9
$PUCSNAME
  2

  9
$PUCSORG
 10
0.0
 20
0.0
 30
0.0
  9
$PUCSXDIR
 10
1.0
 20
0.0
 30
0.0
  9
$PUCSYDIR
 10
0.0
 20
1.0
 30
0.0
  9
$PUCSORTHOREF
  2

  9
$PUCSORTHOVIEW
 70
     0
  9
$PUCSORGTOP
 10
0.0
 20
0.0
 30
0.0
  9
$PUCSORGBOTTOM
 10
0.0
 20
0.0
 30
0.0
  9
$PUCSORGLEFT
 10
0.0
 20
0.0
 30
0.0
  9
$PUCSORGRIGHT
 10
0.0
 20
0.0
 30
0.0
  9
$PUCSORGFRONT
 10
0.0
 20
0.0
 30
0.0
  9
$PUCSORGBACK
 10
0.0
 20
0.0
 30
0.0
  9
$USERI1
 70
     0
  9
$USERI2
 70
     0
  9
$USERI3
 70
     0
  9
$USERI4
 70
     0
  9
$USERI5
 70
     0
  9
$USERR1
 40
0.0
  9
$USERR2
 40
0.0
  9
$USERR3
 40
0.0
  9
$USERR4
 40
0.0
  9
$USERR5
 40
0.0
  9
$WORLDVIEW
 70
     1
  9
$SHADEDGE
 70
     3
  9
$SHADEDIF
 70
    70
  9
$TILEMODE
 70
     1
  9
$MAXACTVP
 70
    15
  9
$PINSBASE
 10
0.0008545028977096
 20
1.250283272183907
 30
0.0
  9
$PLIMCHECK
 70
     0
  9
$PEXTMIN
 10
1.000000000000000E+20
 20
1.000000000000000E+20
 30
1.000000000000000E+20
  9
$PEXTMAX
 10
-1.000000000000000E+20
 20
-1.000000000000000E+20
 30
-1.000000000000000E+20
  9
$PLIMMIN
 10
0.0
 20
0.0
  9
$PLIMMAX
 10
12.0
 20
9.0
  9
$UNITMODE
 70
     0
  9
$VISRETAIN
 70
     0
  9
$PLINEGEN
 70
     0
  9
$PSLTSCALE
 70
     1
  9
$TREEDEPTH
 70
  3020
  9
$CMLSTYLE
  2
STANDARD
  9
$CMLJUST
 70
     0
  9
$CMLSCALE
 40
1.0
  9
$PROXYGRAPHICS
 70
     1
  9
$MEASUREMENT
 70
     0
  9
$CELWEIGHT
370
    -1
  9
$ENDCAPS
280
     0
  9
$JOINSTYLE
280
     0
  9
$LWDISPLAY
290
     0
  9
$INSUNITS
 70
     0
  9
$HYPERLINKBASE
  1

  9
$STYLESHEET
  1

  9
$XEDIT
290
     1
  9
$CEPSNTYPE
380
     0
  9
$PSTYLEMODE
290
     1
  9
$FINGERPRINTGUID
  2
{8AB6FCB5-531B-4336-A6BF-282026F101C1}
  9
$VERSIONGUID
  2
{F13E13DC-99A1-4B39-B3DF-ECFCDBBE646A}
  9
$EXTNAMES
290
     1
  9
$PSVPSCALE
 40
0.0
  9
$OLESTARTUP
290
     0
  0
ENDSEC
  0
SECTION
  2
CLASSES
  0
CLASS
  1
ACDBDICTIONARYWDFLT
  2
AcDbDictionaryWithDefault
  3
ObjectDBX Classes
 90
        0
280
     0
281
     0
  0
CLASS
  1
ACDBPLACEHOLDER
  2
AcDbPlaceHolder
  3
ObjectDBX Classes
 90
        0
280
     0
281
     0
  0
CLASS
  1
LAYOUT
  2
AcDbLayout
  3
ObjectDBX Classes
 90
        0
280
     0
281
     0
  0
CLASS
  1
DICTIONARYVAR
  2
AcDbDictionaryVar
  3
ObjectDBX Classes
 90
        0
280
     0
281
     0
  0
CLASS
  1
MATERIAL
  2
AcDbMaterial
  3
ObjectDBX Classes
 90
     1024
280
     0
281
     0
  0
CLASS
  1
VISUALSTYLE
  2
AcDbVisualStyle
  3
ObjectDBX Classes
 90
     4095
280
     0
281
     0
  0
CLASS
  1
TABLESTYLE
  2
AcDbTableStyle
  3
ObjectDBX Classes
 90
     4095
280
     0
281
     0
  0
ENDSEC
  0
SECTION
  2
TABLES
  0
TABLE
  2
VPORT
  5
8
330
0
100
AcDbSymbolTable
 70
     1
  0
VPORT
  5
2D1
330
8
100
AcDbSymbolTableRecord
100
AcDbViewportTableRecord
  2
*Active
 70
     0
 10
0.0
 20
0.0
 11
1.0
 21
1.0
 12
24.56021127309675
 22
-13.89761185582975
 13
0.0
 23
0.0
 14
0.5740882589684922
 24
0.5740882589684922
 15
0.5
 25
0.5
 16
0.0
 26
0.0
 36
1.0
 17
0.0
 27
0.0
 37
0.0
 40
11.71966573398942
 41
1.726930320150659
 42
50.0
 43
0.0
 44
0.0
 50
0.0
 51
0.0
 71
     0
 72
   100
 73
     1
 74
     0
 75
     0
 76
     0
 77
     0
 78
     0
281
     0
 65
     1
110
0.0
120
0.0
130
0.0
111
1.0
121
0.0
131
0.0
112
0.0
122
1.0
132
0.0
 79
     0
146
0.0
  0
ENDTAB
  0
TABLE
  2
LTYPE
  5
5
330
0
100
AcDbSymbolTable
 70
     2
  0
LTYPE
  5
12
330
5
100
AcDbSymbolTableRecord
100
AcDbLinetypeTableRecord
  2
BYBLOCK
 70
     0
  3

 72
    65
 73
     0
 40
0.0
  0
LTYPE
  5
13
330
5
100
AcDbSymbolTableRecord
100
AcDbLinetypeTableRecord
  2
BYLAYER
 70
     0
  3

 72
    65
 73
     0
 40
0.0
  0
LTYPE
  5
14
330
5
100
AcDbSymbolTableRecord
100
AcDbLinetypeTableRecord
  2
CONTINUOUS
 70
     0
  3
Solid line
 72
    65
 73
     0
 40
0.0
  0
LTYPE
  5
14A
330
5
100
AcDbSymbolTableRecord
100
AcDbLinetypeTableRecord
  2
HIDDEN2
 70
     0
  3
_ _ _ _ _ _ _ _ _ _ _ _ _ _ _ _ _ _ _ _ _ _ _ _
 72
    65
 73
     2
 40
0.1875
 49
0.125
 74
     0
 49
-0.0625
 74
     0
  0
ENDTAB
  0
TABLE
  2
LAYER
  5
2
330
0
100
AcDbSymbolTable
 70
     5
  0
LAYER
  5
F
330
2
100
AcDbSymbolTableRecord
100
AcDbLayerTableRecord
  2
0
 70
     0
 62
     7
  6
CONTINUOUS
370
    -3
390
1B5
  0
LAYER
  5
14E
330
2
100
AcDbSymbolTableRecord
100
AcDbLayerTableRecord
  2
ADP1DETAIL
 70
     0
 62
     7
  6
CONTINUOUS
370
    -3
390
1B5
  0
LAYER
  5
14F
330
2
100
AcDbSymbolTableRecord
100
AcDbLayerTableRecord
  2
ADP3DETAIL
 70
     0
 62
     1
  6
CONTINUOUS
370
    -3
390
1B5
  0
LAYER
  5
150
330
2
100
AcDbSymbolTableRecord
100
AcDbLayerTableRecord
  2
DEFPOINTS
 70
     0
 62
     7
  6
CONTINUOUS
290
     0
370
    -3
390
1B5
  0
LAYER
  5
153
330
2
100
AcDbSymbolTableRecord
100
AcDbLayerTableRecord
  2
ADPDIM
 70
     0
 62
     3
  6
CONTINUOUS
370
    -3
390
1B5
  0
ENDTAB
  0
TABLE
  2
STYLE
  5
3
330
0
100
AcDbSymbolTable
 70
     2
  0
STYLE
  5
10
330
3
100
AcDbSymbolTableRecord
100
AcDbTextStyleTableRecord
  2
STANDARD
 70
     0
 40
0.0
 41
1.0
 50
0.0
 71
     0
 42
0.2
  3
txt
  4

  0
STYLE
  5
1BC
330
3
100
AcDbSymbolTableRecord
100
AcDbTextStyleTableRecord
  2
ARIAL_WIDE
 70
     0
 40
0.0
 41
1.25
 50
0.0
 71
     0
 42
0.2
  3
ARIAL.TTF
  4

1001
ACAD
1000
Arial
1071
       34
  0
ENDTAB
  0
TABLE
  2
VIEW
  5
6
330
0
100
AcDbSymbolTable
 70
     0
  0
ENDTAB
  0
TABLE
  2
UCS
  5
7
330
0
100
AcDbSymbolTable
 70
     0
  0
ENDTAB
  0
TABLE
  2
APPID
  5
9
330
0
100
AcDbSymbolTable
 70
     2
  0
APPID
  5
11
330
9
100
AcDbSymbolTableRecord
100
AcDbRegAppTableRecord
  2
ACAD
 70
     0
  0
APPID
  5
33F
330
9
100
AcDbSymbolTableRecord
100
AcDbRegAppTableRecord
  2
DCO15
 70
     0
  0
ENDTAB
  0
TABLE
  2
DIMSTYLE
  5
A
330
0
100
AcDbSymbolTable
 70
     1
100
AcDbDimStyleTable
 71
     0
  0
DIMSTYLE
105
1B0
102
{ACAD_REACTORS
330
349
330
34A
330
34C
102
}
330
A
100
AcDbSymbolTableRecord
100
AcDbDimStyleTableRecord
  2
STANDARD
 70
     0
340
10
  0
ENDTAB
  0
TABLE
  2
BLOCK_RECORD
  5
1
330
0
100
AcDbSymbolTable
 70
    12
  0
BLOCK_RECORD
  5
18
102
{ACAD_XDICTIONARY
360
211
102
}
330
1
100
AcDbSymbolTableRecord
100
AcDbBlockTableRecord
  2
*MODEL_SPACE
340
1B8
  0
BLOCK_RECORD
  5
15
102
{ACAD_XDICTIONARY
360
20F
102
}
330
1
100
AcDbSymbolTableRecord
100
AcDbBlockTableRecord
  2
*PAPER_SPACE
340
1B9
  0
BLOCK_RECORD
  5
F3
330
1
100
AcDbSymbolTableRecord
100
AcDbBlockTableRecord
  2
4575
340
0
102
{BLKREFS
331
343
331
34B
102
}
  0
BLOCK_RECORD
  5
FF
330
1
100
AcDbSymbolTableRecord
100
AcDbBlockTableRecord
  2
*D1
340
0
  0
BLOCK_RECORD
  5
100
330
1
100
AcDbSymbolTableRecord
100
AcDbBlockTableRecord
  2
*D2
340
0
  0
BLOCK_RECORD
  5
147
330
1
100
AcDbSymbolTableRecord
100
AcDbBlockTableRecord
  2
*D3
340
0
  0
BLOCK_RECORD
  5
148
330
1
100
AcDbSymbolTableRecord
100
AcDbBlockTableRecord
  2
*D4
340
0
  0
BLOCK_RECORD
  5
318
330
1
100
AcDbSymbolTableRecord
100
AcDbBlockTableRecord
  2
*D5
340
0
  0
BLOCK_RECORD
  5
325
330
1
100
AcDbSymbolTableRecord
100
AcDbBlockTableRecord
  2
*D6
340
0
  0
BLOCK_RECORD
  5
332
330
1
100
AcDbSymbolTableRecord
100
AcDbBlockTableRecord
  2
*D7
340
0
  0
BLOCK_RECORD
  5
34D
330
1
100
AcDbSymbolTableRecord
100
AcDbBlockTableRecord
  2
*D9
340
0
  0
BLOCK_RECORD
  5
35A
330
1
100
AcDbSymbolTableRecord
100
AcDbBlockTableRecord
  2
*D10
340
0
  0
BLOCK_RECORD
  5
367
330
1
100
AcDbSymbolTableRecord
100
AcDbBlockTableRecord
  2
*D11
340
0
  0
ENDTAB
  0
ENDSEC
  0
SECTION
  2
BLOCKS
  0
BLOCK
  5
156
330
18
100
AcDbEntity
  8
0
100
AcDbBlockBegin
  2
*MODEL_SPACE
 70
     0
 10
0.0
 20
0.0
 30
0.0
  3
*MODEL_SPACE
  1

  0
ENDBLK
  5
157
330
18
100
AcDbEntity
  8
0
100
AcDbBlockEnd
  0
BLOCK
  5
154
330
15
100
AcDbEntity
 67
     1
  8
0
100
AcDbBlockBegin
  2
*PAPER_SPACE
 70
     0
 10
0.0
 20
0.0
 30
0.0
  3
*PAPER_SPACE
  1

  0
ENDBLK
  5
155
330
15
100
AcDbEntity
 67
     1
  8
0
100
AcDbBlockEnd
  0
BLOCK
  5
159
330
F3
100
AcDbEntity
  8
0
100
AcDbBlockBegin
  2
4575
 70
     0
 10
0.0
 20
0.0
 30
0.0
  3
4575
  1

  0
LINE
  5
15A
330
F3
100
AcDbEntity
  8
0
100
AcDbLine
 10
1.046999999999998
 20
-0.0983686300711178
 30
0.0
 11
0.4164999999999992
 21
-0.0983686300711178
 31
0.0
  0
ARC
  5
15B
330
F3
100
AcDbEntity
  8
0
100
AcDbCircle
 10
1.047535575659015
 20
-2.344780794890237
 30
0.0
 40
2.562000000000001
100
AcDbArc
 50
90.01197744929548
 51
112.28618713698
  0
LINE
  5
15C
330
F3
100
AcDbEntity
  8
0
100
AcDbLine
 10
0.4064999999999995
 20
-0.1083686300711157
 30
0.0
 11
0.4064999999999995
 21
-0.2133686300711162
 31
0.0
  0
LINE
  5
15D
330
F3
100
AcDbEntity
  8
0
100
AcDbLine
 10
0.0533072761446594
 20
-0.0177908938778657
 30
0.0
 11
0.1547151379251215
 21
-0.4612898178500587
 31
0.0
  0
ARC
  5
15E
330
F3
100
AcDbEntity
  8
0
100
AcDbCircle
 10
0.3964999999999996
 20
-0.2133686300711162
 30
0.0
 40
0.01
100
AcDbArc
 50
270.0
 51
0.000000000000007
  0
ARC
  5
15F
330
F3
100
AcDbEntity
  8
0
100
AcDbCircle
 10
0.2964999999999982
 20
-0.2383686300711183
 30
0.0
 40
0.0150000000000006
100
AcDbArc
 50
90.0
 51
180.0
  0
LINE
  5
160
330
F3
100
AcDbEntity
  8
0
100
AcDbLine
 10
0.3964999999999996
 20
-0.2233686300711177
 30
0.0
 11
0.2964999999999982
 21
-0.2233686300711177
 31
0.0
  0
LINE
  5
161
330
F3
100
AcDbEntity
  8
0
100
AcDbLine
 10
0.2814999999999976
 20
-0.2383686300711183
 30
0.0
 11
0.2814999999999976
 21
-0.4540904517811449
 31
0.0
  0
ARC
  5
162
330
F3
100
AcDbEntity
  8
0
100
AcDbCircle
 10
0.2664999999999988
 20
-0.4540904517811449
 30
0.0
 40
0.0149999999999988
100
AcDbArc
 50
255.7716723370217
 51
0.0000000000033911
  0
LINE
  5
163
330
F3
100
AcDbEntity
  8
0
100
AcDbLine
 10
0.2628132000953318
 20
-0.468630311012344
 30
0.0
 11
0.1645073288009513
 21
-0.4690607077999687
 31
0.0
  0
ARC
  5
164
330
F3
100
AcDbEntity
  8
0
100
AcDbCircle
 10
0.1644635478286585
 20
-0.4590608036391047
 30
0.0
 40
0.01
100
AcDbArc
 50
192.8795047964751
 51
270.2508472949044
  0
ARC
  5
165
330
F3
100
AcDbEntity
  8
0
100
AcDbCircle
 10
0.0903512337780974
 20
-0.0093206398762362
 30
0.0
 40
0.038
100
AcDbArc
 50
112.2861871369808
 51
192.879504796478
  0
ARC
  5
166
330
F3
100
AcDbEntity
  8
0
100
AcDbCircle
 10
0.4164999999999992
 20
-0.1083686300711157
 30
0.0
 40
0.01
100
AcDbArc
 50
90.0
 51
180.0
  0
LINE
  5
167
330
F3
100
AcDbEntity
  8
0
100
AcDbLine
 10
2.040692723855338
 20
-0.0177908938778657
 30
0.0
 11
1.939284862074876
 21
-0.4612898178500587
 31
0.0
  0
LINE
  5
168
330
F3
100
AcDbEntity
  8
0
100
AcDbLine
 10
1.687499999999998
 20
-0.1083686300711157
 30
0.0
 11
1.687499999999998
 21
-0.2133686300711162
 31
0.0
  0
LINE
  5
169
330
F3
100
AcDbEntity
  8
0
100
AcDbLine
 10
1.697499999999998
 20
-0.2233686300711177
 30
0.0
 11
1.797499999999999
 21
-0.2233686300711177
 31
0.0
  0
ARC
  5
16A
330
F3
100
AcDbEntity
  8
0
100
AcDbCircle
 10
1.697499999999998
 20
-0.2133686300711162
 30
0.0
 40
0.01
100
AcDbArc
 50
180.0
 51
270.0
  0
LINE
  5
16B
330
F3
100
AcDbEntity
  8
0
100
AcDbLine
 10
1.8125
 20
-0.2383686300711183
 30
0.0
 11
1.8125
 21
-0.4540904517811449
 31
0.0
  0
ARC
  5
16C
330
F3
100
AcDbEntity
  8
0
100
AcDbCircle
 10
1.797499999999999
 20
-0.2383686300711183
 30
0.0
 40
0.0150000000000006
100
AcDbArc
 50
0.0
 51
90.0
  0
ARC
  5
16D
330
F3
100
AcDbEntity
  8
0
100
AcDbCircle
 10
1.929536452171339
 20
-0.4590608036391047
 30
0.0
 40
0.01
100
AcDbArc
 50
269.7491527050956
 51
347.1204952035249
  0
LINE
  5
16E
330
F3
100
AcDbEntity
  8
0
100
AcDbLine
 10
1.831186799904665
 20
-0.468630311012344
 30
0.0
 11
1.929492671199046
 21
-0.4690607077999687
 31
0.0
  0
ARC
  5
16F
330
F3
100
AcDbEntity
  8
0
100
AcDbCircle
 10
1.827499999999998
 20
-0.4540904517811449
 30
0.0
 40
0.0149999999999988
100
AcDbArc
 50
179.9999999999966
 51
284.2283276629783
  0
ARC
  5
170
330
F3
100
AcDbEntity
  8
0
100
AcDbCircle
 10
1.046464424340982
 20
-2.344780794890237
 30
0.0
 40
2.562000000000001
100
AcDbArc
 50
67.71381286302001
 51
89.98802255070449
  0
LINE
  5
171
330
F3
100
AcDbEntity
  8
0
100
AcDbLine
 10
1.046999999999998
 20
-0.0983686300711178
 30
0.0
 11
1.677499999999998
 21
-0.0983686300711178
 31
0.0
  0
ARC
  5
172
330
F3
100
AcDbEntity
  8
0
100
AcDbCircle
 10
1.677499999999998
 20
-0.1083686300711157
 30
0.0
 40
0.01
100
AcDbArc
 50
0.0
 51
90.0
  0
ARC
  5
173
330
F3
100
AcDbEntity
  8
0
100
AcDbCircle
 10
2.0036487662219
 20
-0.0093206398762362
 30
0.0
 40
0.038
100
AcDbArc
 50
347.120495203522
 51
67.71381286301917
  0
ENDBLK
  5
174
330
F3
100
AcDbEntity
  8
0
100
AcDbBlockEnd
  0
BLOCK
  5
175
330
FF
100
AcDbEntity
  8
0
100
AcDbBlockBegin
  2
*D1
 70
     1
 10
0.0
 20
0.0
 30
0.0
  3
*D1
  1

  0
LINE
  5
176
330
FF
100
AcDbEntity
  8
0
  6
ByBlock
 62
     0
100
AcDbLine
 10
22.73451284109815
 20
-11.30293488889981
 30
0.0
 11
24.64904115818827
 21
-12.89552355903385
 31
0.0
  0
LINE
  5
177
330
FF
100
AcDbEntity
  8
0
  6
ByBlock
 62
     0
100
AcDbLine
 10
22.55847627797916
 20
-11.31909435811294
 30
0.0
 11
22.91054940421715
 21
-11.28677541968668
 31
0.0
  0
TEXT
  5
178
330
FF
100
AcDbEntity
  8
0
  6
ByBlock
 62
     0
100
AcDbText
 10
24.70516990087787
 20
-13.02351111406981
 30
0.0
 40
0.125
  1
R2 1/2
 50
320.244829929977
 72
     1
 11
25.00140055079718
 21
-13.18863156452794
 31
0.0
100
AcDbText
 73
     2
  0
POINT
  5
179
330
FF
100
AcDbEntity
  8
DEFPOINTS
  6
ByBlock
 62
     0
100
AcDbPoint
 10
22.73451284109815
 20
-11.30293488889981
 30
0.0
  0
POINT
  5
17A
330
FF
100
AcDbEntity
  8
DEFPOINTS
  6
ByBlock
 62
     0
100
AcDbPoint
 10
24.65647316441946
 20
-12.90170582795852
 30
0.0
  0
ENDBLK
  5
17B
330
FF
100
AcDbEntity
  8
0
100
AcDbBlockEnd
  0
BLOCK
  5
17C
330
100
100
AcDbEntity
  8
0
100
AcDbBlockBegin
  2
*D2
 70
     1
 10
0.0
 20
0.0
 30
0.0
  3
*D2
  1

  0
LINE
  5
17D
330
100
100
AcDbEntity
  8
0
  6
ByBlock
 62
     0
100
AcDbLine
 10
24.58654115818827
 20
-12.89552355903385
 30
0.0
 11
24.0191661451793
 21
-12.89552355903385
 31
0.0
  0
LINE
  5
17E
330
100
100
AcDbEntity
  8
0
  6
ByBlock
 62
     0
100
AcDbLine
 10
23.21897316441945
 20
-15.40170582795852
 30
0.0
 11
24.37916614517929
 21
-15.40170582795852
 31
0.0
  0
LINE
  5
17F
330
100
100
AcDbEntity
  8
0
  6
ByBlock
 62
     0
100
AcDbLine
 10
24.1991661451793
 20
-12.89552355903385
 30
0.0
 11
24.1991661451793
 21
-13.75278136016285
 31
0.0
  0
LINE
  5
180
330
100
100
AcDbEntity
  8
0
  6
ByBlock
 62
     0
100
AcDbLine
 10
24.1991661451793
 20
-15.40170582795852
 30
0.0
 11
24.1991661451793
 21
-14.54444802682952
 31
0.0
  0
LINE
  5
181
330
100
100
AcDbEntity
  8
0
  6
ByBlock
 62
     0
100
AcDbLine
 10
24.3241661451793
 20
-13.02052355903385
 30
0.0
 11
24.07416614517929
 21
-12.77052355903385
 31
0.0
  0
LINE
  5
182
330
100
100
AcDbEntity
  8
0
  6
ByBlock
 62
     0
100
AcDbLine
 10
24.3241661451793
 20
-15.52670582795852
 30
0.0
 11
24.07416614517929
 21
-15.27670582795852
 31
0.0
  0
TEXT
  5
183
330
100
100
AcDbEntity
  8
0
  6
ByBlock
 62
     0
100
AcDbText
 10
24.2616661451793
 20
-14.41944802682952
 30
0.0
 40
0.125
  1
2 1/2
 50
90.0
 72
     1
 11
24.1991661451793
 21
-14.14861469349619
 31
0.0
100
AcDbText
 73
     2
  0
POINT
  5
184
330
100
100
AcDbEntity
  8
DEFPOINTS
  6
ByBlock
 62
     0
100
AcDbPoint
 10
24.64904115818827
 20
-12.89552355903385
 30
0.0
  0
POINT
  5
185
330
100
100
AcDbEntity
  8
DEFPOINTS
  6
ByBlock
 62
     0
100
AcDbPoint
 10
23.15647316441945
 20
-15.40170582795852
 30
0.0
  0
POINT
  5
186
330
100
100
AcDbEntity
  8
DEFPOINTS
  6
ByBlock
 62
     0
100
AcDbPoint
 10
24.1991661451793
 20
-15.40170582795852
 30
0.0
  0
ENDBLK
  5
187
330
100
100
AcDbEntity
  8
0
100
AcDbBlockEnd
  0
BLOCK
  5
188
330
147
100
AcDbEntity
  8
0
100
AcDbBlockBegin
  2
*D3
 70
     1
 10
0.0
 20
0.0
 30
0.0
  3
*D3
  1

  0
LINE
  5
189
330
147
100
AcDbEntity
  8
0
  6
ByBlock
 62
     0
100
AcDbLine
 10
21.15334897811337
 20
-16.59740156558381
 30
0.0
 11
21.15334897811337
 21
-17.54437288081677
 31
0.0
  0
LINE
  5
18A
330
147
100
AcDbEntity
  8
0
  6
ByBlock
 62
     0
100
AcDbLine
 10
23.14012623976104
 20
-16.59740156558381
 30
0.0
 11
23.14012623976104
 21
-17.54437288081677
 31
0.0
  0
LINE
  5
18B
330
147
100
AcDbEntity
  8
0
  6
ByBlock
 62
     0
100
AcDbLine
 10
21.15334897811337
 20
-17.36437288081677
 30
0.0
 11
21.98007094227054
 21
-17.36437288081677
 31
0.0
  0
LINE
  5
18C
330
147
100
AcDbEntity
  8
0
  6
ByBlock
 62
     0
100
AcDbLine
 10
23.14012623976104
 20
-17.36437288081677
 30
0.0
 11
22.31340427560388
 21
-17.36437288081677
 31
0.0
  0
LINE
  5
18D
330
147
100
AcDbEntity
  8
0
  6
ByBlock
 62
     0
100
AcDbLine
 10
21.02834897811337
 20
-17.48937288081677
 30
0.0
 11
21.27834897811338
 21
-17.23937288081677
 31
0.0
  0
LINE
  5
18E
330
147
100
AcDbEntity
  8
0
  6
ByBlock
 62
     0
100
AcDbLine
 10
23.01512623976104
 20
-17.48937288081677
 30
0.0
 11
23.26512623976104
 21
-17.23937288081677
 31
0.0
  0
TEXT
  5
18F
330
147
100
AcDbEntity
  8
0
  6
ByBlock
 62
     0
100
AcDbText
 10
22.10507094227054
 20
-17.42687288081677
 30
0.0
 40
0.125
  1
2
 72
     1
 11
22.14673760893721
 21
-17.36437288081677
 31
0.0
100
AcDbText
 73
     2
  0
POINT
  5
190
330
147
100
AcDbEntity
  8
DEFPOINTS
  6
ByBlock
 62
     0
100
AcDbPoint
 10
21.15334897811337
 20
-16.53490156558381
 30
0.0
  0
POINT
  5
191
330
147
100
AcDbEntity
  8
DEFPOINTS
  6
ByBlock
 62
     0
100
AcDbPoint
 10
23.14012623976104
 20
-16.53490156558381
 30
0.0
  0
POINT
  5
192
330
147
100
AcDbEntity
  8
DEFPOINTS
  6
ByBlock
 62
     0
100
AcDbPoint
 10
23.14012623976104
 20
-17.36437288081677
 30
0.0
  0
ENDBLK
  5
193
330
147
100
AcDbEntity
  8
0
100
AcDbBlockEnd
  0
BLOCK
  5
194
330
148
100
AcDbEntity
  8
0
100
AcDbBlockBegin
  2
*D4
 70
     1
 10
0.0
 20
0.0
 30
0.0
  3
*D4
  1

  0
LINE
  5
195
330
148
100
AcDbEntity
  8
0
  6
ByBlock
 62
     0
100
AcDbLine
 10
21.37969061967881
 20
-16.87389204012022
 30
0.0
 11
21.37969061967881
 21
-17.29301789411311
 31
0.0
  0
LINE
  5
196
330
148
100
AcDbEntity
  8
0
  6
ByBlock
 62
     0
100
AcDbLine
 10
22.92635917884732
 20
-16.87389204012022
 30
0.0
 11
22.92635917884732
 21
-17.29301789411311
 31
0.0
  0
LINE
  5
197
330
148
100
AcDbEntity
  8
0
  6
ByBlock
 62
     0
100
AcDbLine
 10
21.37969061967881
 20
-17.11301789411311
 30
0.0
 11
21.71552489926307
 21
-17.11301789411311
 31
0.0
  0
LINE
  5
198
330
148
100
AcDbEntity
  8
0
  6
ByBlock
 62
     0
100
AcDbLine
 10
22.92635917884732
 20
-17.11301789411311
 30
0.0
 11
22.59052489926307
 21
-17.11301789411311
 31
0.0
  0
LINE
  5
199
330
148
100
AcDbEntity
  8
0
  6
ByBlock
 62
     0
100
AcDbLine
 10
21.25469061967881
 20
-17.23801789411311
 30
0.0
 11
21.50469061967881
 21
-16.98801789411311
 31
0.0
  0
LINE
  5
19A
330
148
100
AcDbEntity
  8
0
  6
ByBlock
 62
     0
100
AcDbLine
 10
22.80135917884733
 20
-17.23801789411311
 30
0.0
 11
23.05135917884733
 21
-16.98801789411311
 31
0.0
  0
TEXT
  5
19B
330
148
100
AcDbEntity
  8
0
  6
ByBlock
 62
     0
100
AcDbText
 10
21.84052489926306
 20
-17.17551789411311
 30
0.0
 40
0.125
  1
1 9/16
 72
     1
 11
22.15302489926306
 21
-17.11301789411311
 31
0.0
100
AcDbText
 73
     2
  0
POINT
  5
19C
330
148
100
AcDbEntity
  8
DEFPOINTS
  6
ByBlock
 62
     0
100
AcDbPoint
 10
21.37969061967881
 20
-16.81139204012022
 30
0.0
  0
POINT
  5
19D
330
148
100
AcDbEntity
  8
DEFPOINTS
  6
ByBlock
 62
     0
100
AcDbPoint
 10
22.92635917884732
 20
-16.81139204012022
 30
0.0
  0
POINT
  5
19E
330
148
100
AcDbEntity
  8
DEFPOINTS
  6
ByBlock
 62
     0
100
AcDbPoint
 10
22.92635917884732
 20
-17.11301789411311
 30
0.0
  0
ENDBLK
  5
19F
330
148
100
AcDbEntity
  8
0
100
AcDbBlockEnd
  0
BLOCK
  5
319
330
318
100
AcDbEntity
  8
0
100
AcDbBlockBegin
  2
*D5
 70
     1
 10
0.0
 20
0.0
 30
0.0
  3
*D5
  1

  0
LINE
  5
31A
330
318
100
AcDbEntity
  8
ADPDIM
 62
     0
370
    -2
100
AcDbLine
 10
21.15334897811337
 20
-16.47240156558381
 30
0.0
 11
21.15334897811337
 21
-15.15456500073766
 31
0.0
  0
LINE
  5
31B
330
318
100
AcDbEntity
  8
ADPDIM
 62
     0
370
    -2
100
AcDbLine
 10
23.14012623976104
 20
-16.47240156558381
 30
0.0
 11
23.14012623976104
 21
-15.15456500073766
 31
0.0
  0
LINE
  5
31C
330
318
100
AcDbEntity
  8
ADPDIM
 62
     0
370
    -2
100
AcDbLine
 10
21.15334897811337
 20
-15.33456500073766
 30
0.0
 11
21.98007094227054
 21
-15.33456500073766
 31
0.0
  0
LINE
  5
31D
330
318
100
AcDbEntity
  8
ADPDIM
 62
     0
370
    -2
100
AcDbLine
 10
23.14012623976104
 20
-15.33456500073766
 30
0.0
 11
22.31340427560388
 21
-15.33456500073766
 31
0.0
  0
LINE
  5
31E
330
318
100
AcDbEntity
  8
ADPDIM
 62
     0
370
    -2
100
AcDbLine
 10
23.01512623976104
 20
-15.45956500073766
 30
0.0
 11
23.26512623976104
 21
-15.20956500073766
 31
0.0
  0
LINE
  5
31F
330
318
100
AcDbEntity
  8
ADPDIM
 62
     0
370
    -2
100
AcDbLine
 10
21.02834897811337
 20
-15.45956500073766
 30
0.0
 11
21.27834897811338
 21
-15.20956500073766
 31
0.0
  0
MTEXT
  5
320
330
318
100
AcDbEntity
  8
ADPDIM
 62
     0
100
AcDbMText
 10
22.14673760893721
 20
-15.33456500073766
 30
0.0
 40
0.125
 41
0.0
 71
     5
 72
     1
  1
\A1;2
 73
     1
 44
1.0
1001
ACAD
1000
MTEXTBEGIN
1070
    73
1070
     1
1070
    44
1040
1.0
1070
    74
1070
     0
1000
MTEXTEND
  0
POINT
  5
321
330
318
100
AcDbEntity
  8
DEFPOINTS
 62
     0
100
AcDbPoint
 10
21.15334897811337
 20
-16.53490156558381
 30
0.0
  0
POINT
  5
322
330
318
100
AcDbEntity
  8
DEFPOINTS
 62
     0
100
AcDbPoint
 10
23.14012623976104
 20
-16.53490156558381
 30
0.0
  0
POINT
  5
323
330
318
100
AcDbEntity
  8
DEFPOINTS
 62
     0
100
AcDbPoint
 10
23.14012623976104
 20
-15.33456500073766
 30
0.0
  0
ENDBLK
  5
324
330
318
100
AcDbEntity
  8
0
100
AcDbBlockEnd
  0
BLOCK
  5
326
330
325
100
AcDbEntity
  8
0
100
AcDbBlockBegin
  2
*D6
 70
     1
 10
0.0
 20
0.0
 30
0.0
  3
*D6
  1

  0
LINE
  5
327
330
325
100
AcDbEntity
  8
ADPDIM
 62
     0
370
    -2
100
AcDbLine
 10
21.37969061967881
 20
-16.87389204012022
 30
0.0
 11
21.37969061967881
 21
-17.29301789411311
 31
0.0
  0
LINE
  5
328
330
325
100
AcDbEntity
  8
ADPDIM
 62
     0
370
    -2
100
AcDbLine
 10
22.92635917884732
 20
-16.87389204012022
 30
0.0
 11
22.92635917884732
 21
-17.29301789411311
 31
0.0
  0
LINE
  5
329
330
325
100
AcDbEntity
  8
ADPDIM
 62
     0
370
    -2
100
AcDbLine
 10
21.37969061967881
 20
-17.11301789411311
 30
0.0
 11
21.65302489926307
 21
-17.11301789411311
 31
0.0
  0
LINE
  5
32A
330
325
100
AcDbEntity
  8
ADPDIM
 62
     0
370
    -2
100
AcDbLine
 10
22.92635917884732
 20
-17.11301789411311
 30
0.0
 11
22.65302489926307
 21
-17.11301789411311
 31
0.0
  0
LINE
  5
32B
330
325
100
AcDbEntity
  8
ADPDIM
 62
     0
370
    -2
100
AcDbLine
 10
22.80135917884733
 20
-17.23801789411311
 30
0.0
 11
23.05135917884733
 21
-16.98801789411311
 31
0.0
  0
LINE
  5
32C
330
325
100
AcDbEntity
  8
ADPDIM
 62
     0
370
    -2
100
AcDbLine
 10
21.25469061967881
 20
-17.23801789411311
 30
0.0
 11
21.50469061967881
 21
-16.98801789411311
 31
0.0
  0
MTEXT
  5
32D
330
325
100
AcDbEntity
  8
ADPDIM
 62
     0
100
AcDbMText
 10
22.15302489926306
 20
-17.11301789411311
 30
0.0
 40
0.125
 41
0.0
 71
     5
 72
     1
  1
\A1;1 17/32
 73
     1
 44
1.0
1001
ACAD
1000
MTEXTBEGIN
1070
    73
1070
     1
1070
    44
1040
1.0
1070
    74
1070
     0
1000
MTEXTEND
  0
POINT
  5
32E
330
325
100
AcDbEntity
  8
DEFPOINTS
 62
     0
100
AcDbPoint
 10
21.37969061967881
 20
-16.81139204012022
 30
0.0
  0
POINT
  5
32F
330
325
100
AcDbEntity
  8
DEFPOINTS
 62
     0
100
AcDbPoint
 10
22.92635917884732
 20
-16.81139204012022
 30
0.0
  0
POINT
  5
330
330
325
100
AcDbEntity
  8
DEFPOINTS
 62
     0
100
AcDbPoint
 10
22.92635917884732
 20
-17.11301789411311
 30
0.0
  0
ENDBLK
  5
331
330
325
100
AcDbEntity
  8
0
100
AcDbBlockEnd
  0
BLOCK
  5
333
330
332
100
AcDbEntity
  8
0
 62
     3
100
AcDbBlockBegin
  2
*D7
 70
     1
 10
0.0
 20
0.0
 30
0.0
  3
*D7
  1

  0
LINE
  5
334
330
332
100
AcDbEntity
  8
ADPDIM
 62
     0
370
    -2
100
AcDbLine
 10
21.51100610737773
 20
-16.55433989369462
 30
0.0
 11
21.51100610737773
 21
-16.90484826715587
 31
0.0
  0
LINE
  5
335
330
332
100
AcDbEntity
  8
ADPDIM
 62
     0
370
    -2
100
AcDbLine
 10
22.79225610737773
 20
-16.55433989369462
 30
0.0
 11
22.79225610737773
 21
-16.90484826715587
 31
0.0
  0
LINE
  5
336
330
332
100
AcDbEntity
  8
ADPDIM
 62
     0
370
    -2
100
AcDbLine
 10
21.51100610737773
 20
-16.72484826715587
 30
0.0
 11
21.6932977740444
 21
-16.72484826715587
 31
0.0
  0
LINE
  5
337
330
332
100
AcDbEntity
  8
ADPDIM
 62
     0
370
    -2
100
AcDbLine
 10
22.79225610737773
 20
-16.72484826715587
 30
0.0
 11
22.60996444071106
 21
-16.72484826715587
 31
0.0
  0
LINE
  5
338
330
332
100
AcDbEntity
  8
ADPDIM
 62
     0
370
    -2
100
AcDbLine
 10
22.66725610737773
 20
-16.84984826715587
 30
0.0
 11
22.91725610737773
 21
-16.59984826715587
 31
0.0
  0
LINE
  5
339
330
332
100
AcDbEntity
  8
ADPDIM
 62
     0
370
    -2
100
AcDbLine
 10
21.38600610737773
 20
-16.84984826715587
 30
0.0
 11
21.63600610737773
 21
-16.59984826715587
 31
0.0
  0
MTEXT
  5
33A
330
332
100
AcDbEntity
  8
ADPDIM
 62
     0
100
AcDbMText
 10
22.15163110737773
 20
-16.72484826715587
 30
0.0
 40
0.125
 41
0.0
 71
     5
 72
     1
  1
\A1;1 9/32
 73
     1
 44
1.0
1001
ACAD
1000
MTEXTBEGIN
1070
    73
1070
     1
1070
    44
1040
1.0
1070
    74
1070
     0
1000
MTEXTEND
  0
POINT
  5
33B
330
332
100
AcDbEntity
  8
DEFPOINTS
 62
     0
100
AcDbPoint
 10
21.51100610737773
 20
-16.49183989369462
 30
0.0
  0
POINT
  5
33C
330
332
100
AcDbEntity
  8
DEFPOINTS
 62
     0
100
AcDbPoint
 10
22.79225610737773
 20
-16.49183989369462
 30
0.0
  0
POINT
  5
33D
330
332
100
AcDbEntity
  8
DEFPOINTS
 62
     0
100
AcDbPoint
 10
22.79225610737773
 20
-16.72484826715587
 30
0.0
  0
ENDBLK
  5
33E
330
332
100
AcDbEntity
  8
0
 62
     3
100
AcDbBlockEnd
  0
BLOCK
  5
358
330
34D
100
AcDbEntity
  8
0
100
AcDbBlockBegin
  2
*D9
 70
     1
 10
0.0
 20
0.0
 30
0.0
  3
*D9
  1

  0
LINE
  5
374
330
34D
100
AcDbEntity
  8
ADPDIM
 62
     0
370
    -2
100
AcDbLine
 10
21.15249676754981
 20
-17.10681115733336
 30
0.0
 11
21.15249676754981
 21
-15.78897459248721
 31
0.0
  0
LINE
  5
375
330
34D
100
AcDbEntity
  8
ADPDIM
 62
     0
370
    -2
100
AcDbLine
 10
23.13927402919747
 20
-17.10681115733336
 30
0.0
 11
23.13927402919747
 21
-15.78897459248721
 31
0.0
  0
LINE
  5
376
330
34D
100
AcDbEntity
  8
ADPDIM
 62
     0
370
    -2
100
AcDbLine
 10
21.15249676754981
 20
-15.96897459248721
 30
0.0
 11
21.97921873170697
 21
-15.96897459248721
 31
0.0
  0
LINE
  5
377
330
34D
100
AcDbEntity
  8
ADPDIM
 62
     0
370
    -2
100
AcDbLine
 10
23.13927402919747
 20
-15.96897459248721
 30
0.0
 11
22.31255206504031
 21
-15.96897459248721
 31
0.0
  0
LINE
  5
378
330
34D
100
AcDbEntity
  8
ADPDIM
 62
     0
370
    -2
100
AcDbLine
 10
23.01427402919747
 20
-16.09397459248721
 30
0.0
 11
23.26427402919747
 21
-15.84397459248721
 31
0.0
  0
LINE
  5
379
330
34D
100
AcDbEntity
  8
ADPDIM
 62
     0
370
    -2
100
AcDbLine
 10
21.02749676754981
 20
-16.09397459248721
 30
0.0
 11
21.27749676754981
 21
-15.84397459248721
 31
0.0
  0
MTEXT
  5
37A
330
34D
100
AcDbEntity
  8
ADPDIM
 62
     0
100
AcDbMText
 10
22.14588539837364
 20
-15.96897459248721
 30
0.0
 40
0.125
 41
0.0
 71
     5
 72
     1
  1
\A1;2
 73
     1
 44
1.0
1001
ACAD
1000
MTEXTBEGIN
1070
    73
1070
     1
1070
    44
1040
1.0
1070
    74
1070
     0
1000
MTEXTEND
  0
POINT
  5
37B
330
34D
100
AcDbEntity
  8
DEFPOINTS
 62
     0
100
AcDbPoint
 10
21.15249676754981
 20
-17.16931115733336
 30
0.0
  0
POINT
  5
37C
330
34D
100
AcDbEntity
  8
DEFPOINTS
 62
     0
100
AcDbPoint
 10
23.13927402919747
 20
-17.16931115733336
 30
0.0
  0
POINT
  5
37D
330
34D
100
AcDbEntity
  8
DEFPOINTS
 62
     0
100
AcDbPoint
 10
23.13927402919747
 20
-15.96897459248721
 30
0.0
  0
ENDBLK
  5
359
330
34D
100
AcDbEntity
  8
0
100
AcDbBlockEnd
  0
BLOCK
  5
365
330
35A
100
AcDbEntity
  8
0
100
AcDbBlockBegin
  2
*D10
 70
     1
 10
0.0
 20
0.0
 30
0.0
  3
*D10
  1

  0
LINE
  5
37E
330
35A
100
AcDbEntity
  8
ADPDIM
 62
     0
370
    -2
100
AcDbLine
 10
21.37883840911524
 20
-17.50830163186976
 30
0.0
 11
21.37883840911524
 21
-17.92742748586266
 31
0.0
  0
LINE
  5
37F
330
35A
100
AcDbEntity
  8
ADPDIM
 62
     0
370
    -2
100
AcDbLine
 10
22.92550696828376
 20
-17.50830163186976
 30
0.0
 11
22.92550696828376
 21
-17.92742748586266
 31
0.0
  0
LINE
  5
380
330
35A
100
AcDbEntity
  8
ADPDIM
 62
     0
370
    -2
100
AcDbLine
 10
21.37883840911524
 20
-17.74742748586266
 30
0.0
 11
21.6521726886995
 21
-17.74742748586266
 31
0.0
  0
LINE
  5
381
330
35A
100
AcDbEntity
  8
ADPDIM
 62
     0
370
    -2
100
AcDbLine
 10
22.92550696828376
 20
-17.74742748586266
 30
0.0
 11
22.6521726886995
 21
-17.74742748586266
 31
0.0
  0
LINE
  5
382
330
35A
100
AcDbEntity
  8
ADPDIM
 62
     0
370
    -2
100
AcDbLine
 10
22.80050696828376
 20
-17.87242748586266
 30
0.0
 11
23.05050696828375
 21
-17.62242748586266
 31
0.0
  0
LINE
  5
383
330
35A
100
AcDbEntity
  8
ADPDIM
 62
     0
370
    -2
100
AcDbLine
 10
21.25383840911524
 20
-17.87242748586266
 30
0.0
 11
21.50383840911525
 21
-17.62242748586266
 31
0.0
  0
MTEXT
  5
384
330
35A
100
AcDbEntity
  8
ADPDIM
 62
     0
100
AcDbMText
 10
22.1521726886995
 20
-17.74742748586266
 30
0.0
 40
0.125
 41
0.0
 71
     5
 72
     1
  1
\A1;1 17/32
 73
     1
 44
1.0
1001
ACAD
1000
MTEXTBEGIN
1070
    73
1070
     1
1070
    44
1040
1.0
1070
    74
1070
     0
1000
MTEXTEND
  0
POINT
  5
385
330
35A
100
AcDbEntity
  8
DEFPOINTS
 62
     0
100
AcDbPoint
 10
21.37883840911524
 20
-17.44580163186976
 30
0.0
  0
POINT
  5
386
330
35A
100
AcDbEntity
  8
DEFPOINTS
 62
     0
100
AcDbPoint
 10
22.92550696828376
 20
-17.44580163186976
 30
0.0
  0
POINT
  5
387
330
35A
100
AcDbEntity
  8
DEFPOINTS
 62
     0
100
AcDbPoint
 10
22.92550696828376
 20
-17.74742748586266
 30
0.0
  0
ENDBLK
  5
366
330
35A
100
AcDbEntity
  8
0
100
AcDbBlockEnd
  0
BLOCK
  5
372
330
367
100
AcDbEntity
  8
0
100
AcDbBlockBegin
  2
*D11
 70
     1
 10
0.0
 20
0.0
 30
0.0
  3
*D11
  1

  0
LINE
  5
388
330
367
100
AcDbEntity
  8
ADPDIM
 62
     0
370
    -2
100
AcDbLine
 10
21.51015389681416
 20
-17.18874948544416
 30
0.0
 11
21.51015389681416
 21
-17.53925785890542
 31
0.0
  0
LINE
  5
389
330
367
100
AcDbEntity
  8
ADPDIM
 62
     0
370
    -2
100
AcDbLine
 10
22.79140389681416
 20
-17.18874948544416
 30
0.0
 11
22.79140389681416
 21
-17.53925785890542
 31
0.0
  0
LINE
  5
38A
330
367
100
AcDbEntity
  8
ADPDIM
 62
     0
370
    -2
100
AcDbLine
 10
21.51015389681416
 20
-17.35925785890542
 30
0.0
 11
21.69244556348083
 21
-17.35925785890542
 31
0.0
  0
LINE
  5
38B
330
367
100
AcDbEntity
  8
ADPDIM
 62
     0
370
    -2
100
AcDbLine
 10
22.79140389681416
 20
-17.35925785890542
 30
0.0
 11
22.60911223014749
 21
-17.35925785890542
 31
0.0
  0
LINE
  5
38C
330
367
100
AcDbEntity
  8
ADPDIM
 62
     0
370
    -2
100
AcDbLine
 10
22.66640389681416
 20
-17.48425785890542
 30
0.0
 11
22.91640389681416
 21
-17.23425785890542
 31
0.0
  0
LINE
  5
38D
330
367
100
AcDbEntity
  8
ADPDIM
 62
     0
370
    -2
100
AcDbLine
 10
21.38515389681416
 20
-17.48425785890542
 30
0.0
 11
21.63515389681416
 21
-17.23425785890542
 31
0.0
  0
MTEXT
  5
38E
330
367
100
AcDbEntity
  8
ADPDIM
 62
     0
100
AcDbMText
 10
22.15077889681416
 20
-17.35925785890542
 30
0.0
 40
0.125
 41
0.0
 71
     5
 72
     1
  1
\A1;1 9/32
 73
     1
 44
1.0
1001
ACAD
1000
MTEXTBEGIN
1070
    73
1070
     1
1070
    44
1040
1.0
1070
    74
1070
     0
1000
MTEXTEND
  0
POINT
  5
38F
330
367
100
AcDbEntity
  8
DEFPOINTS
 62
     0
100
AcDbPoint
 10
21.51015389681416
 20
-17.12624948544416
 30
0.0
  0
POINT
  5
390
330
367
100
AcDbEntity
  8
DEFPOINTS
 62
     0
100
AcDbPoint
 10
22.79140389681416
 20
-17.12624948544416
 30
0.0
  0
POINT
  5
391
330
367
100
AcDbEntity
  8
DEFPOINTS
 62
     0
100
AcDbPoint
 10
22.79140389681416
 20
-17.35925785890542
 30
0.0
  0
ENDBLK
  5
373
330
367
100
AcDbEntity
  8
0
100
AcDbBlockEnd
  0
ENDSEC
  0
SECTION
  2
ENTITIES
  0
LINE
  5
1A0
330
18
100
AcDbEntity
  8
ADP3DETAIL
  6
HIDDEN2
100
AcDbLine
 10
24.65647316441946
 20
-10.40170582795852
 30
0.0
 11
27.50293377495476
 21
-10.40170582795852
 31
0.0
  0
LINE
  5
1A1
330
18
100
AcDbEntity
  8
ADP1DETAIL
100
AcDbLine
 10
27.15647316441945
 20
-11.40170582795852
 30
0.0
 11
24.65647316441946
 21
-11.40170582795852
 31
0.0
  0
LINE
  5
1A2
330
18
100
AcDbEntity
  8
ADP1DETAIL
100
AcDbLine
 10
24.65647316441946
 20
-9.401705827958528
 30
0.0
 11
27.15647316441945
 21
-9.401705827958528
 31
0.0
  0
ARC
  5
1A3
330
18
100
AcDbEntity
  8
ADP1DETAIL
100
AcDbCircle
 10
24.65647316441946
 20
-12.90170582795852
 30
0.0
 40
3.5
100
AcDbArc
 50
90.0
 51
180.0
  0
LINE
  5
1A5
330
18
100
AcDbEntity
  8
ADP3DETAIL
  6
HIDDEN2
100
AcDbLine
 10
22.15647316441946
 20
-12.90170582795852
 30
0.0
 11
22.15647316441945
 21
-15.77085685164509
 31
0.0
  0
DIMENSION
  5
1A6
330
18
100
AcDbEntity
  8
ADPDIM
100
AcDbDimension
  2
*D2
 10
24.1991661451793
 20
-15.40170582795852
 30
0.0
 11
24.1991661451793
 21
-14.14861469349619
 31
0.0
 71
     5
 42
-1.0
100
AcDbAlignedDimension
 13
24.64904115818827
 23
-12.89552355903385
 33
0.0
 14
23.15647316441945
 24
-15.40170582795852
 34
0.0
 50
90.0
100
AcDbRotatedDimension
  0
DIMENSION
  5
1A7
330
18
100
AcDbEntity
  8
ADPDIM
100
AcDbDimension
  2
*D1
 10
24.65647316441946
 20
-12.90170582795852
 30
0.0
 11
25.00140055079718
 21
-13.18863156452794
 31
0.0
 70
     4
 71
     5
 42
-1.0
100
AcDbRadialDimension
 15
22.73451284109815
 25
-11.30293488889981
 35
0.0
 40
-2.490332778802711
  0
LINE
  5
1A8
330
18
100
AcDbEntity
  8
ADP1DETAIL
100
AcDbLine
 10
23.15647316441946
 20
-12.90170582795852
 30
0.0
 11
23.15647316441945
 21
-15.40170582795852
 31
0.0
  0
LINE
  5
1A9
330
18
100
AcDbEntity
  8
ADP1DETAIL
100
AcDbLine
 10
21.15647316441946
 20
-15.40170582795852
 30
0.0
 11
21.15647316441946
 21
-12.90170582795852
 31
0.0
  0
LINE
  5
1AC
330
18
100
AcDbEntity
  8
ADP1DETAIL
100
AcDbLine
 10
23.15647316441945
 20
-15.40170582795852
 30
0.0
 11
21.15647316441946
 21
-15.40170582795852
 31
0.0
  0
ARC
  5
1AD
330
18
100
AcDbEntity
  8
ADP3DETAIL
  6
HIDDEN2
100
AcDbCircle
 10
24.65647316441946
 20
-12.90170582795852
 30
0.0
 40
2.5
100
AcDbArc
 50
90.0
 51
180.0
  0
ARC
  5
1AE
330
18
100
AcDbEntity
  8
ADP1DETAIL
100
AcDbCircle
 10
24.65647316441946
 20
-12.90170582795852
 30
0.0
 40
1.5
100
AcDbArc
 50
90.0
 51
179.9999999999999
  0
LINE
  5
1AF
330
18
100
AcDbEntity
  8
ADP1DETAIL
100
AcDbLine
 10
27.15647316441945
 20
-9.401705827958528
 30
0.0
 11
27.15647316441945
 21
-11.40170582795852
 31
0.0
  0
TEXT
  5
1BD
330
18
100
AcDbEntity
  8
ADPDIM
100
AcDbText
 10
14.5079723527756
 20
-18.3390142062856
 30
0.0
 40
0.1875
  1
J U L I U S  B L U M  &  C O . ,  I N C .      ( 8 0 0 )  5 2 6 - 6 2 9 3        W W W . J U L I U S B L U M . C O M        P A R T  N o .  4 5 7 5 - C
 41
1.25
  7
ARIAL_WIDE
 72
     1
 11
24.56027773306209
 21
-18.1515142062856
 31
0.0
100
AcDbText
 73
     3
  0
DIMENSION
  5
349
330
18
100
AcDbEntity
  8
ADPDIM
100
AcDbDimension
  2
*D9
 10
23.13927402919747
 20
-15.96897459248721
 30
0.0
 11
22.14588539837364
 21
-15.96897459248721
 31
0.0
 70
   160
 71
     5
 42
1.986777261647663
  3
STANDARD
100
AcDbAlignedDimension
 13
21.15249676754981
 23
-17.16931115733336
 33
0.0
 14
23.13927402919747
 24
-17.16931115733336
 34
0.0
100
AcDbRotatedDimension
1001
ACAD
1000
DSTYLE
1002
{
1070
   277
1070
     5
1070
    41
1040
0.125
1070
    73
1070
     0
1070
    74
1070
     0
1070
    78
1070
     3
1070
   140
1040
0.125
1070
   141
1040
0.1875
1070
   142
1040
0.125
1070
   147
1040
0.125
1070
   171
1070
     1
1002
}
  0
DIMENSION
  5
34A
330
18
100
AcDbEntity
  8
ADPDIM
100
AcDbDimension
  2
*D10
 10
22.92550696828376
 20
-17.74742748586266
 30
0.0
 11
22.1521726886995
 21
-17.74742748586266
 31
0.0
 70
    32
 71
     5
 42
1.546668559168512
  3
STANDARD
100
AcDbAlignedDimension
 13
21.37883840911524
 23
-17.44580163186976
 33
0.0
 14
22.92550696828376
 24
-17.44580163186976
 34
0.0
100
AcDbRotatedDimension
1001
ACAD
1000
DSTYLE
1002
{
1070
   276
1070
     2
1070
   271
1070
     5
1070
   277
1070
     5
1070
    41
1040
0.125
1070
    73
1070
     0
1070
    74
1070
     0
1070
    78
1070
     3
1070
   140
1040
0.125
1070
   141
1040
0.1875
1070
   142
1040
0.125
1070
   147
1040
0.125
1070
   171
1070
     1
1002
}
  0
INSERT
  5
34B
330
18
100
AcDbEntity
  8
ADP1DETAIL
100
AcDbBlockReference
  2
4575
 10
21.09900146751464
 20
-16.91408745150953
 30
0.0
  0
DIMENSION
  5
34C
330
18
100
AcDbEntity
  8
ADPDIM
 62
     3
100
AcDbDimension
  2
*D11
 10
22.79140389681416
 20
-17.35925785890542
 30
0.0
 11
22.15077889681416
 21
-17.35925785890542
 31
0.0
 70
    32
 71
     5
 42
1.28125
  3
STANDARD
100
AcDbAlignedDimension
 13
21.51015389681416
 23
-17.12624948544416
 33
0.0
 14
22.79140389681416
 24
-17.12624948544416
 34
0.0
100
AcDbRotatedDimension
1001
ACAD
1000
DSTYLE
1002
{
1070
   271
1070
     5
1070
   276
1070
     2
1070
   277
1070
     5
1070
    41
1040
0.125
1070
    73
1070
     0
1070
    74
1070
     0
1070
    78
1070
     3
1070
   140
1040
0.125
1070
   141
1040
0.1875
1070
   142
1040
0.125
1070
   147
1040
0.125
1070
   171
1070
     1
1002
}
  0
ENDSEC
  0
SECTION
  2
OBJECTS
  0
DICTIONARY
  5
C
330
0
100
AcDbDictionary
281
     1
  3
ACAD_COLOR
350
312
  3
ACAD_GROUP
350
D
  3
ACAD_LAYOUT
350
1B6
  3
ACAD_MATERIAL
350
2FD
  3
ACAD_MLINESTYLE
350
E
  3
ACAD_PLOTSETTINGS
350
1B7
  3
ACAD_PLOTSTYLENAME
350
1B4
  3
ACAD_TABLESTYLE
350
313
  3
ACAD_VISUALSTYLE
350
301
  3
AcDbVariableDictionary
350
217
  3
ASE_INDEX_DICTIONARY
350
393
  3
DWGPROPS
350
3B4
  0
DICTIONARY
  5
211
330
18
100
AcDbDictionary
280
     1
281
     1
  3
ACAD_LAYOUTSELFREF
360
2F7
  0
DICTIONARY
  5
20F
330
15
100
AcDbDictionary
280
     1
281
     1
  3
ACAD_LAYOUTSELFREF
360
2F6
  0
DICTIONARY
  5
312
102
{ACAD_REACTORS
330
C
102
}
330
C
100
AcDbDictionary
281
     1
  0
DICTIONARY
  5
D
102
{ACAD_REACTORS
330
C
102
}
330
C
100
AcDbDictionary
281
     1
  0
DICTIONARY
  5
1B6
102
{ACAD_REACTORS
330
C
102
}
330
C
100
AcDbDictionary
281
     1
  3
Layout1
350
1B9
  3
Model
350
1B8
  0
DICTIONARY
  5
2FD
102
{ACAD_REACTORS
330
C
102
}
330
C
100
AcDbDictionary
281
     1
  3
ByBlock
350
2FF
  3
ByLayer
350
2FE
  3
Global
350
300
  0
DICTIONARY
  5
E
102
{ACAD_REACTORS
330
C
102
}
330
C
100
AcDbDictionary
281
     1
  3
STANDARD
350
1B
  0
DICTIONARY
  5
1B7
102
{ACAD_REACTORS
330
C
102
}
330
C
100
AcDbDictionary
281
     1
  0
ACDBDICTIONARYWDFLT
  5
1B4
102
{ACAD_REACTORS
330
C
102
}
330
C
100
AcDbDictionary
281
     1
  3
Normal
350
1B5
100
AcDbDictionaryWithDefault
340
1B5
  0
DICTIONARY
  5
313
102
{ACAD_REACTORS
330
C
102
}
330
C
100
AcDbDictionary
281
     1
  3
Standard
350
314
  0
DICTIONARY
  5
301
102
{ACAD_REACTORS
330
C
102
}
330
C
100
AcDbDictionary
281
     1
  3
2dWireframe
350
307
  3
3D Hidden
350
309
  3
3dWireframe
350
308
  3
Basic
350
306
  3
Brighten
350
30D
  3
ColorChange
350
311
  3
Conceptual
350
30A
  3
Dim
350
30C
  3
Facepattern
350
310
  3
Flat
350
302
  3
FlatWithEdges
350
303
  3
Gouraud
350
304
  3
GouraudWithEdges
350
305
  3
Linepattern
350
30F
  3
Realistic
350
30B
  3
Thicken
350
30E
  0
DICTIONARY
  5
217
102
{ACAD_REACTORS
330
C
102
}
330
C
100
AcDbDictionary
281
     1
  3
CTABLESTYLE
350
3B1
  3
DIMASSOC
350
218
  3
INDEXCTL
350
3B3
  3
SORTENTS
350
3B2
  0
DICTIONARY
  5
393
102
{ACAD_REACTORS
330
C
102
}
330
C
100
AcDbDictionary
281
     1
  3
ASEBlockHierarchyIndexRecord
350
394
1001
DCO15
1040
1569089365.976
  0
XRECORD
  5
3B4
102
{ACAD_REACTORS
330
C
102
}
330
C
100
AcDbXrecord
280
     1
  1
DWGPROPS COOKIE
  2

  3

  4

  6

  7

  8
Yu Hu
  9

300
=
301
=
302
=
303
=
304
=
305
=
306
=
307
=
308
=
309
=
 40
0.0130851736111111
 41
2450406.663095671
 42
2453963.9684025
  1

 90
        0
  0
XRECORD
  5
2F7
102
{ACAD_REACTORS
330
211
102
}
330
211
100
AcDbXrecord
280
     1
340
18
  0
XRECORD
  5
2F6
102
{ACAD_REACTORS
330
20F
102
}
330
20F
100
AcDbXrecord
280
     1
340
15
  0
LAYOUT
  5
1B9
102
{ACAD_XDICTIONARY
360
3B7
102
}
102
{ACAD_REACTORS
330
1B6
102
}
330
1B6
100
AcDbPlotSettings
  1

  2
Fax
  4

  6

 40
0.0
 41
0.0
 42
0.0
 43
0.0
 44
0.0
 45
0.0
 46
0.0
 47
0.0
 48
0.0
 49
0.0
140
0.0
141
0.0
142
1.0
143
1.0
 70
   688
 72
     0
 73
     0
 74
     5
  7
Default R14 pen assignments.ctb
 75
    16
147
1.0
148
0.0
149
0.0
100
AcDbLayout
  1
Layout1
 70
     1
 71
     1
 10
0.0
 20
0.0
 11
12.0
 21
9.0
 12
0.0008545028977096
 22
1.250283272183907
 32
0.0
 14
1.000000000000000E+20
 24
1.000000000000000E+20
 34
1.000000000000000E+20
 15
-1.000000000000000E+20
 25
-1.000000000000000E+20
 35
-1.000000000000000E+20
146
0.0
 13
0.0
 23
0.0
 33
0.0
 16
1.0
 26
0.0
 36
0.0
 17
0.0
 27
1.0
 37
0.0
 76
     0
330
15
  0
LAYOUT
  5
1B8
102
{ACAD_XDICTIONARY
360
3B5
102
}
102
{ACAD_REACTORS
330
1B6
102
}
330
1B6
100
AcDbPlotSettings
  1

  2
Fax
  4

  6

 40
0.0
 41
0.0
 42
0.0
 43
0.0
 44
0.0
 45
0.0
 46
0.0
 47
0.0
 48
0.0
 49
0.0
140
0.0
141
0.0
142
1.0
143
1.0
 70
  1712
 72
     0
 73
     0
 74
     0
  7
Default R14 pen assignments.ctb
 75
     0
147
1.0
148
0.0
149
0.0
100
AcDbLayout
  1
Model
 70
     1
 71
     0
 10
0.0
 20
0.0
 11
12.0
 21
9.0
 12
0.0
 22
0.0
 32
0.0
 14
0.0
 24
0.0
 34
0.0
 15
0.0
 25
0.0
 35
0.0
146
0.0
 13
0.0
 23
0.0
 33
0.0
 16
1.0
 26
0.0
 36
0.0
 17
0.0
 27
1.0
 37
0.0
 76
     0
330
18
331
2D1
  0
MATERIAL
  5
2FF
102
{ACAD_XDICTIONARY
360
3BB
102
}
102
{ACAD_REACTORS
330
2FD
102
}
330
2FD
100
AcDbMaterial
  1
ByBlock
  0
MATERIAL
  5
2FE
102
{ACAD_XDICTIONARY
360
3B9
102
}
102
{ACAD_REACTORS
330
2FD
102
}
330
2FD
100
AcDbMaterial
  1
ByLayer
  0
MATERIAL
  5
300
102
{ACAD_XDICTIONARY
360
3BD
102
}
102
{ACAD_REACTORS
330
2FD
102
}
330
2FD
100
AcDbMaterial
  1
Global
  0
MLINESTYLE
  5
1B
102
{ACAD_REACTORS
330
E
102
}
330
E
100
AcDbMlineStyle
  2
STANDARD
 70
     0
  3

 62
     0
 51
90.0
 52
90.0
 71
     2
 49
0.5
 62
   256
  6
BYLAYER
 49
-0.5
 62
   256
  6
BYLAYER
  0
ACDBPLACEHOLDER
  5
1B5
102
{ACAD_REACTORS
330
1B4
102
}
330
1B4
  0
TABLESTYLE
  5
314
102
{ACAD_XDICTIONARY
360
3BF
102
}
102
{ACAD_REACTORS
330
313
102
}
330
313
100
AcDbTableStyle
  3
Standard
 70
     0
 71
     0
 40
0.06
 41
0.06
280
     0
281
     0
  7
STANDARD
140
0.18
170
     2
 62
     0
 63
     7
283
     0
274
    -2
284
     1
 64
     0
275
    -2
285
     1
 65
     0
276
    -2
286
     1
 66
     0
277
    -2
287
     1
 67
     0
278
    -2
288
     1
 68
     0
279
    -2
289
     1
 69
     0
  7
STANDARD
140
0.25
170
     5
 62
     0
 63
     7
283
     0
274
    -2
284
     1
 64
     0
275
    -2
285
     1
 65
     0
276
    -2
286
     1
 66
     0
277
    -2
287
     1
 67
     0
278
    -2
288
     1
 68
     0
279
    -2
289
     1
 69
     0
  7
STANDARD
140
0.18
170
     5
 62
     0
 63
     7
283
     0
274
    -2
284
     1
 64
     0
275
    -2
285
     1
 65
     0
276
    -2
286
     1
 66
     0
277
    -2
287
     1
 67
     0
278
    -2
288
     1
 68
     0
279
    -2
289
     1
 69
     0
  0
VISUALSTYLE
  5
307
102
{ACAD_REACTORS
330
301
102
}
330
301
100
AcDbVisualStyle
  2
2dWireframe
 70
     4
 71
     0
 72
     2
 73
     0
 90
        0
 40
-0.6
 41
-30.0
 62
     5
 63
     7
 74
     1
 91
        4
 64
     7
 65
   257
 75
     1
175
     1
 42
1.0
 92
        0
 66
   257
 43
1.0
 76
     1
 77
     6
 78
     2
 67
     7
 79
     5
170
     0
171
     0
290
     0
174
     0
 93
        1
 44
0.0
173
     0
291
     0
 45
0.0
1001
ACAD
1000
AcDbSavedByObjectVersion
1070
     0
  0
VISUALSTYLE
  5
309
102
{ACAD_REACTORS
330
301
102
}
330
301
100
AcDbVisualStyle
  2
3D Hidden
 70
     6
 71
     1
 72
     2
 73
     2
 90
        0
 40
-0.6
 41
-30.0
 62
     5
 63
     7
 74
     2
 91
        2
 64
     7
 65
   257
 75
     2
175
     1
 42
40.0
 92
        0
 66
   257
 43
1.0
 76
     1
 77
     6
 78
     2
 67
     7
 79
     3
170
     0
171
     0
290
     0
174
     0
 93
        1
 44
0.0
173
     0
291
     0
 45
0.0
1001
ACAD
1000
AcDbSavedByObjectVersion
1070
     0
  0
VISUALSTYLE
  5
308
102
{ACAD_REACTORS
330
301
102
}
330
301
100
AcDbVisualStyle
  2
3dWireframe
 70
     5
 71
     0
 72
     2
 73
     0
 90
        0
 40
-0.6
 41
-30.0
 62
     5
 63
     7
 74
     1
 91
        4
 64
     7
 65
   257
 75
     1
175
     1
 42
1.0
 92
        0
 66
   257
 43
1.0
 76
     1
 77
     6
 78
     2
 67
     7
 79
     5
170
     0
171
     0
290
     0
174
     0
 93
        1
 44
0.0
173
     0
291
     0
 45
0.0
1001
ACAD
1000
AcDbSavedByObjectVersion
1070
     0
  0
VISUALSTYLE
  5
306
102
{ACAD_REACTORS
330
301
102
}
330
301
100
AcDbVisualStyle
  2
Basic
 70
     7
 71
     1
 72
     0
 73
     1
 90
        0
 40
-0.6
 41
-30.0
 62
     5
 63
     7
 74
     0
 91
        4
 64
     7
 65
   257
 75
     1
175
     1
 42
1.0
 92
        8
 66
     7
 43
1.0
 76
     1
 77
     6
 78
     2
 67
     7
 79
     5
170
     0
171
     0
290
     0
174
     0
 93
        1
 44
0.0
173
     0
291
     1
 45
0.0
1001
ACAD
1000
AcDbSavedByObjectVersion
1070
     0
  0
VISUALSTYLE
  5
30D
102
{ACAD_REACTORS
330
301
102
}
330
301
100
AcDbVisualStyle
  2
Brighten
 70
    12
 71
     2
 72
     2
 73
     0
 90
        0
 40
-0.6
 41
-30.0
 62
     5
 63
     7
 74
     1
 91
        4
 64
     7
 65
   257
 75
     1
175
     1
 42
1.0
 92
        8
 66
     7
 43
1.0
 76
     1
 77
     6
 78
     2
 67
     7
 79
     5
170
     0
171
     0
290
     0
174
     0
 93
        1
 44
50.0
173
     0
291
     1
 45
0.0
1001
ACAD
1000
AcDbSavedByObjectVersion
1070
     0
  0
VISUALSTYLE
  5
311
102
{ACAD_REACTORS
330
301
102
}
330
301
100
AcDbVisualStyle
  2
ColorChange
 70
    16
 71
     2
 72
     2
 73
     3
 90
        0
 40
-0.6
 41
-30.0
 62
     5
 63
     8
 74
     1
 91
        4
 64
     7
 65
   257
 75
     1
175
     1
 42
1.0
 92
        8
 66
     8
 43
1.0
 76
     1
 77
     6
 78
     2
 67
     7
 79
     5
170
     0
171
     0
290
     0
174
     0
 93
        1
 44
0.0
173
     0
291
     1
 45
0.0
1001
ACAD
1000
AcDbSavedByObjectVersion
1070
     0
  0
VISUALSTYLE
  5
30A
102
{ACAD_REACTORS
330
301
102
}
330
301
100
AcDbVisualStyle
  2
Conceptual
 70
     9
 71
     3
 72
     2
 73
     0
 90
        0
 40
-0.6
 41
-30.0
 62
     5
 63
     7
 74
     2
 91
        2
 64
     7
 65
   257
 75
     1
175
     1
 42
40.0
 92
        8
 66
     7
 43
1.0
 76
     1
 77
     6
 78
     2
 67
     7
 79
     3
170
     0
171
     0
290
     0
174
     0
 93
        1
 44
0.0
173
     0
291
     0
 45
0.0
1001
ACAD
1000
AcDbSavedByObjectVersion
1070
     0
  0
VISUALSTYLE
  5
30C
102
{ACAD_REACTORS
330
301
102
}
330
301
100
AcDbVisualStyle
  2
Dim
 70
    11
 71
     2
 72
     2
 73
     0
 90
        0
 40
-0.6
 41
-30.0
 62
     5
 63
     7
 74
     1
 91
        4
 64
     7
 65
   257
 75
     1
175
     1
 42
1.0
 92
        8
 66
     7
 43
1.0
 76
     1
 77
     6
 78
     2
 67
     7
 79
     5
170
     0
171
     0
290
     0
174
     0
 93
        1
 44
-50.0
173
     0
291
     1
 45
0.0
1001
ACAD
1000
AcDbSavedByObjectVersion
1070
     0
  0
VISUALSTYLE
  5
310
102
{ACAD_REACTORS
330
301
102
}
330
301
100
AcDbVisualStyle
  2
Facepattern
 70
    15
 71
     2
 72
     2
 73
     0
 90
        0
 40
-0.6
 41
-30.0
 62
     5
 63
     7
 74
     1
 91
        4
 64
     7
 65
   257
 75
     1
175
     1
 42
1.0
 92
        8
 66
     7
 43
1.0
 76
     1
 77
     6
 78
     2
 67
     7
 79
     5
170
     0
171
     0
290
     0
174
     0
 93
        1
 44
0.0
173
     0
291
     1
 45
0.0
1001
ACAD
1000
AcDbSavedByObjectVersion
1070
     0
  0
VISUALSTYLE
  5
302
102
{ACAD_REACTORS
330
301
102
}
330
301
100
AcDbVisualStyle
  2
Flat
 70
     0
 71
     2
 72
     1
 73
     1
 90
        2
 40
-0.6
 41
30.0
 62
     5
 63
     7
 74
     0
 91
        4
 64
     7
 65
   257
 75
     1
175
     1
 42
1.0
 92
        8
 66
     7
 43
1.0
 76
     1
 77
     6
 78
     2
 67
     7
 79
     5
170
     0
171
     0
290
     0
174
     0
 93
       13
 44
0.0
173
     0
291
     1
 45
0.0
1001
ACAD
1000
AcDbSavedByObjectVersion
1070
     0
  0
VISUALSTYLE
  5
303
102
{ACAD_REACTORS
330
301
102
}
330
301
100
AcDbVisualStyle
  2
FlatWithEdges
 70
     1
 71
     2
 72
     1
 73
     1
 90
        2
 40
-0.6
 41
30.0
 62
     5
 63
     7
 74
     1
 91
        4
 64
     7
 65
   257
 75
     1
175
     1
 42
1.0
 92
        0
 66
   257
 43
1.0
 76
     1
 77
     6
 78
     2
 67
     7
 79
     5
170
     0
171
     0
290
     0
174
     0
 93
       13
 44
0.0
173
     0
291
     1
 45
0.0
1001
ACAD
1000
AcDbSavedByObjectVersion
1070
     0
  0
VISUALSTYLE
  5
304
102
{ACAD_REACTORS
330
301
102
}
330
301
100
AcDbVisualStyle
  2
Gouraud
 70
     2
 71
     2
 72
     2
 73
     1
 90
        2
 40
-0.6
 41
30.0
 62
     5
 63
     7
 74
     0
 91
        4
 64
     7
 65
   257
 75
     1
175
     1
 42
1.0
 92
        0
 66
     7
 43
1.0
 76
     1
 77
     6
 78
     2
 67
     7
 79
     5
170
     0
171
     0
290
     0
174
     0
 93
       13
 44
0.0
173
     0
291
     1
 45
0.0
1001
ACAD
1000
AcDbSavedByObjectVersion
1070
     0
  0
VISUALSTYLE
  5
305
102
{ACAD_REACTORS
330
301
102
}
330
301
100
AcDbVisualStyle
  2
GouraudWithEdges
 70
     3
 71
     2
 72
     2
 73
     1
 90
        2
 40
-0.6
 41
30.0
 62
     5
 63
     7
 74
     1
 91
        4
 64
     7
 65
   257
 75
     1
175
     1
 42
1.0
 92
        0
 66
   257
 43
1.0
 76
     1
 77
     6
 78
     2
 67
     7
 79
     5
170
     0
171
     0
290
     0
174
     0
 93
       13
 44
0.0
173
     0
291
     1
 45
0.0
1001
ACAD
1000
AcDbSavedByObjectVersion
1070
     0
  0
VISUALSTYLE
  5
30F
102
{ACAD_REACTORS
330
301
102
}
330
301
100
AcDbVisualStyle
  2
Linepattern
 70
    14
 71
     2
 72
     2
 73
     0
 90
        0
 40
-0.6
 41
-30.0
 62
     5
 63
     7
 74
     1
 91
        4
 64
     7
 65
   257
 75
     7
175
     7
 42
1.0
 92
        8
 66
     7
 43
1.0
 76
     1
 77
     6
 78
     2
 67
     7
 79
     5
170
     0
171
     0
290
     0
174
     0
 93
        1
 44
0.0
173
     0
291
     1
 45
0.0
1001
ACAD
1000
AcDbSavedByObjectVersion
1070
     0
  0
VISUALSTYLE
  5
30B
102
{ACAD_REACTORS
330
301
102
}
330
301
100
AcDbVisualStyle
  2
Realistic
 70
     8
 71
     2
 72
     2
 73
     0
 90
        0
 40
-0.6
 41
-30.0
 62
     5
 63
     7
 74
     1
 91
        0
 64
     7
 65
   257
 75
     1
175
     1
 42
1.0
 92
        8
 66
     8
 43
1.0
 76
     1
 77
     6
 78
     2
 67
     7
 79
     5
170
     0
171
     0
290
     0
174
     0
 93
       13
 44
0.0
173
     0
291
     0
 45
0.0
1001
ACAD
1000
AcDbSavedByObjectVersion
1070
     0
  0
VISUALSTYLE
  5
30E
102
{ACAD_REACTORS
330
301
102
}
330
301
100
AcDbVisualStyle
  2
Thicken
 70
    13
 71
     2
 72
     2
 73
     0
 90
        0
 40
-0.6
 41
-30.0
 62
     5
 63
     7
 74
     1
 91
        4
 64
     7
 65
   257
 75
     1
175
     1
 42
1.0
 92
       12
 66
     7
 43
1.0
 76
     1
 77
     6
 78
     2
 67
     7
 79
     5
170
     0
171
     0
290
     0
174
     0
 93
        1
 44
0.0
173
     0
291
     1
 45
0.0
1001
ACAD
1000
AcDbSavedByObjectVersion
1070
     0
  0
DICTIONARYVAR
  5
3B1
102
{ACAD_REACTORS
330
217
102
}
330
217
100
DictionaryVariables
280
     0
  1
STANDARD
  0
DICTIONARYVAR
  5
218
102
{ACAD_REACTORS
330
217
102
}
330
217
100
DictionaryVariables
280
     0
  1
1
  0
DICTIONARYVAR
  5
3B3
102
{ACAD_REACTORS
330
217
102
}
330
217
100
DictionaryVariables
280
     0
  1
0
  0
DICTIONARYVAR
  5
3B2
102
{ACAD_REACTORS
330
217
102
}
330
217
100
DictionaryVariables
280
     0
  1
127
  0
XRECORD
  5
394
102
{ACAD_REACTORS
330
393
102
}
330
393
100
AcDbXrecord
280
     1
330
34B
  0
DICTIONARY
  5
3B7
330
1B9
100
AcDbDictionary
280
     1
281
     1
  3
ACAD_XREC_ROUNDTRIP
360
3B8
  0
DICTIONARY
  5
3B5
330
1B8
100
AcDbDictionary
280
     1
281
     1
  3
ACAD_XREC_ROUNDTRIP
360
3B6
  0
DICTIONARY
  5
3BB
330
2FF
100
AcDbDictionary
280
     1
281
     1
  3
ACAD_XREC_ROUNDTRIP
360
3BC
  0
DICTIONARY
  5
3B9
330
2FE
100
AcDbDictionary
280
     1
281
     1
  3
ACAD_XREC_ROUNDTRIP
360
3BA
  0
DICTIONARY
  5
3BD
330
300
100
AcDbDictionary
280
     1
281
     1
  3
ACAD_XREC_ROUNDTRIP
360
3BE
  0
DICTIONARY
  5
3BF
330
314
100
AcDbDictionary
280
     1
281
     1
  3
ACAD_XREC_ROUNDTRIP
360
3C0
  0
XRECORD
  5
3B8
102
{ACAD_REACTORS
330
3B7
102
}
330
3B7
100
AcDbXrecord
280
     1
102
SHADEPLOT
 70
     0
102
SHADEPLOTRESLEVEL
 70
     2
102
SHADEPLOTCUSTOMDPI
 70
   300
  0
XRECORD
  5
3B6
102
{ACAD_REACTORS
330
3B5
102
}
330
3B5
100
AcDbXrecord
280
     1
102
SHADEPLOT
 70
     0
102
SHADEPLOTRESLEVEL
 70
     2
102
SHADEPLOTCUSTOMDPI
 70
   300
  0
XRECORD
  5
3BC
102
{ACAD_REACTORS
330
3BB
102
}
330
3BB
100
AcDbXrecord
280
     1
102
MATERIAL
148
0.0
149
0.0
149
0.0
 93
        0
 94
       63
282
     0
 72
     1
 77
     1
171
     1
175
     1
179
     1
273
     0
  0
XRECORD
  5
3BA
102
{ACAD_REACTORS
330
3B9
102
}
330
3B9
100
AcDbXrecord
280
     1
102
MATERIAL
148
0.0
149
0.0
149
0.0
 93
        0
 94
       63
282
     0
 72
     1
 77
     1
171
     1
175
     1
179
     1
273
     0
  0
XRECORD
  5
3BE
102
{ACAD_REACTORS
330
3BD
102
}
330
3BD
100
AcDbXrecord
280
     1
102
MATERIAL
148
0.0
149
0.0
149
0.0
 93
        0
 94
       63
282
     0
 72
     1
 77
     1
171
     1
175
     1
179
     1
273
     0
  0
XRECORD
  5
3C0
102
{ACAD_REACTORS
330
3BF
102
}
330
3BF
100
AcDbXrecord
280
     1
102
ACAD_ROUNDTRIP_PRE2007_TABLESTYLE
 90
      512
 91
        0
  1

 92
      512
 93
        0
  2

 94
      512
 95
        0
  3

  0
ENDSEC
  0
EOF
