  0
SECTION
  2
HEADER
  9
$ACADVER
  1
AC1015
  9
$ACADMAINTVER
 70
    20
  9
$DWGCODEPAGE
  3
ANSI_1252
  9
$INSBASE
 10
16.48382247451707
 20
-16.41122226964409
 30
0.0
  9
$EXTMIN
 10
4.300048916949947
 20
-11.41283937060294
 30
-0.0015258207003583
  9
$EXTMAX
 10
24.40777594923016
 20
-1.917683654909453
 30
0.0000000349246037
  9
$LIMMIN
 10
0.0
 20
0.0
  9
$LIMMAX
 10
36.0
 20
36.0
  9
$ORTHOMODE
 70
     1
  9
$REGENMODE
 70
     1
  9
$FILLMODE
 70
     1
  9
$QTEXTMODE
 70
     0
  9
$MIRRTEXT
 70
     1
  9
$LTSCALE
 40
1.0
  9
$ATTMODE
 70
     1
  9
$TEXTSIZE
 40
0.2
  9
$TRACEWID
 40
0.05
  9
$TEXTSTYLE
  7
STANDARD
  9
$CLAYER
  8
0
  9
$CELTYPE
  6
BYLAYER
  9
$CECOLOR
 62
   256
  9
$CELTSCALE
 40
1.0
  9
$DISPSILH
 70
     0
  9
$DIMSCALE
 40
1.0
  9
$DIMASZ
 40
0.125
  9
$DIMEXO
 40
0.0625
  9
$DIMDLI
 40
0.38
  9
$DIMRND
 40
0.0
  9
$DIMDLE
 40
0.0
  9
$DIMEXE
 40
0.18
  9
$DIMTP
 40
0.0
  9
$DIMTM
 40
0.0
  9
$DIMTXT
 40
0.125
  9
$DIMCEN
 40
0.1875
  9
$DIMTSZ
 40
0.125
  9
$DIMTOL
 70
     0
  9
$DIMLIM
 70
     0
  9
$DIMTIH
 70
     0
  9
$DIMTOH
 70
     0
  9
$DIMSE1
 70
     0
  9
$DIMSE2
 70
     0
  9
$DIMTAD
 70
     0
  9
$DIMZIN
 70
     3
  9
$DIMBLK
  1

  9
$DIMASO
 70
     1
  9
$DIMSHO
 70
     1
  9
$DIMPOST
  1

  9
$DIMAPOST
  1

  9
$DIMALT
 70
     0
  9
$DIMALTD
 70
     1
  9
$DIMALTF
 40
25.4
  9
$DIMLFAC
 40
1.0
  9
$DIMTOFL
 70
     0
  9
$DIMTVP
 40
0.0
  9
$DIMTIX
 70
     0
  9
$DIMSOXD
 70
     0
  9
$DIMSAH
 70
     0
  9
$DIMBLK1
  1

  9
$DIMBLK2
  1

  9
$DIMSTYLE
  2
STANDARD
  9
$DIMCLRD
 70
     0
  9
$DIMCLRE
 70
     0
  9
$DIMCLRT
 70
     0
  9
$DIMTFAC
 40
1.0
  9
$DIMGAP
 40
0.125
  9
$DIMJUST
 70
     0
  9
$DIMSD1
 70
     0
  9
$DIMSD2
 70
     0
  9
$DIMTOLJ
 70
     1
  9
$DIMTZIN
 70
     0
  9
$DIMALTZ
 70
     0
  9
$DIMALTTZ
 70
     0
  9
$DIMUPT
 70
     0
  9
$DIMDEC
 70
     4
  9
$DIMTDEC
 70
     4
  9
$DIMALTU
 70
     2
  9
$DIMALTTD
 70
     2
  9
$DIMTXSTY
  7
STANDARD
  9
$DIMAUNIT
 70
     0
  9
$DIMADEC
 70
     0
  9
$DIMALTRND
 40
0.0
  9
$DIMAZIN
 70
     0
  9
$DIMDSEP
 70
    46
  9
$DIMATFIT
 70
     3
  9
$DIMFRAC
 70
     0
  9
$DIMLDRBLK
  1

  9
$DIMLUNIT
 70
     2
  9
$DIMLWD
 70
    -2
  9
$DIMLWE
 70
    -2
  9
$DIMTMOVE
 70
     0
  9
$LUNITS
 70
     5
  9
$LUPREC
 70
     4
  9
$SKETCHINC
 40
0.1
  9
$FILLETRAD
 40
0.062
  9
$AUNITS
 70
     0
  9
$AUPREC
 70
     0
  9
$MENU
  1
acad
  9
$ELEVATION
 40
0.0
  9
$PELEVATION
 40
0.0
  9
$THICKNESS
 40
0.0
  9
$LIMCHECK
 70
     0
  9
$CHAMFERA
 40
0.0
  9
$CHAMFERB
 40
0.0
  9
$CHAMFERC
 40
0.0
  9
$CHAMFERD
 40
0.0
  9
$SKPOLY
 70
     0
  9
$TDCREATE
 40
2450406.680199456
  9
$TDUCREATE
 40
2450406.846866123
  9
$TDUPDATE
 40
2453961.660567766
  9
$TDUUPDATE
 40
2453961.827234433
  9
$TDINDWG
 40
0.0147997222
  9
$TDUSRTIMER
 40
0.0147997222
  9
$USRTIMER
 70
     1
  9
$ANGBASE
 50
0.0
  9
$ANGDIR
 70
     0
  9
$PDMODE
 70
     0
  9
$PDSIZE
 40
0.0
  9
$PLINEWID
 40
0.0
  9
$SPLFRAME
 70
     0
  9
$SPLINETYPE
 70
     6
  9
$SPLINESEGS
 70
     8
  9
$HANDSEED
  5
2CC
  9
$SURFTAB1
 70
     6
  9
$SURFTAB2
 70
     6
  9
$SURFTYPE
 70
     6
  9
$SURFU
 70
     6
  9
$SURFV
 70
     6
  9
$UCSBASE
  2

  9
$UCSNAME
  2

  9
$UCSORG
 10
0.0
 20
0.0
 30
0.0
  9
$UCSXDIR
 10
1.0
 20
0.0
 30
0.0
  9
$UCSYDIR
 10
0.0
 20
1.0
 30
0.0
  9
$UCSORTHOREF
  2

  9
$UCSORTHOVIEW
 70
     0
  9
$UCSORGTOP
 10
0.0
 20
0.0
 30
0.0
  9
$UCSORGBOTTOM
 10
0.0
 20
0.0
 30
0.0
  9
$UCSORGLEFT
 10
0.0
 20
0.0
 30
0.0
  9
$UCSORGRIGHT
 10
0.0
 20
0.0
 30
0.0
  9
$UCSORGFRONT
 10
0.0
 20
0.0
 30
0.0
  9
$UCSORGBACK
 10
0.0
 20
0.0
 30
0.0
  9
$PUCSBASE
  2

  9
$PUCSNAME
  2

  9
$PUCSORG
 10
0.0
 20
0.0
 30
0.0
  9
$PUCSXDIR
 10
1.0
 20
0.0
 30
0.0
  9
$PUCSYDIR
 10
0.0
 20
1.0
 30
0.0
  9
$PUCSORTHOREF
  2

  9
$PUCSORTHOVIEW
 70
     0
  9
$PUCSORGTOP
 10
0.0
 20
0.0
 30
0.0
  9
$PUCSORGBOTTOM
 10
0.0
 20
0.0
 30
0.0
  9
$PUCSORGLEFT
 10
0.0
 20
0.0
 30
0.0
  9
$PUCSORGRIGHT
 10
0.0
 20
0.0
 30
0.0
  9
$PUCSORGFRONT
 10
0.0
 20
0.0
 30
0.0
  9
$PUCSORGBACK
 10
0.0
 20
0.0
 30
0.0
  9
$USERI1
 70
     0
  9
$USERI2
 70
     0
  9
$USERI3
 70
     0
  9
$USERI4
 70
     0
  9
$USERI5
 70
     0
  9
$USERR1
 40
0.0
  9
$USERR2
 40
0.0
  9
$USERR3
 40
0.0
  9
$USERR4
 40
0.0
  9
$USERR5
 40
0.0
  9
$WORLDVIEW
 70
     1
  9
$SHADEDGE
 70
     3
  9
$SHADEDIF
 70
    70
  9
$TILEMODE
 70
     1
  9
$MAXACTVP
 70
    15
  9
$PINSBASE
 10
0.0008545028977096
 20
1.250283272183907
 30
0.0
  9
$PLIMCHECK
 70
     0
  9
$PEXTMIN
 10
1.000000000000000E+20
 20
1.000000000000000E+20
 30
1.000000000000000E+20
  9
$PEXTMAX
 10
-1.000000000000000E+20
 20
-1.000000000000000E+20
 30
-1.000000000000000E+20
  9
$PLIMMIN
 10
0.0
 20
0.0
  9
$PLIMMAX
 10
12.0
 20
9.0
  9
$UNITMODE
 70
     0
  9
$VISRETAIN
 70
     0
  9
$PLINEGEN
 70
     0
  9
$PSLTSCALE
 70
     1
  9
$TREEDEPTH
 70
  3020
  9
$CMLSTYLE
  2
STANDARD
  9
$CMLJUST
 70
     0
  9
$CMLSCALE
 40
1.0
  9
$PROXYGRAPHICS
 70
     1
  9
$MEASUREMENT
 70
     0
  9
$CELWEIGHT
370
    -1
  9
$ENDCAPS
280
     0
  9
$JOINSTYLE
280
     0
  9
$LWDISPLAY
290
     0
  9
$INSUNITS
 70
     0
  9
$HYPERLINKBASE
  1

  9
$STYLESHEET
  1

  9
$XEDIT
290
     1
  9
$CEPSNTYPE
380
     0
  9
$PSTYLEMODE
290
     1
  9
$FINGERPRINTGUID
  2
{5EBD44C9-4586-4C29-ACB3-8447F844AA1F}
  9
$VERSIONGUID
  2
{5EB305E5-6318-454B-A894-6FCC76F069B4}
  9
$EXTNAMES
290
     1
  9
$PSVPSCALE
 40
0.0
  9
$OLESTARTUP
290
     0
  0
ENDSEC
  0
SECTION
  2
CLASSES
  0
CLASS
  1
ACDBDICTIONARYWDFLT
  2
AcDbDictionaryWithDefault
  3
ObjectDBX Classes
 90
        0
280
     0
281
     0
  0
CLASS
  1
ACDBPLACEHOLDER
  2
AcDbPlaceHolder
  3
ObjectDBX Classes
 90
        0
280
     0
281
     0
  0
CLASS
  1
LAYOUT
  2
AcDbLayout
  3
ObjectDBX Classes
 90
        0
280
     0
281
     0
  0
CLASS
  1
DICTIONARYVAR
  2
AcDbDictionaryVar
  3
ObjectDBX Classes
 90
        0
280
     0
281
     0
  0
CLASS
  1
MATERIAL
  2
AcDbMaterial
  3
ObjectDBX Classes
 90
     1024
280
     0
281
     0
  0
CLASS
  1
VISUALSTYLE
  2
AcDbVisualStyle
  3
ObjectDBX Classes
 90
     4095
280
     0
281
     0
  0
CLASS
  1
TABLESTYLE
  2
AcDbTableStyle
  3
ObjectDBX Classes
 90
     4095
280
     0
281
     0
  0
ENDSEC
  0
SECTION
  2
TABLES
  0
TABLE
  2
VPORT
  5
8
330
0
100
AcDbSymbolTable
 70
     1
  0
VPORT
  5
208
330
8
100
AcDbSymbolTableRecord
100
AcDbViewportTableRecord
  2
*Active
 70
     0
 10
0.0
 20
0.0
 11
1.0
 21
1.0
 12
14.35391243309005
 22
-6.665261512756195
 13
0.0
 23
0.0
 14
0.5740882589684922
 24
0.5740882589684922
 15
0.5
 25
0.5
 16
0.0
 26
0.0
 36
1.0
 17
0.0
 27
0.0
 37
0.0
 40
11.71966573398942
 41
1.726930320150659
 42
50.0
 43
0.0
 44
0.0
 50
0.0
 51
0.0
 71
     0
 72
   100
 73
     1
 74
     0
 75
     0
 76
     0
 77
     0
 78
     0
281
     0
 65
     1
110
0.0
120
0.0
130
0.0
111
1.0
121
0.0
131
0.0
112
0.0
122
1.0
132
0.0
 79
     0
146
0.0
  0
ENDTAB
  0
TABLE
  2
LTYPE
  5
5
330
0
100
AcDbSymbolTable
 70
     2
  0
LTYPE
  5
12
330
5
100
AcDbSymbolTableRecord
100
AcDbLinetypeTableRecord
  2
BYBLOCK
 70
     0
  3

 72
    65
 73
     0
 40
0.0
  0
LTYPE
  5
13
330
5
100
AcDbSymbolTableRecord
100
AcDbLinetypeTableRecord
  2
BYLAYER
 70
     0
  3

 72
    65
 73
     0
 40
0.0
  0
LTYPE
  5
14
330
5
100
AcDbSymbolTableRecord
100
AcDbLinetypeTableRecord
  2
CONTINUOUS
 70
     0
  3
Solid line
 72
    65
 73
     0
 40
0.0
  0
LTYPE
  5
27
330
5
100
AcDbSymbolTableRecord
100
AcDbLinetypeTableRecord
  2
CENTER2
 70
     0
  3
___ _ ___ _ ___ _ ___ _ ___ _ ___ _ ___ _ ___ _
 72
    65
 73
     4
 40
1.125
 49
0.75
 74
     0
 49
-0.125
 74
     0
 49
0.125
 74
     0
 49
-0.125
 74
     0
  0
ENDTAB
  0
TABLE
  2
LAYER
  5
2
330
0
100
AcDbSymbolTable
 70
     5
  0
LAYER
  5
F
330
2
100
AcDbSymbolTableRecord
100
AcDbLayerTableRecord
  2
0
 70
     0
 62
     7
  6
CONTINUOUS
370
    -3
390
EC
  0
LAYER
  5
29
330
2
100
AcDbSymbolTableRecord
100
AcDbLayerTableRecord
  2
DEFPOINTS
 70
     0
 62
     7
  6
CONTINUOUS
290
     0
370
    -3
390
EC
  0
LAYER
  5
2A
330
2
100
AcDbSymbolTableRecord
100
AcDbLayerTableRecord
  2
ADPDIM
 70
     0
 62
     3
  6
CONTINUOUS
370
    -3
390
EC
  0
LAYER
  5
2B
330
2
100
AcDbSymbolTableRecord
100
AcDbLayerTableRecord
  2
ADP1DETAIL
 70
     0
 62
     7
  6
CONTINUOUS
370
    -3
390
EC
  0
LAYER
  5
2C
330
2
100
AcDbSymbolTableRecord
100
AcDbLayerTableRecord
  2
ADP3DETAIL
 70
     0
 62
     1
  6
CONTINUOUS
370
    -3
390
EC
  0
ENDTAB
  0
TABLE
  2
STYLE
  5
3
330
0
100
AcDbSymbolTable
 70
     2
  0
STYLE
  5
10
330
3
100
AcDbSymbolTableRecord
100
AcDbTextStyleTableRecord
  2
STANDARD
 70
     0
 40
0.0
 41
1.0
 50
0.0
 71
     0
 42
0.2
  3
txt
  4

  0
STYLE
  5
F3
330
3
100
AcDbSymbolTableRecord
100
AcDbTextStyleTableRecord
  2
ARIAL_WIDE
 70
     0
 40
0.0
 41
1.25
 50
0.0
 71
     0
 42
0.2
  3
ARIAL.TTF
  4

1001
ACAD
1000
Arial
1071
       34
  0
ENDTAB
  0
TABLE
  2
VIEW
  5
6
330
0
100
AcDbSymbolTable
 70
     0
  0
ENDTAB
  0
TABLE
  2
UCS
  5
7
330
0
100
AcDbSymbolTable
 70
     0
  0
ENDTAB
  0
TABLE
  2
APPID
  5
9
330
0
100
AcDbSymbolTable
 70
     1
  0
APPID
  5
11
330
9
100
AcDbSymbolTableRecord
100
AcDbRegAppTableRecord
  2
ACAD
 70
     0
  0
ENDTAB
  0
TABLE
  2
DIMSTYLE
  5
A
330
0
100
AcDbSymbolTable
 70
     1
100
AcDbDimStyleTable
 71
     0
  0
DIMSTYLE
105
E7
102
{ACAD_REACTORS
330
270
330
271
102
}
330
A
100
AcDbSymbolTableRecord
100
AcDbDimStyleTableRecord
  2
STANDARD
 70
     0
340
10
  0
ENDTAB
  0
TABLE
  2
BLOCK_RECORD
  5
1
330
0
100
AcDbSymbolTable
 70
     9
  0
BLOCK_RECORD
  5
18
102
{ACAD_XDICTIONARY
360
148
102
}
330
1
100
AcDbSymbolTableRecord
100
AcDbBlockTableRecord
  2
*MODEL_SPACE
340
EF
  0
BLOCK_RECORD
  5
15
102
{ACAD_XDICTIONARY
360
146
102
}
330
1
100
AcDbSymbolTableRecord
100
AcDbBlockTableRecord
  2
*PAPER_SPACE
340
F0
  0
BLOCK_RECORD
  5
1C
330
1
100
AcDbSymbolTableRecord
100
AcDbBlockTableRecord
  2
*D0
340
0
  0
BLOCK_RECORD
  5
1D
330
1
100
AcDbSymbolTableRecord
100
AcDbBlockTableRecord
  2
*D1
340
0
  0
BLOCK_RECORD
  5
23
330
1
100
AcDbSymbolTableRecord
100
AcDbBlockTableRecord
  2
*D2
340
0
  0
BLOCK_RECORD
  5
26
330
1
100
AcDbSymbolTableRecord
100
AcDbBlockTableRecord
  2
*D3
340
0
  0
BLOCK_RECORD
  5
24F
330
1
100
AcDbSymbolTableRecord
100
AcDbBlockTableRecord
  2
*D4
340
0
  0
BLOCK_RECORD
  5
25C
330
1
100
AcDbSymbolTableRecord
100
AcDbBlockTableRecord
  2
*D5
340
0
  0
BLOCK_RECORD
  5
272
330
1
100
AcDbSymbolTableRecord
100
AcDbBlockTableRecord
  2
*D7
340
0
  0
BLOCK_RECORD
  5
27F
330
1
100
AcDbSymbolTableRecord
100
AcDbBlockTableRecord
  2
*D8
340
0
  0
ENDTAB
  0
ENDSEC
  0
SECTION
  2
BLOCKS
  0
BLOCK
  5
2F
330
18
100
AcDbEntity
  8
0
100
AcDbBlockBegin
  2
*MODEL_SPACE
 70
     0
 10
0.0
 20
0.0
 30
0.0
  3
*MODEL_SPACE
  1

  0
ENDBLK
  5
30
330
18
100
AcDbEntity
  8
0
100
AcDbBlockEnd
  0
BLOCK
  5
2D
330
15
100
AcDbEntity
 67
     1
  8
0
100
AcDbBlockBegin
  2
*PAPER_SPACE
 70
     0
 10
0.0
 20
0.0
 30
0.0
  3
*PAPER_SPACE
  1

  0
ENDBLK
  5
2E
330
15
100
AcDbEntity
 67
     1
  8
0
100
AcDbBlockEnd
  0
BLOCK
  5
31
330
1C
100
AcDbEntity
  8
0
100
AcDbBlockBegin
  2
*D0
 70
     1
 10
0.0
 20
0.0
 30
0.0
  3
*D0
  1

  0
LINE
  5
32
330
1C
100
AcDbEntity
  8
0
  6
ByBlock
 62
     0
100
AcDbLine
 10
14.33308070905292
 20
-15.80657860360492
 30
0.0
 11
14.33308070905292
 21
-15.39555948766339
 31
0.0
  0
LINE
  5
33
330
1C
100
AcDbEntity
  8
0
  6
ByBlock
 62
     0
100
AcDbLine
 10
17.06852341263618
 20
-15.89498452623078
 30
0.0
 11
17.06852341263618
 21
-15.39555948766339
 31
0.0
  0
LINE
  5
34
330
1C
100
AcDbEntity
  8
0
  6
ByBlock
 62
     0
100
AcDbLine
 10
14.33308070905292
 20
-15.57555948766339
 30
0.0
 11
15.28413539417789
 21
-15.57555948766339
 31
0.0
  0
LINE
  5
35
330
1C
100
AcDbEntity
  8
0
  6
ByBlock
 62
     0
100
AcDbLine
 10
17.06852341263618
 20
-15.57555948766339
 30
0.0
 11
16.11746872751122
 21
-15.57555948766339
 31
0.0
  0
LINE
  5
36
330
1C
100
AcDbEntity
  8
0
  6
ByBlock
 62
     0
100
AcDbLine
 10
14.20808070905292
 20
-15.70055948766339
 30
0.0
 11
14.45808070905292
 21
-15.45055948766339
 31
0.0
  0
LINE
  5
37
330
1C
100
AcDbEntity
  8
0
  6
ByBlock
 62
     0
100
AcDbLine
 10
16.94352341263618
 20
-15.70055948766339
 30
0.0
 11
17.19352341263618
 21
-15.45055948766339
 31
0.0
  0
TEXT
  5
38
330
1C
100
AcDbEntity
  8
0
  6
ByBlock
 62
     0
100
AcDbText
 10
15.40913539417789
 20
-15.63805948766339
 30
0.0
 40
0.125
  1
2 3/4
 72
     1
 11
15.70080206084455
 21
-15.57555948766339
 31
0.0
100
AcDbText
 73
     2
  0
POINT
  5
39
330
1C
100
AcDbEntity
  8
DEFPOINTS
  6
ByBlock
 62
     0
100
AcDbPoint
 10
14.33308070905292
 20
-15.86907860360492
 30
0.0
  0
POINT
  5
3A
330
1C
100
AcDbEntity
  8
DEFPOINTS
  6
ByBlock
 62
     0
100
AcDbPoint
 10
17.06852341263618
 20
-15.95748452623078
 30
0.0
  0
POINT
  5
3B
330
1C
100
AcDbEntity
  8
DEFPOINTS
  6
ByBlock
 62
     0
100
AcDbPoint
 10
17.06852341263618
 20
-15.57555948766339
 30
0.0
  0
ENDBLK
  5
3C
330
1C
100
AcDbEntity
  8
0
100
AcDbBlockEnd
  0
BLOCK
  5
3D
330
1D
100
AcDbEntity
  8
0
100
AcDbBlockBegin
  2
*D1
 70
     1
 10
0.0
 20
0.0
 30
0.0
  3
*D1
  1

  0
LINE
  5
3E
330
1D
100
AcDbEntity
  8
0
  6
ByBlock
 62
     0
100
AcDbLine
 10
14.93665863593825
 20
-16.52981996517619
 30
0.0
 11
14.93665863593825
 21
-16.835836232298
 31
0.0
  0
LINE
  5
3F
330
1D
100
AcDbEntity
  8
0
  6
ByBlock
 62
     0
100
AcDbLine
 10
16.47075261445504
 20
-16.52981996517619
 30
0.0
 11
16.47075261445504
 21
-16.835836232298
 31
0.0
  0
LINE
  5
40
330
1D
100
AcDbEntity
  8
0
  6
ByBlock
 62
     0
100
AcDbLine
 10
14.93665863593825
 20
-16.655836232298
 30
0.0
 11
15.26620562519665
 21
-16.655836232298
 31
0.0
  0
LINE
  5
41
330
1D
100
AcDbEntity
  8
0
  6
ByBlock
 62
     0
100
AcDbLine
 10
16.47075261445504
 20
-16.655836232298
 30
0.0
 11
16.14120562519665
 21
-16.655836232298
 31
0.0
  0
LINE
  5
42
330
1D
100
AcDbEntity
  8
0
  6
ByBlock
 62
     0
100
AcDbLine
 10
14.81165863593825
 20
-16.780836232298
 30
0.0
 11
15.06165863593825
 21
-16.530836232298
 31
0.0
  0
LINE
  5
43
330
1D
100
AcDbEntity
  8
0
  6
ByBlock
 62
     0
100
AcDbLine
 10
16.34575261445504
 20
-16.780836232298
 30
0.0
 11
16.59575261445504
 21
-16.530836232298
 31
0.0
  0
TEXT
  5
44
330
1D
100
AcDbEntity
  8
0
  6
ByBlock
 62
     0
100
AcDbText
 10
15.39120562519665
 20
-16.718336232298
 30
0.0
 40
0.125
  1
1 9/16
 72
     1
 11
15.70370562519665
 21
-16.655836232298
 31
0.0
100
AcDbText
 73
     2
  0
POINT
  5
45
330
1D
100
AcDbEntity
  8
DEFPOINTS
  6
ByBlock
 62
     0
100
AcDbPoint
 10
14.93665863593825
 20
-16.46731996517619
 30
0.0
  0
POINT
  5
46
330
1D
100
AcDbEntity
  8
DEFPOINTS
  6
ByBlock
 62
     0
100
AcDbPoint
 10
16.47075261445504
 20
-16.46731996517619
 30
0.0
  0
POINT
  5
47
330
1D
100
AcDbEntity
  8
DEFPOINTS
  6
ByBlock
 62
     0
100
AcDbPoint
 10
16.47075261445504
 20
-16.655836232298
 30
0.0
  0
ENDBLK
  5
48
330
1D
100
AcDbEntity
  8
0
100
AcDbBlockEnd
  0
BLOCK
  5
95
330
23
100
AcDbEntity
  8
0
100
AcDbBlockBegin
  2
*D2
 70
     1
 10
0.0
 20
0.0
 30
0.0
  3
*D2
  1

  0
LINE
  5
96
330
23
100
AcDbEntity
  8
0
  6
ByBlock
 62
     0
100
AcDbLine
 10
12.40907293090997
 20
-4.078241388858971
 30
0.0
 11
14.42161758780416
 21
-6.280974111796403
 31
0.0
  0
LINE
  5
97
330
23
100
AcDbEntity
  8
0
  6
ByBlock
 62
     0
100
AcDbLine
 10
12.23247589370033
 20
-4.070273550458449
 30
0.0
 11
12.58566996811961
 21
-4.086209227259491
 31
0.0
  0
TEXT
  5
98
330
23
100
AcDbEntity
  8
0
  6
ByBlock
 62
     0
100
AcDbText
 10
14.45979096830618
 20
-6.415413849303764
 30
0.0
 40
0.125
  1
R3
 50
312.4166378140907
 72
     1
 11
14.57619435337919
 21
-6.450158581105717
 31
0.0
100
AcDbText
 73
     2
  0
POINT
  5
99
330
23
100
AcDbEntity
  8
DEFPOINTS
  6
ByBlock
 62
     0
100
AcDbPoint
 10
12.40907293090997
 20
-4.078241388858971
 30
0.0
  0
POINT
  5
9A
330
23
100
AcDbEntity
  8
DEFPOINTS
  6
ByBlock
 62
     0
100
AcDbPoint
 10
14.43262331661941
 20
-6.293019896180905
 30
0.0
  0
ENDBLK
  5
9B
330
23
100
AcDbEntity
  8
0
100
AcDbBlockEnd
  0
BLOCK
  5
B4
330
26
100
AcDbEntity
  8
0
100
AcDbBlockBegin
  2
*D3
 70
     1
 10
0.0
 20
0.0
 30
0.0
  3
*D3
  1

  0
LINE
  5
B5
330
26
100
AcDbEntity
  8
0
  6
ByBlock
 62
     0
100
AcDbLine
 10
12.86834824430193
 20
-8.793019896180906
 30
0.0
 11
13.81430012826995
 21
-8.793019896180906
 31
0.0
  0
LINE
  5
B6
330
26
100
AcDbEntity
  8
0
  6
ByBlock
 62
     0
100
AcDbLine
 10
14.35911758780416
 20
-6.280974111796403
 30
0.0
 11
13.45430012826995
 21
-6.280974111796403
 31
0.0
  0
LINE
  5
B7
330
26
100
AcDbEntity
  8
0
  6
ByBlock
 62
     0
100
AcDbLine
 10
13.63430012826995
 20
-8.793019896180906
 30
0.0
 11
13.63430012826995
 21
-7.932830337321988
 31
0.0
  0
LINE
  5
B8
330
26
100
AcDbEntity
  8
0
  6
ByBlock
 62
     0
100
AcDbLine
 10
13.63430012826995
 20
-6.280974111796403
 30
0.0
 11
13.63430012826995
 21
-7.141163670655322
 31
0.0
  0
LINE
  5
B9
330
26
100
AcDbEntity
  8
0
  6
ByBlock
 62
     0
100
AcDbLine
 10
13.75930012826995
 20
-8.918019896180906
 30
0.0
 11
13.50930012826995
 21
-8.668019896180906
 31
0.0
  0
LINE
  5
BA
330
26
100
AcDbEntity
  8
0
  6
ByBlock
 62
     0
100
AcDbLine
 10
13.75930012826995
 20
-6.405974111796403
 30
0.0
 11
13.50930012826995
 21
-6.155974111796403
 31
0.0
  0
TEXT
  5
BB
330
26
100
AcDbEntity
  8
0
  6
ByBlock
 62
     0
100
AcDbText
 10
13.69680012826995
 20
-7.807830337321988
 30
0.0
 40
0.125
  1
2 1/2
 50
90.0
 72
     1
 11
13.63430012826995
 21
-7.536997003988655
 31
0.0
100
AcDbText
 73
     2
  0
POINT
  5
BC
330
26
100
AcDbEntity
  8
DEFPOINTS
  6
ByBlock
 62
     0
100
AcDbPoint
 10
12.80584824430193
 20
-8.793019896180906
 30
0.0
  0
POINT
  5
BD
330
26
100
AcDbEntity
  8
DEFPOINTS
  6
ByBlock
 62
     0
100
AcDbPoint
 10
14.42161758780416
 20
-6.280974111796403
 30
0.0
  0
POINT
  5
BE
330
26
100
AcDbEntity
  8
DEFPOINTS
  6
ByBlock
 62
     0
100
AcDbPoint
 10
13.63430012826995
 20
-6.280974111796403
 30
0.0
  0
ENDBLK
  5
BF
330
26
100
AcDbEntity
  8
0
100
AcDbBlockEnd
  0
BLOCK
  5
250
330
24F
100
AcDbEntity
  8
0
100
AcDbBlockBegin
  2
*D4
 70
     1
 10
0.0
 20
0.0
 30
0.0
  3
*D4
  1

  0
LINE
  5
251
330
24F
100
AcDbEntity
  8
ADPDIM
 62
     0
370
    -2
100
AcDbLine
 10
14.93665863593825
 20
-16.52981996517619
 30
0.0
 11
14.93665863593825
 21
-16.835836232298
 31
0.0
  0
LINE
  5
252
330
24F
100
AcDbEntity
  8
ADPDIM
 62
     0
370
    -2
100
AcDbLine
 10
16.47075261445504
 20
-16.52981996517619
 30
0.0
 11
16.47075261445504
 21
-16.835836232298
 31
0.0
  0
LINE
  5
253
330
24F
100
AcDbEntity
  8
ADPDIM
 62
     0
370
    -2
100
AcDbLine
 10
14.93665863593825
 20
-16.655836232298
 30
0.0
 11
15.20370562519665
 21
-16.655836232298
 31
0.0
  0
LINE
  5
254
330
24F
100
AcDbEntity
  8
ADPDIM
 62
     0
370
    -2
100
AcDbLine
 10
16.47075261445504
 20
-16.655836232298
 30
0.0
 11
16.20370562519665
 21
-16.655836232298
 31
0.0
  0
LINE
  5
255
330
24F
100
AcDbEntity
  8
ADPDIM
 62
     0
370
    -2
100
AcDbLine
 10
16.34575261445504
 20
-16.780836232298
 30
0.0
 11
16.59575261445504
 21
-16.530836232298
 31
0.0
  0
LINE
  5
256
330
24F
100
AcDbEntity
  8
ADPDIM
 62
     0
370
    -2
100
AcDbLine
 10
14.81165863593825
 20
-16.780836232298
 30
0.0
 11
15.06165863593825
 21
-16.530836232298
 31
0.0
  0
MTEXT
  5
257
330
24F
100
AcDbEntity
  8
ADPDIM
 62
     0
100
AcDbMText
 10
15.70370562519665
 20
-16.655836232298
 30
0.0
 40
0.125
 41
0.0
 71
     5
 72
     1
  1
\A1;1 17/32
 73
     1
 44
1.0
1001
ACAD
1000
MTEXTBEGIN
1070
    73
1070
     1
1070
    44
1040
1.0
1070
    74
1070
     0
1000
MTEXTEND
  0
POINT
  5
258
330
24F
100
AcDbEntity
  8
DEFPOINTS
 62
     0
100
AcDbPoint
 10
14.93665863593825
 20
-16.46731996517619
 30
0.0
  0
POINT
  5
259
330
24F
100
AcDbEntity
  8
DEFPOINTS
 62
     0
100
AcDbPoint
 10
16.47075261445504
 20
-16.46731996517619
 30
0.0
  0
POINT
  5
25A
330
24F
100
AcDbEntity
  8
DEFPOINTS
 62
     0
100
AcDbPoint
 10
16.47075261445504
 20
-16.655836232298
 30
0.0
  0
ENDBLK
  5
25B
330
24F
100
AcDbEntity
  8
0
100
AcDbBlockEnd
  0
BLOCK
  5
25D
330
25C
100
AcDbEntity
  8
0
 62
     3
100
AcDbBlockBegin
  2
*D5
 70
     1
 10
0.0
 20
0.0
 30
0.0
  3
*D5
  1

  0
LINE
  5
25E
330
25C
100
AcDbEntity
  8
ADPDIM
 62
     0
370
    -2
100
AcDbLine
 10
15.06137952082994
 20
-16.21846058870286
 30
0.0
 11
15.06137952082994
 21
-16.5075281353129
 31
0.0
  0
LINE
  5
25F
330
25C
100
AcDbEntity
  8
ADPDIM
 62
     0
370
    -2
100
AcDbLine
 10
16.34262952082994
 20
-16.21846058870286
 30
0.0
 11
16.34262952082994
 21
-16.5075281353129
 31
0.0
  0
LINE
  5
260
330
25C
100
AcDbEntity
  8
ADPDIM
 62
     0
370
    -2
100
AcDbLine
 10
15.06137952082994
 20
-16.32752813531291
 30
0.0
 11
15.24367118749661
 21
-16.32752813531291
 31
0.0
  0
LINE
  5
261
330
25C
100
AcDbEntity
  8
ADPDIM
 62
     0
370
    -2
100
AcDbLine
 10
16.34262952082994
 20
-16.32752813531291
 30
0.0
 11
16.16033785416327
 21
-16.32752813531291
 31
0.0
  0
LINE
  5
262
330
25C
100
AcDbEntity
  8
ADPDIM
 62
     0
370
    -2
100
AcDbLine
 10
16.21762952082994
 20
-16.4525281353129
 30
0.0
 11
16.46762952082994
 21
-16.20252813531291
 31
0.0
  0
LINE
  5
263
330
25C
100
AcDbEntity
  8
ADPDIM
 62
     0
370
    -2
100
AcDbLine
 10
14.93637952082994
 20
-16.4525281353129
 30
0.0
 11
15.18637952082994
 21
-16.20252813531291
 31
0.0
  0
MTEXT
  5
264
330
25C
100
AcDbEntity
  8
ADPDIM
 62
     0
100
AcDbMText
 10
15.70200452082994
 20
-16.32752813531291
 30
0.0
 40
0.125
 41
0.0
 71
     5
 72
     1
  1
\A1;1 9/32
 73
     1
 44
1.0
1001
ACAD
1000
MTEXTBEGIN
1070
    73
1070
     1
1070
    44
1040
1.0
1070
    74
1070
     0
1000
MTEXTEND
  0
POINT
  5
265
330
25C
100
AcDbEntity
  8
DEFPOINTS
 62
     0
100
AcDbPoint
 10
15.06137952082994
 20
-16.15596058870286
 30
0.0
  0
POINT
  5
266
330
25C
100
AcDbEntity
  8
DEFPOINTS
 62
     0
100
AcDbPoint
 10
16.34262952082994
 20
-16.15596058870286
 30
0.0
  0
POINT
  5
267
330
25C
100
AcDbEntity
  8
DEFPOINTS
 62
     0
100
AcDbPoint
 10
16.34262952082994
 20
-16.32752813531291
 30
0.0
  0
ENDBLK
  5
268
330
25C
100
AcDbEntity
  8
0
 62
     3
100
AcDbBlockEnd
  0
BLOCK
  5
27D
330
272
100
AcDbEntity
  8
0
100
AcDbBlockBegin
  2
*D7
 70
     1
 10
0.0
 20
0.0
 30
0.0
  3
*D7
  1

  0
LINE
  5
28C
330
272
100
AcDbEntity
  8
ADPDIM
 62
     0
370
    -2
100
AcDbLine
 10
10.74654763067705
 20
-10.41411160041005
 30
0.0
 11
10.74654763067705
 21
-10.72012786753186
 31
0.0
  0
LINE
  5
28D
330
272
100
AcDbEntity
  8
ADPDIM
 62
     0
370
    -2
100
AcDbLine
 10
12.28064160919384
 20
-10.41411160041005
 30
0.0
 11
12.28064160919384
 21
-10.72012786753186
 31
0.0
  0
LINE
  5
28E
330
272
100
AcDbEntity
  8
ADPDIM
 62
     0
370
    -2
100
AcDbLine
 10
10.74654763067705
 20
-10.54012786753186
 30
0.0
 11
11.01359461993545
 21
-10.54012786753186
 31
0.0
  0
LINE
  5
28F
330
272
100
AcDbEntity
  8
ADPDIM
 62
     0
370
    -2
100
AcDbLine
 10
12.28064160919384
 20
-10.54012786753186
 30
0.0
 11
12.01359461993545
 21
-10.54012786753186
 31
0.0
  0
LINE
  5
290
330
272
100
AcDbEntity
  8
ADPDIM
 62
     0
370
    -2
100
AcDbLine
 10
12.15564160919385
 20
-10.66512786753186
 30
0.0
 11
12.40564160919384
 21
-10.41512786753186
 31
0.0
  0
LINE
  5
291
330
272
100
AcDbEntity
  8
ADPDIM
 62
     0
370
    -2
100
AcDbLine
 10
10.62154763067705
 20
-10.66512786753186
 30
0.0
 11
10.87154763067705
 21
-10.41512786753186
 31
0.0
  0
MTEXT
  5
292
330
272
100
AcDbEntity
  8
ADPDIM
 62
     0
100
AcDbMText
 10
11.51359461993545
 20
-10.54012786753186
 30
0.0
 40
0.125
 41
0.0
 71
     5
 72
     1
  1
\A1;1 17/32
 73
     1
 44
1.0
1001
ACAD
1000
MTEXTBEGIN
1070
    73
1070
     1
1070
    44
1040
1.0
1070
    74
1070
     0
1000
MTEXTEND
  0
POINT
  5
293
330
272
100
AcDbEntity
  8
DEFPOINTS
 62
     0
100
AcDbPoint
 10
10.74654763067705
 20
-10.35161160041005
 30
0.0
  0
POINT
  5
294
330
272
100
AcDbEntity
  8
DEFPOINTS
 62
     0
100
AcDbPoint
 10
12.28064160919384
 20
-10.35161160041005
 30
0.0
  0
POINT
  5
295
330
272
100
AcDbEntity
  8
DEFPOINTS
 62
     0
100
AcDbPoint
 10
12.28064160919384
 20
-10.54012786753186
 30
0.0
  0
ENDBLK
  5
27E
330
272
100
AcDbEntity
  8
0
100
AcDbBlockEnd
  0
BLOCK
  5
28A
330
27F
100
AcDbEntity
  8
0
100
AcDbBlockBegin
  2
*D8
 70
     1
 10
0.0
 20
0.0
 30
0.0
  3
*D8
  1

  0
LINE
  5
296
330
27F
100
AcDbEntity
  8
ADPDIM
 62
     0
370
    -2
100
AcDbLine
 10
10.87126851556874
 20
-10.10275222393672
 30
0.0
 11
10.87126851556874
 21
-10.39181977054677
 31
0.0
  0
LINE
  5
297
330
27F
100
AcDbEntity
  8
ADPDIM
 62
     0
370
    -2
100
AcDbLine
 10
12.15251851556875
 20
-10.10275222393672
 30
0.0
 11
12.15251851556875
 21
-10.39181977054677
 31
0.0
  0
LINE
  5
298
330
27F
100
AcDbEntity
  8
ADPDIM
 62
     0
370
    -2
100
AcDbLine
 10
10.87126851556874
 20
-10.21181977054677
 30
0.0
 11
11.05356018223541
 21
-10.21181977054677
 31
0.0
  0
LINE
  5
299
330
27F
100
AcDbEntity
  8
ADPDIM
 62
     0
370
    -2
100
AcDbLine
 10
12.15251851556875
 20
-10.21181977054677
 30
0.0
 11
11.97022684890208
 21
-10.21181977054677
 31
0.0
  0
LINE
  5
29A
330
27F
100
AcDbEntity
  8
ADPDIM
 62
     0
370
    -2
100
AcDbLine
 10
12.02751851556875
 20
-10.33681977054677
 30
0.0
 11
12.27751851556875
 21
-10.08681977054677
 31
0.0
  0
LINE
  5
29B
330
27F
100
AcDbEntity
  8
ADPDIM
 62
     0
370
    -2
100
AcDbLine
 10
10.74626851556874
 20
-10.33681977054677
 30
0.0
 11
10.99626851556874
 21
-10.08681977054677
 31
0.0
  0
MTEXT
  5
29C
330
27F
100
AcDbEntity
  8
ADPDIM
 62
     0
100
AcDbMText
 10
11.51189351556874
 20
-10.21181977054677
 30
0.0
 40
0.125
 41
0.0
 71
     5
 72
     1
  1
\A1;1 9/32
 73
     1
 44
1.0
1001
ACAD
1000
MTEXTBEGIN
1070
    73
1070
     1
1070
    44
1040
1.0
1070
    74
1070
     0
1000
MTEXTEND
  0
POINT
  5
29D
330
27F
100
AcDbEntity
  8
DEFPOINTS
 62
     0
100
AcDbPoint
 10
10.87126851556874
 20
-10.04025222393672
 30
0.0
  0
POINT
  5
29E
330
27F
100
AcDbEntity
  8
DEFPOINTS
 62
     0
100
AcDbPoint
 10
12.15251851556875
 20
-10.04025222393672
 30
0.0
  0
POINT
  5
29F
330
27F
100
AcDbEntity
  8
DEFPOINTS
 62
     0
100
AcDbPoint
 10
12.15251851556875
 20
-10.21181977054677
 30
0.0
  0
ENDBLK
  5
28B
330
27F
100
AcDbEntity
  8
0
100
AcDbBlockEnd
  0
ENDSEC
  0
SECTION
  2
ENTITIES
  0
LINE
  5
C0
330
18
100
AcDbEntity
  8
0
100
AcDbLine
 10
12.16009303104822
 20
-10.09235268224292
 30
0.0
 11
12.26009303104822
 21
-10.09235268224292
 31
0.0
  0
ARC
  5
C1
330
18
100
AcDbEntity
  8
0
100
AcDbCircle
 10
11.50959303104822
 20
-15.77935268224292
 30
0.0
 40
6.062
100
AcDbArc
 50
77.14144657021674
 51
89.98939599811327
  0
DIMENSION
  5
C3
330
18
100
AcDbEntity
  8
ADPDIM
100
AcDbDimension
  2
*D0
 10
12.878480769072
 20
-9.501951581203448
 30
0.0
 11
11.51075941728037
 21
-9.501951581203448
 31
0.0
 12
-4.190042643564183
 22
6.073607906459942
 32
0.0
 71
     5
 42
-1.0
100
AcDbAlignedDimension
 13
10.14303806548874
 23
-9.795470697144979
 33
0.0
 14
12.878480769072
 24
-9.883876619770843
 34
0.0
100
AcDbRotatedDimension
  0
ARC
  5
C4
330
18
100
AcDbEntity
  8
0
100
AcDbCircle
 10
11.51183687726575
 20
-15.77935268224292
 30
0.0
 40
6.062
100
AcDbArc
 50
90.01060400188672
 51
102.8585534297832
  0
LINE
  5
C5
330
18
100
AcDbEntity
  8
0
100
AcDbLine
 10
11.51183687726575
 20
-9.967352682242923
 30
0.0
 11
10.88133687726575
 21
-9.967352682242923
 31
0.0
  0
LINE
  5
C6
330
18
100
AcDbEntity
  8
0
100
AcDbLine
 10
10.74633687726575
 20
-10.10735268224292
 30
0.0
 11
10.74633687726575
 21
-10.32307450395295
 31
0.0
  0
LINE
  5
C7
330
18
100
AcDbEntity
  8
0
100
AcDbLine
 10
10.13990002515239
 20
-9.908246824186498
 30
0.0
 11
10.2278528663289
 21
-10.21088326622599
 31
0.0
  0
LINE
  5
C8
330
18
100
AcDbEntity
  8
0
100
AcDbLine
 10
10.72765007736109
 20
-10.33761436318415
 30
0.0
 11
10.2278528663289
 21
-10.21088326622599
 31
0.0
  0
ARC
  5
C9
330
18
100
AcDbEntity
  8
0
100
AcDbCircle
 10
10.73133687726575
 20
-10.32307450395295
 30
0.0
 40
0.0149999999999988
100
AcDbArc
 50
255.7716723370217
 51
0.0000000000033911
  0
ARC
  5
CA
330
18
100
AcDbEntity
  8
0
100
AcDbCircle
 10
10.16966836962103
 20
-9.899595485122723
 30
0.0
 40
0.031
100
AcDbArc
 50
102.858553429785
 51
196.2050326530363
  0
ARC
  5
CB
330
18
100
AcDbEntity
  8
0
100
AcDbCircle
 10
10.88133687726575
 20
-9.977352682242921
 30
0.0
 40
0.01
100
AcDbArc
 50
90.0
 51
180.0
  0
LINE
  5
CC
330
18
100
AcDbEntity
  8
0
100
AcDbLine
 10
10.87133687726575
 20
-9.977352682242921
 30
0.0
 11
10.87133687726575
 21
-10.08235268224292
 31
0.0
  0
ARC
  5
CD
330
18
100
AcDbEntity
  8
0
100
AcDbCircle
 10
10.86133687726575
 20
-10.08235268224292
 30
0.0
 40
0.01
100
AcDbArc
 50
270.0
 51
0.000000000000007
  0
ARC
  5
CE
330
18
100
AcDbEntity
  8
0
100
AcDbCircle
 10
10.76133687726575
 20
-10.10735268224292
 30
0.0
 40
0.0150000000000006
100
AcDbArc
 50
90.0
 51
180.0
  0
LINE
  5
CF
330
18
100
AcDbEntity
  8
0
100
AcDbLine
 10
10.86133687726575
 20
-10.09235268224292
 30
0.0
 11
10.76133687726575
 21
-10.09235268224292
 31
0.0
  0
LINE
  5
D0
330
18
100
AcDbEntity
  8
0
100
AcDbLine
 10
11.50959303104821
 20
-9.967352682242923
 30
0.0
 11
12.14009303104822
 21
-9.967352682242923
 31
0.0
  0
ARC
  5
D1
330
18
100
AcDbEntity
  8
0
100
AcDbCircle
 10
12.16009303104822
 20
-10.08235268224292
 30
0.0
 40
0.01
100
AcDbArc
 50
180.0
 51
270.0
  0
LINE
  5
D2
330
18
100
AcDbEntity
  8
0
100
AcDbLine
 10
12.15009303104821
 20
-9.977352682242921
 30
0.0
 11
12.15009303104821
 21
-10.08235268224292
 31
0.0
  0
ARC
  5
D3
330
18
100
AcDbEntity
  8
0
100
AcDbCircle
 10
12.14009303104822
 20
-9.977352682242921
 30
0.0
 40
0.01
100
AcDbArc
 50
0.0
 51
90.0
  0
LINE
  5
D4
330
18
100
AcDbEntity
  8
0
100
AcDbLine
 10
12.27509303104822
 20
-10.10735268224292
 30
0.0
 11
12.27509303104822
 21
-10.32307450395295
 31
0.0
  0
LINE
  5
D5
330
18
100
AcDbEntity
  8
0
100
AcDbLine
 10
12.88152988316157
 20
-9.908246824186498
 30
0.0
 11
12.79357704198507
 21
-10.21088326622599
 31
0.0
  0
ARC
  5
D6
330
18
100
AcDbEntity
  8
0
100
AcDbCircle
 10
12.29009303104821
 20
-10.32307450395295
 30
0.0
 40
0.0149999999999988
100
AcDbArc
 50
179.9999999999966
 51
284.2283276629783
  0
LINE
  5
D7
330
18
100
AcDbEntity
  8
0
100
AcDbLine
 10
12.29377983095288
 20
-10.33761436318415
 30
0.0
 11
12.79357704198507
 21
-10.21088326622599
 31
0.0
  0
ARC
  5
D8
330
18
100
AcDbEntity
  8
0
100
AcDbCircle
 10
12.26009303104822
 20
-10.10735268224292
 30
0.0
 40
0.0150000000000006
100
AcDbArc
 50
0.0
 51
90.0
  0
ARC
  5
D9
330
18
100
AcDbEntity
  8
0
100
AcDbCircle
 10
12.85176153869294
 20
-9.899595485122723
 30
0.0
 40
0.031
100
AcDbArc
 50
343.7949673469637
 51
77.14144657021492
  0
LINE
  5
DA
330
18
100
AcDbEntity
  8
ADP1DETAIL
100
AcDbLine
 10
14.43262331661941
 20
-1.918619844210073
 30
0.0
 11
16.93262331661941
 21
-1.918619844210073
 31
0.0
  0
LINE
  5
DB
330
18
100
AcDbEntity
  8
ADP3DETAIL
  6
CENTER2
100
AcDbLine
 10
18.18972168063337
 20
-3.293019896180904
 30
0.0
 11
14.43262331661941
 21
-3.293019896180904
 31
0.0
  0
LINE
  5
DC
330
18
100
AcDbEntity
  8
ADP1DETAIL
100
AcDbLine
 10
16.93262331661941
 20
-4.668619844210073
 30
0.0
 11
14.43262331661941
 21
-4.668619844210073
 31
0.0
  0
ARC
  5
DD
330
18
100
AcDbEntity
  8
ADP1DETAIL
100
AcDbCircle
 10
14.43262331661941
 20
-6.293019896180904
 30
0.0
 40
1.622369303251617
100
AcDbArc
 50
90.0
 51
180.0
  0
ARC
  5
DE
330
18
100
AcDbEntity
  8
ADP1DETAIL
100
AcDbCircle
 10
14.43262331661941
 20
-6.293019896180904
 30
0.0
 40
4.374400051970833
100
AcDbArc
 50
90.0
 51
180.0
  0
ARC
  5
DF
330
18
100
AcDbEntity
  8
ADP3DETAIL
  6
CENTER2
100
AcDbCircle
 10
14.43262331661941
 20
-6.293019896180904
 30
0.0
 40
3.0
100
AcDbArc
 50
90.0
 51
180.0
  0
DIMENSION
  5
E0
330
18
100
AcDbEntity
  8
ADPDIM
100
AcDbDimension
  2
*D2
 10
14.43262331661941
 20
-6.293019896180905
 30
0.0
 11
14.57619435337919
 21
-6.450158581105717
 31
0.0
 70
     4
 71
     5
 42
-1.0
100
AcDbRadialDimension
 15
12.40907293090997
 25
-4.078241388858971
 35
0.0
 40
-2.983683536284084
  0
LINE
  5
E1
330
18
100
AcDbEntity
  8
ADP1DETAIL
100
AcDbLine
 10
12.80822326464858
 20
-8.793019896180906
 30
0.0
 11
10.05822326464858
 21
-8.793019896180906
 31
0.0
  0
LINE
  5
E2
330
18
100
AcDbEntity
  8
ADP1DETAIL
100
AcDbLine
 10
10.05822326464858
 20
-8.793019896180906
 30
0.0
 11
10.05822326464858
 21
-6.293019896180904
 31
0.0
  0
LINE
  5
E3
330
18
100
AcDbEntity
  8
ADP3DETAIL
  6
CENTER2
100
AcDbLine
 10
11.43262331661941
 20
-6.293019896180904
 30
0.0
 11
11.43262331661941
 21
-9.167818291894079
 31
0.0
  0
DIMENSION
  5
E4
330
18
100
AcDbEntity
  8
ADPDIM
100
AcDbDimension
  2
*D3
 10
13.63430012826995
 20
-6.280974111796403
 30
0.0
 11
13.63430012826995
 21
-7.536997003988655
 31
0.0
 71
     5
 42
-1.0
100
AcDbAlignedDimension
 13
12.80584824430193
 23
-8.793019896180906
 33
0.0
 14
14.42161758780416
 24
-6.280974111796403
 34
0.0
 50
90.0
100
AcDbRotatedDimension
  0
LINE
  5
E5
330
18
100
AcDbEntity
  8
ADP1DETAIL
100
AcDbLine
 10
12.80822326464858
 20
-6.293019896180904
 30
0.0
 11
12.80822326464858
 21
-8.793019896180906
 31
0.0
  0
LINE
  5
E6
330
18
100
AcDbEntity
  8
ADP1DETAIL
100
AcDbLine
 10
16.93262331661941
 20
-1.918619844210073
 30
0.0
 11
16.93262331661941
 21
-4.668619844210073
 31
0.0
  0
TEXT
  5
F4
330
18
100
AcDbEntity
  8
ADPDIM
100
AcDbText
 10
4.302663307833444
 20
-11.35588441457293
 30
0.0
 40
0.1875
  1
J U L I U S  B L U M  &  C O . ,  I N C .      ( 8 0 0 )  5 2 6 - 6 2 9 3        W W W . J U L I U S B L U M . C O M        P A R T  N o .  4 5 7 4 - C
 41
1.25
  7
ARIAL_WIDE
 72
     1
 11
14.35496868811994
 21
-11.16838441457293
 31
0.0
100
AcDbText
 73
     3
  0
DIMENSION
  5
270
330
18
100
AcDbEntity
  8
ADPDIM
100
AcDbDimension
  2
*D7
 10
12.28064160919384
 20
-10.54012786753186
 30
0.0
 11
11.51359461993545
 21
-10.54012786753186
 31
0.0
 70
    32
 71
     5
 42
1.534093978516789
  3
STANDARD
100
AcDbAlignedDimension
 13
10.74654763067705
 23
-10.35161160041005
 33
0.0
 14
12.28064160919384
 24
-10.35161160041005
 34
0.0
100
AcDbRotatedDimension
1001
ACAD
1000
DSTYLE
1002
{
1070
   276
1070
     2
1070
   271
1070
     5
1070
   277
1070
     5
1070
    41
1040
0.125
1070
    73
1070
     0
1070
    74
1070
     0
1070
    78
1070
     3
1070
   140
1040
0.125
1070
   141
1040
0.1875
1070
   142
1040
0.125
1070
   147
1040
0.125
1070
   171
1070
     1
1002
}
  0
DIMENSION
  5
271
330
18
100
AcDbEntity
  8
ADPDIM
 62
     3
100
AcDbDimension
  2
*D8
 10
12.15251851556875
 20
-10.21181977054677
 30
0.0
 11
11.51189351556874
 21
-10.21181977054677
 31
0.0
 70
    32
 71
     5
 42
1.281250000000001
  3
STANDARD
100
AcDbAlignedDimension
 13
10.87126851556874
 23
-10.04025222393672
 33
0.0
 14
12.15251851556875
 24
-10.04025222393672
 34
0.0
100
AcDbRotatedDimension
1001
ACAD
1000
DSTYLE
1002
{
1070
   271
1070
     5
1070
   276
1070
     2
1070
   277
1070
     5
1070
    41
1040
0.125
1070
    73
1070
     0
1070
    74
1070
     0
1070
    78
1070
     3
1070
   140
1040
0.125
1070
   141
1040
0.1875
1070
   142
1040
0.125
1070
   147
1040
0.125
1070
   171
1070
     1
1002
}
  0
ENDSEC
  0
SECTION
  2
OBJECTS
  0
DICTIONARY
  5
C
330
0
100
AcDbDictionary
281
     1
  3
ACAD_COLOR
350
249
  3
ACAD_GROUP
350
D
  3
ACAD_LAYOUT
350
ED
  3
ACAD_MATERIAL
350
234
  3
ACAD_MLINESTYLE
350
E
  3
ACAD_PLOTSETTINGS
350
EE
  3
ACAD_PLOTSTYLENAME
350
EB
  3
ACAD_TABLESTYLE
350
24A
  3
ACAD_VISUALSTYLE
350
238
  3
AcDbVariableDictionary
350
14E
  3
DWGPROPS
350
2BF
  0
DICTIONARY
  5
148
330
18
100
AcDbDictionary
280
     1
281
     1
  3
ACAD_LAYOUTSELFREF
360
22E
  0
DICTIONARY
  5
146
330
15
100
AcDbDictionary
280
     1
281
     1
  3
ACAD_LAYOUTSELFREF
360
22D
  0
DICTIONARY
  5
249
102
{ACAD_REACTORS
330
C
102
}
330
C
100
AcDbDictionary
281
     1
  0
DICTIONARY
  5
D
102
{ACAD_REACTORS
330
C
102
}
330
C
100
AcDbDictionary
281
     1
  0
DICTIONARY
  5
ED
102
{ACAD_REACTORS
330
C
102
}
330
C
100
AcDbDictionary
281
     1
  3
Layout1
350
F0
  3
Model
350
EF
  0
DICTIONARY
  5
234
102
{ACAD_REACTORS
330
C
102
}
330
C
100
AcDbDictionary
281
     1
  3
ByBlock
350
236
  3
ByLayer
350
235
  3
Global
350
237
  0
DICTIONARY
  5
E
102
{ACAD_REACTORS
330
C
102
}
330
C
100
AcDbDictionary
281
     1
  3
STANDARD
350
1B
  0
DICTIONARY
  5
EE
102
{ACAD_REACTORS
330
C
102
}
330
C
100
AcDbDictionary
281
     1
  0
ACDBDICTIONARYWDFLT
  5
EB
102
{ACAD_REACTORS
330
C
102
}
330
C
100
AcDbDictionary
281
     1
  3
Normal
350
EC
100
AcDbDictionaryWithDefault
340
EC
  0
DICTIONARY
  5
24A
102
{ACAD_REACTORS
330
C
102
}
330
C
100
AcDbDictionary
281
     1
  3
Standard
350
24B
  0
DICTIONARY
  5
238
102
{ACAD_REACTORS
330
C
102
}
330
C
100
AcDbDictionary
281
     1
  3
2dWireframe
350
23E
  3
3D Hidden
350
240
  3
3dWireframe
350
23F
  3
Basic
350
23D
  3
Brighten
350
244
  3
ColorChange
350
248
  3
Conceptual
350
241
  3
Dim
350
243
  3
Facepattern
350
247
  3
Flat
350
239
  3
FlatWithEdges
350
23A
  3
Gouraud
350
23B
  3
GouraudWithEdges
350
23C
  3
Linepattern
350
246
  3
Realistic
350
242
  3
Thicken
350
245
  0
DICTIONARY
  5
14E
102
{ACAD_REACTORS
330
C
102
}
330
C
100
AcDbDictionary
281
     1
  3
CTABLESTYLE
350
2BC
  3
DIMASSOC
350
14F
  3
INDEXCTL
350
2BE
  3
SORTENTS
350
2BD
  0
XRECORD
  5
2BF
102
{ACAD_REACTORS
330
C
102
}
330
C
100
AcDbXrecord
280
     1
  1
DWGPROPS COOKIE
  2

  3

  4

  6

  7

  8
Yu Hu
  9

300
=
301
=
302
=
303
=
304
=
305
=
306
=
307
=
308
=
309
=
 40
0.0147997222222222
 41
2450406.680199456
 42
2453961.660567766
  1

 90
        0
  0
XRECORD
  5
22E
102
{ACAD_REACTORS
330
148
102
}
330
148
100
AcDbXrecord
280
     1
340
18
  0
XRECORD
  5
22D
102
{ACAD_REACTORS
330
146
102
}
330
146
100
AcDbXrecord
280
     1
340
15
  0
LAYOUT
  5
F0
102
{ACAD_XDICTIONARY
360
2C2
102
}
102
{ACAD_REACTORS
330
ED
102
}
330
ED
100
AcDbPlotSettings
  1

  2
Fax
  4

  6

 40
0.0
 41
0.0
 42
0.0
 43
0.0
 44
0.0
 45
0.0
 46
0.0
 47
0.0
 48
0.0
 49
0.0
140
0.0
141
0.0
142
1.0
143
1.0
 70
   688
 72
     0
 73
     0
 74
     5
  7
Default R14 pen assignments.ctb
 75
    16
147
1.0
148
0.0
149
0.0
100
AcDbLayout
  1
Layout1
 70
     1
 71
     1
 10
0.0
 20
0.0
 11
12.0
 21
9.0
 12
0.0008545028977096
 22
1.250283272183907
 32
0.0
 14
1.000000000000000E+20
 24
1.000000000000000E+20
 34
1.000000000000000E+20
 15
-1.000000000000000E+20
 25
-1.000000000000000E+20
 35
-1.000000000000000E+20
146
0.0
 13
0.0
 23
0.0
 33
0.0
 16
1.0
 26
0.0
 36
0.0
 17
0.0
 27
1.0
 37
0.0
 76
     0
330
15
  0
LAYOUT
  5
EF
102
{ACAD_XDICTIONARY
360
2C0
102
}
102
{ACAD_REACTORS
330
ED
102
}
330
ED
100
AcDbPlotSettings
  1

  2
Fax
  4

  6

 40
0.0
 41
0.0
 42
0.0
 43
0.0
 44
0.0
 45
0.0
 46
0.0
 47
0.0
 48
0.0
 49
0.0
140
0.0
141
0.0
142
1.0
143
1.0
 70
  1712
 72
     0
 73
     0
 74
     0
  7
Default R14 pen assignments.ctb
 75
     0
147
1.0
148
0.0
149
0.0
100
AcDbLayout
  1
Model
 70
     1
 71
     0
 10
0.0
 20
0.0
 11
12.0
 21
9.0
 12
0.0
 22
0.0
 32
0.0
 14
0.0
 24
0.0
 34
0.0
 15
0.0
 25
0.0
 35
0.0
146
0.0
 13
0.0
 23
0.0
 33
0.0
 16
1.0
 26
0.0
 36
0.0
 17
0.0
 27
1.0
 37
0.0
 76
     0
330
18
331
208
  0
MATERIAL
  5
236
102
{ACAD_XDICTIONARY
360
2C6
102
}
102
{ACAD_REACTORS
330
234
102
}
330
234
100
AcDbMaterial
  1
ByBlock
  0
MATERIAL
  5
235
102
{ACAD_XDICTIONARY
360
2C4
102
}
102
{ACAD_REACTORS
330
234
102
}
330
234
100
AcDbMaterial
  1
ByLayer
  0
MATERIAL
  5
237
102
{ACAD_XDICTIONARY
360
2C8
102
}
102
{ACAD_REACTORS
330
234
102
}
330
234
100
AcDbMaterial
  1
Global
  0
MLINESTYLE
  5
1B
102
{ACAD_REACTORS
330
E
102
}
330
E
100
AcDbMlineStyle
  2
STANDARD
 70
     0
  3

 62
     0
 51
90.0
 52
90.0
 71
     2
 49
0.5
 62
   256
  6
BYLAYER
 49
-0.5
 62
   256
  6
BYLAYER
  0
ACDBPLACEHOLDER
  5
EC
102
{ACAD_REACTORS
330
EB
102
}
330
EB
  0
TABLESTYLE
  5
24B
102
{ACAD_XDICTIONARY
360
2CA
102
}
102
{ACAD_REACTORS
330
24A
102
}
330
24A
100
AcDbTableStyle
  3
Standard
 70
     0
 71
     0
 40
0.06
 41
0.06
280
     0
281
     0
  7
STANDARD
140
0.18
170
     2
 62
     0
 63
     7
283
     0
274
    -2
284
     1
 64
     0
275
    -2
285
     1
 65
     0
276
    -2
286
     1
 66
     0
277
    -2
287
     1
 67
     0
278
    -2
288
     1
 68
     0
279
    -2
289
     1
 69
     0
  7
STANDARD
140
0.25
170
     5
 62
     0
 63
     7
283
     0
274
    -2
284
     1
 64
     0
275
    -2
285
     1
 65
     0
276
    -2
286
     1
 66
     0
277
    -2
287
     1
 67
     0
278
    -2
288
     1
 68
     0
279
    -2
289
     1
 69
     0
  7
STANDARD
140
0.18
170
     5
 62
     0
 63
     7
283
     0
274
    -2
284
     1
 64
     0
275
    -2
285
     1
 65
     0
276
    -2
286
     1
 66
     0
277
    -2
287
     1
 67
     0
278
    -2
288
     1
 68
     0
279
    -2
289
     1
 69
     0
  0
VISUALSTYLE
  5
23E
102
{ACAD_REACTORS
330
238
102
}
330
238
100
AcDbVisualStyle
  2
2dWireframe
 70
     4
 71
     0
 72
     2
 73
     0
 90
        0
 40
-0.6
 41
-30.0
 62
     5
 63
     7
 74
     1
 91
        4
 64
     7
 65
   257
 75
     1
175
     1
 42
1.0
 92
        0
 66
   257
 43
1.0
 76
     1
 77
     6
 78
     2
 67
     7
 79
     5
170
     0
171
     0
290
     0
174
     0
 93
        1
 44
0.0
173
     0
291
     0
 45
0.0
1001
ACAD
1000
AcDbSavedByObjectVersion
1070
     0
  0
VISUALSTYLE
  5
240
102
{ACAD_REACTORS
330
238
102
}
330
238
100
AcDbVisualStyle
  2
3D Hidden
 70
     6
 71
     1
 72
     2
 73
     2
 90
        0
 40
-0.6
 41
-30.0
 62
     5
 63
     7
 74
     2
 91
        2
 64
     7
 65
   257
 75
     2
175
     1
 42
40.0
 92
        0
 66
   257
 43
1.0
 76
     1
 77
     6
 78
     2
 67
     7
 79
     3
170
     0
171
     0
290
     0
174
     0
 93
        1
 44
0.0
173
     0
291
     0
 45
0.0
1001
ACAD
1000
AcDbSavedByObjectVersion
1070
     0
  0
VISUALSTYLE
  5
23F
102
{ACAD_REACTORS
330
238
102
}
330
238
100
AcDbVisualStyle
  2
3dWireframe
 70
     5
 71
     0
 72
     2
 73
     0
 90
        0
 40
-0.6
 41
-30.0
 62
     5
 63
     7
 74
     1
 91
        4
 64
     7
 65
   257
 75
     1
175
     1
 42
1.0
 92
        0
 66
   257
 43
1.0
 76
     1
 77
     6
 78
     2
 67
     7
 79
     5
170
     0
171
     0
290
     0
174
     0
 93
        1
 44
0.0
173
     0
291
     0
 45
0.0
1001
ACAD
1000
AcDbSavedByObjectVersion
1070
     0
  0
VISUALSTYLE
  5
23D
102
{ACAD_REACTORS
330
238
102
}
330
238
100
AcDbVisualStyle
  2
Basic
 70
     7
 71
     1
 72
     0
 73
     1
 90
        0
 40
-0.6
 41
-30.0
 62
     5
 63
     7
 74
     0
 91
        4
 64
     7
 65
   257
 75
     1
175
     1
 42
1.0
 92
        8
 66
     7
 43
1.0
 76
     1
 77
     6
 78
     2
 67
     7
 79
     5
170
     0
171
     0
290
     0
174
     0
 93
        1
 44
0.0
173
     0
291
     1
 45
0.0
1001
ACAD
1000
AcDbSavedByObjectVersion
1070
     0
  0
VISUALSTYLE
  5
244
102
{ACAD_REACTORS
330
238
102
}
330
238
100
AcDbVisualStyle
  2
Brighten
 70
    12
 71
     2
 72
     2
 73
     0
 90
        0
 40
-0.6
 41
-30.0
 62
     5
 63
     7
 74
     1
 91
        4
 64
     7
 65
   257
 75
     1
175
     1
 42
1.0
 92
        8
 66
     7
 43
1.0
 76
     1
 77
     6
 78
     2
 67
     7
 79
     5
170
     0
171
     0
290
     0
174
     0
 93
        1
 44
50.0
173
     0
291
     1
 45
0.0
1001
ACAD
1000
AcDbSavedByObjectVersion
1070
     0
  0
VISUALSTYLE
  5
248
102
{ACAD_REACTORS
330
238
102
}
330
238
100
AcDbVisualStyle
  2
ColorChange
 70
    16
 71
     2
 72
     2
 73
     3
 90
        0
 40
-0.6
 41
-30.0
 62
     5
 63
     8
 74
     1
 91
        4
 64
     7
 65
   257
 75
     1
175
     1
 42
1.0
 92
        8
 66
     8
 43
1.0
 76
     1
 77
     6
 78
     2
 67
     7
 79
     5
170
     0
171
     0
290
     0
174
     0
 93
        1
 44
0.0
173
     0
291
     1
 45
0.0
1001
ACAD
1000
AcDbSavedByObjectVersion
1070
     0
  0
VISUALSTYLE
  5
241
102
{ACAD_REACTORS
330
238
102
}
330
238
100
AcDbVisualStyle
  2
Conceptual
 70
     9
 71
     3
 72
     2
 73
     0
 90
        0
 40
-0.6
 41
-30.0
 62
     5
 63
     7
 74
     2
 91
        2
 64
     7
 65
   257
 75
     1
175
     1
 42
40.0
 92
        8
 66
     7
 43
1.0
 76
     1
 77
     6
 78
     2
 67
     7
 79
     3
170
     0
171
     0
290
     0
174
     0
 93
        1
 44
0.0
173
     0
291
     0
 45
0.0
1001
ACAD
1000
AcDbSavedByObjectVersion
1070
     0
  0
VISUALSTYLE
  5
243
102
{ACAD_REACTORS
330
238
102
}
330
238
100
AcDbVisualStyle
  2
Dim
 70
    11
 71
     2
 72
     2
 73
     0
 90
        0
 40
-0.6
 41
-30.0
 62
     5
 63
     7
 74
     1
 91
        4
 64
     7
 65
   257
 75
     1
175
     1
 42
1.0
 92
        8
 66
     7
 43
1.0
 76
     1
 77
     6
 78
     2
 67
     7
 79
     5
170
     0
171
     0
290
     0
174
     0
 93
        1
 44
-50.0
173
     0
291
     1
 45
0.0
1001
ACAD
1000
AcDbSavedByObjectVersion
1070
     0
  0
VISUALSTYLE
  5
247
102
{ACAD_REACTORS
330
238
102
}
330
238
100
AcDbVisualStyle
  2
Facepattern
 70
    15
 71
     2
 72
     2
 73
     0
 90
        0
 40
-0.6
 41
-30.0
 62
     5
 63
     7
 74
     1
 91
        4
 64
     7
 65
   257
 75
     1
175
     1
 42
1.0
 92
        8
 66
     7
 43
1.0
 76
     1
 77
     6
 78
     2
 67
     7
 79
     5
170
     0
171
     0
290
     0
174
     0
 93
        1
 44
0.0
173
     0
291
     1
 45
0.0
1001
ACAD
1000
AcDbSavedByObjectVersion
1070
     0
  0
VISUALSTYLE
  5
239
102
{ACAD_REACTORS
330
238
102
}
330
238
100
AcDbVisualStyle
  2
Flat
 70
     0
 71
     2
 72
     1
 73
     1
 90
        2
 40
-0.6
 41
30.0
 62
     5
 63
     7
 74
     0
 91
        4
 64
     7
 65
   257
 75
     1
175
     1
 42
1.0
 92
        8
 66
     7
 43
1.0
 76
     1
 77
     6
 78
     2
 67
     7
 79
     5
170
     0
171
     0
290
     0
174
     0
 93
       13
 44
0.0
173
     0
291
     1
 45
0.0
1001
ACAD
1000
AcDbSavedByObjectVersion
1070
     0
  0
VISUALSTYLE
  5
23A
102
{ACAD_REACTORS
330
238
102
}
330
238
100
AcDbVisualStyle
  2
FlatWithEdges
 70
     1
 71
     2
 72
     1
 73
     1
 90
        2
 40
-0.6
 41
30.0
 62
     5
 63
     7
 74
     1
 91
        4
 64
     7
 65
   257
 75
     1
175
     1
 42
1.0
 92
        0
 66
   257
 43
1.0
 76
     1
 77
     6
 78
     2
 67
     7
 79
     5
170
     0
171
     0
290
     0
174
     0
 93
       13
 44
0.0
173
     0
291
     1
 45
0.0
1001
ACAD
1000
AcDbSavedByObjectVersion
1070
     0
  0
VISUALSTYLE
  5
23B
102
{ACAD_REACTORS
330
238
102
}
330
238
100
AcDbVisualStyle
  2
Gouraud
 70
     2
 71
     2
 72
     2
 73
     1
 90
        2
 40
-0.6
 41
30.0
 62
     5
 63
     7
 74
     0
 91
        4
 64
     7
 65
   257
 75
     1
175
     1
 42
1.0
 92
        0
 66
     7
 43
1.0
 76
     1
 77
     6
 78
     2
 67
     7
 79
     5
170
     0
171
     0
290
     0
174
     0
 93
       13
 44
0.0
173
     0
291
     1
 45
0.0
1001
ACAD
1000
AcDbSavedByObjectVersion
1070
     0
  0
VISUALSTYLE
  5
23C
102
{ACAD_REACTORS
330
238
102
}
330
238
100
AcDbVisualStyle
  2
GouraudWithEdges
 70
     3
 71
     2
 72
     2
 73
     1
 90
        2
 40
-0.6
 41
30.0
 62
     5
 63
     7
 74
     1
 91
        4
 64
     7
 65
   257
 75
     1
175
     1
 42
1.0
 92
        0
 66
   257
 43
1.0
 76
     1
 77
     6
 78
     2
 67
     7
 79
     5
170
     0
171
     0
290
     0
174
     0
 93
       13
 44
0.0
173
     0
291
     1
 45
0.0
1001
ACAD
1000
AcDbSavedByObjectVersion
1070
     0
  0
VISUALSTYLE
  5
246
102
{ACAD_REACTORS
330
238
102
}
330
238
100
AcDbVisualStyle
  2
Linepattern
 70
    14
 71
     2
 72
     2
 73
     0
 90
        0
 40
-0.6
 41
-30.0
 62
     5
 63
     7
 74
     1
 91
        4
 64
     7
 65
   257
 75
     7
175
     7
 42
1.0
 92
        8
 66
     7
 43
1.0
 76
     1
 77
     6
 78
     2
 67
     7
 79
     5
170
     0
171
     0
290
     0
174
     0
 93
        1
 44
0.0
173
     0
291
     1
 45
0.0
1001
ACAD
1000
AcDbSavedByObjectVersion
1070
     0
  0
VISUALSTYLE
  5
242
102
{ACAD_REACTORS
330
238
102
}
330
238
100
AcDbVisualStyle
  2
Realistic
 70
     8
 71
     2
 72
     2
 73
     0
 90
        0
 40
-0.6
 41
-30.0
 62
     5
 63
     7
 74
     1
 91
        0
 64
     7
 65
   257
 75
     1
175
     1
 42
1.0
 92
        8
 66
     8
 43
1.0
 76
     1
 77
     6
 78
     2
 67
     7
 79
     5
170
     0
171
     0
290
     0
174
     0
 93
       13
 44
0.0
173
     0
291
     0
 45
0.0
1001
ACAD
1000
AcDbSavedByObjectVersion
1070
     0
  0
VISUALSTYLE
  5
245
102
{ACAD_REACTORS
330
238
102
}
330
238
100
AcDbVisualStyle
  2
Thicken
 70
    13
 71
     2
 72
     2
 73
     0
 90
        0
 40
-0.6
 41
-30.0
 62
     5
 63
     7
 74
     1
 91
        4
 64
     7
 65
   257
 75
     1
175
     1
 42
1.0
 92
       12
 66
     7
 43
1.0
 76
     1
 77
     6
 78
     2
 67
     7
 79
     5
170
     0
171
     0
290
     0
174
     0
 93
        1
 44
0.0
173
     0
291
     1
 45
0.0
1001
ACAD
1000
AcDbSavedByObjectVersion
1070
     0
  0
DICTIONARYVAR
  5
2BC
102
{ACAD_REACTORS
330
14E
102
}
330
14E
100
DictionaryVariables
280
     0
  1
STANDARD
  0
DICTIONARYVAR
  5
14F
102
{ACAD_REACTORS
330
14E
102
}
330
14E
100
DictionaryVariables
280
     0
  1
1
  0
DICTIONARYVAR
  5
2BE
102
{ACAD_REACTORS
330
14E
102
}
330
14E
100
DictionaryVariables
280
     0
  1
0
  0
DICTIONARYVAR
  5
2BD
102
{ACAD_REACTORS
330
14E
102
}
330
14E
100
DictionaryVariables
280
     0
  1
127
  0
DICTIONARY
  5
2C2
330
F0
100
AcDbDictionary
280
     1
281
     1
  3
ACAD_XREC_ROUNDTRIP
360
2C3
  0
DICTIONARY
  5
2C0
330
EF
100
AcDbDictionary
280
     1
281
     1
  3
ACAD_XREC_ROUNDTRIP
360
2C1
  0
DICTIONARY
  5
2C6
330
236
100
AcDbDictionary
280
     1
281
     1
  3
ACAD_XREC_ROUNDTRIP
360
2C7
  0
DICTIONARY
  5
2C4
330
235
100
AcDbDictionary
280
     1
281
     1
  3
ACAD_XREC_ROUNDTRIP
360
2C5
  0
DICTIONARY
  5
2C8
330
237
100
AcDbDictionary
280
     1
281
     1
  3
ACAD_XREC_ROUNDTRIP
360
2C9
  0
DICTIONARY
  5
2CA
330
24B
100
AcDbDictionary
280
     1
281
     1
  3
ACAD_XREC_ROUNDTRIP
360
2CB
  0
XRECORD
  5
2C3
102
{ACAD_REACTORS
330
2C2
102
}
330
2C2
100
AcDbXrecord
280
     1
102
SHADEPLOT
 70
     0
102
SHADEPLOTRESLEVEL
 70
     2
102
SHADEPLOTCUSTOMDPI
 70
   300
  0
XRECORD
  5
2C1
102
{ACAD_REACTORS
330
2C0
102
}
330
2C0
100
AcDbXrecord
280
     1
102
SHADEPLOT
 70
     0
102
SHADEPLOTRESLEVEL
 70
     2
102
SHADEPLOTCUSTOMDPI
 70
   300
  0
XRECORD
  5
2C7
102
{ACAD_REACTORS
330
2C6
102
}
330
2C6
100
AcDbXrecord
280
     1
102
MATERIAL
148
0.0
149
0.0
149
0.0
 93
        0
 94
       63
282
     0
 72
     1
 77
     1
171
     1
175
     1
179
     1
273
     0
  0
XRECORD
  5
2C5
102
{ACAD_REACTORS
330
2C4
102
}
330
2C4
100
AcDbXrecord
280
     1
102
MATERIAL
148
0.0
149
0.0
149
0.0
 93
        0
 94
       63
282
     0
 72
     1
 77
     1
171
     1
175
     1
179
     1
273
     0
  0
XRECORD
  5
2C9
102
{ACAD_REACTORS
330
2C8
102
}
330
2C8
100
AcDbXrecord
280
     1
102
MATERIAL
148
0.0
149
0.0
149
0.0
 93
        0
 94
       63
282
     0
 72
     1
 77
     1
171
     1
175
     1
179
     1
273
     0
  0
XRECORD
  5
2CB
102
{ACAD_REACTORS
330
2CA
102
}
330
2CA
100
AcDbXrecord
280
     1
102
ACAD_ROUNDTRIP_PRE2007_TABLESTYLE
 90
      512
 91
        0
  1

 92
      512
 93
        0
  2

 94
      512
 95
        0
  3

  0
ENDSEC
  0
EOF
