  0
SECTION
  2
HEADER
  9
$ACADVER
  1
AC1014
  9
$ACADMAINTVER
 70
     9
  9
$DWGCODEPAGE
  3
ANSI_1252
  9
$INSBASE
 10
-8.849810364320717
 20
-18.34306239152606
 30
0.0
  9
$EXTMIN
 10
-16.46616837496059
 20
-19.51635476350236
 30
0.0
  9
$EXTMAX
 10
-3.063094534578596
 20
-13.86290141038342
 30
0.0
  9
$LIMMIN
 10
0.0
 20
0.0
  9
$LIMMAX
 10
36.0
 20
36.0
  9
$ORTHOMODE
 70
     1
  9
$REGENMODE
 70
     1
  9
$FILLMODE
 70
     1
  9
$QTEXTMODE
 70
     0
  9
$MIRRTEXT
 70
     1
  9
$DRAGMODE
 70
     0
  9
$LTSCALE
 40
1.0
  9
$OSMODE
 70
    37
  9
$ATTMODE
 70
     1
  9
$TEXTSIZE
 40
0.2
  9
$TRACEWID
 40
0.05
  9
$TEXTSTYLE
  7
STANDARD
  9
$CLAYER
  8
ADPDIM
  9
$CELTYPE
  6
BYLAYER
  9
$CECOLOR
 62
   256
  9
$CELTSCALE
 40
1.0
  9
$DELOBJ
 70
     1
  9
$DISPSILH
 70
     0
  9
$DIMSCALE
 40
1.0
  9
$DIMASZ
 40
0.125
  9
$DIMEXO
 40
0.0625
  9
$DIMDLI
 40
0.38
  9
$DIMRND
 40
0.0
  9
$DIMDLE
 40
0.0
  9
$DIMEXE
 40
0.18
  9
$DIMTP
 40
0.0
  9
$DIMTM
 40
0.0
  9
$DIMTXT
 40
0.125
  9
$DIMCEN
 40
0.1875
  9
$DIMTSZ
 40
0.125
  9
$DIMTOL
 70
     0
  9
$DIMLIM
 70
     0
  9
$DIMTIH
 70
     0
  9
$DIMTOH
 70
     0
  9
$DIMSE1
 70
     0
  9
$DIMSE2
 70
     0
  9
$DIMTAD
 70
     0
  9
$DIMZIN
 70
     2
  9
$DIMBLK
  1

  9
$DIMASO
 70
     1
  9
$DIMSHO
 70
     1
  9
$DIMPOST
  1

  9
$DIMAPOST
  1

  9
$DIMALT
 70
     0
  9
$DIMALTD
 70
     1
  9
$DIMALTF
 40
25.4
  9
$DIMLFAC
 40
1.0
  9
$DIMTOFL
 70
     0
  9
$DIMTVP
 40
0.0
  9
$DIMTIX
 70
     0
  9
$DIMSOXD
 70
     0
  9
$DIMSAH
 70
     0
  9
$DIMBLK1
  1

  9
$DIMBLK2
  1

  9
$DIMSTYLE
  2
STANDARD
  9
$DIMCLRD
 70
     0
  9
$DIMCLRE
 70
     0
  9
$DIMCLRT
 70
     0
  9
$DIMTFAC
 40
1.0
  9
$DIMGAP
 40
0.125
  9
$DIMJUST
 70
     0
  9
$DIMSD1
 70
     0
  9
$DIMSD2
 70
     0
  9
$DIMTOLJ
 70
     1
  9
$DIMTZIN
 70
     0
  9
$DIMALTZ
 70
     0
  9
$DIMALTTZ
 70
     0
  9
$DIMFIT
 70
     3
  9
$DIMUPT
 70
     0
  9
$DIMUNIT
 70
     7
  9
$DIMDEC
 70
     2
  9
$DIMTDEC
 70
     4
  9
$DIMALTU
 70
     2
  9
$DIMALTTD
 70
     2
  9
$DIMTXSTY
  7
STANDARD
  9
$DIMAUNIT
 70
     0
  9
$LUNITS
 70
     5
  9
$LUPREC
 70
     4
  9
$SKETCHINC
 40
0.1
  9
$FILLETRAD
 40
0.062
  9
$AUNITS
 70
     0
  9
$AUPREC
 70
     0
  9
$MENU
  1
acad
  9
$ELEVATION
 40
0.0
  9
$PELEVATION
 40
0.0
  9
$THICKNESS
 40
0.0
  9
$LIMCHECK
 70
     0
  9
$BLIPMODE
 70
     0
  9
$CHAMFERA
 40
0.0
  9
$CHAMFERB
 40
0.0
  9
$CHAMFERC
 40
0.0
  9
$CHAMFERD
 40
0.0
  9
$SKPOLY
 70
     0
  9
$TDCREATE
 40
2450406.661392546
  9
$TDUPDATE
 40
2452297.088988530
  9
$TDINDWG
 40
0.0155740046
  9
$TDUSRTIMER
 40
0.0155740046
  9
$USRTIMER
 70
     1
  9
$ANGBASE
 50
0.0
  9
$ANGDIR
 70
     0
  9
$PDMODE
 70
     0
  9
$PDSIZE
 40
0.0
  9
$PLINEWID
 40
0.0
  9
$COORDS
 70
     2
  9
$SPLFRAME
 70
     0
  9
$SPLINETYPE
 70
     6
  9
$SPLINESEGS
 70
     8
  9
$ATTDIA
 70
     0
  9
$ATTREQ
 70
     1
  9
$HANDLING
 70
 22529
  9
$HANDSEED
  5
243
  9
$SURFTAB1
 70
     6
  9
$SURFTAB2
 70
     6
  9
$SURFTYPE
 70
     6
  9
$SURFU
 70
     6
  9
$SURFV
 70
     6
  9
$UCSNAME
  2

  9
$UCSORG
 10
0.0
 20
0.0
 30
0.0
  9
$UCSXDIR
 10
1.0
 20
0.0
 30
0.0
  9
$UCSYDIR
 10
0.0
 20
1.0
 30
0.0
  9
$PUCSNAME
  2

  9
$PUCSORG
 10
0.0
 20
0.0
 30
0.0
  9
$PUCSXDIR
 10
1.0
 20
0.0
 30
0.0
  9
$PUCSYDIR
 10
0.0
 20
1.0
 30
0.0
  9
$USERI1
 70
     0
  9
$USERI2
 70
     0
  9
$USERI3
 70
     0
  9
$USERI4
 70
     0
  9
$USERI5
 70
     0
  9
$USERR1
 40
0.0
  9
$USERR2
 40
0.0
  9
$USERR3
 40
0.0
  9
$USERR4
 40
0.0
  9
$USERR5
 40
0.0
  9
$WORLDVIEW
 70
     1
  9
$SHADEDGE
 70
     3
  9
$SHADEDIF
 70
    70
  9
$TILEMODE
 70
     1
  9
$MAXACTVP
 70
    15
  9
$PINSBASE
 10
0.0008545028977096
 20
1.250283272183907
 30
0.0
  9
$PLIMCHECK
 70
     0
  9
$PEXTMIN
 10
1.000000000000000E+20
 20
1.000000000000000E+20
 30
1.000000000000000E+20
  9
$PEXTMAX
 10
-1.000000000000000E+20
 20
-1.000000000000000E+20
 30
-1.000000000000000E+20
  9
$PLIMMIN
 10
0.0
 20
0.0
  9
$PLIMMAX
 10
12.0
 20
9.0
  9
$UNITMODE
 70
     0
  9
$VISRETAIN
 70
     0
  9
$PLINEGEN
 70
     0
  9
$PSLTSCALE
 70
     1
  9
$TREEDEPTH
 70
  3020
  9
$PICKSTYLE
 70
     1
  9
$CMLSTYLE
  2
STANDARD
  9
$CMLJUST
 70
     0
  9
$CMLSCALE
 40
1.0
  9
$PROXYGRAPHICS
 70
     1
  9
$MEASUREMENT
 70
     0
  0
ENDSEC
  0
SECTION
  2
CLASSES
  0
CLASS
  1
ACDBDICTIONARYWDFLT
  2
AcDbDictionaryWithDefault
  3
AutoCAD 2000
 90
        0
280
     0
281
     0
  0
CLASS
  1
ACDBPLACEHOLDER
  2
AcDbPlaceHolder
  3
AutoCAD 2000
 90
        0
280
     0
281
     0
  0
CLASS
  1
LAYOUT
  2
AcDbLayout
  3
AutoCAD 2000
 90
        0
280
     0
281
     0
  0
CLASS
  1
DICTIONARYVAR
  2
AcDbDictionaryVar
  3
AutoCAD 2000
 90
        0
280
     0
281
     0
  0
CLASS
  1
LONG_TRANSACTION
  2
AcDbLongTransaction
  3
AutoCAD 2000
 90
        0
280
     0
281
     0
  0
CLASS
  1
LWPOLYLINE
  2
AcDbPolyline
  3
AutoCAD 2000
 90
        0
280
     0
281
     1
  0
CLASS
  1
HATCH
  2
AcDbHatch
  3
AutoCAD 2000
 90
        0
280
     0
281
     1
  0
CLASS
  1
XRECORD
  2
AcDbXrecord
  3
AutoCAD 2000
 90
        0
280
     0
281
     0
  0
CLASS
  1
LONG_TRANSACTION
  2
AcDbLongTransaction
  3
AutoCAD 2000
 90
        0
280
     0
281
     0
  0
CLASS
  1
LWPOLYLINE
  2
AcDbPolyline
  3
AutoCAD 2000
 90
        0
280
     0
281
     1
  0
CLASS
  1
HATCH
  2
AcDbHatch
  3
AutoCAD 2000
 90
        0
280
     0
281
     1
  0
CLASS
  1
XRECORD
  2
AcDbXrecord
  3
AutoCAD 2000
 90
        0
280
     0
281
     0
  0
CLASS
  1
LONG_TRANSACTION
  2
AcDbLongTransaction
  3
AutoCAD 2000
 90
        0
280
     0
281
     0
  0
CLASS
  1
LWPOLYLINE
  2
AcDbPolyline
  3
AutoCAD 2000
 90
        0
280
     0
281
     1
  0
CLASS
  1
HATCH
  2
AcDbHatch
  3
AutoCAD 2000
 90
        0
280
     0
281
     1
  0
CLASS
  1
XRECORD
  2
AcDbXrecord
  3
AutoCAD 2000
 90
        0
280
     0
281
     0
  0
CLASS
  1
LONG_TRANSACTION
  2
AcDbLongTransaction
  3
AutoCAD 2000
 90
        0
280
     0
281
     0
  0
CLASS
  1
LWPOLYLINE
  2
AcDbPolyline
  3
AutoCAD 2000
 90
        0
280
     0
281
     1
  0
CLASS
  1
HATCH
  2
AcDbHatch
  3
AutoCAD 2000
 90
        0
280
     0
281
     1
  0
CLASS
  1
XRECORD
  2
AcDbXrecord
  3
AutoCAD 2000
 90
        0
280
     0
281
     0
  0
CLASS
  1
LONG_TRANSACTION
  2
AcDbLongTransaction
  3
AutoCAD 2000
 90
        0
280
     0
281
     0
  0
CLASS
  1
LWPOLYLINE
  2
AcDbPolyline
  3
AutoCAD 2000
 90
        0
280
     0
281
     1
  0
CLASS
  1
HATCH
  2
AcDbHatch
  3
AutoCAD 2000
 90
        0
280
     0
281
     1
  0
CLASS
  1
XRECORD
  2
AcDbXrecord
  3
AutoCAD 2000
 90
        0
280
     0
281
     0
  0
ENDSEC
  0
SECTION
  2
TABLES
  0
TABLE
  2
VPORT
  5
13
330
0
100
AcDbSymbolTable
 70
     2
  0
VPORT
  5
215
330
13
100
AcDbSymbolTableRecord
100
AcDbViewportTableRecord
  2
*ACTIVE
 70
     0
 10
0.0
 20
0.0
 11
1.0
 21
1.0
 12
-9.754971779905314
 22
-16.69005048113675
 13
0.0
 23
0.0
 14
0.5740882589684922
 24
0.5740882589684922
 15
0.5
 25
0.5
 16
0.0
 26
0.0
 36
1.0
 17
0.0
 27
0.0
 37
0.0
 40
8.590701124701718
 41
1.570528967254408
 42
50.0
 43
0.0
 44
0.0
 50
0.0
 51
0.0
 71
     0
 72
   100
 73
     1
 74
     0
 75
     0
 76
     0
 77
     0
 78
     0
  0
ENDTAB
  0
TABLE
  2
LTYPE
  5
F
330
0
100
AcDbSymbolTable
 70
     2
  0
LTYPE
  5
10
330
F
100
AcDbSymbolTableRecord
100
AcDbLinetypeTableRecord
  2
BYBLOCK
 70
     0
  3

 72
    65
 73
     0
 40
0.0
  0
LTYPE
  5
6
330
F
100
AcDbSymbolTableRecord
100
AcDbLinetypeTableRecord
  2
BYLAYER
 70
     0
  3

 72
    65
 73
     0
 40
0.0
  0
LTYPE
  5
5
330
F
100
AcDbSymbolTableRecord
100
AcDbLinetypeTableRecord
  2
CONTINUOUS
 70
     0
  3
Solid line
 72
    65
 73
     0
 40
0.0
  0
LTYPE
  5
57
330
F
100
AcDbSymbolTableRecord
100
AcDbLinetypeTableRecord
  2
HIDDEN2
 70
     0
  3
_ _ _ _ _ _ _ _ _ _ _ _ _ _ _ _ _ _ _ _ _ _ _ _
 72
    65
 73
     2
 40
0.1875
 49
0.125
 74
     0
 49
-0.0625
 74
     0
  0
ENDTAB
  0
TABLE
  2
LAYER
  5
B
330
0
100
AcDbSymbolTable
 70
     5
  0
LAYER
  5
C
330
B
100
AcDbSymbolTableRecord
100
AcDbLayerTableRecord
  2
0
 70
     0
 62
     7
  6
CONTINUOUS
  0
LAYER
  5
4
330
B
100
AcDbSymbolTableRecord
100
AcDbLayerTableRecord
  2
ADP1DETAIL
 70
     0
 62
     7
  6
CONTINUOUS
  0
LAYER
  5
41
330
B
100
AcDbSymbolTableRecord
100
AcDbLayerTableRecord
  2
DEFPOINTS
 70
     0
 62
     7
  6
CONTINUOUS
  0
LAYER
  5
1C
330
B
100
AcDbSymbolTableRecord
100
AcDbLayerTableRecord
  2
ADPDIM
 70
     0
 62
     3
  6
CONTINUOUS
  0
LAYER
  5
56
330
B
100
AcDbSymbolTableRecord
100
AcDbLayerTableRecord
  2
ADP2DETAIL
 70
     0
 62
     5
  6
CONTINUOUS
  0
ENDTAB
  0
TABLE
  2
STYLE
  5
D
330
0
100
AcDbSymbolTable
 70
     2
  0
STYLE
  5
E
330
D
100
AcDbSymbolTableRecord
100
AcDbTextStyleTableRecord
  2
STANDARD
 70
     0
 40
0.0
 41
1.0
 50
0.0
 71
     0
 42
0.2
  3
txt
  4

  0
STYLE
  5
7E
330
D
100
AcDbSymbolTableRecord
100
AcDbTextStyleTableRecord
  2
ARIAL_WIDE
 70
     0
 40
0.0
 41
1.25
 50
0.0
 71
     0
 42
0.2
  3
ARIAL.TTF
  4

1001
ACAD
1000
Arial
1071
       34
  0
ENDTAB
  0
TABLE
  2
VIEW
  5
11
330
0
100
AcDbSymbolTable
 70
     0
  0
ENDTAB
  0
TABLE
  2
UCS
  5
12
330
0
100
AcDbSymbolTable
 70
     0
  0
ENDTAB
  0
TABLE
  2
APPID
  5
15
330
0
100
AcDbSymbolTable
 70
     1
  0
APPID
  5
16
330
15
100
AcDbSymbolTableRecord
100
AcDbRegAppTableRecord
  2
ACAD
 70
     0
  0
ENDTAB
  0
TABLE
  2
DIMSTYLE
  5
17
330
0
100
AcDbSymbolTable
 70
     1
  0
DIMSTYLE
105
1E
102
{ACAD_REACTORS
330
46
102
}
330
17
100
AcDbSymbolTableRecord
100
AcDbDimStyleTableRecord
  2
STANDARD
 70
     0
  3

  4

  5

  6

  7

 40
1.0
 41
0.18
 42
0.0625
 43
0.38
 44
0.18
 45
0.0
 46
0.0
 47
0.0
 48
0.0
140
0.18
141
0.09
142
0.0
143
25.4
144
1.0
145
0.0
146
1.0
147
0.09
 71
     0
 72
     0
 73
     1
 74
     1
 75
     0
 76
     0
 77
     0
 78
     0
170
     0
171
     2
172
     0
173
     0
174
     0
175
     0
176
     0
177
     0
178
     0
270
     2
271
     4
272
     4
273
     2
274
     2
340
E
275
     0
280
     0
281
     0
282
     0
283
     1
284
     0
285
     0
286
     0
287
     3
288
     0
  0
ENDTAB
  0
TABLE
  2
BLOCK_RECORD
  5
1
330
0
100
AcDbSymbolTable
 70
     4
  0
BLOCK_RECORD
  5
2
102
{ACAD_XDICTIONARY
360
E0
102
}
330
1
100
AcDbSymbolTableRecord
100
AcDbBlockTableRecord
  2
*MODEL_SPACE
  0
BLOCK_RECORD
  5
8
102
{ACAD_XDICTIONARY
360
E2
102
}
330
1
100
AcDbSymbolTableRecord
100
AcDbBlockTableRecord
  2
*PAPER_SPACE
  0
BLOCK_RECORD
  5
22
330
1
100
AcDbSymbolTableRecord
100
AcDbBlockTableRecord
  2
4572
  0
BLOCK_RECORD
  5
38
330
1
100
AcDbSymbolTableRecord
100
AcDbBlockTableRecord
  2
*D1
  0
BLOCK_RECORD
  5
5C
330
1
100
AcDbSymbolTableRecord
100
AcDbBlockTableRecord
  2
*D2
  0
BLOCK_RECORD
  5
E6
330
1
100
AcDbSymbolTableRecord
100
AcDbBlockTableRecord
  2
*D3
  0
ENDTAB
  0
ENDSEC
  0
SECTION
  2
BLOCKS
  0
BLOCK
  5
3
330
2
100
AcDbEntity
  8
0
100
AcDbBlockBegin
  2
*MODEL_SPACE
 70
     0
 10
0.0
 20
0.0
 30
0.0
  3
*MODEL_SPACE
  1

  0
ENDBLK
  5
7
330
2
100
AcDbEntity
  8
0
100
AcDbBlockEnd
  0
BLOCK
  5
9
330
8
100
AcDbEntity
 67
     1
  8
0
100
AcDbBlockBegin
  2
*PAPER_SPACE
 70
     0
 10
0.0
 20
0.0
 30
0.0
  3
*PAPER_SPACE
  1

  0
ENDBLK
  5
A
330
8
100
AcDbEntity
 67
     1
  8
0
100
AcDbBlockEnd
  0
BLOCK
  5
35
330
22
100
AcDbEntity
  8
0
100
AcDbBlockBegin
  2
4572
 70
     0
 10
0.0
 20
0.0
 30
0.0
  3
4572
  1

  0
ARC
  5
23
330
22
100
AcDbEntity
  8
0
100
AcDbCircle
 10
1.125
 20
4.465749999999998
 30
0.0
 40
4.684999999999998
100
AcDbArc
 50
274.9144644009104
 51
283.5179193007771
  0
ARC
  5
24
330
22
100
AcDbEntity
  8
0
100
AcDbCircle
 10
1.125
 20
-4.904249999999999
 30
0.0
 40
5.122999999999999
100
AcDbArc
 50
77.66593018287675
 51
90.0
  0
ARC
  5
25
330
22
100
AcDbEntity
  8
0
100
AcDbCircle
 10
0.0390000000000015
 20
-0.0515412237313076
 30
0.0
 40
0.039
100
AcDbArc
 50
180.0
 51
256.4820806992196
  0
ARC
  5
26
330
22
100
AcDbEntity
  8
0
100
AcDbCircle
 10
0.0390000000000015
 20
0.062404809829248
 30
0.0
 40
0.039
100
AcDbArc
 50
102.33406981712
 51
180.0
  0
ARC
  5
27
330
22
100
AcDbEntity
  8
0
100
AcDbCircle
 10
1.125
 20
-4.904249999999999
 30
0.0
 40
5.122999999999999
100
AcDbArc
 50
90.0
 51
102.3340698171232
  0
LINE
  5
28
330
22
100
AcDbEntity
  8
0
100
AcDbLine
 10
0.7445000000000022
 20
-0.0627499999999994
 30
0.0
 11
1.125
 21
-0.0627499999999994
 31
0.0
  0
LINE
  5
29
330
22
100
AcDbEntity
  8
0
100
AcDbLine
 10
0.0
 20
0.062404809829248
 30
0.0
 11
0.0
 21
-0.0515412237313076
 31
0.0
  0
ARC
  5
2A
330
22
100
AcDbEntity
  8
0
100
AcDbCircle
 10
1.125
 20
4.465749999999998
 30
0.0
 40
4.684999999999998
100
AcDbArc
 50
256.4820806992226
 51
265.0855355990894
  0
LINE
  5
2B
330
22
100
AcDbEntity
  8
0
100
AcDbLine
 10
0.7345000000000006
 20
-0.1920633013249802
 30
0.0
 11
0.7345000000000006
 21
-0.072750000000001
 31
0.0
  0
ARC
  5
2C
330
22
100
AcDbEntity
  8
0
100
AcDbCircle
 10
0.7445000000000022
 20
-0.072750000000001
 30
0.0
 40
0.01
100
AcDbArc
 50
90.0
 51
180.0
  0
ARC
  5
2D
330
22
100
AcDbEntity
  8
0
100
AcDbCircle
 10
0.7244999999999991
 20
-0.1920633013249802
 30
0.0
 40
0.01
100
AcDbArc
 50
265.0855355990762
 51
0.0
  0
LINE
  5
2E
330
22
100
AcDbEntity
  8
0
100
AcDbLine
 10
1.505499999999997
 20
-0.0627499999999994
 30
0.0
 11
1.125
 21
-0.0627499999999994
 31
0.0
  0
LINE
  5
2F
330
22
100
AcDbEntity
  8
0
100
AcDbLine
 10
1.515499999999999
 20
-0.1920633013249802
 30
0.0
 11
1.515499999999999
 21
-0.072750000000001
 31
0.0
  0
ARC
  5
30
330
22
100
AcDbEntity
  8
0
100
AcDbCircle
 10
1.505499999999997
 20
-0.072750000000001
 30
0.0
 40
0.01
100
AcDbArc
 50
0.0
 51
90.0
  0
ARC
  5
31
330
22
100
AcDbEntity
  8
0
100
AcDbCircle
 10
1.5255
 20
-0.1920633013249802
 30
0.0
 40
0.01
100
AcDbArc
 50
180.0
 51
274.9144644009035
  0
LINE
  5
32
330
22
100
AcDbEntity
  8
0
100
AcDbLine
 10
2.25
 20
0.0624048098292516
 30
0.0
 11
2.25
 21
-0.0515412237313076
 31
0.0
  0
ARC
  5
33
330
22
100
AcDbEntity
  8
0
100
AcDbCircle
 10
2.210999999999998
 20
-0.0515412237313076
 30
0.0
 40
0.039
100
AcDbArc
 50
283.5179193007753
 51
0.0
  0
ARC
  5
34
330
22
100
AcDbEntity
  8
0
100
AcDbCircle
 10
2.210999999999998
 20
0.0624048098292516
 30
0.0
 40
0.039
100
AcDbArc
 50
0.0
 51
77.66593018287879
  0
ENDBLK
  5
36
330
22
100
AcDbEntity
  8
0
100
AcDbBlockEnd
  0
BLOCK
  5
44
330
38
100
AcDbEntity
  8
0
100
AcDbBlockBegin
  2
*D1
 70
     1
 10
0.0
 20
0.0
 30
0.0
  3
*D1
  1

  0
LINE
  5
39
330
38
100
AcDbEntity
  8
0
  6
BYBLOCK
 62
     0
100
AcDbLine
 10
-11.88963145476959
 20
-18.07459216477916
 30
0.0
 11
-11.88963145476959
 21
-17.50778207378953
 31
0.0
  0
LINE
  5
3A
330
38
100
AcDbEntity
  8
0
  6
BYBLOCK
 62
     0
100
AcDbLine
 10
-9.63963145476959
 20
-18.07459216477915
 30
0.0
 11
-9.63963145476959
 21
-17.50778207378953
 31
0.0
  0
LINE
  5
3B
330
38
100
AcDbEntity
  8
0
  6
BYBLOCK
 62
     0
100
AcDbLine
 10
-11.88963145476959
 20
-17.68778207378953
 30
0.0
 11
-11.16046478810292
 21
-17.68778207378953
 31
0.0
  0
LINE
  5
3C
330
38
100
AcDbEntity
  8
0
  6
BYBLOCK
 62
     0
100
AcDbLine
 10
-9.63963145476959
 20
-17.68778207378953
 30
0.0
 11
-10.36879812143625
 21
-17.68778207378953
 31
0.0
  0
LINE
  5
3D
330
38
100
AcDbEntity
  8
0
  6
BYBLOCK
 62
     0
100
AcDbLine
 10
-12.01463145476959
 20
-17.81278207378953
 30
0.0
 11
-11.76463145476959
 21
-17.56278207378953
 31
0.0
  0
LINE
  5
3E
330
38
100
AcDbEntity
  8
0
  6
BYBLOCK
 62
     0
100
AcDbLine
 10
-9.76463145476959
 20
-17.81278207378953
 30
0.0
 11
-9.51463145476959
 21
-17.56278207378953
 31
0.0
  0
TEXT
  5
3F
330
38
100
AcDbEntity
  8
0
  6
BYBLOCK
 62
     0
100
AcDbText
 10
-11.03546478810292
 20
-17.75028207378953
 30
0.0
 40
0.125
  1
2 1/4
 72
     1
 11
-10.76463145476959
 21
-17.68778207378953
 31
0.0
100
AcDbText
 73
     2
  0
POINT
  5
40
330
38
100
AcDbEntity
  8
DEFPOINTS
  6
BYBLOCK
 62
     0
100
AcDbPoint
 10
-11.88963145476959
 20
-18.13709216477915
 30
0.0
  0
POINT
  5
42
330
38
100
AcDbEntity
  8
DEFPOINTS
  6
BYBLOCK
 62
     0
100
AcDbPoint
 10
-9.63963145476959
 20
-18.13709216477915
 30
0.0
  0
POINT
  5
43
330
38
100
AcDbEntity
  8
DEFPOINTS
  6
BYBLOCK
 62
     0
100
AcDbPoint
 10
-9.63963145476959
 20
-17.68778207378953
 30
0.0
  0
ENDBLK
  5
45
330
38
100
AcDbEntity
  8
0
100
AcDbBlockEnd
  0
BLOCK
  5
67
330
5C
100
AcDbEntity
  8
0
100
AcDbBlockBegin
  2
*D2
 70
     1
 10
0.0
 20
0.0
 30
0.0
  3
*D2
  1

  0
LINE
  5
5D
330
5C
100
AcDbEntity
  8
0
  6
BYBLOCK
 62
     0
100
AcDbLine
 10
-11.15026462338338
 20
-18.4568811815387
 30
0.0
 11
-11.15026462338338
 21
-18.83830388638628
 31
0.0
  0
LINE
  5
5E
330
5C
100
AcDbEntity
  8
0
  6
BYBLOCK
 62
     0
100
AcDbLine
 10
-10.37064324381515
 20
-18.4568811815387
 30
0.0
 11
-10.37064324381515
 21
-18.83830388638628
 31
0.0
  0
LINE
  5
5F
330
5C
100
AcDbEntity
  8
0
  6
BYBLOCK
 62
     0
100
AcDbLine
 10
-11.15026462338338
 20
-18.65830388638628
 30
0.0
 11
-11.40026462338338
 21
-18.65830388638628
 31
0.0
  0
LINE
  5
60
330
5C
100
AcDbEntity
  8
0
  6
BYBLOCK
 62
     0
100
AcDbLine
 10
-10.37064324381515
 20
-18.65830388638628
 30
0.0
 11
-10.12064324381515
 21
-18.65830388638628
 31
0.0
  0
LINE
  5
61
330
5C
100
AcDbEntity
  8
0
  6
BYBLOCK
 62
     0
100
AcDbLine
 10
-11.27526462338338
 20
-18.78330388638628
 30
0.0
 11
-11.02526462338338
 21
-18.53330388638628
 31
0.0
  0
LINE
  5
62
330
5C
100
AcDbEntity
  8
0
  6
BYBLOCK
 62
     0
100
AcDbLine
 10
-10.49564324381515
 20
-18.78330388638628
 30
0.0
 11
-10.24564324381515
 21
-18.53330388638628
 31
0.0
  0
TEXT
  5
63
330
5C
100
AcDbEntity
  8
0
  6
BYBLOCK
 62
     0
100
AcDbText
 10
-9.99564324381515
 20
-18.72080388638628
 30
0.0
 40
0.125
  1
3/4
 72
     1
 11
-9.828976577148484
 21
-18.65830388638628
 31
0.0
100
AcDbText
 73
     2
  0
POINT
  5
64
330
5C
100
AcDbEntity
  8
DEFPOINTS
  6
BYBLOCK
 62
     0
100
AcDbPoint
 10
-11.15026462338338
 20
-18.3943811815387
 30
0.0
  0
POINT
  5
65
330
5C
100
AcDbEntity
  8
DEFPOINTS
  6
BYBLOCK
 62
     0
100
AcDbPoint
 10
-10.37064324381515
 20
-18.3943811815387
 30
0.0
  0
POINT
  5
66
330
5C
100
AcDbEntity
  8
DEFPOINTS
  6
BYBLOCK
 62
     0
100
AcDbPoint
 10
-10.37064324381515
 20
-18.65830388638628
 30
0.0
  0
ENDBLK
  5
68
330
5C
100
AcDbEntity
  8
0
100
AcDbBlockEnd
  0
BLOCK
  5
F1
330
E6
100
AcDbEntity
  8
0
100
AcDbBlockBegin
  2
*D3
 70
     1
 10
0.0
 20
0.0
 30
0.0
  3
*D3
  1

  0
LINE
  5
239
330
E6
100
AcDbEntity
  8
ADPDIM
 62
     0
100
AcDbLine
 10
-11.95213145476959
 20
-16.98790141038343
 30
0.0
 11
-12.40342650314175
 21
-16.98790141038343
 31
0.0
  0
LINE
  5
23A
330
E6
100
AcDbEntity
  8
ADPDIM
 62
     0
100
AcDbLine
 10
-11.95213145476959
 20
-13.98790141038342
 30
0.0
 11
-12.40342650314175
 21
-13.98790141038342
 31
0.0
  0
LINE
  5
23B
330
E6
100
AcDbEntity
  8
ADPDIM
 62
     0
100
AcDbLine
 10
-12.22342650314175
 20
-16.98790141038343
 30
0.0
 11
-12.22342650314175
 21
-15.65456807705009
 31
0.0
  0
LINE
  5
23C
330
E6
100
AcDbEntity
  8
ADPDIM
 62
     0
100
AcDbLine
 10
-12.22342650314175
 20
-13.98790141038342
 30
0.0
 11
-12.22342650314175
 21
-15.32123474371676
 31
0.0
  0
LINE
  5
23D
330
E6
100
AcDbEntity
  8
ADPDIM
 62
     0
100
AcDbLine
 10
-12.09842650314175
 20
-14.11290141038342
 30
0.0
 11
-12.34842650314175
 21
-13.86290141038342
 31
0.0
  0
LINE
  5
23E
330
E6
100
AcDbEntity
  8
ADPDIM
 62
     0
100
AcDbLine
 10
-12.09842650314175
 20
-17.11290141038342
 30
0.0
 11
-12.34842650314175
 21
-16.86290141038343
 31
0.0
  0
MTEXT
  5
23F
330
E6
100
AcDbEntity
  8
ADPDIM
 62
     0
100
AcDbMText
 10
-12.22342650314175
 20
-15.48790141038343
 30
0.0
 40
0.125
 41
0.0
 71
     5
 72
     1
  1
\A1;3
 11
0.0000000000000001
 21
1.0
 31
0.0
  0
POINT
  5
240
330
E6
100
AcDbEntity
  8
DEFPOINTS
 62
     0
100
AcDbPoint
 10
-11.88963145476959
 20
-16.98790141038343
 30
0.0
  0
POINT
  5
241
330
E6
100
AcDbEntity
  8
DEFPOINTS
 62
     0
100
AcDbPoint
 10
-11.88963145476959
 20
-13.98790141038342
 30
0.0
  0
POINT
  5
242
330
E6
100
AcDbEntity
  8
DEFPOINTS
 62
     0
100
AcDbPoint
 10
-12.22342650314175
 20
-13.98790141038342
 30
0.0
  0
ENDBLK
  5
F2
330
E6
100
AcDbEntity
  8
0
100
AcDbBlockEnd
  0
ENDSEC
  0
SECTION
  2
ENTITIES
  0
LINE
  5
1F
330
2
100
AcDbEntity
  8
ADP1DETAIL
100
AcDbLine
 10
-9.76463145476959
 20
-16.98790141038343
 30
0.0
 11
-11.88963145476959
 21
-16.98790141038343
 31
0.0
  0
LINE
  5
20
330
2
100
AcDbEntity
  8
ADP1DETAIL
100
AcDbLine
 10
-11.88963145476959
 20
-13.98790141038342
 30
0.0
 11
-9.76463145476959
 21
-13.98790141038342
 31
0.0
  0
INSERT
  5
21
330
2
100
AcDbEntity
  8
ADP1DETAIL
100
AcDbBlockReference
  2
4572
 10
-11.88963145476959
 20
-18.14252395782812
 30
0.0
  0
DIMENSION
  5
37
330
2
100
AcDbEntity
  8
ADPDIM
100
AcDbDimension
  2
*D1
 10
-9.63963145476959
 20
-17.68778207378953
 30
0.0
 11
-10.76463145476959
 21
-17.68778207378953
 31
0.0
100
AcDbAlignedDimension
 13
-11.88963145476959
 23
-18.13709216477915
 33
0.0
 14
-9.63963145476959
 24
-18.13709216477915
 34
0.0
100
AcDbRotatedDimension
  0
DIMENSION
  5
46
330
2
100
AcDbEntity
  8
ADPDIM
100
AcDbDimension
  2
*D3
 10
-12.22342650314175
 20
-13.98790141038342
 30
0.0
 11
-12.22342650314175
 21
-15.48790141038343
 31
0.0
 70
    32
  3
STANDARD
100
AcDbAlignedDimension
 13
-11.88963145476959
 23
-16.98790141038343
 33
0.0
 14
-11.88963145476959
 24
-13.98790141038342
 34
0.0
 50
90.0
100
AcDbRotatedDimension
1001
ACAD
1000
DSTYLE
1002
{
1070
   270
1070
     7
1070
   270
1070
     7
1070
   270
1070
     7
1070
   270
1070
     7
1070
   270
1070
     7
1070
    41
1040
0.125
1070
    73
1070
     0
1070
    74
1070
     0
1070
    78
1070
     2
1070
   140
1040
0.125
1070
   141
1040
0.1875
1070
   142
1040
0.125
1070
   147
1040
0.125
1070
   171
1070
     1
1070
   271
1070
     2
1070
   276
1070
     2
1070
   277
1070
     5
1002
}
  0
LINE
  5
54
330
2
100
AcDbEntity
  8
ADP1DETAIL
100
AcDbLine
 10
-11.88963145476959
 20
-16.98790141038343
 30
0.0
 11
-11.88963145476959
 21
-13.98790141038342
 31
0.0
  0
LINE
  5
55
330
2
100
AcDbEntity
  8
ADP2DETAIL
  6
HIDDEN2
100
AcDbLine
 10
-6.849810364320717
 20
-18.34306239152606
 30
0.0
 11
-6.849810364320717
 21
-18.09306239152606
 31
0.0
  0
LINE
  5
58
330
2
100
AcDbEntity
  8
ADP1DETAIL
100
AcDbLine
 10
-8.849810364320717
 20
-18.34306239152606
 30
0.0
 11
-8.849810364320717
 21
-17.91791384308227
 31
0.0
  0
LINE
  5
59
330
2
100
AcDbEntity
  8
ADP1DETAIL
100
AcDbLine
 10
-6.849810364320717
 20
-18.34306239152606
 30
0.0
 11
-5.849810364320717
 21
-18.1839676619532
 31
0.0
  0
LINE
  5
5A
330
2
100
AcDbEntity
  8
ADP1DETAIL
100
AcDbLine
 10
-6.849810364320717
 20
-18.34306239152606
 30
0.0
 11
-8.849810364320717
 21
-18.34306239152606
 31
0.0
  0
DIMENSION
  5
5B
330
2
100
AcDbEntity
  8
ADPDIM
100
AcDbDimension
  2
*D2
 10
-10.37064324381515
 20
-18.65830388638628
 30
0.0
 11
-9.828976577148484
 21
-18.65830388638628
 31
0.0
100
AcDbAlignedDimension
 13
-11.15026462338338
 23
-18.3943811815387
 33
0.0
 14
-10.37064324381515
 24
-18.3943811815387
 34
0.0
100
AcDbRotatedDimension
  0
LINE
  5
69
330
2
100
AcDbEntity
  8
ADP1DETAIL
100
AcDbLine
 10
-6.849810364320717
 20
-18.2339676619532
 30
0.0
 11
-8.849810364320717
 21
-18.2339676619532
 31
0.0
  0
LINE
  5
6A
330
2
100
AcDbEntity
  8
ADP1DETAIL
100
AcDbLine
 10
-8.849810364320717
 20
-17.91791384308227
 30
0.0
 11
-6.844147810401068
 21
-17.91791384308227
 31
0.0
  0
LINE
  5
6B
330
2
100
AcDbEntity
  8
ADP1DETAIL
100
AcDbLine
 10
-8.849810364320717
 20
-18.03629422428043
 30
0.0
 11
-6.849810364320717
 21
-18.03629422428043
 31
0.0
  0
LINE
  5
6C
330
2
100
AcDbEntity
  8
ADP2DETAIL
  6
HIDDEN2
100
AcDbLine
 10
-8.849810364320717
 20
-18.09306239152606
 30
0.0
 11
-6.849810364320717
 21
-18.09306239152606
 31
0.0
  0
LINE
  5
6D
330
2
100
AcDbEntity
  8
ADP2DETAIL
  6
HIDDEN2
100
AcDbLine
 10
-10.45213145476959
 20
-16.98790141038343
 30
0.0
 11
-10.45213145476959
 21
-14.98790141038342
 31
0.0
  0
LINE
  5
6E
330
2
100
AcDbEntity
  8
ADP1DETAIL
100
AcDbLine
 10
-9.76463145476959
 20
-13.98790141038342
 30
0.0
 11
-9.76463145476959
 21
-16.98790141038343
 31
0.0
  0
LINE
  5
6F
330
2
100
AcDbEntity
  8
ADP2DETAIL
  6
HIDDEN2
100
AcDbLine
 10
-11.20213145476959
 20
-16.98790141038343
 30
0.0
 11
-11.20213145476959
 21
-14.98790141038342
 31
0.0
  0
LINE
  5
70
330
2
100
AcDbEntity
  8
ADP2DETAIL
  6
HIDDEN2
100
AcDbLine
 10
-11.20213145476959
 20
-14.98790141038342
 30
0.0
 11
-10.45213145476959
 21
-14.98790141038343
 31
0.0
  0
LINE
  5
71
330
2
100
AcDbEntity
  8
ADP1DETAIL
100
AcDbLine
 10
-6.844147810401068
 20
-17.91791384308227
 30
0.0
 11
-5.849810364320717
 21
-18.08629422428044
 31
0.0
  0
LINE
  5
72
330
2
100
AcDbEntity
  8
ADP1DETAIL
100
AcDbLine
 10
-6.849810364320717
 20
-18.2339676619532
 30
0.0
 11
-5.849810364320717
 21
-18.1839676619532
 31
0.0
  0
LINE
  5
73
330
2
100
AcDbEntity
  8
ADP1DETAIL
100
AcDbLine
 10
-6.849810364320717
 20
-18.03629422428043
 30
0.0
 11
-5.849810364320717
 21
-18.08629422428044
 31
0.0
  0
LINE
  5
74
330
2
100
AcDbEntity
  8
ADP1DETAIL
100
AcDbLine
 10
-5.849810364320717
 20
-18.08629422428044
 30
0.0
 11
-5.849810364320717
 21
-18.1839676619532
 31
0.0
  0
TEXT
  5
7F
330
2
100
AcDbEntity
  8
ADPDIM
100
AcDbText
 10
-16.46616837496059
 20
-19.47934930647644
 30
0.0
 40
0.125
  1
J U L I U S  B L U M  &  C O . ,  I N C .      ( 8 0 0 )  5 2 6 - 6 2 9 3        W W W . J U L I U S B L U M . C O M        P A R T  N o .  4 5 7 2 - N
 41
1.25
  7
ARIAL_WIDE
 72
     1
 11
-9.76463145476959
 21
-19.35434930647644
 31
0.0
100
AcDbText
 73
     3
  0
ENDSEC
  0
SECTION
  2
OBJECTS
  0
DICTIONARY
  5
1B
330
0
100
AcDbDictionary
  3
ACAD_GROUP
350
19
  3
ACAD_LAYOUT
350
78
  3
ACAD_MLINESTYLE
350
1A
  3
ACAD_PLOTSETTINGS
350
79
  3
ACAD_PLOTSTYLENAME
350
76
  3
ACDBHEADERROUNDTRIPXREC
350
216
  3
ACDBVARIABLEDICTIONARY
350
F5
  0
DICTIONARY
  5
E0
330
2
100
AcDbDictionary
280
     1
  3
ACAD_LAYOUTSELFREF
360
237
  0
DICTIONARY
  5
E2
330
8
100
AcDbDictionary
280
     1
  3
ACAD_LAYOUTSELFREF
360
238
  0
DICTIONARY
  5
19
102
{ACAD_REACTORS
330
1B
102
}
330
1B
100
AcDbDictionary
  0
DICTIONARY
  5
78
102
{ACAD_REACTORS
330
1B
102
}
330
1B
100
AcDbDictionary
  0
DICTIONARY
  5
1A
102
{ACAD_REACTORS
330
1B
102
}
330
1B
100
AcDbDictionary
  3
STANDARD
350
1D
  0
DICTIONARY
  5
79
102
{ACAD_REACTORS
330
1B
102
}
330
1B
100
AcDbDictionary
  0
ACDBDICTIONARYWDFLT
  5
76
102
{ACAD_REACTORS
330
1B
102
}
330
1B
100
AcDbDictionary
281
     1
  3
Normal
350
77
100
AcDbDictionaryWithDefault
340
77
  0
DICTIONARY
  5
216
102
{ACAD_REACTORS
330
1B
102
}
330
1B
100
AcDbDictionary
  3
CEPSNTYPE
350
220
  3
DIMSTYLEDATA
350
224
  3
FINGERPRINTGUID
350
221
  3
HYPERLINKBASE
350
219
  3
INSUNITS
350
21F
  3
LAYOUTDICT
350
21B
  3
LWETCUNION
350
21E
  3
PLOTSETDICT
350
21C
  3
PLOTSTYLNAMDICT
350
21D
  3
PSVPSCALE
350
223
  3
PUCSBASE
350
227
  3
PUCSORGBACK
350
22D
  3
PUCSORGBOTTOM
350
229
  3
PUCSORGFRONT
350
22C
  3
PUCSORGLEFT
350
22A
  3
PUCSORGRIGHT
350
22B
  3
PUCSORGTOP
350
228
  3
PUCSORTHOREF
350
225
  3
PUCSORTHOVIEW
350
226
  3
STYLESHEET
350
21A
  3
TSTACKALIGN
350
217
  3
TSTACKSIZE
350
218
  3
UCSBASE
350
230
  3
UCSORGBACK
350
236
  3
UCSORGBOTTOM
350
232
  3
UCSORGFRONT
350
235
  3
UCSORGLEFT
350
233
  3
UCSORGRIGHT
350
234
  3
UCSORGTOP
350
231
  3
UCSORTHOREF
350
22E
  3
UCSORTHOVIEW
350
22F
  3
VERSIONGUID
350
222
  0
DICTIONARY
  5
F5
102
{ACAD_REACTORS
330
1B
102
}
330
1B
100
AcDbDictionary
  3
DIMASSOC
350
F6
  0
XRECORD
  5
237
102
{ACAD_REACTORS
330
E0
102
}
330
E0
100
AcDbXrecord
340
2
  0
XRECORD
  5
238
102
{ACAD_REACTORS
330
E2
102
}
330
E2
100
AcDbXrecord
340
8
  0
MLINESTYLE
  5
1D
102
{ACAD_REACTORS
330
1A
102
}
330
1A
100
AcDbMlineStyle
  2
STANDARD
 70
     0
  3

 62
     0
 51
90.0
 52
90.0
 71
     2
 49
0.5
 62
   256
  6
BYLAYER
 49
-0.5
 62
   256
  6
BYLAYER
  0
ACDBPLACEHOLDER
  5
77
102
{ACAD_REACTORS
330
76
102
}
330
76
100
AcDbPlaceHolder
280
     0
  0
XRECORD
  5
220
102
{ACAD_REACTORS
330
216
102
}
330
216
100
AcDbXrecord
 90
        0
  0
XRECORD
  5
224
102
{ACAD_REACTORS
330
216
102
}
330
216
100
AcDbXrecord
1000
DSTYLE
1002
{
1070
   276
 70
     2
1070
   277
 70
     5
1002
}
  0
XRECORD
  5
221
102
{ACAD_REACTORS
330
216
102
}
330
216
100
AcDbXrecord
  1
{34F9EEC6-D268-4A77-A7CC-14F8A8F98E43}
  0
XRECORD
  5
219
102
{ACAD_REACTORS
330
216
102
}
330
216
100
AcDbXrecord
  1

  0
XRECORD
  5
21F
102
{ACAD_REACTORS
330
216
102
}
330
216
100
AcDbXrecord
 90
        0
  0
XRECORD
  5
21B
102
{ACAD_REACTORS
330
216
102
}
330
216
100
AcDbXrecord
340
78
  0
XRECORD
  5
21E
102
{ACAD_REACTORS
330
216
102
}
330
216
100
AcDbXrecord
 90
    14877
  0
XRECORD
  5
21C
102
{ACAD_REACTORS
330
216
102
}
330
216
100
AcDbXrecord
340
79
  0
XRECORD
  5
21D
102
{ACAD_REACTORS
330
216
102
}
330
216
100
AcDbXrecord
340
76
  0
XRECORD
  5
223
102
{ACAD_REACTORS
330
216
102
}
330
216
100
AcDbXrecord
 40
0.0
  0
XRECORD
  5
227
102
{ACAD_REACTORS
330
216
102
}
330
216
100
AcDbXrecord
340
0
  0
XRECORD
  5
22D
102
{ACAD_REACTORS
330
216
102
}
330
216
100
AcDbXrecord
 10
0.0
 20
0.0
 30
0.0
  0
XRECORD
  5
229
102
{ACAD_REACTORS
330
216
102
}
330
216
100
AcDbXrecord
 10
0.0
 20
0.0
 30
0.0
  0
XRECORD
  5
22C
102
{ACAD_REACTORS
330
216
102
}
330
216
100
AcDbXrecord
 10
0.0
 20
0.0
 30
0.0
  0
XRECORD
  5
22A
102
{ACAD_REACTORS
330
216
102
}
330
216
100
AcDbXrecord
 10
0.0
 20
0.0
 30
0.0
  0
XRECORD
  5
22B
102
{ACAD_REACTORS
330
216
102
}
330
216
100
AcDbXrecord
 10
0.0
 20
0.0
 30
0.0
  0
XRECORD
  5
228
102
{ACAD_REACTORS
330
216
102
}
330
216
100
AcDbXrecord
 10
0.0
 20
0.0
 30
0.0
  0
XRECORD
  5
225
102
{ACAD_REACTORS
330
216
102
}
330
216
100
AcDbXrecord
340
0
  0
XRECORD
  5
226
102
{ACAD_REACTORS
330
216
102
}
330
216
100
AcDbXrecord
 70
     0
  0
XRECORD
  5
21A
102
{ACAD_REACTORS
330
216
102
}
330
216
100
AcDbXrecord
  1

  0
XRECORD
  5
217
102
{ACAD_REACTORS
330
216
102
}
330
216
100
AcDbXrecord
 90
        1
  0
XRECORD
  5
218
102
{ACAD_REACTORS
330
216
102
}
330
216
100
AcDbXrecord
 90
       70
  0
XRECORD
  5
230
102
{ACAD_REACTORS
330
216
102
}
330
216
100
AcDbXrecord
340
0
  0
XRECORD
  5
236
102
{ACAD_REACTORS
330
216
102
}
330
216
100
AcDbXrecord
 10
0.0
 20
0.0
 30
0.0
  0
XRECORD
  5
232
102
{ACAD_REACTORS
330
216
102
}
330
216
100
AcDbXrecord
 10
0.0
 20
0.0
 30
0.0
  0
XRECORD
  5
235
102
{ACAD_REACTORS
330
216
102
}
330
216
100
AcDbXrecord
 10
0.0
 20
0.0
 30
0.0
  0
XRECORD
  5
233
102
{ACAD_REACTORS
330
216
102
}
330
216
100
AcDbXrecord
 10
0.0
 20
0.0
 30
0.0
  0
XRECORD
  5
234
102
{ACAD_REACTORS
330
216
102
}
330
216
100
AcDbXrecord
 10
0.0
 20
0.0
 30
0.0
  0
XRECORD
  5
231
102
{ACAD_REACTORS
330
216
102
}
330
216
100
AcDbXrecord
 10
0.0
 20
0.0
 30
0.0
  0
XRECORD
  5
22E
102
{ACAD_REACTORS
330
216
102
}
330
216
100
AcDbXrecord
340
0
  0
XRECORD
  5
22F
102
{ACAD_REACTORS
330
216
102
}
330
216
100
AcDbXrecord
 70
     0
  0
XRECORD
  5
222
102
{ACAD_REACTORS
330
216
102
}
330
216
100
AcDbXrecord
  1
{C5251502-CA13-45E3-8C41-1A04123C47D6}
  0
DICTIONARYVAR
  5
F6
102
{ACAD_REACTORS
330
F5
102
}
330
F5
100
DictionaryVariables
280
     0
  1
1
  0
ENDSEC
  0
EOF
