  0
SECTION
  2
HEADER
  9
$ACADVER
  1
AC1014
  9
$ACADMAINTVER
 70
     9
  9
$DWGCODEPAGE
  3
ANSI_1252
  9
$INSBASE
 10
-10.24564324381515
 20
-18.53330388638628
 30
0.0
  9
$EXTMIN
 10
-17.2903604793262
 20
-19.32031888194154
 30
0.0
  9
$EXTMAX
 10
-4.238902430212974
 20
-17.50778207378953
 30
0.0
  9
$LIMMIN
 10
0.0
 20
0.0
  9
$LIMMAX
 10
36.0
 20
36.0
  9
$ORTHOMODE
 70
     1
  9
$REGENMODE
 70
     1
  9
$FILLMODE
 70
     1
  9
$QTEXTMODE
 70
     0
  9
$MIRRTEXT
 70
     1
  9
$DRAGMODE
 70
     0
  9
$LTSCALE
 40
1.0
  9
$OSMODE
 70
    37
  9
$ATTMODE
 70
     1
  9
$TEXTSIZE
 40
0.2
  9
$TRACEWID
 40
0.05
  9
$TEXTSTYLE
  7
STANDARD
  9
$CLAYER
  8
ADP1DETAIL
  9
$CELTYPE
  6
BYLAYER
  9
$CECOLOR
 62
   256
  9
$CELTSCALE
 40
1.0
  9
$DELOBJ
 70
     1
  9
$DISPSILH
 70
     0
  9
$DIMSCALE
 40
1.0
  9
$DIMASZ
 40
0.125
  9
$DIMEXO
 40
0.0625
  9
$DIMDLI
 40
0.38
  9
$DIMRND
 40
0.0
  9
$DIMDLE
 40
0.0
  9
$DIMEXE
 40
0.18
  9
$DIMTP
 40
0.0
  9
$DIMTM
 40
0.0
  9
$DIMTXT
 40
0.125
  9
$DIMCEN
 40
0.1875
  9
$DIMTSZ
 40
0.125
  9
$DIMTOL
 70
     0
  9
$DIMLIM
 70
     0
  9
$DIMTIH
 70
     0
  9
$DIMTOH
 70
     0
  9
$DIMSE1
 70
     0
  9
$DIMSE2
 70
     0
  9
$DIMTAD
 70
     0
  9
$DIMZIN
 70
     3
  9
$DIMBLK
  1

  9
$DIMASO
 70
     1
  9
$DIMSHO
 70
     1
  9
$DIMPOST
  1

  9
$DIMAPOST
  1

  9
$DIMALT
 70
     0
  9
$DIMALTD
 70
     1
  9
$DIMALTF
 40
25.4
  9
$DIMLFAC
 40
1.0
  9
$DIMTOFL
 70
     0
  9
$DIMTVP
 40
0.0
  9
$DIMTIX
 70
     0
  9
$DIMSOXD
 70
     0
  9
$DIMSAH
 70
     0
  9
$DIMBLK1
  1

  9
$DIMBLK2
  1

  9
$DIMSTYLE
  2
STANDARD
  9
$DIMCLRD
 70
     0
  9
$DIMCLRE
 70
     0
  9
$DIMCLRT
 70
     0
  9
$DIMTFAC
 40
1.0
  9
$DIMGAP
 40
0.125
  9
$DIMJUST
 70
     0
  9
$DIMSD1
 70
     0
  9
$DIMSD2
 70
     0
  9
$DIMTOLJ
 70
     1
  9
$DIMTZIN
 70
     0
  9
$DIMALTZ
 70
     0
  9
$DIMALTTZ
 70
     0
  9
$DIMFIT
 70
     3
  9
$DIMUPT
 70
     0
  9
$DIMUNIT
 70
     2
  9
$DIMDEC
 70
     4
  9
$DIMTDEC
 70
     4
  9
$DIMALTU
 70
     2
  9
$DIMALTTD
 70
     2
  9
$DIMTXSTY
  7
STANDARD
  9
$DIMAUNIT
 70
     0
  9
$LUNITS
 70
     5
  9
$LUPREC
 70
     4
  9
$SKETCHINC
 40
0.1
  9
$FILLETRAD
 40
0.062
  9
$AUNITS
 70
     0
  9
$AUPREC
 70
     0
  9
$MENU
  1
acad
  9
$ELEVATION
 40
0.0
  9
$PELEVATION
 40
0.0
  9
$THICKNESS
 40
0.0
  9
$LIMCHECK
 70
     0
  9
$BLIPMODE
 70
     0
  9
$CHAMFERA
 40
0.0
  9
$CHAMFERB
 40
0.0
  9
$CHAMFERC
 40
0.0
  9
$CHAMFERD
 40
0.0
  9
$SKPOLY
 70
     0
  9
$TDCREATE
 40
2450406.661392546
  9
$TDUPDATE
 40
2452297.088932106
  9
$TDINDWG
 40
0.0162443866
  9
$TDUSRTIMER
 40
0.0162443866
  9
$USRTIMER
 70
     1
  9
$ANGBASE
 50
0.0
  9
$ANGDIR
 70
     0
  9
$PDMODE
 70
     0
  9
$PDSIZE
 40
0.0
  9
$PLINEWID
 40
0.0
  9
$COORDS
 70
     2
  9
$SPLFRAME
 70
     0
  9
$SPLINETYPE
 70
     6
  9
$SPLINESEGS
 70
     8
  9
$ATTDIA
 70
     0
  9
$ATTREQ
 70
     1
  9
$HANDLING
 70
 22529
  9
$HANDSEED
  5
2BA
  9
$SURFTAB1
 70
     6
  9
$SURFTAB2
 70
     6
  9
$SURFTYPE
 70
     6
  9
$SURFU
 70
     6
  9
$SURFV
 70
     6
  9
$UCSNAME
  2

  9
$UCSORG
 10
0.0
 20
0.0
 30
0.0
  9
$UCSXDIR
 10
1.0
 20
0.0
 30
0.0
  9
$UCSYDIR
 10
0.0
 20
1.0
 30
0.0
  9
$PUCSNAME
  2

  9
$PUCSORG
 10
0.0
 20
0.0
 30
0.0
  9
$PUCSXDIR
 10
1.0
 20
0.0
 30
0.0
  9
$PUCSYDIR
 10
0.0
 20
1.0
 30
0.0
  9
$USERI1
 70
     0
  9
$USERI2
 70
     0
  9
$USERI3
 70
     0
  9
$USERI4
 70
     0
  9
$USERI5
 70
     0
  9
$USERR1
 40
0.0
  9
$USERR2
 40
0.0
  9
$USERR3
 40
0.0
  9
$USERR4
 40
0.0
  9
$USERR5
 40
0.0
  9
$WORLDVIEW
 70
     1
  9
$SHADEDGE
 70
     3
  9
$SHADEDIF
 70
    70
  9
$TILEMODE
 70
     1
  9
$MAXACTVP
 70
    15
  9
$PINSBASE
 10
0.0008545028977096
 20
1.250283272183907
 30
0.0
  9
$PLIMCHECK
 70
     0
  9
$PEXTMIN
 10
1.000000000000000E+20
 20
1.000000000000000E+20
 30
1.000000000000000E+20
  9
$PEXTMAX
 10
-1.000000000000000E+20
 20
-1.000000000000000E+20
 30
-1.000000000000000E+20
  9
$PLIMMIN
 10
0.0
 20
0.0
  9
$PLIMMAX
 10
12.0
 20
9.0
  9
$UNITMODE
 70
     0
  9
$VISRETAIN
 70
     0
  9
$PLINEGEN
 70
     0
  9
$PSLTSCALE
 70
     1
  9
$TREEDEPTH
 70
  3020
  9
$PICKSTYLE
 70
     1
  9
$CMLSTYLE
  2
STANDARD
  9
$CMLJUST
 70
     0
  9
$CMLSCALE
 40
1.0
  9
$PROXYGRAPHICS
 70
     1
  9
$MEASUREMENT
 70
     0
  0
ENDSEC
  0
SECTION
  2
CLASSES
  0
CLASS
  1
ACDBDICTIONARYWDFLT
  2
AcDbDictionaryWithDefault
  3
AutoCAD 2000
 90
        0
280
     0
281
     0
  0
CLASS
  1
ACDBPLACEHOLDER
  2
AcDbPlaceHolder
  3
AutoCAD 2000
 90
        0
280
     0
281
     0
  0
CLASS
  1
LAYOUT
  2
AcDbLayout
  3
AutoCAD 2000
 90
        0
280
     0
281
     0
  0
CLASS
  1
DICTIONARYVAR
  2
AcDbDictionaryVar
  3
AutoCAD 2000
 90
        0
280
     0
281
     0
  0
CLASS
  1
LONG_TRANSACTION
  2
AcDbLongTransaction
  3
AutoCAD 2000
 90
        0
280
     0
281
     0
  0
CLASS
  1
LWPOLYLINE
  2
AcDbPolyline
  3
AutoCAD 2000
 90
        0
280
     0
281
     1
  0
CLASS
  1
HATCH
  2
AcDbHatch
  3
AutoCAD 2000
 90
        0
280
     0
281
     1
  0
CLASS
  1
XRECORD
  2
AcDbXrecord
  3
AutoCAD 2000
 90
        0
280
     0
281
     0
  0
CLASS
  1
LONG_TRANSACTION
  2
AcDbLongTransaction
  3
AutoCAD 2000
 90
        0
280
     0
281
     0
  0
CLASS
  1
LWPOLYLINE
  2
AcDbPolyline
  3
AutoCAD 2000
 90
        0
280
     0
281
     1
  0
CLASS
  1
HATCH
  2
AcDbHatch
  3
AutoCAD 2000
 90
        0
280
     0
281
     1
  0
CLASS
  1
XRECORD
  2
AcDbXrecord
  3
AutoCAD 2000
 90
        0
280
     0
281
     0
  0
CLASS
  1
LONG_TRANSACTION
  2
AcDbLongTransaction
  3
AutoCAD 2000
 90
        0
280
     0
281
     0
  0
CLASS
  1
LWPOLYLINE
  2
AcDbPolyline
  3
AutoCAD 2000
 90
        0
280
     0
281
     1
  0
CLASS
  1
HATCH
  2
AcDbHatch
  3
AutoCAD 2000
 90
        0
280
     0
281
     1
  0
CLASS
  1
XRECORD
  2
AcDbXrecord
  3
AutoCAD 2000
 90
        0
280
     0
281
     0
  0
CLASS
  1
LONG_TRANSACTION
  2
AcDbLongTransaction
  3
AutoCAD 2000
 90
        0
280
     0
281
     0
  0
CLASS
  1
LWPOLYLINE
  2
AcDbPolyline
  3
AutoCAD 2000
 90
        0
280
     0
281
     1
  0
CLASS
  1
HATCH
  2
AcDbHatch
  3
AutoCAD 2000
 90
        0
280
     0
281
     1
  0
CLASS
  1
XRECORD
  2
AcDbXrecord
  3
AutoCAD 2000
 90
        0
280
     0
281
     0
  0
CLASS
  1
LONG_TRANSACTION
  2
AcDbLongTransaction
  3
AutoCAD 2000
 90
        0
280
     0
281
     0
  0
CLASS
  1
LWPOLYLINE
  2
AcDbPolyline
  3
AutoCAD 2000
 90
        0
280
     0
281
     1
  0
CLASS
  1
HATCH
  2
AcDbHatch
  3
AutoCAD 2000
 90
        0
280
     0
281
     1
  0
CLASS
  1
XRECORD
  2
AcDbXrecord
  3
AutoCAD 2000
 90
        0
280
     0
281
     0
  0
ENDSEC
  0
SECTION
  2
TABLES
  0
TABLE
  2
VPORT
  5
8
330
0
100
AcDbSymbolTable
 70
     2
  0
VPORT
  5
297
330
8
100
AcDbSymbolTableRecord
100
AcDbViewportTableRecord
  2
*ACTIVE
 70
     0
 10
0.0
 20
0.0
 11
1.0
 21
1.0
 12
-10.75285952800257
 22
-18.41436584827073
 13
0.0
 23
0.0
 14
0.5740882589684922
 24
0.5740882589684922
 15
0.5
 25
0.5
 16
0.0
 26
0.0
 36
1.0
 17
0.0
 27
0.0
 37
0.0
 40
8.365265897830415
 41
1.570528967254408
 42
50.0
 43
0.0
 44
0.0
 50
0.0
 51
0.0
 71
     0
 72
   100
 73
     1
 74
     0
 75
     0
 76
     0
 77
     0
 78
     0
  0
ENDTAB
  0
TABLE
  2
LTYPE
  5
5
330
0
100
AcDbSymbolTable
 70
     1
  0
LTYPE
  5
12
330
5
100
AcDbSymbolTableRecord
100
AcDbLinetypeTableRecord
  2
BYBLOCK
 70
     0
  3

 72
    65
 73
     0
 40
0.0
  0
LTYPE
  5
13
330
5
100
AcDbSymbolTableRecord
100
AcDbLinetypeTableRecord
  2
BYLAYER
 70
     0
  3

 72
    65
 73
     0
 40
0.0
  0
LTYPE
  5
14
330
5
100
AcDbSymbolTableRecord
100
AcDbLinetypeTableRecord
  2
CONTINUOUS
 70
     0
  3
Solid line
 72
    65
 73
     0
 40
0.0
  0
ENDTAB
  0
TABLE
  2
LAYER
  5
2
330
0
100
AcDbSymbolTable
 70
     4
  0
LAYER
  5
F
330
2
100
AcDbSymbolTableRecord
100
AcDbLayerTableRecord
  2
0
 70
     0
 62
     7
  6
CONTINUOUS
  0
LAYER
  5
10D
330
2
100
AcDbSymbolTableRecord
100
AcDbLayerTableRecord
  2
ADP1DETAIL
 70
     0
 62
     7
  6
CONTINUOUS
  0
LAYER
  5
10F
330
2
100
AcDbSymbolTableRecord
100
AcDbLayerTableRecord
  2
DEFPOINTS
 70
     0
 62
     7
  6
CONTINUOUS
  0
LAYER
  5
112
330
2
100
AcDbSymbolTableRecord
100
AcDbLayerTableRecord
  2
ADPDIM
 70
     0
 62
     3
  6
CONTINUOUS
  0
ENDTAB
  0
TABLE
  2
STYLE
  5
3
330
0
100
AcDbSymbolTable
 70
     2
  0
STYLE
  5
10
330
3
100
AcDbSymbolTableRecord
100
AcDbTextStyleTableRecord
  2
STANDARD
 70
     0
 40
0.0
 41
1.0
 50
0.0
 71
     0
 42
0.2
  3
txt
  4

  0
STYLE
  5
153
330
3
100
AcDbSymbolTableRecord
100
AcDbTextStyleTableRecord
  2
ARIAL_WIDE
 70
     0
 40
0.0
 41
1.25
 50
0.0
 71
     0
 42
0.2
  3
ARIAL.TTF
  4

1001
ACAD
1000
Arial
1071
       34
  0
ENDTAB
  0
TABLE
  2
VIEW
  5
6
330
0
100
AcDbSymbolTable
 70
     0
  0
ENDTAB
  0
TABLE
  2
UCS
  5
7
330
0
100
AcDbSymbolTable
 70
     0
  0
ENDTAB
  0
TABLE
  2
APPID
  5
9
330
0
100
AcDbSymbolTable
 70
     1
  0
APPID
  5
11
330
9
100
AcDbSymbolTableRecord
100
AcDbRegAppTableRecord
  2
ACAD
 70
     0
  0
ENDTAB
  0
TABLE
  2
DIMSTYLE
  5
A
330
0
100
AcDbSymbolTable
 70
     1
  0
DIMSTYLE
105
147
330
A
100
AcDbSymbolTableRecord
100
AcDbDimStyleTableRecord
  2
STANDARD
 70
     0
  3

  4

  5

  6

  7

 40
1.0
 41
0.18
 42
0.0625
 43
0.38
 44
0.18
 45
0.0
 46
0.0
 47
0.0
 48
0.0
140
0.18
141
0.09
142
0.0
143
25.4
144
1.0
145
0.0
146
1.0
147
0.09
 71
     0
 72
     0
 73
     1
 74
     1
 75
     0
 76
     0
 77
     0
 78
     0
170
     0
171
     2
172
     0
173
     0
174
     0
175
     0
176
     0
177
     0
178
     0
270
     2
271
     4
272
     4
273
     2
274
     2
340
10
275
     0
280
     0
281
     0
282
     0
283
     1
284
     0
285
     0
286
     0
287
     3
288
     0
  0
ENDTAB
  0
TABLE
  2
BLOCK_RECORD
  5
1
330
0
100
AcDbSymbolTable
 70
     3
  0
BLOCK_RECORD
  5
18
102
{ACAD_XDICTIONARY
360
1A8
102
}
330
1
100
AcDbSymbolTableRecord
100
AcDbBlockTableRecord
  2
*MODEL_SPACE
  0
BLOCK_RECORD
  5
15
102
{ACAD_XDICTIONARY
360
1A6
102
}
330
1
100
AcDbSymbolTableRecord
100
AcDbBlockTableRecord
  2
*PAPER_SPACE
  0
BLOCK_RECORD
  5
E2
330
1
100
AcDbSymbolTableRecord
100
AcDbBlockTableRecord
  2
4572
  0
BLOCK_RECORD
  5
108
330
1
100
AcDbSymbolTableRecord
100
AcDbBlockTableRecord
  2
*D1
  0
BLOCK_RECORD
  5
109
330
1
100
AcDbSymbolTableRecord
100
AcDbBlockTableRecord
  2
*D2
  0
ENDTAB
  0
ENDSEC
  0
SECTION
  2
BLOCKS
  0
BLOCK
  5
115
330
18
100
AcDbEntity
  8
0
100
AcDbBlockBegin
  2
*MODEL_SPACE
 70
     0
 10
0.0
 20
0.0
 30
0.0
  3
*MODEL_SPACE
  1

  0
ENDBLK
  5
116
330
18
100
AcDbEntity
  8
0
100
AcDbBlockEnd
  0
BLOCK
  5
113
330
15
100
AcDbEntity
 67
     1
  8
0
100
AcDbBlockBegin
  2
*PAPER_SPACE
 70
     0
 10
0.0
 20
0.0
 30
0.0
  3
*PAPER_SPACE
  1

  0
ENDBLK
  5
114
330
15
100
AcDbEntity
 67
     1
  8
0
100
AcDbBlockEnd
  0
BLOCK
  5
118
330
E2
100
AcDbEntity
  8
0
100
AcDbBlockBegin
  2
4572
 70
     0
 10
0.0
 20
0.0
 30
0.0
  3
4572
  1

  0
ARC
  5
119
330
E2
100
AcDbEntity
  8
0
100
AcDbCircle
 10
1.125
 20
4.465749999999998
 30
0.0
 40
4.684999999999998
100
AcDbArc
 50
274.9144644009104
 51
283.5179193007771
  0
ARC
  5
11A
330
E2
100
AcDbEntity
  8
0
100
AcDbCircle
 10
1.125
 20
-4.904249999999999
 30
0.0
 40
5.122999999999999
100
AcDbArc
 50
77.66593018287675
 51
90.0
  0
ARC
  5
11B
330
E2
100
AcDbEntity
  8
0
100
AcDbCircle
 10
0.0390000000000015
 20
-0.0515412237313076
 30
0.0
 40
0.039
100
AcDbArc
 50
180.0
 51
256.4820806992196
  0
ARC
  5
11C
330
E2
100
AcDbEntity
  8
0
100
AcDbCircle
 10
0.0390000000000015
 20
0.062404809829248
 30
0.0
 40
0.039
100
AcDbArc
 50
102.33406981712
 51
180.0
  0
ARC
  5
11D
330
E2
100
AcDbEntity
  8
0
100
AcDbCircle
 10
1.125
 20
-4.904249999999999
 30
0.0
 40
5.122999999999999
100
AcDbArc
 50
90.0
 51
102.3340698171232
  0
LINE
  5
11E
330
E2
100
AcDbEntity
  8
0
100
AcDbLine
 10
0.7445000000000022
 20
-0.0627499999999994
 30
0.0
 11
1.125
 21
-0.0627499999999994
 31
0.0
  0
LINE
  5
11F
330
E2
100
AcDbEntity
  8
0
100
AcDbLine
 10
0.0
 20
0.062404809829248
 30
0.0
 11
0.0
 21
-0.0515412237313076
 31
0.0
  0
ARC
  5
120
330
E2
100
AcDbEntity
  8
0
100
AcDbCircle
 10
1.125
 20
4.465749999999998
 30
0.0
 40
4.684999999999998
100
AcDbArc
 50
256.4820806992226
 51
265.0855355990894
  0
LINE
  5
121
330
E2
100
AcDbEntity
  8
0
100
AcDbLine
 10
0.7345000000000006
 20
-0.1920633013249802
 30
0.0
 11
0.7345000000000006
 21
-0.072750000000001
 31
0.0
  0
ARC
  5
122
330
E2
100
AcDbEntity
  8
0
100
AcDbCircle
 10
0.7445000000000022
 20
-0.072750000000001
 30
0.0
 40
0.01
100
AcDbArc
 50
90.0
 51
180.0
  0
ARC
  5
123
330
E2
100
AcDbEntity
  8
0
100
AcDbCircle
 10
0.7244999999999991
 20
-0.1920633013249802
 30
0.0
 40
0.01
100
AcDbArc
 50
265.0855355990762
 51
0.0
  0
LINE
  5
124
330
E2
100
AcDbEntity
  8
0
100
AcDbLine
 10
1.505499999999997
 20
-0.0627499999999994
 30
0.0
 11
1.125
 21
-0.0627499999999994
 31
0.0
  0
LINE
  5
125
330
E2
100
AcDbEntity
  8
0
100
AcDbLine
 10
1.515499999999999
 20
-0.1920633013249802
 30
0.0
 11
1.515499999999999
 21
-0.072750000000001
 31
0.0
  0
ARC
  5
126
330
E2
100
AcDbEntity
  8
0
100
AcDbCircle
 10
1.505499999999997
 20
-0.072750000000001
 30
0.0
 40
0.01
100
AcDbArc
 50
0.0
 51
90.0
  0
ARC
  5
127
330
E2
100
AcDbEntity
  8
0
100
AcDbCircle
 10
1.5255
 20
-0.1920633013249802
 30
0.0
 40
0.01
100
AcDbArc
 50
180.0
 51
274.9144644009035
  0
LINE
  5
128
330
E2
100
AcDbEntity
  8
0
100
AcDbLine
 10
2.25
 20
0.0624048098292516
 30
0.0
 11
2.25
 21
-0.0515412237313076
 31
0.0
  0
ARC
  5
129
330
E2
100
AcDbEntity
  8
0
100
AcDbCircle
 10
2.210999999999998
 20
-0.0515412237313076
 30
0.0
 40
0.039
100
AcDbArc
 50
283.5179193007753
 51
0.0
  0
ARC
  5
12A
330
E2
100
AcDbEntity
  8
0
100
AcDbCircle
 10
2.210999999999998
 20
0.0624048098292516
 30
0.0
 40
0.039
100
AcDbArc
 50
0.0
 51
77.66593018287879
  0
ENDBLK
  5
12B
330
E2
100
AcDbEntity
  8
0
100
AcDbBlockEnd
  0
BLOCK
  5
12C
330
108
100
AcDbEntity
  8
0
100
AcDbBlockBegin
  2
*D1
 70
     1
 10
0.0
 20
0.0
 30
0.0
  3
*D1
  1

  0
LINE
  5
12D
330
108
100
AcDbEntity
  8
0
  6
BYBLOCK
 62
     0
100
AcDbLine
 10
-11.88963145476959
 20
-18.07459216477916
 30
0.0
 11
-11.88963145476959
 21
-17.50778207378953
 31
0.0
  0
LINE
  5
12E
330
108
100
AcDbEntity
  8
0
  6
BYBLOCK
 62
     0
100
AcDbLine
 10
-9.63963145476959
 20
-18.07459216477915
 30
0.0
 11
-9.63963145476959
 21
-17.50778207378953
 31
0.0
  0
LINE
  5
12F
330
108
100
AcDbEntity
  8
0
  6
BYBLOCK
 62
     0
100
AcDbLine
 10
-11.88963145476959
 20
-17.68778207378953
 30
0.0
 11
-11.16046478810292
 21
-17.68778207378953
 31
0.0
  0
LINE
  5
130
330
108
100
AcDbEntity
  8
0
  6
BYBLOCK
 62
     0
100
AcDbLine
 10
-9.63963145476959
 20
-17.68778207378953
 30
0.0
 11
-10.36879812143625
 21
-17.68778207378953
 31
0.0
  0
LINE
  5
131
330
108
100
AcDbEntity
  8
0
  6
BYBLOCK
 62
     0
100
AcDbLine
 10
-12.01463145476959
 20
-17.81278207378953
 30
0.0
 11
-11.76463145476959
 21
-17.56278207378953
 31
0.0
  0
LINE
  5
132
330
108
100
AcDbEntity
  8
0
  6
BYBLOCK
 62
     0
100
AcDbLine
 10
-9.76463145476959
 20
-17.81278207378953
 30
0.0
 11
-9.51463145476959
 21
-17.56278207378953
 31
0.0
  0
TEXT
  5
133
330
108
100
AcDbEntity
  8
0
  6
BYBLOCK
 62
     0
100
AcDbText
 10
-11.03546478810292
 20
-17.75028207378953
 30
0.0
 40
0.125
  1
2 1/4
 72
     1
 11
-10.76463145476959
 21
-17.68778207378953
 31
0.0
100
AcDbText
 73
     2
  0
POINT
  5
134
330
108
100
AcDbEntity
  8
DEFPOINTS
  6
BYBLOCK
 62
     0
100
AcDbPoint
 10
-11.88963145476959
 20
-18.13709216477915
 30
0.0
  0
POINT
  5
135
330
108
100
AcDbEntity
  8
DEFPOINTS
  6
BYBLOCK
 62
     0
100
AcDbPoint
 10
-9.63963145476959
 20
-18.13709216477915
 30
0.0
  0
POINT
  5
136
330
108
100
AcDbEntity
  8
DEFPOINTS
  6
BYBLOCK
 62
     0
100
AcDbPoint
 10
-9.63963145476959
 20
-17.68778207378953
 30
0.0
  0
ENDBLK
  5
137
330
108
100
AcDbEntity
  8
0
100
AcDbBlockEnd
  0
BLOCK
  5
138
330
109
100
AcDbEntity
  8
0
100
AcDbBlockBegin
  2
*D2
 70
     1
 10
0.0
 20
0.0
 30
0.0
  3
*D2
  1

  0
LINE
  5
139
330
109
100
AcDbEntity
  8
0
  6
BYBLOCK
 62
     0
100
AcDbLine
 10
-11.15026462338338
 20
-18.4568811815387
 30
0.0
 11
-11.15026462338338
 21
-18.83830388638628
 31
0.0
  0
LINE
  5
13A
330
109
100
AcDbEntity
  8
0
  6
BYBLOCK
 62
     0
100
AcDbLine
 10
-10.37064324381515
 20
-18.4568811815387
 30
0.0
 11
-10.37064324381515
 21
-18.83830388638628
 31
0.0
  0
LINE
  5
13B
330
109
100
AcDbEntity
  8
0
  6
BYBLOCK
 62
     0
100
AcDbLine
 10
-11.15026462338338
 20
-18.65830388638628
 30
0.0
 11
-11.40026462338338
 21
-18.65830388638628
 31
0.0
  0
LINE
  5
13C
330
109
100
AcDbEntity
  8
0
  6
BYBLOCK
 62
     0
100
AcDbLine
 10
-10.37064324381515
 20
-18.65830388638628
 30
0.0
 11
-10.12064324381515
 21
-18.65830388638628
 31
0.0
  0
LINE
  5
13D
330
109
100
AcDbEntity
  8
0
  6
BYBLOCK
 62
     0
100
AcDbLine
 10
-11.27526462338338
 20
-18.78330388638628
 30
0.0
 11
-11.02526462338338
 21
-18.53330388638628
 31
0.0
  0
LINE
  5
13E
330
109
100
AcDbEntity
  8
0
  6
BYBLOCK
 62
     0
100
AcDbLine
 10
-10.49564324381515
 20
-18.78330388638628
 30
0.0
 11
-10.24564324381515
 21
-18.53330388638628
 31
0.0
  0
TEXT
  5
13F
330
109
100
AcDbEntity
  8
0
  6
BYBLOCK
 62
     0
100
AcDbText
 10
-9.99564324381515
 20
-18.72080388638628
 30
0.0
 40
0.125
  1
3/4
 72
     1
 11
-9.828976577148484
 21
-18.65830388638628
 31
0.0
100
AcDbText
 73
     2
  0
POINT
  5
140
330
109
100
AcDbEntity
  8
DEFPOINTS
  6
BYBLOCK
 62
     0
100
AcDbPoint
 10
-11.15026462338338
 20
-18.3943811815387
 30
0.0
  0
POINT
  5
141
330
109
100
AcDbEntity
  8
DEFPOINTS
  6
BYBLOCK
 62
     0
100
AcDbPoint
 10
-10.37064324381515
 20
-18.3943811815387
 30
0.0
  0
POINT
  5
142
330
109
100
AcDbEntity
  8
DEFPOINTS
  6
BYBLOCK
 62
     0
100
AcDbPoint
 10
-10.37064324381515
 20
-18.65830388638628
 30
0.0
  0
ENDBLK
  5
143
330
109
100
AcDbEntity
  8
0
100
AcDbBlockEnd
  0
ENDSEC
  0
SECTION
  2
ENTITIES
  0
DIMENSION
  5
144
330
18
100
AcDbEntity
  8
ADPDIM
100
AcDbDimension
  2
*D2
 10
-10.37064324381515
 20
-18.65830388638628
 30
0.0
 11
-9.828976577148484
 21
-18.65830388638628
 31
0.0
100
AcDbAlignedDimension
 13
-11.15026462338338
 23
-18.3943811815387
 33
0.0
 14
-10.37064324381515
 24
-18.3943811815387
 34
0.0
100
AcDbRotatedDimension
  0
DIMENSION
  5
145
330
18
100
AcDbEntity
  8
ADPDIM
100
AcDbDimension
  2
*D1
 10
-9.63963145476959
 20
-17.68778207378953
 30
0.0
 11
-10.76463145476959
 21
-17.68778207378953
 31
0.0
100
AcDbAlignedDimension
 13
-11.88963145476959
 23
-18.13709216477915
 33
0.0
 14
-9.63963145476959
 24
-18.13709216477915
 34
0.0
100
AcDbRotatedDimension
  0
INSERT
  5
146
330
18
100
AcDbEntity
  8
ADP1DETAIL
100
AcDbBlockReference
  2
4572
 10
-11.88963145476959
 20
-18.14252395782812
 30
0.0
  0
TEXT
  5
154
330
18
100
AcDbEntity
  8
ADPDIM
100
AcDbText
 10
-17.2903604793262
 20
-19.28331342491562
 30
0.0
 40
0.125
  1
J U L I U S  B L U M  &  C O . ,  I N C .      ( 8 0 0 )  5 2 6 - 6 2 9 3        W W W . J U L I U S B L U M . C O M        P A R T  N o .  4 5 7 2
 41
1.25
  7
ARIAL_WIDE
 72
     1
 11
-10.76463145476959
 21
-19.15831342491562
 31
0.0
100
AcDbText
 73
     3
  0
ENDSEC
  0
SECTION
  2
OBJECTS
  0
DICTIONARY
  5
C
330
0
100
AcDbDictionary
  3
ACAD_GROUP
350
D
  3
ACAD_LAYOUT
350
14D
  3
ACAD_MLINESTYLE
350
E
  3
ACAD_PLOTSETTINGS
350
14E
  3
ACAD_PLOTSTYLENAME
350
14B
  3
ACDBHEADERROUNDTRIPXREC
350
298
  3
ACDBVARIABLEDICTIONARY
350
1AE
  0
DICTIONARY
  5
1A8
330
18
100
AcDbDictionary
280
     1
  3
ACAD_LAYOUTSELFREF
360
2B9
  0
DICTIONARY
  5
1A6
330
15
100
AcDbDictionary
280
     1
  3
ACAD_LAYOUTSELFREF
360
2B8
  0
DICTIONARY
  5
D
102
{ACAD_REACTORS
330
C
102
}
330
C
100
AcDbDictionary
  0
DICTIONARY
  5
14D
102
{ACAD_REACTORS
330
C
102
}
330
C
100
AcDbDictionary
  0
DICTIONARY
  5
E
102
{ACAD_REACTORS
330
C
102
}
330
C
100
AcDbDictionary
  3
STANDARD
350
1B
  0
DICTIONARY
  5
14E
102
{ACAD_REACTORS
330
C
102
}
330
C
100
AcDbDictionary
  0
ACDBDICTIONARYWDFLT
  5
14B
102
{ACAD_REACTORS
330
C
102
}
330
C
100
AcDbDictionary
281
     1
  3
Normal
350
14C
100
AcDbDictionaryWithDefault
340
14C
  0
DICTIONARY
  5
298
102
{ACAD_REACTORS
330
C
102
}
330
C
100
AcDbDictionary
  3
CEPSNTYPE
350
2A2
  3
FINGERPRINTGUID
350
2A3
  3
HYPERLINKBASE
350
29B
  3
INSUNITS
350
2A1
  3
LAYOUTDICT
350
29D
  3
LWETCUNION
350
2A0
  3
PLOTSETDICT
350
29E
  3
PLOTSTYLNAMDICT
350
29F
  3
PSVPSCALE
350
2A5
  3
PUCSBASE
350
2A8
  3
PUCSORGBACK
350
2AE
  3
PUCSORGBOTTOM
350
2AA
  3
PUCSORGFRONT
350
2AD
  3
PUCSORGLEFT
350
2AB
  3
PUCSORGRIGHT
350
2AC
  3
PUCSORGTOP
350
2A9
  3
PUCSORTHOREF
350
2A6
  3
PUCSORTHOVIEW
350
2A7
  3
STYLESHEET
350
29C
  3
TSTACKALIGN
350
299
  3
TSTACKSIZE
350
29A
  3
UCSBASE
350
2B1
  3
UCSORGBACK
350
2B7
  3
UCSORGBOTTOM
350
2B3
  3
UCSORGFRONT
350
2B6
  3
UCSORGLEFT
350
2B4
  3
UCSORGRIGHT
350
2B5
  3
UCSORGTOP
350
2B2
  3
UCSORTHOREF
350
2AF
  3
UCSORTHOVIEW
350
2B0
  3
VERSIONGUID
350
2A4
  0
DICTIONARY
  5
1AE
102
{ACAD_REACTORS
330
C
102
}
330
C
100
AcDbDictionary
  3
DIMASSOC
350
1AF
  0
XRECORD
  5
2B9
102
{ACAD_REACTORS
330
1A8
102
}
330
1A8
100
AcDbXrecord
340
18
  0
XRECORD
  5
2B8
102
{ACAD_REACTORS
330
1A6
102
}
330
1A6
100
AcDbXrecord
340
15
  0
MLINESTYLE
  5
1B
102
{ACAD_REACTORS
330
E
102
}
330
E
100
AcDbMlineStyle
  2
STANDARD
 70
     0
  3

 62
     0
 51
90.0
 52
90.0
 71
     2
 49
0.5
 62
   256
  6
BYLAYER
 49
-0.5
 62
   256
  6
BYLAYER
  0
ACDBPLACEHOLDER
  5
14C
102
{ACAD_REACTORS
330
14B
102
}
330
14B
100
AcDbPlaceHolder
280
     0
  0
XRECORD
  5
2A2
102
{ACAD_REACTORS
330
298
102
}
330
298
100
AcDbXrecord
 90
        0
  0
XRECORD
  5
2A3
102
{ACAD_REACTORS
330
298
102
}
330
298
100
AcDbXrecord
  1
{330B3E69-1C84-408C-B13F-B13F27008977}
  0
XRECORD
  5
29B
102
{ACAD_REACTORS
330
298
102
}
330
298
100
AcDbXrecord
  1

  0
XRECORD
  5
2A1
102
{ACAD_REACTORS
330
298
102
}
330
298
100
AcDbXrecord
 90
        0
  0
XRECORD
  5
29D
102
{ACAD_REACTORS
330
298
102
}
330
298
100
AcDbXrecord
340
14D
  0
XRECORD
  5
2A0
102
{ACAD_REACTORS
330
298
102
}
330
298
100
AcDbXrecord
 90
    14877
  0
XRECORD
  5
29E
102
{ACAD_REACTORS
330
298
102
}
330
298
100
AcDbXrecord
340
14E
  0
XRECORD
  5
29F
102
{ACAD_REACTORS
330
298
102
}
330
298
100
AcDbXrecord
340
14B
  0
XRECORD
  5
2A5
102
{ACAD_REACTORS
330
298
102
}
330
298
100
AcDbXrecord
 40
0.0
  0
XRECORD
  5
2A8
102
{ACAD_REACTORS
330
298
102
}
330
298
100
AcDbXrecord
340
0
  0
XRECORD
  5
2AE
102
{ACAD_REACTORS
330
298
102
}
330
298
100
AcDbXrecord
 10
0.0
 20
0.0
 30
0.0
  0
XRECORD
  5
2AA
102
{ACAD_REACTORS
330
298
102
}
330
298
100
AcDbXrecord
 10
0.0
 20
0.0
 30
0.0
  0
XRECORD
  5
2AD
102
{ACAD_REACTORS
330
298
102
}
330
298
100
AcDbXrecord
 10
0.0
 20
0.0
 30
0.0
  0
XRECORD
  5
2AB
102
{ACAD_REACTORS
330
298
102
}
330
298
100
AcDbXrecord
 10
0.0
 20
0.0
 30
0.0
  0
XRECORD
  5
2AC
102
{ACAD_REACTORS
330
298
102
}
330
298
100
AcDbXrecord
 10
0.0
 20
0.0
 30
0.0
  0
XRECORD
  5
2A9
102
{ACAD_REACTORS
330
298
102
}
330
298
100
AcDbXrecord
 10
0.0
 20
0.0
 30
0.0
  0
XRECORD
  5
2A6
102
{ACAD_REACTORS
330
298
102
}
330
298
100
AcDbXrecord
340
0
  0
XRECORD
  5
2A7
102
{ACAD_REACTORS
330
298
102
}
330
298
100
AcDbXrecord
 70
     0
  0
XRECORD
  5
29C
102
{ACAD_REACTORS
330
298
102
}
330
298
100
AcDbXrecord
  1

  0
XRECORD
  5
299
102
{ACAD_REACTORS
330
298
102
}
330
298
100
AcDbXrecord
 90
        1
  0
XRECORD
  5
29A
102
{ACAD_REACTORS
330
298
102
}
330
298
100
AcDbXrecord
 90
       70
  0
XRECORD
  5
2B1
102
{ACAD_REACTORS
330
298
102
}
330
298
100
AcDbXrecord
340
0
  0
XRECORD
  5
2B7
102
{ACAD_REACTORS
330
298
102
}
330
298
100
AcDbXrecord
 10
0.0
 20
0.0
 30
0.0
  0
XRECORD
  5
2B3
102
{ACAD_REACTORS
330
298
102
}
330
298
100
AcDbXrecord
 10
0.0
 20
0.0
 30
0.0
  0
XRECORD
  5
2B6
102
{ACAD_REACTORS
330
298
102
}
330
298
100
AcDbXrecord
 10
0.0
 20
0.0
 30
0.0
  0
XRECORD
  5
2B4
102
{ACAD_REACTORS
330
298
102
}
330
298
100
AcDbXrecord
 10
0.0
 20
0.0
 30
0.0
  0
XRECORD
  5
2B5
102
{ACAD_REACTORS
330
298
102
}
330
298
100
AcDbXrecord
 10
0.0
 20
0.0
 30
0.0
  0
XRECORD
  5
2B2
102
{ACAD_REACTORS
330
298
102
}
330
298
100
AcDbXrecord
 10
0.0
 20
0.0
 30
0.0
  0
XRECORD
  5
2AF
102
{ACAD_REACTORS
330
298
102
}
330
298
100
AcDbXrecord
340
0
  0
XRECORD
  5
2B0
102
{ACAD_REACTORS
330
298
102
}
330
298
100
AcDbXrecord
 70
     0
  0
XRECORD
  5
2A4
102
{ACAD_REACTORS
330
298
102
}
330
298
100
AcDbXrecord
  1
{7DD09F73-6A08-4125-A429-ACB9048F032D}
  0
DICTIONARYVAR
  5
1AF
102
{ACAD_REACTORS
330
1AE
102
}
330
1AE
100
DictionaryVariables
280
     0
  1
1
  0
ENDSEC
  0
EOF
