  0
SECTION
  2
HEADER
  9
$ACADVER
  1
AC1015
  9
$ACADMAINTVER
 70
    20
  9
$DWGCODEPAGE
  3
ANSI_1252
  9
$INSBASE
 10
41.37898811060927
 20
3.965430903663958
 30
0.0
  9
$EXTMIN
 10
33.63180765071664
 20
1.424658394223542
 30
0.0
  9
$EXTMAX
 10
47.0228376643592
 20
5.06836949862234
 30
0.0
  9
$LIMMIN
 10
0.0
 20
0.0
  9
$LIMMAX
 10
36.0
 20
36.0
  9
$ORTHOMODE
 70
     1
  9
$REGENMODE
 70
     1
  9
$FILLMODE
 70
     1
  9
$QTEXTMODE
 70
     0
  9
$MIRRTEXT
 70
     1
  9
$LTSCALE
 40
1.0
  9
$ATTMODE
 70
     1
  9
$TEXTSIZE
 40
0.2
  9
$TRACEWID
 40
0.05
  9
$TEXTSTYLE
  7
STANDARD
  9
$CLAYER
  8
ADP1DETAIL
  9
$CELTYPE
  6
BYLAYER
  9
$CECOLOR
 62
   256
  9
$CELTSCALE
 40
1.0
  9
$DISPSILH
 70
     0
  9
$DIMSCALE
 40
1.0
  9
$DIMASZ
 40
0.125
  9
$DIMEXO
 40
0.0625
  9
$DIMDLI
 40
0.38
  9
$DIMRND
 40
0.0
  9
$DIMDLE
 40
0.0
  9
$DIMEXE
 40
0.18
  9
$DIMTP
 40
0.0
  9
$DIMTM
 40
0.0
  9
$DIMTXT
 40
0.125
  9
$DIMCEN
 40
0.1875
  9
$DIMTSZ
 40
0.125
  9
$DIMTOL
 70
     0
  9
$DIMLIM
 70
     0
  9
$DIMTIH
 70
     0
  9
$DIMTOH
 70
     0
  9
$DIMSE1
 70
     0
  9
$DIMSE2
 70
     0
  9
$DIMTAD
 70
     0
  9
$DIMZIN
 70
     3
  9
$DIMBLK
  1

  9
$DIMASO
 70
     1
  9
$DIMSHO
 70
     1
  9
$DIMPOST
  1

  9
$DIMAPOST
  1

  9
$DIMALT
 70
     0
  9
$DIMALTD
 70
     1
  9
$DIMALTF
 40
25.4
  9
$DIMLFAC
 40
1.0
  9
$DIMTOFL
 70
     0
  9
$DIMTVP
 40
0.0
  9
$DIMTIX
 70
     0
  9
$DIMSOXD
 70
     0
  9
$DIMSAH
 70
     0
  9
$DIMBLK1
  1

  9
$DIMBLK2
  1

  9
$DIMSTYLE
  2
STANDARD
  9
$DIMCLRD
 70
     0
  9
$DIMCLRE
 70
     0
  9
$DIMCLRT
 70
     0
  9
$DIMTFAC
 40
1.0
  9
$DIMGAP
 40
0.125
  9
$DIMJUST
 70
     0
  9
$DIMSD1
 70
     0
  9
$DIMSD2
 70
     0
  9
$DIMTOLJ
 70
     1
  9
$DIMTZIN
 70
     0
  9
$DIMALTZ
 70
     0
  9
$DIMALTTZ
 70
     0
  9
$DIMUPT
 70
     0
  9
$DIMDEC
 70
     4
  9
$DIMTDEC
 70
     4
  9
$DIMALTU
 70
     2
  9
$DIMALTTD
 70
     2
  9
$DIMTXSTY
  7
STANDARD
  9
$DIMAUNIT
 70
     0
  9
$DIMADEC
 70
     0
  9
$DIMALTRND
 40
0.0
  9
$DIMAZIN
 70
     0
  9
$DIMDSEP
 70
    46
  9
$DIMATFIT
 70
     3
  9
$DIMFRAC
 70
     0
  9
$DIMLDRBLK
  1

  9
$DIMLUNIT
 70
     2
  9
$DIMLWD
 70
    -2
  9
$DIMLWE
 70
    -2
  9
$DIMTMOVE
 70
     0
  9
$LUNITS
 70
     5
  9
$LUPREC
 70
     4
  9
$SKETCHINC
 40
0.1
  9
$FILLETRAD
 40
0.062
  9
$AUNITS
 70
     0
  9
$AUPREC
 70
     0
  9
$MENU
  1
acad
  9
$ELEVATION
 40
0.0
  9
$PELEVATION
 40
0.0
  9
$THICKNESS
 40
0.0
  9
$LIMCHECK
 70
     0
  9
$CHAMFERA
 40
0.0
  9
$CHAMFERB
 40
0.0
  9
$CHAMFERC
 40
0.0
  9
$CHAMFERD
 40
0.0
  9
$SKPOLY
 70
     0
  9
$TDCREATE
 40
2450364.038774687
  9
$TDUCREATE
 40
2450364.205441355
  9
$TDUPDATE
 40
2453972.963540602
  9
$TDUUPDATE
 40
2453973.130207269
  9
$TDINDWG
 40
0.0245478125
  9
$TDUSRTIMER
 40
0.0245478125
  9
$USRTIMER
 70
     1
  9
$ANGBASE
 50
0.0
  9
$ANGDIR
 70
     0
  9
$PDMODE
 70
     0
  9
$PDSIZE
 40
0.0
  9
$PLINEWID
 40
0.0
  9
$SPLFRAME
 70
     0
  9
$SPLINETYPE
 70
     6
  9
$SPLINESEGS
 70
     8
  9
$HANDSEED
  5
253
  9
$SURFTAB1
 70
     6
  9
$SURFTAB2
 70
     6
  9
$SURFTYPE
 70
     6
  9
$SURFU
 70
     6
  9
$SURFV
 70
     6
  9
$UCSBASE
  2

  9
$UCSNAME
  2

  9
$UCSORG
 10
0.0
 20
0.0
 30
0.0
  9
$UCSXDIR
 10
1.0
 20
0.0
 30
0.0
  9
$UCSYDIR
 10
0.0
 20
1.0
 30
0.0
  9
$UCSORTHOREF
  2

  9
$UCSORTHOVIEW
 70
     0
  9
$UCSORGTOP
 10
0.0
 20
0.0
 30
0.0
  9
$UCSORGBOTTOM
 10
0.0
 20
0.0
 30
0.0
  9
$UCSORGLEFT
 10
0.0
 20
0.0
 30
0.0
  9
$UCSORGRIGHT
 10
0.0
 20
0.0
 30
0.0
  9
$UCSORGFRONT
 10
0.0
 20
0.0
 30
0.0
  9
$UCSORGBACK
 10
0.0
 20
0.0
 30
0.0
  9
$PUCSBASE
  2

  9
$PUCSNAME
  2

  9
$PUCSORG
 10
0.0
 20
0.0
 30
0.0
  9
$PUCSXDIR
 10
1.0
 20
0.0
 30
0.0
  9
$PUCSYDIR
 10
0.0
 20
1.0
 30
0.0
  9
$PUCSORTHOREF
  2

  9
$PUCSORTHOVIEW
 70
     0
  9
$PUCSORGTOP
 10
0.0
 20
0.0
 30
0.0
  9
$PUCSORGBOTTOM
 10
0.0
 20
0.0
 30
0.0
  9
$PUCSORGLEFT
 10
0.0
 20
0.0
 30
0.0
  9
$PUCSORGRIGHT
 10
0.0
 20
0.0
 30
0.0
  9
$PUCSORGFRONT
 10
0.0
 20
0.0
 30
0.0
  9
$PUCSORGBACK
 10
0.0
 20
0.0
 30
0.0
  9
$USERI1
 70
     0
  9
$USERI2
 70
     0
  9
$USERI3
 70
     0
  9
$USERI4
 70
     0
  9
$USERI5
 70
     0
  9
$USERR1
 40
0.0
  9
$USERR2
 40
0.0
  9
$USERR3
 40
0.0
  9
$USERR4
 40
0.0
  9
$USERR5
 40
0.0
  9
$WORLDVIEW
 70
     1
  9
$SHADEDGE
 70
     3
  9
$SHADEDIF
 70
    70
  9
$TILEMODE
 70
     1
  9
$MAXACTVP
 70
    15
  9
$PINSBASE
 10
-1.038494034028074E+34
 20
0.0
 30
0.0
  9
$PLIMCHECK
 70
     0
  9
$PEXTMIN
 10
1.000000000000000E+20
 20
1.000000000000000E+20
 30
1.000000000000000E+20
  9
$PEXTMAX
 10
-1.000000000000000E+20
 20
-1.000000000000000E+20
 30
-1.000000000000000E+20
  9
$PLIMMIN
 10
0.0
 20
0.0
  9
$PLIMMAX
 10
12.0
 20
9.0
  9
$UNITMODE
 70
     0
  9
$VISRETAIN
 70
     0
  9
$PLINEGEN
 70
     0
  9
$PSLTSCALE
 70
     1
  9
$TREEDEPTH
 70
  3020
  9
$CMLSTYLE
  2
STANDARD
  9
$CMLJUST
 70
     0
  9
$CMLSCALE
 40
1.0
  9
$PROXYGRAPHICS
 70
     1
  9
$MEASUREMENT
 70
     0
  9
$CELWEIGHT
370
    -1
  9
$ENDCAPS
280
     0
  9
$JOINSTYLE
280
     0
  9
$LWDISPLAY
290
     0
  9
$INSUNITS
 70
     0
  9
$HYPERLINKBASE
  1

  9
$STYLESHEET
  1

  9
$XEDIT
290
     1
  9
$CEPSNTYPE
380
     0
  9
$PSTYLEMODE
290
     1
  9
$FINGERPRINTGUID
  2
{9ECBA143-E2C7-4EF4-B273-73D890C4C73F}
  9
$VERSIONGUID
  2
{ADBCB2E7-9F7F-4999-A23F-EC4236A1B945}
  9
$EXTNAMES
290
     1
  9
$PSVPSCALE
 40
0.0
  9
$OLESTARTUP
290
     0
  0
ENDSEC
  0
SECTION
  2
CLASSES
  0
CLASS
  1
ACDBDICTIONARYWDFLT
  2
AcDbDictionaryWithDefault
  3
ObjectDBX Classes
 90
        0
280
     0
281
     0
  0
CLASS
  1
ACDBPLACEHOLDER
  2
AcDbPlaceHolder
  3
ObjectDBX Classes
 90
        0
280
     0
281
     0
  0
CLASS
  1
LAYOUT
  2
AcDbLayout
  3
ObjectDBX Classes
 90
        0
280
     0
281
     0
  0
CLASS
  1
DICTIONARYVAR
  2
AcDbDictionaryVar
  3
ObjectDBX Classes
 90
        0
280
     0
281
     0
  0
CLASS
  1
MATERIAL
  2
AcDbMaterial
  3
ObjectDBX Classes
 90
     1024
280
     0
281
     0
  0
CLASS
  1
VISUALSTYLE
  2
AcDbVisualStyle
  3
ObjectDBX Classes
 90
     4095
280
     0
281
     0
  0
CLASS
  1
TABLESTYLE
  2
AcDbTableStyle
  3
ObjectDBX Classes
 90
     4095
280
     0
281
     0
  0
ENDSEC
  0
SECTION
  2
TABLES
  0
TABLE
  2
VPORT
  5
8
330
0
100
AcDbSymbolTable
 70
     1
  0
VPORT
  5
188
330
8
100
AcDbSymbolTableRecord
100
AcDbViewportTableRecord
  2
*Active
 70
     0
 10
0.0
 20
0.0
 11
1.0
 21
1.0
 12
41.32230204425495
 22
3.301884478826077
 13
0.0
 23
0.0
 14
0.5740882589684922
 24
0.5740882589684922
 15
0.5
 25
0.5
 16
0.0
 26
0.0
 36
1.0
 17
0.0
 27
0.0
 37
0.0
 40
4.235064817176675
 41
1.726930320150659
 42
50.0
 43
0.0
 44
0.0
 50
0.0
 51
0.0
 71
     0
 72
   100
 73
     1
 74
     0
 75
     0
 76
     0
 77
     0
 78
     0
281
     0
 65
     1
110
0.0
120
0.0
130
0.0
111
1.0
121
0.0
131
0.0
112
0.0
122
1.0
132
0.0
 79
     0
146
0.0
  0
ENDTAB
  0
TABLE
  2
LTYPE
  5
5
330
0
100
AcDbSymbolTable
 70
     1
  0
LTYPE
  5
12
330
5
100
AcDbSymbolTableRecord
100
AcDbLinetypeTableRecord
  2
BYBLOCK
 70
     0
  3

 72
    65
 73
     0
 40
0.0
  0
LTYPE
  5
13
330
5
100
AcDbSymbolTableRecord
100
AcDbLinetypeTableRecord
  2
BYLAYER
 70
     0
  3

 72
    65
 73
     0
 40
0.0
  0
LTYPE
  5
14
330
5
100
AcDbSymbolTableRecord
100
AcDbLinetypeTableRecord
  2
CONTINUOUS
 70
     0
  3
Solid line
 72
    65
 73
     0
 40
0.0
  0
ENDTAB
  0
TABLE
  2
LAYER
  5
2
330
0
100
AcDbSymbolTable
 70
     4
  0
LAYER
  5
F
330
2
100
AcDbSymbolTableRecord
100
AcDbLayerTableRecord
  2
0
 70
     0
 62
     7
  6
CONTINUOUS
370
    -3
390
6C
  0
LAYER
  5
2C
330
2
100
AcDbSymbolTableRecord
100
AcDbLayerTableRecord
  2
ADPDIM
 70
     0
 62
     3
  6
CONTINUOUS
370
    -3
390
6C
  0
LAYER
  5
2E
330
2
100
AcDbSymbolTableRecord
100
AcDbLayerTableRecord
  2
ADP1DETAIL
 70
     0
 62
     7
  6
CONTINUOUS
370
    -3
390
6C
  0
LAYER
  5
30
330
2
100
AcDbSymbolTableRecord
100
AcDbLayerTableRecord
  2
DEFPOINTS
 70
     0
 62
     7
  6
CONTINUOUS
290
     0
370
    -3
390
6C
  0
ENDTAB
  0
TABLE
  2
STYLE
  5
3
330
0
100
AcDbSymbolTable
 70
     2
  0
STYLE
  5
10
330
3
100
AcDbSymbolTableRecord
100
AcDbTextStyleTableRecord
  2
STANDARD
 70
     0
 40
0.0
 41
1.0
 50
0.0
 71
     0
 42
0.2
  3
txt
  4

  0
STYLE
  5
73
330
3
100
AcDbSymbolTableRecord
100
AcDbTextStyleTableRecord
  2
ARIAL_WIDE
 70
     0
 40
0.0
 41
1.25
 50
0.0
 71
     0
 42
0.2
  3
ARIAL.TTF
  4

1001
ACAD
1000
Arial
1071
       34
  0
ENDTAB
  0
TABLE
  2
VIEW
  5
6
330
0
100
AcDbSymbolTable
 70
     0
  0
ENDTAB
  0
TABLE
  2
UCS
  5
7
330
0
100
AcDbSymbolTable
 70
     0
  0
ENDTAB
  0
TABLE
  2
APPID
  5
9
330
0
100
AcDbSymbolTable
 70
     1
  0
APPID
  5
11
330
9
100
AcDbSymbolTableRecord
100
AcDbRegAppTableRecord
  2
ACAD
 70
     0
  0
ENDTAB
  0
TABLE
  2
DIMSTYLE
  5
A
330
0
100
AcDbSymbolTable
 70
     1
100
AcDbDimStyleTable
 71
     0
  0
DIMSTYLE
105
67
102
{ACAD_REACTORS
330
211
102
}
330
A
100
AcDbSymbolTableRecord
100
AcDbDimStyleTableRecord
  2
STANDARD
 70
     0
340
10
  0
ENDTAB
  0
TABLE
  2
BLOCK_RECORD
  5
1
330
0
100
AcDbSymbolTable
 70
     7
  0
BLOCK_RECORD
  5
18
102
{ACAD_XDICTIONARY
360
C8
102
}
330
1
100
AcDbSymbolTableRecord
100
AcDbBlockTableRecord
  2
*MODEL_SPACE
340
6F
  0
BLOCK_RECORD
  5
15
102
{ACAD_XDICTIONARY
360
C6
102
}
330
1
100
AcDbSymbolTableRecord
100
AcDbBlockTableRecord
  2
*PAPER_SPACE
340
70
  0
BLOCK_RECORD
  5
2A
330
1
100
AcDbSymbolTableRecord
100
AcDbBlockTableRecord
  2
*D0
340
0
  0
BLOCK_RECORD
  5
1CF
330
1
100
AcDbSymbolTableRecord
100
AcDbBlockTableRecord
  2
6933
340
0
102
{BLKREFS
331
20A
331
210
102
}
  0
BLOCK_RECORD
  5
1E2
330
1
100
AcDbSymbolTableRecord
100
AcDbBlockTableRecord
  2
*D2
340
0
  0
BLOCK_RECORD
  5
1EF
330
1
100
AcDbSymbolTableRecord
100
AcDbBlockTableRecord
  2
*D3
340
0
  0
BLOCK_RECORD
  5
1FC
330
1
100
AcDbSymbolTableRecord
100
AcDbBlockTableRecord
  2
*D4
340
0
  0
BLOCK_RECORD
  5
212
330
1
100
AcDbSymbolTableRecord
100
AcDbBlockTableRecord
  2
*D6
340
0
  0
ENDTAB
  0
ENDSEC
  0
SECTION
  2
BLOCKS
  0
BLOCK
  5
33
330
18
100
AcDbEntity
  8
0
100
AcDbBlockBegin
  2
*MODEL_SPACE
 70
     0
 10
0.0
 20
0.0
 30
0.0
  3
*MODEL_SPACE
  1

  0
ENDBLK
  5
34
330
18
100
AcDbEntity
  8
0
100
AcDbBlockEnd
  0
BLOCK
  5
31
330
15
100
AcDbEntity
 67
     1
  8
0
100
AcDbBlockBegin
  2
*PAPER_SPACE
 70
     0
 10
0.0
 20
0.0
 30
0.0
  3
*PAPER_SPACE
  1

  0
ENDBLK
  5
32
330
15
100
AcDbEntity
 67
     1
  8
0
100
AcDbBlockEnd
  0
BLOCK
  5
36
330
2A
100
AcDbEntity
  8
0
100
AcDbBlockBegin
  2
*D0
 70
     1
 10
0.0
 20
0.0
 30
0.0
  3
*D0
  1

  0
LINE
  5
37
330
2A
100
AcDbEntity
  8
0
  6
ByBlock
 62
     0
100
AcDbLine
 10
41.89403582009837
 20
4.235839470602589
 30
0.0
 11
41.89403582009837
 21
4.945188177481672
 31
0.0
  0
LINE
  5
38
330
2A
100
AcDbEntity
  8
0
  6
ByBlock
 62
     0
100
AcDbLine
 10
43.63531986944271
 20
4.230273853225891
 30
0.0
 11
43.63531986944271
 21
4.945188177481672
 31
0.0
  0
LINE
  5
39
330
2A
100
AcDbEntity
  8
0
  6
ByBlock
 62
     0
100
AcDbLine
 10
41.89403582009837
 20
4.765188177481673
 30
0.0
 11
42.3688445114372
 21
4.765188177481673
 31
0.0
  0
LINE
  5
3A
330
2A
100
AcDbEntity
  8
0
  6
ByBlock
 62
     0
100
AcDbLine
 10
43.63531986944271
 20
4.765188177481673
 30
0.0
 11
43.16051117810387
 21
4.765188177481673
 31
0.0
  0
LINE
  5
3B
330
2A
100
AcDbEntity
  8
0
  6
ByBlock
 62
     0
100
AcDbLine
 10
41.76903582009837
 20
4.640188177481673
 30
0.0
 11
42.01903582009836
 21
4.890188177481673
 31
0.0
  0
LINE
  5
3C
330
2A
100
AcDbEntity
  8
0
  6
ByBlock
 62
     0
100
AcDbLine
 10
43.51031986944271
 20
4.640188177481673
 30
0.0
 11
43.76031986944271
 21
4.890188177481673
 31
0.0
  0
TEXT
  5
3D
330
2A
100
AcDbEntity
  8
0
  6
ByBlock
 62
     0
100
AcDbText
 10
42.4938445114372
 20
4.702688177481673
 30
0.0
 40
0.125
  1
1 3/4
 72
     1
 11
42.76467784477054
 21
4.765188177481673
 31
0.0
100
AcDbText
 73
     2
  0
POINT
  5
3E
330
2A
100
AcDbEntity
  8
DEFPOINTS
  6
ByBlock
 62
     0
100
AcDbPoint
 10
41.89403582009837
 20
4.173339470602589
 30
0.0
  0
POINT
  5
3F
330
2A
100
AcDbEntity
  8
DEFPOINTS
  6
ByBlock
 62
     0
100
AcDbPoint
 10
43.63531986944271
 20
4.167773853225891
 30
0.0
  0
POINT
  5
40
330
2A
100
AcDbEntity
  8
DEFPOINTS
  6
ByBlock
 62
     0
100
AcDbPoint
 10
43.63531986944271
 20
4.765188177481673
 30
0.0
  0
ENDBLK
  5
41
330
2A
100
AcDbEntity
  8
0
100
AcDbBlockEnd
  0
BLOCK
  5
1D0
330
1CF
100
AcDbEntity
  8
0
100
AcDbBlockBegin
  2
6933
 70
     0
 10
0.0
 20
0.0
 30
0.0
  3
6933
  1

  0
DIMENSION
  5
1D1
330
1CF
100
AcDbEntity
  8
ADPDIM
100
AcDbDimension
  2
*D2
 10
-1.306248784513032
 20
-0.1911699640571189
 30
0.0
 11
-2.20624878451303
 21
-0.1911699640571189
 31
0.0
 12
-15.02886249759601
 22
-12.71037642052152
 32
0.0
 71
     5
 42
-1.0
100
AcDbAlignedDimension
 13
0.0000000109656693
 23
0.0000022935638331
 33
0.0
 14
-1.306248784513032
 24
0.0031249049026378
 34
0.0
100
AcDbRotatedDimension
  0
DIMENSION
  5
1D2
330
1CF
100
AcDbEntity
  8
ADPDIM
100
AcDbDimension
  2
*D3
 10
0.2180419728085177
 20
0.9406876802492742
 30
0.0
 11
-0.6526034058522577
 21
0.9406876802492742
 31
0.0
 12
-15.02886249759601
 22
-12.71037642052152
 32
0.0
 71
     5
 42
-1.0
100
AcDbAlignedDimension
 13
-1.523248784513032
 23
0.221122611312591
 33
0.0
 14
0.2180419728085177
 24
0.2183630707123605
 34
0.0
100
AcDbRotatedDimension
  0
ARC
  5
1D3
330
1CF
100
AcDbEntity
  8
ADP1DETAIL
100
AcDbCircle
 10
-0.6281620917771349
 20
-2.72880581251656
 30
0.0
 40
3.356225554059557
100
AcDbArc
 50
90.40060923645667
 51
100.53334409849
  0
LINE
  5
1D4
330
1CF
100
AcDbEntity
  8
ADP1DETAIL
100
AcDbLine
 10
-1.18124878451303
 20
0.2531226113125911
 30
0.0
 11
-0.6492487845130342
 21
0.2531226113125911
 31
0.0
  0
ARC
  5
1D5
330
1CF
100
AcDbEntity
  8
ADP1DETAIL
100
AcDbCircle
 10
-1.305248784513032
 20
0.221122611312591
 30
0.0
 40
0.218
100
AcDbArc
 50
179.6312450729446
 51
269.7371744015996
  0
LINE
  5
1D6
330
1CF
100
AcDbEntity
  8
ADP1DETAIL
100
AcDbLine
 10
-1.30624878451303
 20
0.0031226113125911
 30
0.0
 11
-1.30624878451303
 21
0.1281226113125911
 31
0.0
  0
ARC
  5
1D7
330
1CF
100
AcDbEntity
  8
ADP1DETAIL
100
AcDbCircle
 10
-1.165248784513032
 20
0.221122611312591
 30
0.0
 40
0.358
100
AcDbArc
 50
102.3315095628153
 51
180.0
  0
LINE
  5
1D8
330
1CF
100
AcDbEntity
  8
ADP1DETAIL
100
AcDbLine
 10
-1.30624878451303
 20
0.1281226113125911
 30
0.0
 11
-1.18124878451303
 21
0.1281226113125911
 31
0.0
  0
LINE
  5
1D9
330
1CF
100
AcDbEntity
  8
ADP1DETAIL
100
AcDbLine
 10
-1.18124878451303
 20
0.1281226113125911
 30
0.0
 11
-1.18124878451303
 21
0.2531226113125911
 31
0.0
  0
ARC
  5
1DA
330
1CF
100
AcDbEntity
  8
ADP1DETAIL
100
AcDbCircle
 10
0.000042271347958
 20
0.2180022894676412
 30
0.0
 40
0.218
100
AcDbArc
 50
269.9888929286198
 51
0.0948222572748857
  0
LINE
  5
1DB
330
1CF
100
AcDbEntity
  8
ADP1DETAIL
100
AcDbLine
 10
0.0
 20
0.0
 30
0.0
 11
0.0005976261002658
 21
0.12499857136401
 31
0.0
  0
LINE
  5
1DC
330
1CF
100
AcDbEntity
  8
ADP1DETAIL
100
AcDbLine
 10
-0.1238033191634713
 20
0.2505947688282966
 30
0.0
 11
-0.6557972388887095
 21
0.2531382655110548
 31
0.0
  0
ARC
  5
1DD
330
1CF
100
AcDbEntity
  8
ADP1DETAIL
100
AcDbCircle
 10
-0.691140316664729
 20
-2.728655261932466
 30
0.0
 40
3.356225554059557
100
AcDbArc
 50
79.19272323172942
 51
89.3254580937628
  0
ARC
  5
1DE
330
1CF
100
AcDbEntity
  8
ADP1DETAIL
100
AcDbCircle
 10
-0.1399561285797333
 20
0.2186716306999443
 30
0.0
 40
0.358
100
AcDbArc
 50
359.7260673302195
 51
77.39455776740417
  0
LINE
  5
1DF
330
1CF
100
AcDbEntity
  8
ADP1DETAIL
100
AcDbLine
 10
0.0005976261002658
 20
0.12499857136401
 30
0.0
 11
-0.1244009452637442
 21
0.125596197464283
 31
0.0
  0
LINE
  5
1E0
330
1CF
100
AcDbEntity
  8
ADP1DETAIL
100
AcDbLine
 10
-0.1244009452637442
 20
0.125596197464283
 30
0.0
 11
-0.1238033191634713
 21
0.2505947688282966
 31
0.0
  0
ENDBLK
  5
1E1
330
1CF
100
AcDbEntity
  8
0
100
AcDbBlockEnd
  0
BLOCK
  5
1E3
330
1E2
100
AcDbEntity
  8
0
100
AcDbBlockBegin
  2
*D2
 70
     1
 10
0.0
 20
0.0
 30
0.0
  3
*D2
  1

  0
LINE
  5
1E4
330
1E2
100
AcDbEntity
  8
0
  6
ByBlock
 62
     0
100
AcDbLine
 10
15.02886250856168
 20
12.64787871408535
 30
0.0
 11
15.02886250856168
 21
12.3392064564644
 31
0.0
  0
LINE
  5
1E5
330
1E2
100
AcDbEntity
  8
0
  6
ByBlock
 62
     0
100
AcDbLine
 10
13.72261371308298
 20
12.65100132542416
 30
0.0
 11
13.72261371308298
 21
12.3392064564644
 31
0.0
  0
LINE
  5
1E6
330
1E2
100
AcDbEntity
  8
0
  6
ByBlock
 62
     0
100
AcDbLine
 10
15.20886250856167
 20
12.5192064564644
 30
0.0
 11
15.38886250856168
 21
12.5192064564644
 31
0.0
  0
LINE
  5
1E7
330
1E2
100
AcDbEntity
  8
0
  6
ByBlock
 62
     0
100
AcDbLine
 10
13.54261371308298
 20
12.5192064564644
 30
0.0
 11
13.36261371308298
 21
12.5192064564644
 31
0.0
  0
SOLID
  5
1E8
330
1E2
100
AcDbEntity
  8
0
  6
ByBlock
 62
     0
100
AcDbTrace
 10
15.20886250856167
 20
12.5492064564644
 30
0.0
 11
15.20886250856167
 21
12.4892064564644
 31
0.0
 12
15.02886250856168
 22
12.5192064564644
 32
0.0
 13
15.02886250856168
 23
12.5192064564644
 33
0.0
  0
SOLID
  5
1E9
330
1E2
100
AcDbEntity
  8
0
  6
ByBlock
 62
     0
100
AcDbTrace
 10
13.54261371308298
 20
12.5492064564644
 30
0.0
 11
13.54261371308298
 21
12.4892064564644
 31
0.0
 12
13.72261371308298
 22
12.5192064564644
 32
0.0
 13
13.72261371308298
 23
12.5192064564644
 33
0.0
  0
TEXT
  5
1EA
330
1E2
100
AcDbEntity
  8
0
  6
ByBlock
 62
     0
100
AcDbText
 10
12.37261371308298
 20
12.4292064564644
 30
0.0
 40
0.18
  1
1 5/16
 72
     1
 11
12.82261371308298
 21
12.5192064564644
 31
0.0
100
AcDbText
 73
     2
  0
POINT
  5
1EB
330
1E2
100
AcDbEntity
  8
DEFPOINTS
  6
ByBlock
 62
     0
100
AcDbPoint
 10
15.02886250856168
 20
12.71037871408535
 30
0.0
  0
POINT
  5
1EC
330
1E2
100
AcDbEntity
  8
DEFPOINTS
  6
ByBlock
 62
     0
100
AcDbPoint
 10
13.72261371308298
 20
12.71350132542416
 30
0.0
  0
POINT
  5
1ED
330
1E2
100
AcDbEntity
  8
DEFPOINTS
  6
ByBlock
 62
     0
100
AcDbPoint
 10
13.72261371308298
 20
12.5192064564644
 30
0.0
  0
ENDBLK
  5
1EE
330
1E2
100
AcDbEntity
  8
0
100
AcDbBlockEnd
  0
BLOCK
  5
1F0
330
1EF
100
AcDbEntity
  8
0
100
AcDbBlockBegin
  2
*D3
 70
     1
 10
0.0
 20
0.0
 30
0.0
  3
*D3
  1

  0
LINE
  5
1F1
330
1EF
100
AcDbEntity
  8
0
  6
ByBlock
 62
     0
100
AcDbLine
 10
13.50561371308298
 20
12.99399903183411
 30
0.0
 11
13.50561371308298
 21
13.83106410077079
 31
0.0
  0
LINE
  5
1F2
330
1EF
100
AcDbEntity
  8
0
  6
ByBlock
 62
     0
100
AcDbLine
 10
15.24690447040453
 20
12.99123949123388
 30
0.0
 11
15.24690447040453
 21
13.83106410077079
 31
0.0
  0
LINE
  5
1F3
330
1EF
100
AcDbEntity
  8
0
  6
ByBlock
 62
     0
100
AcDbLine
 10
13.68561371308297
 20
13.6510641007708
 30
0.0
 11
13.89625909174375
 21
13.6510641007708
 31
0.0
  0
LINE
  5
1F4
330
1EF
100
AcDbEntity
  8
0
  6
ByBlock
 62
     0
100
AcDbLine
 10
15.06690447040452
 20
13.6510641007708
 30
0.0
 11
14.85625909174375
 21
13.6510641007708
 31
0.0
  0
SOLID
  5
1F5
330
1EF
100
AcDbEntity
  8
0
  6
ByBlock
 62
     0
100
AcDbTrace
 10
13.68561371308297
 20
13.68106410077079
 30
0.0
 11
13.68561371308297
 21
13.62106410077079
 31
0.0
 12
13.50561371308298
 22
13.6510641007708
 32
0.0
 13
13.50561371308298
 23
13.6510641007708
 33
0.0
  0
SOLID
  5
1F6
330
1EF
100
AcDbEntity
  8
0
  6
ByBlock
 62
     0
100
AcDbTrace
 10
15.06690447040452
 20
13.68106410077079
 30
0.0
 11
15.06690447040452
 21
13.62106410077079
 31
0.0
 12
15.24690447040453
 22
13.6510641007708
 32
0.0
 13
15.24690447040453
 23
13.6510641007708
 33
0.0
  0
TEXT
  5
1F7
330
1EF
100
AcDbEntity
  8
0
  6
ByBlock
 62
     0
100
AcDbText
 10
13.98625909174375
 20
13.56106410077079
 30
0.0
 40
0.18
  1
1 3/4
 72
     1
 11
14.37625909174375
 21
13.6510641007708
 31
0.0
100
AcDbText
 73
     2
  0
POINT
  5
1F8
330
1EF
100
AcDbEntity
  8
DEFPOINTS
  6
ByBlock
 62
     0
100
AcDbPoint
 10
13.50561371308298
 20
12.93149903183411
 30
0.0
  0
POINT
  5
1F9
330
1EF
100
AcDbEntity
  8
DEFPOINTS
  6
ByBlock
 62
     0
100
AcDbPoint
 10
15.24690447040453
 20
12.92873949123388
 30
0.0
  0
POINT
  5
1FA
330
1EF
100
AcDbEntity
  8
DEFPOINTS
  6
ByBlock
 62
     0
100
AcDbPoint
 10
15.24690447040453
 20
13.6510641007708
 30
0.0
  0
ENDBLK
  5
1FB
330
1EF
100
AcDbEntity
  8
0
100
AcDbBlockEnd
  0
BLOCK
  5
1FD
330
1FC
100
AcDbEntity
  8
0
100
AcDbBlockBegin
  2
*D4
 70
     1
 10
0.0
 20
0.0
 30
0.0
  3
*D4
  1

  0
LINE
  5
1FE
330
1FC
100
AcDbEntity
  8
ADPDIM
 62
     0
370
    -2
100
AcDbLine
 10
90.06947704153708
 20
3.30653624978207
 30
0.0
 11
90.06947704153708
 21
3.136033845383458
 31
0.0
  0
LINE
  5
1FF
330
1FC
100
AcDbEntity
  8
ADPDIM
 62
     0
370
    -2
100
AcDbLine
 10
91.13197704153709
 20
3.30653624978207
 30
0.0
 11
91.13197704153709
 21
3.136033845383458
 31
0.0
  0
LINE
  5
200
330
1FC
100
AcDbEntity
  8
ADPDIM
 62
     0
370
    -2
100
AcDbLine
 10
90.06947704153708
 20
3.316033845383458
 30
0.0
 11
89.81947704153709
 21
3.316033845383458
 31
0.0
  0
LINE
  5
201
330
1FC
100
AcDbEntity
  8
ADPDIM
 62
     0
370
    -2
100
AcDbLine
 10
91.13197704153709
 20
3.316033845383458
 30
0.0
 11
91.38197704153709
 21
3.316033845383458
 31
0.0
  0
LINE
  5
202
330
1FC
100
AcDbEntity
  8
ADPDIM
 62
     0
370
    -2
100
AcDbLine
 10
91.00697704153708
 20
3.191033845383458
 30
0.0
 11
91.25697704153708
 21
3.441033845383458
 31
0.0
  0
LINE
  5
203
330
1FC
100
AcDbEntity
  8
ADPDIM
 62
     0
370
    -2
100
AcDbLine
 10
89.94447704153708
 20
3.191033845383458
 30
0.0
 11
90.19447704153709
 21
3.441033845383458
 31
0.0
  0
MTEXT
  5
204
330
1FC
100
AcDbEntity
  8
ADPDIM
 62
     0
100
AcDbMText
 10
90.60072704153709
 20
3.316033845383458
 30
0.0
 40
0.125
 41
0.0
 71
     5
 72
     1
  1
\A1;1 1/16
 73
     1
 44
1.0
1001
ACAD
1000
MTEXTBEGIN
1070
    73
1070
     1
1070
    44
1040
1.0
1070
    74
1070
     0
1000
MTEXTEND
  0
POINT
  5
205
330
1FC
100
AcDbEntity
  8
DEFPOINTS
 62
     0
100
AcDbPoint
 10
90.06947704153708
 20
3.36903624978207
 30
0.0
  0
POINT
  5
206
330
1FC
100
AcDbEntity
  8
DEFPOINTS
 62
     0
100
AcDbPoint
 10
91.13197704153709
 20
3.36903624978207
 30
0.0
  0
POINT
  5
207
330
1FC
100
AcDbEntity
  8
DEFPOINTS
 62
     0
100
AcDbPoint
 10
91.13197704153709
 20
3.316033845383458
 30
0.0
  0
ENDBLK
  5
208
330
1FC
100
AcDbEntity
  8
0
100
AcDbBlockEnd
  0
BLOCK
  5
21D
330
212
100
AcDbEntity
  8
0
100
AcDbBlockBegin
  2
*D6
 70
     1
 10
0.0
 20
0.0
 30
0.0
  3
*D6
  1

  0
LINE
  5
21F
330
212
100
AcDbEntity
  8
ADPDIM
 62
     0
370
    -2
100
AcDbLine
 10
42.3508365359848
 20
4.007377099477334
 30
0.0
 11
42.3508365359848
 21
3.836874695078723
 31
0.0
  0
LINE
  5
220
330
212
100
AcDbEntity
  8
ADPDIM
 62
     0
370
    -2
100
AcDbLine
 10
43.4133365359848
 20
4.007377099477334
 30
0.0
 11
43.4133365359848
 21
3.836874695078723
 31
0.0
  0
LINE
  5
221
330
212
100
AcDbEntity
  8
ADPDIM
 62
     0
370
    -2
100
AcDbLine
 10
42.3508365359848
 20
4.016874695078723
 30
0.0
 11
42.1008365359848
 21
4.016874695078723
 31
0.0
  0
LINE
  5
222
330
212
100
AcDbEntity
  8
ADPDIM
 62
     0
370
    -2
100
AcDbLine
 10
43.4133365359848
 20
4.016874695078723
 30
0.0
 11
43.6633365359848
 21
4.016874695078723
 31
0.0
  0
LINE
  5
223
330
212
100
AcDbEntity
  8
ADPDIM
 62
     0
370
    -2
100
AcDbLine
 10
43.2883365359848
 20
3.891874695078723
 30
0.0
 11
43.5383365359848
 21
4.141874695078723
 31
0.0
  0
LINE
  5
224
330
212
100
AcDbEntity
  8
ADPDIM
 62
     0
370
    -2
100
AcDbLine
 10
42.2258365359848
 20
3.891874695078723
 30
0.0
 11
42.4758365359848
 21
4.141874695078723
 31
0.0
  0
MTEXT
  5
225
330
212
100
AcDbEntity
  8
ADPDIM
 62
     0
100
AcDbMText
 10
42.8820865359848
 20
4.016874695078723
 30
0.0
 40
0.125
 41
0.0
 71
     5
 72
     1
  1
\A1;1 1/16
 73
     1
 44
1.0
1001
ACAD
1000
MTEXTBEGIN
1070
    73
1070
     1
1070
    44
1040
1.0
1070
    74
1070
     0
1000
MTEXTEND
  0
POINT
  5
226
330
212
100
AcDbEntity
  8
DEFPOINTS
 62
     0
100
AcDbPoint
 10
42.3508365359848
 20
4.069877099477334
 30
0.0
  0
POINT
  5
227
330
212
100
AcDbEntity
  8
DEFPOINTS
 62
     0
100
AcDbPoint
 10
43.4133365359848
 20
4.069877099477334
 30
0.0
  0
POINT
  5
228
330
212
100
AcDbEntity
  8
DEFPOINTS
 62
     0
100
AcDbPoint
 10
43.4133365359848
 20
4.016874695078723
 30
0.0
  0
ENDBLK
  5
21E
330
212
100
AcDbEntity
  8
0
100
AcDbBlockEnd
  0
ENDSEC
  0
SECTION
  2
ENTITIES
  0
LINE
  5
45
330
18
100
AcDbEntity
  8
ADP1DETAIL
100
AcDbLine
 10
39.39286090437553
 20
3.587698505266346
 30
0.0
 11
38.85130072609779
 21
3.587698505266348
 31
0.0
  0
LINE
  5
46
330
18
100
AcDbEntity
  8
ADP1DETAIL
100
AcDbLine
 10
38.97493581851664
 20
4.132840910050409
 30
0.0
 11
38.02739518236933
 21
4.132036055412133
 31
0.0
  0
ARC
  5
47
330
18
100
AcDbEntity
  8
ADP1DETAIL
100
AcDbCircle
 10
38.13740770726318
 20
3.078342483324145
 30
0.0
 40
0.8769759400517097
100
AcDbArc
 50
331.4811988367241
 51
82.95102427789105
  0
LINE
  5
48
330
18
100
AcDbEntity
  8
ADP1DETAIL
100
AcDbLine
 10
41.38898811060926
 20
4.578151527038371
 30
0.0
 11
38.02739518236933
 21
4.578151527038371
 31
0.0
  0
LINE
  5
49
330
18
100
AcDbEntity
  8
ADP1DETAIL
100
AcDbLine
 10
38.01400238185842
 20
3.96543090366396
 30
0.0
 11
41.37898811060927
 21
3.965430903663958
 31
0.0
  0
ARC
  5
4A
330
18
100
AcDbEntity
  8
ADP1DETAIL
100
AcDbCircle
 10
38.12754509775788
 20
3.315002006469639
 30
0.0
 40
0.5613849689371189
100
AcDbArc
 50
144.5431673157131
 51
246.4797893257963
  0
ARC
  5
4B
330
18
100
AcDbEntity
  8
ADP1DETAIL
100
AcDbCircle
 10
38.00898992061593
 20
3.16786233215318
 30
0.0
 40
0.3824383980399561
100
AcDbArc
 50
253.9900509053569
 51
18.2172192370171
  0
ARC
  5
4C
330
18
100
AcDbEntity
  8
ADP1DETAIL
100
AcDbCircle
 10
37.96951346982591
 20
3.293554664238281
 30
0.0
 40
0.5752200857465203
100
AcDbArc
 50
183.4100483962117
 51
324.7055847896809
  0
ARC
  5
4D
330
18
100
AcDbEntity
  8
ADP1DETAIL
100
AcDbCircle
 10
38.15952384831433
 20
3.106485256145785
 30
0.0
 40
0.4824207611236226
100
AcDbArc
 50
329.8075674774396
 51
81.60432724879809
  0
ARC
  5
4E
330
18
100
AcDbEntity
  8
ADP1DETAIL
100
AcDbCircle
 10
37.96951346982591
 20
3.293554664238281
 30
0.0
 40
0.7436793203053833
100
AcDbArc
 50
183.4100483962117
 51
324.7055847896809
  0
ARC
  5
4F
330
18
100
AcDbEntity
  8
ADP1DETAIL
100
AcDbCircle
 10
37.96604587666629
 20
3.398715157429765
 30
0.0
 40
1.197274875115786
100
AcDbArc
 50
188.4814290683991
 51
321.8804917230837
  0
ARC
  5
50
330
18
100
AcDbEntity
  8
ADP1DETAIL
100
AcDbCircle
 10
38.05795663169597
 20
3.300048353303286
 30
0.0
 40
0.8323530359626829
100
AcDbArc
 50
91.3697708335307
 51
183.4941290583045
  0
ARC
  5
51
330
18
100
AcDbEntity
  8
ADP1DETAIL
100
AcDbCircle
 10
38.05795663169597
 20
3.300048353303286
 30
0.0
 40
1.278468507588919
100
AcDbArc
 50
91.3697708335307
 51
183.4941290583045
  0
ARC
  5
52
330
18
100
AcDbEntity
  8
ADP1DETAIL
100
AcDbCircle
 10
38.23817844677349
 20
3.271231121041771
 30
0.0
 40
0.6774934097672847
100
AcDbArc
 50
89.42070565257353
 51
146.9561230183298
  0
ARC
  5
53
330
18
100
AcDbEntity
  8
ADP1DETAIL
100
AcDbCircle
 10
38.17187893726643
 20
3.197670775604529
 30
0.0
 40
0.2195620173223217
100
AcDbArc
 50
24.12737316871616
 51
154.4282719081949
  0
ARC
  5
54
330
18
100
AcDbEntity
  8
ADP1DETAIL
100
AcDbCircle
 10
38.2272496423094
 20
3.19468705545318
 30
0.0
 40
0.2716260810186211
100
AcDbArc
 50
81.47676969885107
 51
158.9065339213537
  0
ARC
  5
55
330
18
100
AcDbEntity
  8
ADP1DETAIL
100
AcDbCircle
 10
38.17138859521333
 20
3.376980866993137
 30
0.0
 40
0.214891792434161
100
AcDbArc
 50
74.18284580576106
 51
203.1661532358991
  0
ARC
  5
56
330
18
100
AcDbEntity
  8
ADP1DETAIL
100
AcDbCircle
 10
38.05795663169597
 20
3.300048353303286
 30
0.0
 40
0.6638938014038202
100
AcDbArc
 50
91.3697708335307
 51
183.4941290583045
  0
ARC
  5
57
330
18
100
AcDbEntity
  8
ADP1DETAIL
100
AcDbCircle
 10
38.12601305244625
 20
3.134643390994292
 30
0.0
 40
0.3578331261092796
100
AcDbArc
 50
331.0078103219809
 51
66.70782507794706
  0
LINE
  5
58
330
18
100
AcDbEntity
  8
ADP1DETAIL
100
AcDbLine
 10
39.39286090437553
 20
3.965202503863495
 30
0.0
 11
39.39286090437553
 21
3.587698505266346
 31
0.0
  0
LINE
  5
5A
330
18
100
AcDbEntity
  8
ADP1DETAIL
100
AcDbLine
 10
41.38898811060926
 20
3.975430903663958
 30
0.0
 11
41.38898811060926
 21
4.578151527038371
 31
0.0
  0
ARC
  5
5B
330
18
100
AcDbEntity
  8
ADP1DETAIL
100
AcDbCircle
 10
41.37898811060927
 20
3.975430903663958
 30
0.0
 40
0.01
100
AcDbArc
 50
270.0
 51
0.0
  0
TEXT
  5
74
330
18
100
AcDbEntity
  8
ADPDIM
100
AcDbText
 10
33.63180765071664
 20
1.461663851249463
 30
0.0
 40
0.125
  1
J U L I U S  B L U M  &  C O . ,  I N C .      ( 8 0 0 )  5 2 6 - 6 2 9 3        W W W . J U L I U S B L U M . C O M        P A R T  N o .  4 5 3 9 - V
 41
1.25
  7
ARIAL_WIDE
 72
     1
 11
40.32732265753792
 21
1.586663851249463
 31
0.0
100
AcDbText
 73
     3
  0
INSERT
  5
210
330
18
100
AcDbEntity
  8
ADP1DETAIL
100
AcDbBlockReference
  2
6933
 10
43.52814873870531
 20
3.947681818373066
 30
0.0
  0
DIMENSION
  5
211
330
18
100
AcDbEntity
  8
ADPDIM
 62
     3
100
AcDbDimension
  2
*D6
 10
43.4133365359848
 20
4.016874695078723
 30
0.0
 11
42.8820865359848
 21
4.016874695078723
 31
0.0
 70
    32
 71
     5
 42
1.0625
  3
STANDARD
100
AcDbAlignedDimension
 13
42.3508365359848
 23
4.069877099477334
 33
0.0
 14
43.4133365359848
 24
4.069877099477334
 34
0.0
100
AcDbRotatedDimension
1001
ACAD
1000
DSTYLE
1002
{
1070
   276
1070
     2
1070
   277
1070
     5
1070
    41
1040
0.125
1070
    73
1070
     0
1070
    74
1070
     0
1070
    78
1070
     3
1070
   140
1040
0.125
1070
   141
1040
0.1875
1070
   142
1040
0.125
1070
   147
1040
0.125
1070
   171
1070
     1
1002
}
  0
ENDSEC
  0
SECTION
  2
OBJECTS
  0
DICTIONARY
  5
C
330
0
100
AcDbDictionary
281
     1
  3
ACAD_COLOR
350
1C9
  3
ACAD_GROUP
350
D
  3
ACAD_LAYOUT
350
6D
  3
ACAD_MATERIAL
350
1B4
  3
ACAD_MLINESTYLE
350
E
  3
ACAD_PLOTSETTINGS
350
6E
  3
ACAD_PLOTSTYLENAME
350
6B
  3
ACAD_TABLESTYLE
350
1CA
  3
ACAD_VISUALSTYLE
350
1B8
  3
AcDbVariableDictionary
350
CE
  3
DWGPROPS
350
246
  0
DICTIONARY
  5
C8
330
18
100
AcDbDictionary
280
     1
281
     1
  3
ACAD_LAYOUTSELFREF
360
1AE
  0
DICTIONARY
  5
C6
330
15
100
AcDbDictionary
280
     1
281
     1
  3
ACAD_LAYOUTSELFREF
360
1AD
  0
DICTIONARY
  5
1C9
102
{ACAD_REACTORS
330
C
102
}
330
C
100
AcDbDictionary
281
     1
  0
DICTIONARY
  5
D
102
{ACAD_REACTORS
330
C
102
}
330
C
100
AcDbDictionary
281
     1
  0
DICTIONARY
  5
6D
102
{ACAD_REACTORS
330
C
102
}
330
C
100
AcDbDictionary
281
     1
  3
Layout1
350
70
  3
Model
350
6F
  0
DICTIONARY
  5
1B4
102
{ACAD_REACTORS
330
C
102
}
330
C
100
AcDbDictionary
281
     1
  3
ByBlock
350
1B6
  3
ByLayer
350
1B5
  3
Global
350
1B7
  0
DICTIONARY
  5
E
102
{ACAD_REACTORS
330
C
102
}
330
C
100
AcDbDictionary
281
     1
  3
STANDARD
350
1B
  0
DICTIONARY
  5
6E
102
{ACAD_REACTORS
330
C
102
}
330
C
100
AcDbDictionary
281
     1
  0
ACDBDICTIONARYWDFLT
  5
6B
102
{ACAD_REACTORS
330
C
102
}
330
C
100
AcDbDictionary
281
     1
  3
Normal
350
6C
100
AcDbDictionaryWithDefault
340
6C
  0
DICTIONARY
  5
1CA
102
{ACAD_REACTORS
330
C
102
}
330
C
100
AcDbDictionary
281
     1
  3
Standard
350
1CB
  0
DICTIONARY
  5
1B8
102
{ACAD_REACTORS
330
C
102
}
330
C
100
AcDbDictionary
281
     1
  3
2dWireframe
350
1BE
  3
3D Hidden
350
1C0
  3
3dWireframe
350
1BF
  3
Basic
350
1BD
  3
Brighten
350
1C4
  3
ColorChange
350
1C8
  3
Conceptual
350
1C1
  3
Dim
350
1C3
  3
Facepattern
350
1C7
  3
Flat
350
1B9
  3
FlatWithEdges
350
1BA
  3
Gouraud
350
1BB
  3
GouraudWithEdges
350
1BC
  3
Linepattern
350
1C6
  3
Realistic
350
1C2
  3
Thicken
350
1C5
  0
DICTIONARY
  5
CE
102
{ACAD_REACTORS
330
C
102
}
330
C
100
AcDbDictionary
281
     1
  3
CTABLESTYLE
350
243
  3
DIMASSOC
350
CF
  3
INDEXCTL
350
245
  3
SORTENTS
350
244
  0
XRECORD
  5
246
102
{ACAD_REACTORS
330
C
102
}
330
C
100
AcDbXrecord
280
     1
  1
DWGPROPS COOKIE
  2

  3

  4

  6

  7

  8
Yu Hu
  9

300
=
301
=
302
=
303
=
304
=
305
=
306
=
307
=
308
=
309
=
 40
0.0245478125
 41
2450364.038774687
 42
2453972.963540602
  1

 90
        0
  0
XRECORD
  5
1AE
102
{ACAD_REACTORS
330
C8
102
}
330
C8
100
AcDbXrecord
280
     1
340
18
  0
XRECORD
  5
1AD
102
{ACAD_REACTORS
330
C6
102
}
330
C6
100
AcDbXrecord
280
     1
340
15
  0
LAYOUT
  5
70
102
{ACAD_XDICTIONARY
360
249
102
}
102
{ACAD_REACTORS
330
6D
102
}
330
6D
100
AcDbPlotSettings
  1

  2
Fax
  4

  6

 40
0.0
 41
0.0
 42
0.0
 43
0.0
 44
0.0
 45
0.0
 46
0.0
 47
0.0
 48
0.0
 49
0.0
140
0.0
141
0.0
142
1.0
143
1.0
 70
   688
 72
     0
 73
     0
 74
     5
  7
Default R14 pen assignments.ctb
 75
    16
147
1.0
148
0.0
149
0.0
100
AcDbLayout
  1
Layout1
 70
     1
 71
     1
 10
0.0
 20
0.0
 11
12.0
 21
9.0
 12
-1.038494034028074E+34
 22
0.0
 32
0.0
 14
1.000000000000000E+20
 24
1.000000000000000E+20
 34
1.000000000000000E+20
 15
-1.000000000000000E+20
 25
-1.000000000000000E+20
 35
-1.000000000000000E+20
146
0.0
 13
0.0
 23
0.0
 33
0.0
 16
1.0
 26
0.0
 36
0.0
 17
0.0
 27
1.0
 37
0.0
 76
     0
330
15
  0
LAYOUT
  5
6F
102
{ACAD_XDICTIONARY
360
247
102
}
102
{ACAD_REACTORS
330
6D
102
}
330
6D
100
AcDbPlotSettings
  1

  2
Fax
  4

  6

 40
0.0
 41
0.0
 42
0.0
 43
0.0
 44
0.0
 45
0.0
 46
0.0
 47
0.0
 48
0.0
 49
0.0
140
0.0
141
0.0
142
1.0
143
1.0
 70
  1712
 72
     0
 73
     0
 74
     0
  7
Default R14 pen assignments.ctb
 75
     0
147
1.0
148
0.0
149
0.0
100
AcDbLayout
  1
Model
 70
     1
 71
     0
 10
0.0
 20
0.0
 11
12.0
 21
9.0
 12
0.0
 22
0.0
 32
0.0
 14
0.0
 24
0.0
 34
0.0
 15
0.0
 25
0.0
 35
0.0
146
0.0
 13
0.0
 23
0.0
 33
0.0
 16
1.0
 26
0.0
 36
0.0
 17
0.0
 27
1.0
 37
0.0
 76
     0
330
18
331
188
  0
MATERIAL
  5
1B6
102
{ACAD_XDICTIONARY
360
24D
102
}
102
{ACAD_REACTORS
330
1B4
102
}
330
1B4
100
AcDbMaterial
  1
ByBlock
  0
MATERIAL
  5
1B5
102
{ACAD_XDICTIONARY
360
24B
102
}
102
{ACAD_REACTORS
330
1B4
102
}
330
1B4
100
AcDbMaterial
  1
ByLayer
  0
MATERIAL
  5
1B7
102
{ACAD_XDICTIONARY
360
24F
102
}
102
{ACAD_REACTORS
330
1B4
102
}
330
1B4
100
AcDbMaterial
  1
Global
  0
MLINESTYLE
  5
1B
102
{ACAD_REACTORS
330
E
102
}
330
E
100
AcDbMlineStyle
  2
STANDARD
 70
     0
  3

 62
     0
 51
90.0
 52
90.0
 71
     2
 49
0.5
 62
   256
  6
BYLAYER
 49
-0.5
 62
   256
  6
BYLAYER
  0
ACDBPLACEHOLDER
  5
6C
102
{ACAD_REACTORS
330
6B
102
}
330
6B
  0
TABLESTYLE
  5
1CB
102
{ACAD_XDICTIONARY
360
251
102
}
102
{ACAD_REACTORS
330
1CA
102
}
330
1CA
100
AcDbTableStyle
  3
Standard
 70
     0
 71
     0
 40
0.06
 41
0.06
280
     0
281
     0
  7
STANDARD
140
0.18
170
     2
 62
     0
 63
     7
283
     0
274
    -2
284
     1
 64
     0
275
    -2
285
     1
 65
     0
276
    -2
286
     1
 66
     0
277
    -2
287
     1
 67
     0
278
    -2
288
     1
 68
     0
279
    -2
289
     1
 69
     0
  7
STANDARD
140
0.25
170
     5
 62
     0
 63
     7
283
     0
274
    -2
284
     1
 64
     0
275
    -2
285
     1
 65
     0
276
    -2
286
     1
 66
     0
277
    -2
287
     1
 67
     0
278
    -2
288
     1
 68
     0
279
    -2
289
     1
 69
     0
  7
STANDARD
140
0.18
170
     5
 62
     0
 63
     7
283
     0
274
    -2
284
     1
 64
     0
275
    -2
285
     1
 65
     0
276
    -2
286
     1
 66
     0
277
    -2
287
     1
 67
     0
278
    -2
288
     1
 68
     0
279
    -2
289
     1
 69
     0
  0
VISUALSTYLE
  5
1BE
102
{ACAD_REACTORS
330
1B8
102
}
330
1B8
100
AcDbVisualStyle
  2
2dWireframe
 70
     4
 71
     0
 72
     2
 73
     0
 90
        0
 40
-0.6
 41
-30.0
 62
     5
 63
     7
 74
     1
 91
        4
 64
     7
 65
   257
 75
     1
175
     1
 42
1.0
 92
        0
 66
   257
 43
1.0
 76
     1
 77
     6
 78
     2
 67
     7
 79
     5
170
     0
171
     0
290
     0
174
     0
 93
        1
 44
0.0
173
     0
291
     0
 45
0.0
1001
ACAD
1000
AcDbSavedByObjectVersion
1070
     0
  0
VISUALSTYLE
  5
1C0
102
{ACAD_REACTORS
330
1B8
102
}
330
1B8
100
AcDbVisualStyle
  2
3D Hidden
 70
     6
 71
     1
 72
     2
 73
     2
 90
        0
 40
-0.6
 41
-30.0
 62
     5
 63
     7
 74
     2
 91
        2
 64
     7
 65
   257
 75
     2
175
     1
 42
40.0
 92
        0
 66
   257
 43
1.0
 76
     1
 77
     6
 78
     2
 67
     7
 79
     3
170
     0
171
     0
290
     0
174
     0
 93
        1
 44
0.0
173
     0
291
     0
 45
0.0
1001
ACAD
1000
AcDbSavedByObjectVersion
1070
     0
  0
VISUALSTYLE
  5
1BF
102
{ACAD_REACTORS
330
1B8
102
}
330
1B8
100
AcDbVisualStyle
  2
3dWireframe
 70
     5
 71
     0
 72
     2
 73
     0
 90
        0
 40
-0.6
 41
-30.0
 62
     5
 63
     7
 74
     1
 91
        4
 64
     7
 65
   257
 75
     1
175
     1
 42
1.0
 92
        0
 66
   257
 43
1.0
 76
     1
 77
     6
 78
     2
 67
     7
 79
     5
170
     0
171
     0
290
     0
174
     0
 93
        1
 44
0.0
173
     0
291
     0
 45
0.0
1001
ACAD
1000
AcDbSavedByObjectVersion
1070
     0
  0
VISUALSTYLE
  5
1BD
102
{ACAD_REACTORS
330
1B8
102
}
330
1B8
100
AcDbVisualStyle
  2
Basic
 70
     7
 71
     1
 72
     0
 73
     1
 90
        0
 40
-0.6
 41
-30.0
 62
     5
 63
     7
 74
     0
 91
        4
 64
     7
 65
   257
 75
     1
175
     1
 42
1.0
 92
        8
 66
     7
 43
1.0
 76
     1
 77
     6
 78
     2
 67
     7
 79
     5
170
     0
171
     0
290
     0
174
     0
 93
        1
 44
0.0
173
     0
291
     1
 45
0.0
1001
ACAD
1000
AcDbSavedByObjectVersion
1070
     0
  0
VISUALSTYLE
  5
1C4
102
{ACAD_REACTORS
330
1B8
102
}
330
1B8
100
AcDbVisualStyle
  2
Brighten
 70
    12
 71
     2
 72
     2
 73
     0
 90
        0
 40
-0.6
 41
-30.0
 62
     5
 63
     7
 74
     1
 91
        4
 64
     7
 65
   257
 75
     1
175
     1
 42
1.0
 92
        8
 66
     7
 43
1.0
 76
     1
 77
     6
 78
     2
 67
     7
 79
     5
170
     0
171
     0
290
     0
174
     0
 93
        1
 44
50.0
173
     0
291
     1
 45
0.0
1001
ACAD
1000
AcDbSavedByObjectVersion
1070
     0
  0
VISUALSTYLE
  5
1C8
102
{ACAD_REACTORS
330
1B8
102
}
330
1B8
100
AcDbVisualStyle
  2
ColorChange
 70
    16
 71
     2
 72
     2
 73
     3
 90
        0
 40
-0.6
 41
-30.0
 62
     5
 63
     8
 74
     1
 91
        4
 64
     7
 65
   257
 75
     1
175
     1
 42
1.0
 92
        8
 66
     8
 43
1.0
 76
     1
 77
     6
 78
     2
 67
     7
 79
     5
170
     0
171
     0
290
     0
174
     0
 93
        1
 44
0.0
173
     0
291
     1
 45
0.0
1001
ACAD
1000
AcDbSavedByObjectVersion
1070
     0
  0
VISUALSTYLE
  5
1C1
102
{ACAD_REACTORS
330
1B8
102
}
330
1B8
100
AcDbVisualStyle
  2
Conceptual
 70
     9
 71
     3
 72
     2
 73
     0
 90
        0
 40
-0.6
 41
-30.0
 62
     5
 63
     7
 74
     2
 91
        2
 64
     7
 65
   257
 75
     1
175
     1
 42
40.0
 92
        8
 66
     7
 43
1.0
 76
     1
 77
     6
 78
     2
 67
     7
 79
     3
170
     0
171
     0
290
     0
174
     0
 93
        1
 44
0.0
173
     0
291
     0
 45
0.0
1001
ACAD
1000
AcDbSavedByObjectVersion
1070
     0
  0
VISUALSTYLE
  5
1C3
102
{ACAD_REACTORS
330
1B8
102
}
330
1B8
100
AcDbVisualStyle
  2
Dim
 70
    11
 71
     2
 72
     2
 73
     0
 90
        0
 40
-0.6
 41
-30.0
 62
     5
 63
     7
 74
     1
 91
        4
 64
     7
 65
   257
 75
     1
175
     1
 42
1.0
 92
        8
 66
     7
 43
1.0
 76
     1
 77
     6
 78
     2
 67
     7
 79
     5
170
     0
171
     0
290
     0
174
     0
 93
        1
 44
-50.0
173
     0
291
     1
 45
0.0
1001
ACAD
1000
AcDbSavedByObjectVersion
1070
     0
  0
VISUALSTYLE
  5
1C7
102
{ACAD_REACTORS
330
1B8
102
}
330
1B8
100
AcDbVisualStyle
  2
Facepattern
 70
    15
 71
     2
 72
     2
 73
     0
 90
        0
 40
-0.6
 41
-30.0
 62
     5
 63
     7
 74
     1
 91
        4
 64
     7
 65
   257
 75
     1
175
     1
 42
1.0
 92
        8
 66
     7
 43
1.0
 76
     1
 77
     6
 78
     2
 67
     7
 79
     5
170
     0
171
     0
290
     0
174
     0
 93
        1
 44
0.0
173
     0
291
     1
 45
0.0
1001
ACAD
1000
AcDbSavedByObjectVersion
1070
     0
  0
VISUALSTYLE
  5
1B9
102
{ACAD_REACTORS
330
1B8
102
}
330
1B8
100
AcDbVisualStyle
  2
Flat
 70
     0
 71
     2
 72
     1
 73
     1
 90
        2
 40
-0.6
 41
30.0
 62
     5
 63
     7
 74
     0
 91
        4
 64
     7
 65
   257
 75
     1
175
     1
 42
1.0
 92
        8
 66
     7
 43
1.0
 76
     1
 77
     6
 78
     2
 67
     7
 79
     5
170
     0
171
     0
290
     0
174
     0
 93
       13
 44
0.0
173
     0
291
     1
 45
0.0
1001
ACAD
1000
AcDbSavedByObjectVersion
1070
     0
  0
VISUALSTYLE
  5
1BA
102
{ACAD_REACTORS
330
1B8
102
}
330
1B8
100
AcDbVisualStyle
  2
FlatWithEdges
 70
     1
 71
     2
 72
     1
 73
     1
 90
        2
 40
-0.6
 41
30.0
 62
     5
 63
     7
 74
     1
 91
        4
 64
     7
 65
   257
 75
     1
175
     1
 42
1.0
 92
        0
 66
   257
 43
1.0
 76
     1
 77
     6
 78
     2
 67
     7
 79
     5
170
     0
171
     0
290
     0
174
     0
 93
       13
 44
0.0
173
     0
291
     1
 45
0.0
1001
ACAD
1000
AcDbSavedByObjectVersion
1070
     0
  0
VISUALSTYLE
  5
1BB
102
{ACAD_REACTORS
330
1B8
102
}
330
1B8
100
AcDbVisualStyle
  2
Gouraud
 70
     2
 71
     2
 72
     2
 73
     1
 90
        2
 40
-0.6
 41
30.0
 62
     5
 63
     7
 74
     0
 91
        4
 64
     7
 65
   257
 75
     1
175
     1
 42
1.0
 92
        0
 66
     7
 43
1.0
 76
     1
 77
     6
 78
     2
 67
     7
 79
     5
170
     0
171
     0
290
     0
174
     0
 93
       13
 44
0.0
173
     0
291
     1
 45
0.0
1001
ACAD
1000
AcDbSavedByObjectVersion
1070
     0
  0
VISUALSTYLE
  5
1BC
102
{ACAD_REACTORS
330
1B8
102
}
330
1B8
100
AcDbVisualStyle
  2
GouraudWithEdges
 70
     3
 71
     2
 72
     2
 73
     1
 90
        2
 40
-0.6
 41
30.0
 62
     5
 63
     7
 74
     1
 91
        4
 64
     7
 65
   257
 75
     1
175
     1
 42
1.0
 92
        0
 66
   257
 43
1.0
 76
     1
 77
     6
 78
     2
 67
     7
 79
     5
170
     0
171
     0
290
     0
174
     0
 93
       13
 44
0.0
173
     0
291
     1
 45
0.0
1001
ACAD
1000
AcDbSavedByObjectVersion
1070
     0
  0
VISUALSTYLE
  5
1C6
102
{ACAD_REACTORS
330
1B8
102
}
330
1B8
100
AcDbVisualStyle
  2
Linepattern
 70
    14
 71
     2
 72
     2
 73
     0
 90
        0
 40
-0.6
 41
-30.0
 62
     5
 63
     7
 74
     1
 91
        4
 64
     7
 65
   257
 75
     7
175
     7
 42
1.0
 92
        8
 66
     7
 43
1.0
 76
     1
 77
     6
 78
     2
 67
     7
 79
     5
170
     0
171
     0
290
     0
174
     0
 93
        1
 44
0.0
173
     0
291
     1
 45
0.0
1001
ACAD
1000
AcDbSavedByObjectVersion
1070
     0
  0
VISUALSTYLE
  5
1C2
102
{ACAD_REACTORS
330
1B8
102
}
330
1B8
100
AcDbVisualStyle
  2
Realistic
 70
     8
 71
     2
 72
     2
 73
     0
 90
        0
 40
-0.6
 41
-30.0
 62
     5
 63
     7
 74
     1
 91
        0
 64
     7
 65
   257
 75
     1
175
     1
 42
1.0
 92
        8
 66
     8
 43
1.0
 76
     1
 77
     6
 78
     2
 67
     7
 79
     5
170
     0
171
     0
290
     0
174
     0
 93
       13
 44
0.0
173
     0
291
     0
 45
0.0
1001
ACAD
1000
AcDbSavedByObjectVersion
1070
     0
  0
VISUALSTYLE
  5
1C5
102
{ACAD_REACTORS
330
1B8
102
}
330
1B8
100
AcDbVisualStyle
  2
Thicken
 70
    13
 71
     2
 72
     2
 73
     0
 90
        0
 40
-0.6
 41
-30.0
 62
     5
 63
     7
 74
     1
 91
        4
 64
     7
 65
   257
 75
     1
175
     1
 42
1.0
 92
       12
 66
     7
 43
1.0
 76
     1
 77
     6
 78
     2
 67
     7
 79
     5
170
     0
171
     0
290
     0
174
     0
 93
        1
 44
0.0
173
     0
291
     1
 45
0.0
1001
ACAD
1000
AcDbSavedByObjectVersion
1070
     0
  0
DICTIONARYVAR
  5
243
102
{ACAD_REACTORS
330
CE
102
}
330
CE
100
DictionaryVariables
280
     0
  1
STANDARD
  0
DICTIONARYVAR
  5
CF
102
{ACAD_REACTORS
330
CE
102
}
330
CE
100
DictionaryVariables
280
     0
  1
1
  0
DICTIONARYVAR
  5
245
102
{ACAD_REACTORS
330
CE
102
}
330
CE
100
DictionaryVariables
280
     0
  1
0
  0
DICTIONARYVAR
  5
244
102
{ACAD_REACTORS
330
CE
102
}
330
CE
100
DictionaryVariables
280
     0
  1
127
  0
DICTIONARY
  5
249
330
70
100
AcDbDictionary
280
     1
281
     1
  3
ACAD_XREC_ROUNDTRIP
360
24A
  0
DICTIONARY
  5
247
330
6F
100
AcDbDictionary
280
     1
281
     1
  3
ACAD_XREC_ROUNDTRIP
360
248
  0
DICTIONARY
  5
24D
330
1B6
100
AcDbDictionary
280
     1
281
     1
  3
ACAD_XREC_ROUNDTRIP
360
24E
  0
DICTIONARY
  5
24B
330
1B5
100
AcDbDictionary
280
     1
281
     1
  3
ACAD_XREC_ROUNDTRIP
360
24C
  0
DICTIONARY
  5
24F
330
1B7
100
AcDbDictionary
280
     1
281
     1
  3
ACAD_XREC_ROUNDTRIP
360
250
  0
DICTIONARY
  5
251
330
1CB
100
AcDbDictionary
280
     1
281
     1
  3
ACAD_XREC_ROUNDTRIP
360
252
  0
XRECORD
  5
24A
102
{ACAD_REACTORS
330
249
102
}
330
249
100
AcDbXrecord
280
     1
102
SHADEPLOT
 70
     0
102
SHADEPLOTRESLEVEL
 70
     2
102
SHADEPLOTCUSTOMDPI
 70
   300
  0
XRECORD
  5
248
102
{ACAD_REACTORS
330
247
102
}
330
247
100
AcDbXrecord
280
     1
102
SHADEPLOT
 70
     0
102
SHADEPLOTRESLEVEL
 70
     2
102
SHADEPLOTCUSTOMDPI
 70
   300
  0
XRECORD
  5
24E
102
{ACAD_REACTORS
330
24D
102
}
330
24D
100
AcDbXrecord
280
     1
102
MATERIAL
148
0.0
149
0.0
149
0.0
 93
        0
 94
       63
282
     0
 72
     1
 77
     1
171
     1
175
     1
179
     1
273
     0
  0
XRECORD
  5
24C
102
{ACAD_REACTORS
330
24B
102
}
330
24B
100
AcDbXrecord
280
     1
102
MATERIAL
148
0.0
149
0.0
149
0.0
 93
        0
 94
       63
282
     0
 72
     1
 77
     1
171
     1
175
     1
179
     1
273
     0
  0
XRECORD
  5
250
102
{ACAD_REACTORS
330
24F
102
}
330
24F
100
AcDbXrecord
280
     1
102
MATERIAL
148
0.0
149
0.0
149
0.0
 93
        0
 94
       63
282
     0
 72
     1
 77
     1
171
     1
175
     1
179
     1
273
     0
  0
XRECORD
  5
252
102
{ACAD_REACTORS
330
251
102
}
330
251
100
AcDbXrecord
280
     1
102
ACAD_ROUNDTRIP_PRE2007_TABLESTYLE
 90
      512
 91
        0
  1

 92
      512
 93
        0
  2

 94
      512
 95
        0
  3

  0
ENDSEC
  0
EOF
