  0
SECTION
  2
HEADER
  9
$ACADVER
  1
AC1015
  9
$ACADMAINTVER
 70
    20
  9
$DWGCODEPAGE
  3
ANSI_1252
  9
$INSBASE
 10
8.293619308842894
 20
11.75659036828412
 30
0.0
  9
$EXTMIN
 10
0.2559378943406898
 20
7.99593782284846
 30
-0.0015258207003583
  9
$EXTMAX
 10
13.64942132846302
 20
12.92709815593459
 30
0.0000000349246037
  9
$LIMMIN
 10
-23.61579290080726
 20
-21.96805058542325
  9
$LIMMAX
 10
-4.61579290080726
 20
2.031949414576754
  9
$ORTHOMODE
 70
     0
  9
$REGENMODE
 70
     1
  9
$FILLMODE
 70
     1
  9
$QTEXTMODE
 70
     0
  9
$MIRRTEXT
 70
     1
  9
$LTSCALE
 40
1.0
  9
$ATTMODE
 70
     1
  9
$TEXTSIZE
 40
0.2
  9
$TRACEWID
 40
0.125
  9
$TEXTSTYLE
  7
STANDARD
  9
$CLAYER
  8
0
  9
$CELTYPE
  6
ByLayer
  9
$CECOLOR
 62
   256
  9
$CELTSCALE
 40
1.0
  9
$DISPSILH
 70
     0
  9
$DIMSCALE
 40
1.0
  9
$DIMASZ
 40
0.18
  9
$DIMEXO
 40
0.0625
  9
$DIMDLI
 40
0.38
  9
$DIMRND
 40
0.0
  9
$DIMDLE
 40
0.0
  9
$DIMEXE
 40
0.18
  9
$DIMTP
 40
0.0
  9
$DIMTM
 40
0.0
  9
$DIMTXT
 40
0.18
  9
$DIMCEN
 40
0.09
  9
$DIMTSZ
 40
0.0
  9
$DIMTOL
 70
     0
  9
$DIMLIM
 70
     0
  9
$DIMTIH
 70
     1
  9
$DIMTOH
 70
     1
  9
$DIMSE1
 70
     0
  9
$DIMSE2
 70
     0
  9
$DIMTAD
 70
     0
  9
$DIMZIN
 70
     0
  9
$DIMBLK
  1

  9
$DIMASO
 70
     1
  9
$DIMSHO
 70
     1
  9
$DIMPOST
  1

  9
$DIMAPOST
  1

  9
$DIMALT
 70
     0
  9
$DIMALTD
 70
     2
  9
$DIMALTF
 40
25.4
  9
$DIMLFAC
 40
1.0
  9
$DIMTOFL
 70
     0
  9
$DIMTVP
 40
0.0
  9
$DIMTIX
 70
     0
  9
$DIMSOXD
 70
     0
  9
$DIMSAH
 70
     0
  9
$DIMBLK1
  1

  9
$DIMBLK2
  1

  9
$DIMSTYLE
  2
Standard
  9
$DIMCLRD
 70
     0
  9
$DIMCLRE
 70
     0
  9
$DIMCLRT
 70
     0
  9
$DIMTFAC
 40
1.0
  9
$DIMGAP
 40
0.09
  9
$DIMJUST
 70
     0
  9
$DIMSD1
 70
     0
  9
$DIMSD2
 70
     0
  9
$DIMTOLJ
 70
     1
  9
$DIMTZIN
 70
     0
  9
$DIMALTZ
 70
     0
  9
$DIMALTTZ
 70
     0
  9
$DIMUPT
 70
     0
  9
$DIMDEC
 70
     5
  9
$DIMTDEC
 70
     5
  9
$DIMALTU
 70
     5
  9
$DIMALTTD
 70
     2
  9
$DIMTXSTY
  7
STANDARD
  9
$DIMAUNIT
 70
     0
  9
$DIMADEC
 70
     0
  9
$DIMALTRND
 40
0.0
  9
$DIMAZIN
 70
     0
  9
$DIMDSEP
 70
    46
  9
$DIMATFIT
 70
     3
  9
$DIMFRAC
 70
     0
  9
$DIMLDRBLK
  1

  9
$DIMLUNIT
 70
     5
  9
$DIMLWD
 70
    -2
  9
$DIMLWE
 70
    -2
  9
$DIMTMOVE
 70
     2
  9
$LUNITS
 70
     5
  9
$LUPREC
 70
     5
  9
$SKETCHINC
 40
0.1
  9
$FILLETRAD
 40
0.125
  9
$AUNITS
 70
     0
  9
$AUPREC
 70
     0
  9
$MENU
  1
acad
  9
$ELEVATION
 40
0.0
  9
$PELEVATION
 40
0.0
  9
$THICKNESS
 40
0.0
  9
$LIMCHECK
 70
     0
  9
$CHAMFERA
 40
0.0
  9
$CHAMFERB
 40
0.0
  9
$CHAMFERC
 40
0.0
  9
$CHAMFERD
 40
0.0
  9
$SKPOLY
 70
     0
  9
$TDCREATE
 40
2450358.981739387
  9
$TDUCREATE
 40
2450359.148406054
  9
$TDUPDATE
 40
2453970.003719943
  9
$TDUUPDATE
 40
2453970.170386609
  9
$TDINDWG
 40
0.0387095602
  9
$TDUSRTIMER
 40
0.0387095602
  9
$USRTIMER
 70
     1
  9
$ANGBASE
 50
0.0
  9
$ANGDIR
 70
     0
  9
$PDMODE
 70
    34
  9
$PDSIZE
 40
0.0
  9
$PLINEWID
 40
0.0
  9
$SPLFRAME
 70
     0
  9
$SPLINETYPE
 70
     6
  9
$SPLINESEGS
 70
     8
  9
$HANDSEED
  5
3DE
  9
$SURFTAB1
 70
     6
  9
$SURFTAB2
 70
     6
  9
$SURFTYPE
 70
     6
  9
$SURFU
 70
     6
  9
$SURFV
 70
     6
  9
$UCSBASE
  2

  9
$UCSNAME
  2

  9
$UCSORG
 10
0.0
 20
0.0
 30
0.0
  9
$UCSXDIR
 10
1.0
 20
0.0
 30
0.0
  9
$UCSYDIR
 10
0.0
 20
1.0
 30
0.0
  9
$UCSORTHOREF
  2

  9
$UCSORTHOVIEW
 70
     0
  9
$UCSORGTOP
 10
0.0
 20
0.0
 30
0.0
  9
$UCSORGBOTTOM
 10
0.0
 20
0.0
 30
0.0
  9
$UCSORGLEFT
 10
0.0
 20
0.0
 30
0.0
  9
$UCSORGRIGHT
 10
0.0
 20
0.0
 30
0.0
  9
$UCSORGFRONT
 10
0.0
 20
0.0
 30
0.0
  9
$UCSORGBACK
 10
0.0
 20
0.0
 30
0.0
  9
$PUCSBASE
  2

  9
$PUCSNAME
  2

  9
$PUCSORG
 10
0.0
 20
0.0
 30
0.0
  9
$PUCSXDIR
 10
1.0
 20
0.0
 30
0.0
  9
$PUCSYDIR
 10
0.0
 20
1.0
 30
0.0
  9
$PUCSORTHOREF
  2

  9
$PUCSORTHOVIEW
 70
     0
  9
$PUCSORGTOP
 10
0.0
 20
0.0
 30
0.0
  9
$PUCSORGBOTTOM
 10
0.0
 20
0.0
 30
0.0
  9
$PUCSORGLEFT
 10
0.0
 20
0.0
 30
0.0
  9
$PUCSORGRIGHT
 10
0.0
 20
0.0
 30
0.0
  9
$PUCSORGFRONT
 10
0.0
 20
0.0
 30
0.0
  9
$PUCSORGBACK
 10
0.0
 20
0.0
 30
0.0
  9
$USERI1
 70
     0
  9
$USERI2
 70
     0
  9
$USERI3
 70
     0
  9
$USERI4
 70
     0
  9
$USERI5
 70
     0
  9
$USERR1
 40
0.0
  9
$USERR2
 40
0.0
  9
$USERR3
 40
0.0
  9
$USERR4
 40
0.0
  9
$USERR5
 40
0.0
  9
$WORLDVIEW
 70
     1
  9
$SHADEDGE
 70
     3
  9
$SHADEDIF
 70
    70
  9
$TILEMODE
 70
     1
  9
$MAXACTVP
 70
    15
  9
$PINSBASE
 10
0.0
 20
0.0
 30
0.0
  9
$PLIMCHECK
 70
     0
  9
$PEXTMIN
 10
1.000000000000000E+20
 20
1.000000000000000E+20
 30
1.000000000000000E+20
  9
$PEXTMAX
 10
-1.000000000000000E+20
 20
-1.000000000000000E+20
 30
-1.000000000000000E+20
  9
$PLIMMIN
 10
-21.61579290080726
 20
-19.96805058542324
  9
$PLIMMAX
 10
-9.61579290080726
 20
-10.96805058542324
  9
$UNITMODE
 70
     0
  9
$VISRETAIN
 70
     0
  9
$PLINEGEN
 70
     0
  9
$PSLTSCALE
 70
     1
  9
$TREEDEPTH
 70
  3020
  9
$CMLSTYLE
  2
Standard
  9
$CMLJUST
 70
     0
  9
$CMLSCALE
 40
1.0
  9
$PROXYGRAPHICS
 70
     1
  9
$MEASUREMENT
 70
     0
  9
$CELWEIGHT
370
    -1
  9
$ENDCAPS
280
     0
  9
$JOINSTYLE
280
     0
  9
$LWDISPLAY
290
     0
  9
$INSUNITS
 70
     0
  9
$HYPERLINKBASE
  1

  9
$STYLESHEET
  1

  9
$XEDIT
290
     1
  9
$CEPSNTYPE
380
     0
  9
$PSTYLEMODE
290
     1
  9
$FINGERPRINTGUID
  2
{20BE0CA4-7121-484F-B29E-D32371C70D30}
  9
$VERSIONGUID
  2
{FE8695A5-9596-478D-8176-E0AD26A4E3C2}
  9
$EXTNAMES
290
     1
  9
$PSVPSCALE
 40
0.0
  9
$OLESTARTUP
290
     0
  0
ENDSEC
  0
SECTION
  2
CLASSES
  0
CLASS
  1
ACDBDICTIONARYWDFLT
  2
AcDbDictionaryWithDefault
  3
ObjectDBX Classes
 90
        0
280
     0
281
     0
  0
CLASS
  1
ACDBPLACEHOLDER
  2
AcDbPlaceHolder
  3
ObjectDBX Classes
 90
        0
280
     0
281
     0
  0
CLASS
  1
LAYOUT
  2
AcDbLayout
  3
ObjectDBX Classes
 90
        0
280
     0
281
     0
  0
CLASS
  1
DICTIONARYVAR
  2
AcDbDictionaryVar
  3
ObjectDBX Classes
 90
        0
280
     0
281
     0
  0
CLASS
  1
MATERIAL
  2
AcDbMaterial
  3
ObjectDBX Classes
 90
     1024
280
     0
281
     0
  0
CLASS
  1
VISUALSTYLE
  2
AcDbVisualStyle
  3
ObjectDBX Classes
 90
     4095
280
     0
281
     0
  0
CLASS
  1
TABLESTYLE
  2
AcDbTableStyle
  3
ObjectDBX Classes
 90
     4095
280
     0
281
     0
  0
ENDSEC
  0
SECTION
  2
TABLES
  0
TABLE
  2
VPORT
  5
8
330
0
100
AcDbSymbolTable
 70
     1
  0
VPORT
  5
1D3
330
8
100
AcDbSymbolTableRecord
100
AcDbViewportTableRecord
  2
*Active
 70
     0
 10
0.0
 20
0.0
 11
1.0
 21
1.0
 12
28.56847251220912
 22
30.42956857481477
 13
0.0
 23
0.0
 14
1.0
 24
1.0
 15
1.0
 25
1.0
 16
0.0
 26
0.0
 36
1.0
 17
-21.61579290080726
 27
-19.96805058542324
 37
0.0
 40
7.806309913082128
 41
1.726930320150659
 42
50.0
 43
0.0
 44
0.0
 50
0.0
 51
0.0
 71
     0
 72
   100
 73
     1
 74
     3
 75
     0
 76
     0
 77
     0
 78
     0
281
     0
 65
     1
110
0.0
120
0.0
130
0.0
111
1.0
121
0.0
131
0.0
112
0.0
122
1.0
132
0.0
 79
     0
146
0.0
  0
ENDTAB
  0
TABLE
  2
LTYPE
  5
5
330
0
100
AcDbSymbolTable
 70
     2
  0
LTYPE
  5
13
330
5
100
AcDbSymbolTableRecord
100
AcDbLinetypeTableRecord
  2
ByBlock
 70
     0
  3

 72
    65
 73
     0
 40
0.0
  0
LTYPE
  5
14
330
5
100
AcDbSymbolTableRecord
100
AcDbLinetypeTableRecord
  2
ByLayer
 70
     0
  3

 72
    65
 73
     0
 40
0.0
  0
LTYPE
  5
15
330
5
100
AcDbSymbolTableRecord
100
AcDbLinetypeTableRecord
  2
CONTINUOUS
 70
     0
  3
Solid line
 72
    65
 73
     0
 40
0.0
  0
ENDTAB
  0
TABLE
  2
LAYER
  5
2
330
0
100
AcDbSymbolTable
 70
     4
  0
LAYER
  5
10
330
2
100
AcDbSymbolTableRecord
100
AcDbLayerTableRecord
  2
0
 70
     0
 62
     7
  6
CONTINUOUS
370
    -3
390
F
  0
LAYER
  5
25
330
2
100
AcDbSymbolTableRecord
100
AcDbLayerTableRecord
  2
DEFPOINTS
 70
     0
 62
    -7
  6
CONTINUOUS
290
     0
370
    -3
390
F
  0
LAYER
  5
26
330
2
100
AcDbSymbolTableRecord
100
AcDbLayerTableRecord
  2
ADPDIM
 70
     0
 62
     3
  6
CONTINUOUS
370
    -3
390
F
  0
LAYER
  5
27
330
2
100
AcDbSymbolTableRecord
100
AcDbLayerTableRecord
  2
ADP1DETAIL
 70
     0
 62
     7
  6
CONTINUOUS
370
    -3
390
F
  0
ENDTAB
  0
TABLE
  2
STYLE
  5
3
330
0
100
AcDbSymbolTable
 70
     2
  0
STYLE
  5
11
330
3
100
AcDbSymbolTableRecord
100
AcDbTextStyleTableRecord
  2
STANDARD
 70
     0
 40
0.0
 41
1.0
 50
0.0
 71
     0
 42
0.2
  3
txt
  4

  0
STYLE
  5
7A
330
3
100
AcDbSymbolTableRecord
100
AcDbTextStyleTableRecord
  2
ARIAL_WIDE
 70
     0
 40
0.0
 41
1.25
 50
0.0
 71
     0
 42
0.2
  3
ARIAL.TTF
  4

1001
ACAD
1000
Arial
1071
       34
  0
ENDTAB
  0
TABLE
  2
VIEW
  5
6
330
0
100
AcDbSymbolTable
 70
     0
  0
ENDTAB
  0
TABLE
  2
UCS
  5
7
330
0
100
AcDbSymbolTable
 70
     0
  0
ENDTAB
  0
TABLE
  2
APPID
  5
9
330
0
100
AcDbSymbolTable
 70
     2
  0
APPID
  5
12
330
9
100
AcDbSymbolTableRecord
100
AcDbRegAppTableRecord
  2
ACAD
 70
     0
  0
APPID
  5
3A4
330
9
100
AcDbSymbolTableRecord
100
AcDbRegAppTableRecord
  2
ACAD_EXEMPT_FROM_CAD_STANDARDS
 70
     0
  0
ENDTAB
  0
TABLE
  2
DIMSTYLE
  5
A
330
0
100
AcDbSymbolTable
 70
     2
100
AcDbDimStyleTable
 71
     1
340
78
  0
DIMSTYLE
105
78
102
{ACAD_REACTORS
330
333
330
334
330
34F
330
395
102
}
330
A
100
AcDbSymbolTableRecord
100
AcDbDimStyleTableRecord
  2
Standard
 70
     0
340
11
  0
ENDTAB
  0
TABLE
  2
BLOCK_RECORD
  5
1
330
0
100
AcDbSymbolTable
 70
    13
  0
BLOCK_RECORD
  5
1E
102
{ACAD_XDICTIONARY
360
B7
102
}
330
1
100
AcDbSymbolTableRecord
100
AcDbBlockTableRecord
  2
*Model_Space
340
21
  0
BLOCK_RECORD
  5
1A
102
{ACAD_XDICTIONARY
360
B9
102
}
330
1
100
AcDbSymbolTableRecord
100
AcDbBlockTableRecord
  2
*Paper_Space
340
1D
  0
BLOCK_RECORD
  5
22
330
1
100
AcDbSymbolTableRecord
100
AcDbBlockTableRecord
  2
*D0
340
0
  0
BLOCK_RECORD
  5
23
330
1
100
AcDbSymbolTableRecord
100
AcDbBlockTableRecord
  2
*D1
340
0
  0
BLOCK_RECORD
  5
225
330
1
100
AcDbSymbolTableRecord
100
AcDbBlockTableRecord
  2
*D2
340
0
  0
BLOCK_RECORD
  5
232
330
1
100
AcDbSymbolTableRecord
100
AcDbBlockTableRecord
  2
*D3
340
0
  0
BLOCK_RECORD
  5
2EA
330
1
100
AcDbSymbolTableRecord
100
AcDbBlockTableRecord
  2
*D4
340
0
  0
BLOCK_RECORD
  5
2F7
330
1
100
AcDbSymbolTableRecord
100
AcDbBlockTableRecord
  2
*D5
340
0
  0
BLOCK_RECORD
  5
304
330
1
100
AcDbSymbolTableRecord
100
AcDbBlockTableRecord
  2
*D6
340
0
  0
BLOCK_RECORD
  5
350
330
1
100
AcDbSymbolTableRecord
100
AcDbBlockTableRecord
  2
*D8
340
0
  0
BLOCK_RECORD
  5
35D
330
1
100
AcDbSymbolTableRecord
100
AcDbBlockTableRecord
  2
*D9
340
0
  0
BLOCK_RECORD
  5
36A
330
1
100
AcDbSymbolTableRecord
100
AcDbBlockTableRecord
  2
*D10
340
0
  0
BLOCK_RECORD
  5
396
330
1
100
AcDbSymbolTableRecord
100
AcDbBlockTableRecord
  2
*D11
340
0
  0
ENDTAB
  0
ENDSEC
  0
SECTION
  2
BLOCKS
  0
BLOCK
  5
2A
330
1E
100
AcDbEntity
  8
0
100
AcDbBlockBegin
  2
*Model_Space
 70
     0
 10
0.0
 20
0.0
 30
0.0
  3
*Model_Space
  1

  0
ENDBLK
  5
2B
330
1E
100
AcDbEntity
  8
0
100
AcDbBlockEnd
  0
BLOCK
  5
28
330
1A
100
AcDbEntity
 67
     1
  8
0
100
AcDbBlockBegin
  2
*Paper_Space
 70
     0
 10
0.0
 20
0.0
 30
0.0
  3
*Paper_Space
  1

  0
ENDBLK
  5
29
330
1A
100
AcDbEntity
 67
     1
  8
0
100
AcDbBlockEnd
  0
BLOCK
  5
2C
330
22
100
AcDbEntity
  8
0
100
AcDbBlockBegin
  2
*D0
 70
     1
 10
0.0
 20
0.0
 30
0.0
  3
*D0
  1

  0
LINE
  5
2D
330
22
100
AcDbEntity
  8
0
  6
ByBlock
 62
     0
100
AcDbLine
 10
9.656937234301697
 20
13.97890961193061
 30
0.0
 11
9.656937234301697
 21
14.73411380502247
 31
0.0
  0
LINE
  5
2E
330
22
100
AcDbEntity
  8
0
  6
ByBlock
 62
     0
100
AcDbLine
 10
11.78203455905209
 20
13.97890961193061
 30
0.0
 11
11.78203455905209
 21
14.73411380502247
 31
0.0
  0
LINE
  5
2F
330
22
100
AcDbEntity
  8
0
  6
ByBlock
 62
     0
100
AcDbLine
 10
9.836937234301696
 20
14.55411380502247
 30
0.0
 11
10.23948589667689
 21
14.55411380502247
 31
0.0
  0
LINE
  5
30
330
22
100
AcDbEntity
  8
0
  6
ByBlock
 62
     0
100
AcDbLine
 10
11.60203455905209
 20
14.55411380502247
 30
0.0
 11
11.19948589667689
 21
14.55411380502247
 31
0.0
  0
SOLID
  5
31
330
22
100
AcDbEntity
  8
0
  6
ByBlock
 62
     0
100
AcDbTrace
 10
9.836937234301696
 20
14.58411380502247
 30
0.0
 11
9.836937234301696
 21
14.52411380502247
 31
0.0
 12
9.656937234301697
 22
14.55411380502247
 32
0.0
 13
9.656937234301697
 23
14.55411380502247
 33
0.0
  0
SOLID
  5
32
330
22
100
AcDbEntity
  8
0
  6
ByBlock
 62
     0
100
AcDbTrace
 10
11.60203455905209
 20
14.58411380502247
 30
0.0
 11
11.60203455905209
 21
14.52411380502247
 31
0.0
 12
11.78203455905209
 22
14.55411380502247
 32
0.0
 13
11.78203455905209
 23
14.55411380502247
 33
0.0
  0
TEXT
  5
33
330
22
100
AcDbEntity
  8
0
  6
ByBlock
 62
     0
100
AcDbText
 10
10.32948589667689
 20
14.46411380502247
 30
0.0
 40
0.18
  1
2 1/8
 72
     1
 11
10.71948589667689
 21
14.55411380502247
 31
0.0
100
AcDbText
 73
     2
  0
POINT
  5
35
330
22
100
AcDbEntity
  8
DEFPOINTS
  6
ByBlock
 62
     0
100
AcDbPoint
 10
9.656937234301697
 20
13.91640961193061
 30
0.0
  0
POINT
  5
36
330
22
100
AcDbEntity
  8
DEFPOINTS
  6
ByBlock
 62
     0
100
AcDbPoint
 10
11.78203455905209
 20
13.91640961193061
 30
0.0
  0
POINT
  5
37
330
22
100
AcDbEntity
  8
DEFPOINTS
  6
ByBlock
 62
     0
100
AcDbPoint
 10
11.78203455905209
 20
14.55411380502247
 30
0.0
  0
ENDBLK
  5
38
330
22
100
AcDbEntity
  8
0
100
AcDbBlockEnd
  0
BLOCK
  5
39
330
23
100
AcDbEntity
  8
0
100
AcDbBlockBegin
  2
*D1
 70
     1
 10
0.0
 20
0.0
 30
0.0
  3
*D1
  1

  0
LINE
  5
3A
330
23
100
AcDbEntity
  8
0
  6
ByBlock
 62
     0
100
AcDbLine
 10
9.933577036440912
 20
13.46626587783817
 30
0.0
 11
9.933577036440912
 21
13.13511412288361
 31
0.0
  0
LINE
  5
3B
330
23
100
AcDbEntity
  8
0
  6
ByBlock
 62
     0
100
AcDbLine
 10
11.49282017626115
 20
13.46626587783817
 30
0.0
 11
11.49282017626115
 21
13.13511412288361
 31
0.0
  0
LINE
  5
3C
330
23
100
AcDbEntity
  8
0
  6
ByBlock
 62
     0
100
AcDbLine
 10
9.753577036440912
 20
13.31511412288362
 30
0.0
 11
9.573577036440912
 21
13.31511412288362
 31
0.0
  0
LINE
  5
3D
330
23
100
AcDbEntity
  8
0
  6
ByBlock
 62
     0
100
AcDbLine
 10
11.67282017626115
 20
13.31511412288362
 30
0.0
 11
11.85282017626115
 21
13.31511412288362
 31
0.0
  0
SOLID
  5
3E
330
23
100
AcDbEntity
  8
0
  6
ByBlock
 62
     0
100
AcDbTrace
 10
9.753577036440912
 20
13.34511412288361
 30
0.0
 11
9.753577036440912
 21
13.28511412288362
 31
0.0
 12
9.933577036440912
 22
13.31511412288362
 32
0.0
 13
9.933577036440912
 23
13.31511412288362
 33
0.0
  0
SOLID
  5
3F
330
23
100
AcDbEntity
  8
0
  6
ByBlock
 62
     0
100
AcDbTrace
 10
11.67282017626115
 20
13.34511412288361
 30
0.0
 11
11.67282017626115
 21
13.28511412288362
 31
0.0
 12
11.49282017626115
 22
13.31511412288362
 32
0.0
 13
11.49282017626115
 23
13.31511412288362
 33
0.0
  0
TEXT
  5
40
330
23
100
AcDbEntity
  8
0
  6
ByBlock
 62
     0
100
AcDbText
 10
11.94282017626115
 20
13.22511412288362
 30
0.0
 40
0.18
  1
1 9/16
 72
     1
 11
12.39282017626115
 21
13.31511412288362
 31
0.0
100
AcDbText
 73
     2
  0
POINT
  5
41
330
23
100
AcDbEntity
  8
DEFPOINTS
  6
ByBlock
 62
     0
100
AcDbPoint
 10
9.933577036440912
 20
13.52876587783817
 30
0.0
  0
POINT
  5
42
330
23
100
AcDbEntity
  8
DEFPOINTS
  6
ByBlock
 62
     0
100
AcDbPoint
 10
11.49282017626115
 20
13.52876587783817
 30
0.0
  0
POINT
  5
43
330
23
100
AcDbEntity
  8
DEFPOINTS
  6
ByBlock
 62
     0
100
AcDbPoint
 10
11.49282017626115
 20
13.31511412288362
 30
0.0
  0
ENDBLK
  5
44
330
23
100
AcDbEntity
  8
0
100
AcDbBlockEnd
  0
BLOCK
  5
230
330
225
100
AcDbEntity
  8
0
100
AcDbBlockBegin
  2
*D2
 70
     1
 10
0.0
 20
0.0
 30
0.0
  3
*D2
  1

  0
LINE
  5
226
330
225
100
AcDbEntity
  8
ADPDIM
 62
     0
370
    -2
100
AcDbLine
 10
9.372711885619937
 20
11.66351032924212
 30
0.0
 11
9.372711885619937
 21
11.33235857428757
 31
0.0
  0
LINE
  5
227
330
225
100
AcDbEntity
  8
ADPDIM
 62
     0
370
    -2
100
AcDbLine
 10
10.93195502544017
 20
11.66351032924212
 30
0.0
 11
10.93195502544017
 21
11.33235857428757
 31
0.0
  0
LINE
  5
228
330
225
100
AcDbEntity
  8
ADPDIM
 62
     0
370
    -2
100
AcDbLine
 10
9.552711885619936
 20
11.51235857428757
 30
0.0
 11
9.882333455530057
 21
11.51235857428757
 31
0.0
  0
LINE
  5
229
330
225
100
AcDbEntity
  8
ADPDIM
 62
     0
370
    -2
100
AcDbLine
 10
10.75195502544017
 20
11.51235857428757
 30
0.0
 11
10.42233345553005
 21
11.51235857428757
 31
0.0
  0
SOLID
  5
22A
330
225
100
AcDbEntity
  8
ADPDIM
 62
     0
100
AcDbTrace
 10
9.552711885619936
 20
11.54235857428757
 30
0.0
 11
9.552711885619936
 21
11.48235857428757
 31
0.0
 12
9.372711885619937
 22
11.51235857428757
 32
0.0
 13
9.372711885619937
 23
11.51235857428757
 33
0.0
  0
SOLID
  5
22B
330
225
100
AcDbEntity
  8
ADPDIM
 62
     0
100
AcDbTrace
 10
10.75195502544017
 20
11.54235857428757
 30
0.0
 11
10.75195502544017
 21
11.48235857428757
 31
0.0
 12
10.93195502544017
 22
11.51235857428757
 32
0.0
 13
10.93195502544017
 23
11.51235857428757
 33
0.0
  0
MTEXT
  5
22C
330
225
100
AcDbEntity
  8
ADPDIM
 62
     0
100
AcDbMText
 10
10.15233345553006
 20
11.51235857428757
 30
0.0
 40
0.18
 41
0.0
 71
     5
 72
     1
  1
\A1;1{\H1.000000x;\S9/16;}
 73
     1
 44
1.0
1001
ACAD
1000
MTEXTBEGIN
1070
    73
1070
     1
1070
    44
1040
1.0
1070
    74
1070
     0
1000
MTEXTEND
  0
POINT
  5
22D
330
225
100
AcDbEntity
  8
DEFPOINTS
 62
     0
100
AcDbPoint
 10
9.372711885619937
 20
11.72601032924212
 30
0.0
  0
POINT
  5
22E
330
225
100
AcDbEntity
  8
DEFPOINTS
 62
     0
100
AcDbPoint
 10
10.93195502544017
 20
11.72601032924212
 30
0.0
  0
POINT
  5
22F
330
225
100
AcDbEntity
  8
DEFPOINTS
 62
     0
100
AcDbPoint
 10
10.93195502544017
 20
11.51235857428757
 30
0.0
  0
ENDBLK
  5
231
330
225
100
AcDbEntity
  8
0
100
AcDbBlockEnd
  0
BLOCK
  5
23D
330
232
100
AcDbEntity
  8
0
100
AcDbBlockBegin
  2
*D3
 70
     1
 10
0.0
 20
0.0
 30
0.0
  3
*D3
  1

  0
LINE
  5
233
330
232
100
AcDbEntity
  8
ADPDIM
 62
     0
370
    -2
100
AcDbLine
 10
9.096072083480722
 20
12.17615406333456
 30
0.0
 11
9.096072083480722
 21
12.93135825642642
 31
0.0
  0
LINE
  5
234
330
232
100
AcDbEntity
  8
ADPDIM
 62
     0
370
    -2
100
AcDbLine
 10
11.22116940823111
 20
12.17615406333456
 30
0.0
 11
11.22116940823111
 21
12.93135825642642
 31
0.0
  0
LINE
  5
235
330
232
100
AcDbEntity
  8
ADPDIM
 62
     0
370
    -2
100
AcDbLine
 10
9.276072083480721
 20
12.75135825642642
 30
0.0
 11
9.918620745855919
 21
12.75135825642642
 31
0.0
  0
LINE
  5
236
330
232
100
AcDbEntity
  8
ADPDIM
 62
     0
370
    -2
100
AcDbLine
 10
11.04116940823112
 20
12.75135825642642
 30
0.0
 11
10.39862074585592
 21
12.75135825642642
 31
0.0
  0
SOLID
  5
237
330
232
100
AcDbEntity
  8
ADPDIM
 62
     0
100
AcDbTrace
 10
9.276072083480721
 20
12.78135825642642
 30
0.0
 11
9.276072083480721
 21
12.72135825642642
 31
0.0
 12
9.096072083480722
 22
12.75135825642642
 32
0.0
 13
9.096072083480722
 23
12.75135825642642
 33
0.0
  0
SOLID
  5
238
330
232
100
AcDbEntity
  8
ADPDIM
 62
     0
100
AcDbTrace
 10
11.04116940823112
 20
12.78135825642642
 30
0.0
 11
11.04116940823112
 21
12.72135825642642
 31
0.0
 12
11.22116940823111
 22
12.75135825642642
 32
0.0
 13
11.22116940823111
 23
12.75135825642642
 33
0.0
  0
MTEXT
  5
239
330
232
100
AcDbEntity
  8
ADPDIM
 62
     0
100
AcDbMText
 10
10.15862074585592
 20
12.75135825642642
 30
0.0
 40
0.18
 41
0.0
 71
     5
 72
     1
  1
\A1;2{\H1.000000x;\S1/8;}
 73
     1
 44
1.0
1001
ACAD
1000
MTEXTBEGIN
1070
    73
1070
     1
1070
    44
1040
1.0
1070
    74
1070
     0
1000
MTEXTEND
  0
POINT
  5
23A
330
232
100
AcDbEntity
  8
DEFPOINTS
 62
     0
100
AcDbPoint
 10
9.096072083480722
 20
12.11365406333456
 30
0.0
  0
POINT
  5
23B
330
232
100
AcDbEntity
  8
DEFPOINTS
 62
     0
100
AcDbPoint
 10
11.22116940823111
 20
12.11365406333456
 30
0.0
  0
POINT
  5
23C
330
232
100
AcDbEntity
  8
DEFPOINTS
 62
     0
100
AcDbPoint
 10
11.22116940823111
 20
12.75135825642642
 30
0.0
  0
ENDBLK
  5
23E
330
232
100
AcDbEntity
  8
0
100
AcDbBlockEnd
  0
BLOCK
  5
2EB
330
2EA
100
AcDbEntity
  8
0
 62
     3
100
AcDbBlockBegin
  2
*D4
 70
     1
 10
0.0
 20
0.0
 30
0.0
  3
*D4
  1

  0
LINE
  5
2EC
330
2EA
100
AcDbEntity
  8
ADPDIM
 62
     0
370
    -2
100
AcDbLine
 10
10.05899882825791
 20
13.64869007275659
 30
0.0
 11
10.05899882825791
 21
13.34066530287651
 31
0.0
  0
LINE
  5
2ED
330
2EA
100
AcDbEntity
  8
ADPDIM
 62
     0
370
    -2
100
AcDbLine
 10
11.37149882825791
 20
13.64869007275659
 30
0.0
 11
11.37149882825791
 21
13.34066530287651
 31
0.0
  0
LINE
  5
2EE
330
2EA
100
AcDbEntity
  8
ADPDIM
 62
     0
370
    -2
100
AcDbLine
 10
9.878998828257909
 20
13.52066530287651
 30
0.0
 11
9.698998828257909
 21
13.52066530287651
 31
0.0
  0
LINE
  5
2EF
330
2EA
100
AcDbEntity
  8
ADPDIM
 62
     0
370
    -2
100
AcDbLine
 10
11.55149882825791
 20
13.52066530287651
 30
0.0
 11
11.73149882825791
 21
13.52066530287651
 31
0.0
  0
SOLID
  5
2F0
330
2EA
100
AcDbEntity
  8
ADPDIM
 62
     0
100
AcDbTrace
 10
9.878998828257909
 20
13.55066530287651
 30
0.0
 11
9.878998828257909
 21
13.49066530287651
 31
0.0
 12
10.05899882825791
 22
13.52066530287651
 32
0.0
 13
10.05899882825791
 23
13.52066530287651
 33
0.0
  0
SOLID
  5
2F1
330
2EA
100
AcDbEntity
  8
ADPDIM
 62
     0
100
AcDbTrace
 10
11.55149882825791
 20
13.55066530287651
 30
0.0
 11
11.55149882825791
 21
13.49066530287651
 31
0.0
 12
11.37149882825791
 22
13.52066530287651
 32
0.0
 13
11.37149882825791
 23
13.52066530287651
 33
0.0
  0
MTEXT
  5
2F2
330
2EA
100
AcDbEntity
  8
ADPDIM
 62
     0
100
AcDbMText
 10
10.71524882825791
 20
13.52066530287651
 30
0.0
 40
0.125
 41
0.0
 71
     5
 72
     1
  1
\A1;1 5/16
 73
     1
 44
1.0
1001
ACAD
1000
MTEXTBEGIN
1070
    73
1070
     1
1070
    44
1040
1.0
1070
    74
1070
     0
1000
MTEXTEND
1000
ACAD_MTEXT_BBRT
1070
    91
1071
        3
1070
    46
1040
1.25
1070
    64
1071
-1027028792
1070
    65
1000

1070
    66
1000

1070
   442
1071
  7078160
1000
ACAD_MTEXT_BERT
  0
POINT
  5
2F3
330
2EA
100
AcDbEntity
  8
DEFPOINTS
 62
     0
100
AcDbPoint
 10
10.05899882825791
 20
13.7111900727566
 30
0.0
  0
POINT
  5
2F4
330
2EA
100
AcDbEntity
  8
DEFPOINTS
 62
     0
100
AcDbPoint
 10
11.37149882825791
 20
13.7111900727566
 30
0.0
  0
POINT
  5
2F5
330
2EA
100
AcDbEntity
  8
DEFPOINTS
 62
     0
100
AcDbPoint
 10
11.37149882825791
 20
13.52066530287651
 30
0.0
  0
ENDBLK
  5
2F6
330
2EA
100
AcDbEntity
  8
0
 62
     3
100
AcDbBlockEnd
  0
BLOCK
  5
2F8
330
2F7
100
AcDbEntity
  8
0
100
AcDbBlockBegin
  2
*D5
 70
     1
 10
0.0
 20
0.0
 30
0.0
  3
*D5
  1

  0
LINE
  5
2F9
330
2F7
100
AcDbEntity
  8
ADPDIM
 62
     0
370
    -2
100
AcDbLine
 10
9.656937234301697
 20
13.97890961193061
 30
0.0
 11
9.656937234301697
 21
14.73411380502247
 31
0.0
  0
LINE
  5
2FA
330
2F7
100
AcDbEntity
  8
ADPDIM
 62
     0
370
    -2
100
AcDbLine
 10
11.78203455905209
 20
13.97890961193061
 30
0.0
 11
11.78203455905209
 21
14.73411380502247
 31
0.0
  0
LINE
  5
2FB
330
2F7
100
AcDbEntity
  8
ADPDIM
 62
     0
370
    -2
100
AcDbLine
 10
9.836937234301696
 20
14.55411380502247
 30
0.0
 11
10.35865256334356
 21
14.55411380502247
 31
0.0
  0
LINE
  5
2FC
330
2F7
100
AcDbEntity
  8
ADPDIM
 62
     0
370
    -2
100
AcDbLine
 10
11.60203455905209
 20
14.55411380502247
 30
0.0
 11
11.08031923001023
 21
14.55411380502247
 31
0.0
  0
SOLID
  5
2FD
330
2F7
100
AcDbEntity
  8
ADPDIM
 62
     0
100
AcDbTrace
 10
9.836937234301696
 20
14.58411380502247
 30
0.0
 11
9.836937234301696
 21
14.52411380502247
 31
0.0
 12
9.656937234301697
 22
14.55411380502247
 32
0.0
 13
9.656937234301697
 23
14.55411380502247
 33
0.0
  0
SOLID
  5
2FE
330
2F7
100
AcDbEntity
  8
ADPDIM
 62
     0
100
AcDbTrace
 10
11.60203455905209
 20
14.58411380502247
 30
0.0
 11
11.60203455905209
 21
14.52411380502247
 31
0.0
 12
11.78203455905209
 22
14.55411380502247
 32
0.0
 13
11.78203455905209
 23
14.55411380502247
 33
0.0
  0
MTEXT
  5
2FF
330
2F7
100
AcDbEntity
  8
ADPDIM
 62
     0
100
AcDbMText
 10
10.71948589667689
 20
14.55411380502247
 30
0.0
 40
0.125
 41
0.0
 71
     5
 72
     1
  1
\A1;2 1/8
 73
     1
 44
1.0
1001
ACAD
1000
MTEXTBEGIN
1070
    73
1070
     1
1070
    44
1040
1.0
1070
    74
1070
     0
1000
MTEXTEND
1000
ACAD_MTEXT_BBRT
1070
    91
1071
        3
1070
    46
1040
1.25
1070
    64
1071
-1027028792
1070
    65
1000

1070
    66
1000

1070
   442
1071
  7078160
1000
ACAD_MTEXT_BERT
  0
POINT
  5
300
330
2F7
100
AcDbEntity
  8
DEFPOINTS
 62
     0
100
AcDbPoint
 10
9.656937234301697
 20
13.91640961193061
 30
0.0
  0
POINT
  5
301
330
2F7
100
AcDbEntity
  8
DEFPOINTS
 62
     0
100
AcDbPoint
 10
11.78203455905209
 20
13.91640961193061
 30
0.0
  0
POINT
  5
302
330
2F7
100
AcDbEntity
  8
DEFPOINTS
 62
     0
100
AcDbPoint
 10
11.78203455905209
 20
14.55411380502247
 30
0.0
  0
ENDBLK
  5
303
330
2F7
100
AcDbEntity
  8
0
100
AcDbBlockEnd
  0
BLOCK
  5
305
330
304
100
AcDbEntity
  8
0
100
AcDbBlockBegin
  2
*D6
 70
     1
 10
0.0
 20
0.0
 30
0.0
  3
*D6
  1

  0
LINE
  5
306
330
304
100
AcDbEntity
  8
ADPDIM
 62
     0
370
    -2
100
AcDbLine
 10
9.933577036440912
 20
13.46626587783817
 30
0.0
 11
9.933577036440912
 21
13.13511412288361
 31
0.0
  0
LINE
  5
307
330
304
100
AcDbEntity
  8
ADPDIM
 62
     0
370
    -2
100
AcDbLine
 10
11.49282017626115
 20
13.46626587783817
 30
0.0
 11
11.49282017626115
 21
13.13511412288361
 31
0.0
  0
LINE
  5
308
330
304
100
AcDbEntity
  8
ADPDIM
 62
     0
370
    -2
100
AcDbLine
 10
10.11357703644091
 20
13.31511412288362
 30
0.0
 11
10.31069860635103
 21
13.31511412288362
 31
0.0
  0
LINE
  5
309
330
304
100
AcDbEntity
  8
ADPDIM
 62
     0
370
    -2
100
AcDbLine
 10
11.31282017626115
 20
13.31511412288362
 30
0.0
 11
11.11569860635103
 21
13.31511412288362
 31
0.0
  0
SOLID
  5
30A
330
304
100
AcDbEntity
  8
ADPDIM
 62
     0
100
AcDbTrace
 10
10.11357703644091
 20
13.34511412288361
 30
0.0
 11
10.11357703644091
 21
13.28511412288362
 31
0.0
 12
9.933577036440912
 22
13.31511412288362
 32
0.0
 13
9.933577036440912
 23
13.31511412288362
 33
0.0
  0
SOLID
  5
30B
330
304
100
AcDbEntity
  8
ADPDIM
 62
     0
100
AcDbTrace
 10
11.31282017626115
 20
13.34511412288361
 30
0.0
 11
11.31282017626115
 21
13.28511412288362
 31
0.0
 12
11.49282017626115
 22
13.31511412288362
 32
0.0
 13
11.49282017626115
 23
13.31511412288362
 33
0.0
  0
MTEXT
  5
30C
330
304
100
AcDbEntity
  8
ADPDIM
 62
     0
100
AcDbMText
 10
10.71319860635103
 20
13.31511412288362
 30
0.0
 40
0.125
 41
0.0
 71
     5
 72
     1
  1
\A1;1 9/16
 73
     1
 44
1.0
1001
ACAD
1000
MTEXTBEGIN
1070
    73
1070
     1
1070
    44
1040
1.0
1070
    74
1070
     0
1000
MTEXTEND
1000
ACAD_MTEXT_BBRT
1070
    91
1071
        3
1070
    46
1040
1.25
1070
    64
1071
-1027028792
1070
    65
1000

1070
    66
1000

1070
   442
1071
  7078160
1000
ACAD_MTEXT_BERT
  0
POINT
  5
30D
330
304
100
AcDbEntity
  8
DEFPOINTS
 62
     0
100
AcDbPoint
 10
9.933577036440912
 20
13.52876587783817
 30
0.0
  0
POINT
  5
30E
330
304
100
AcDbEntity
  8
DEFPOINTS
 62
     0
100
AcDbPoint
 10
11.49282017626115
 20
13.52876587783817
 30
0.0
  0
POINT
  5
30F
330
304
100
AcDbEntity
  8
DEFPOINTS
 62
     0
100
AcDbPoint
 10
11.49282017626115
 20
13.31511412288362
 30
0.0
  0
ENDBLK
  5
310
330
304
100
AcDbEntity
  8
0
100
AcDbBlockEnd
  0
BLOCK
  5
35B
330
350
100
AcDbEntity
  8
0
100
AcDbBlockBegin
  2
*D8
 70
     1
 10
0.0
 20
0.0
 30
0.0
  3
*D8
  1

  0
LINE
  5
377
330
350
100
AcDbEntity
  8
ADPDIM
 62
     0
370
    -2
100
AcDbLine
 10
9.089299848944005
 20
12.16944327697789
 30
0.0
 11
9.089299848944005
 21
12.92464747006975
 31
0.0
  0
LINE
  5
378
330
350
100
AcDbEntity
  8
ADPDIM
 62
     0
370
    -2
100
AcDbLine
 10
11.2143971736944
 20
12.16944327697789
 30
0.0
 11
11.2143971736944
 21
12.92464747006975
 31
0.0
  0
LINE
  5
379
330
350
100
AcDbEntity
  8
ADPDIM
 62
     0
370
    -2
100
AcDbLine
 10
9.269299848944005
 20
12.74464747006974
 30
0.0
 11
9.791015177985869
 21
12.74464747006974
 31
0.0
  0
LINE
  5
37A
330
350
100
AcDbEntity
  8
ADPDIM
 62
     0
370
    -2
100
AcDbLine
 10
11.0343971736944
 20
12.74464747006974
 30
0.0
 11
10.51268184465254
 21
12.74464747006974
 31
0.0
  0
SOLID
  5
37B
330
350
100
AcDbEntity
  8
ADPDIM
 62
     0
100
AcDbTrace
 10
9.269299848944005
 20
12.77464747006974
 30
0.0
 11
9.269299848944005
 21
12.71464747006975
 31
0.0
 12
9.089299848944005
 22
12.74464747006974
 32
0.0
 13
9.089299848944005
 23
12.74464747006974
 33
0.0
  0
SOLID
  5
37C
330
350
100
AcDbEntity
  8
ADPDIM
 62
     0
100
AcDbTrace
 10
11.0343971736944
 20
12.77464747006974
 30
0.0
 11
11.0343971736944
 21
12.71464747006975
 31
0.0
 12
11.2143971736944
 22
12.74464747006974
 32
0.0
 13
11.2143971736944
 23
12.74464747006974
 33
0.0
  0
MTEXT
  5
37D
330
350
100
AcDbEntity
  8
ADPDIM
 62
     0
100
AcDbMText
 10
10.1518485113192
 20
12.74464747006974
 30
0.0
 40
0.125
 41
0.0
 71
     5
 72
     1
  1
\A1;2 1/8
 73
     1
 44
1.0
1001
ACAD
1000
MTEXTBEGIN
1070
    73
1070
     1
1070
    44
1040
1.0
1070
    74
1070
     0
1000
MTEXTEND
1000
ACAD_MTEXT_BBRT
1070
    91
1071
        3
1070
    46
1040
1.25
1070
    64
1071
-1027028792
1070
    65
1000

1070
    66
1000

1070
   442
1071
  5373536
1000
ACAD_MTEXT_BERT
  0
POINT
  5
37E
330
350
100
AcDbEntity
  8
DEFPOINTS
 62
     0
100
AcDbPoint
 10
9.089299848944005
 20
12.10694327697789
 30
0.0
  0
POINT
  5
37F
330
350
100
AcDbEntity
  8
DEFPOINTS
 62
     0
100
AcDbPoint
 10
11.2143971736944
 20
12.10694327697789
 30
0.0
  0
POINT
  5
380
330
350
100
AcDbEntity
  8
DEFPOINTS
 62
     0
100
AcDbPoint
 10
11.2143971736944
 20
12.74464747006974
 30
0.0
  0
ENDBLK
  5
35C
330
350
100
AcDbEntity
  8
0
100
AcDbBlockEnd
  0
BLOCK
  5
368
330
35D
100
AcDbEntity
  8
0
100
AcDbBlockBegin
  2
*D9
 70
     1
 10
0.0
 20
0.0
 30
0.0
  3
*D9
  1

  0
LINE
  5
381
330
35D
100
AcDbEntity
  8
ADPDIM
 62
     0
370
    -2
100
AcDbLine
 10
9.36593965108322
 20
11.65679954288544
 30
0.0
 11
9.36593965108322
 21
11.32564778793089
 31
0.0
  0
LINE
  5
382
330
35D
100
AcDbEntity
  8
ADPDIM
 62
     0
370
    -2
100
AcDbLine
 10
10.92518279090346
 20
11.65679954288544
 30
0.0
 11
10.92518279090346
 21
11.32564778793089
 31
0.0
  0
LINE
  5
383
330
35D
100
AcDbEntity
  8
ADPDIM
 62
     0
370
    -2
100
AcDbLine
 10
9.545939651083219
 20
11.50564778793089
 30
0.0
 11
9.74306122099334
 21
11.50564778793089
 31
0.0
  0
LINE
  5
384
330
35D
100
AcDbEntity
  8
ADPDIM
 62
     0
370
    -2
100
AcDbLine
 10
10.74518279090346
 20
11.50564778793089
 30
0.0
 11
10.54806122099334
 21
11.50564778793089
 31
0.0
  0
SOLID
  5
385
330
35D
100
AcDbEntity
  8
ADPDIM
 62
     0
100
AcDbTrace
 10
9.545939651083219
 20
11.53564778793089
 30
0.0
 11
9.545939651083219
 21
11.47564778793089
 31
0.0
 12
9.36593965108322
 22
11.50564778793089
 32
0.0
 13
9.36593965108322
 23
11.50564778793089
 33
0.0
  0
SOLID
  5
386
330
35D
100
AcDbEntity
  8
ADPDIM
 62
     0
100
AcDbTrace
 10
10.74518279090346
 20
11.53564778793089
 30
0.0
 11
10.74518279090346
 21
11.47564778793089
 31
0.0
 12
10.92518279090346
 22
11.50564778793089
 32
0.0
 13
10.92518279090346
 23
11.50564778793089
 33
0.0
  0
MTEXT
  5
387
330
35D
100
AcDbEntity
  8
ADPDIM
 62
     0
100
AcDbMText
 10
10.14556122099334
 20
11.50564778793089
 30
0.0
 40
0.125
 41
0.0
 71
     5
 72
     1
  1
\A1;1 9/16
 73
     1
 44
1.0
1001
ACAD
1000
MTEXTBEGIN
1070
    73
1070
     1
1070
    44
1040
1.0
1070
    74
1070
     0
1000
MTEXTEND
1000
ACAD_MTEXT_BBRT
1070
    91
1071
        3
1070
    46
1040
1.25
1070
    64
1071
-1027028792
1070
    65
1000

1070
    66
1000

1070
   442
1071
  7079192
1000
ACAD_MTEXT_BERT
  0
POINT
  5
388
330
35D
100
AcDbEntity
  8
DEFPOINTS
 62
     0
100
AcDbPoint
 10
9.36593965108322
 20
11.71929954288545
 30
0.0
  0
POINT
  5
389
330
35D
100
AcDbEntity
  8
DEFPOINTS
 62
     0
100
AcDbPoint
 10
10.92518279090346
 20
11.71929954288545
 30
0.0
  0
POINT
  5
38A
330
35D
100
AcDbEntity
  8
DEFPOINTS
 62
     0
100
AcDbPoint
 10
10.92518279090346
 20
11.50564778793089
 30
0.0
  0
ENDBLK
  5
369
330
35D
100
AcDbEntity
  8
0
100
AcDbBlockEnd
  0
BLOCK
  5
375
330
36A
100
AcDbEntity
  8
0
100
AcDbBlockBegin
  2
*D10
 70
     1
 10
0.0
 20
0.0
 30
0.0
  3
*D10
  1

  0
LINE
  5
38B
330
36A
100
AcDbEntity
  8
ADPDIM
 62
     0
370
    -2
100
AcDbLine
 10
9.491361442900217
 20
11.83922373780387
 30
0.0
 11
9.491361442900217
 21
11.53119896792379
 31
0.0
  0
LINE
  5
38C
330
36A
100
AcDbEntity
  8
ADPDIM
 62
     0
370
    -2
100
AcDbLine
 10
10.80386144290021
 20
11.83922373780387
 30
0.0
 11
10.80386144290021
 21
11.53119896792379
 31
0.0
  0
LINE
  5
38D
330
36A
100
AcDbEntity
  8
ADPDIM
 62
     0
370
    -2
100
AcDbLine
 10
9.311361442900217
 20
11.71119896792379
 30
0.0
 11
9.131361442900217
 21
11.71119896792379
 31
0.0
  0
LINE
  5
38E
330
36A
100
AcDbEntity
  8
ADPDIM
 62
     0
370
    -2
100
AcDbLine
 10
10.98386144290022
 20
11.71119896792379
 30
0.0
 11
11.16386144290022
 21
11.71119896792379
 31
0.0
  0
SOLID
  5
38F
330
36A
100
AcDbEntity
  8
ADPDIM
 62
     0
100
AcDbTrace
 10
9.311361442900217
 20
11.74119896792379
 30
0.0
 11
9.311361442900217
 21
11.68119896792379
 31
0.0
 12
9.491361442900217
 22
11.71119896792379
 32
0.0
 13
9.491361442900217
 23
11.71119896792379
 33
0.0
  0
SOLID
  5
390
330
36A
100
AcDbEntity
  8
ADPDIM
 62
     0
100
AcDbTrace
 10
10.98386144290022
 20
11.74119896792379
 30
0.0
 11
10.98386144290022
 21
11.68119896792379
 31
0.0
 12
10.80386144290021
 22
11.71119896792379
 32
0.0
 13
10.80386144290021
 23
11.71119896792379
 33
0.0
  0
MTEXT
  5
391
330
36A
100
AcDbEntity
  8
ADPDIM
 62
     0
100
AcDbMText
 10
10.14761144290021
 20
11.71119896792379
 30
0.0
 40
0.125
 41
0.0
 71
     5
 72
     1
  1
\A1;1 5/16
 73
     1
 44
1.0
1001
ACAD
1000
MTEXTBEGIN
1070
    73
1070
     1
1070
    44
1040
1.0
1070
    74
1070
     0
1000
MTEXTEND
1000
ACAD_MTEXT_BBRT
1070
    91
1071
        3
1070
    46
1040
1.25
1070
    64
1071
-1027028792
1070
    65
1000

1070
    66
1000

1070
   442
1071
  5161020
1000
ACAD_MTEXT_BERT
  0
POINT
  5
392
330
36A
100
AcDbEntity
  8
DEFPOINTS
 62
     0
100
AcDbPoint
 10
9.491361442900217
 20
11.90172373780387
 30
0.0
  0
POINT
  5
393
330
36A
100
AcDbEntity
  8
DEFPOINTS
 62
     0
100
AcDbPoint
 10
10.80386144290021
 20
11.90172373780387
 30
0.0
  0
POINT
  5
394
330
36A
100
AcDbEntity
  8
DEFPOINTS
 62
     0
100
AcDbPoint
 10
10.80386144290021
 20
11.71119896792379
 30
0.0
  0
ENDBLK
  5
376
330
36A
100
AcDbEntity
  8
0
100
AcDbBlockEnd
  0
BLOCK
  5
3A1
330
396
100
AcDbEntity
  8
0
 62
     3
100
AcDbBlockBegin
  2
*D11
 70
     1
 10
0.0
 20
0.0
 30
0.0
  3
*D11
  1

  0
LINE
  5
3AA
330
396
100
AcDbEntity
  8
ADPDIM
 62
     0
370
    -2
100
AcDbLine
 10
8.390772996284507
 20
12.51430404749804
 30
0.0
 11
8.889948208504739
 21
12.51430404749804
 31
0.0
  0
LINE
  5
3AB
330
396
100
AcDbEntity
  8
ADPDIM
 62
     0
370
    -2
100
AcDbLine
 10
8.390772996284507
 20
9.01430404749804
 30
0.0
 11
8.889948208504737
 21
9.01430404749804
 31
0.0
  0
LINE
  5
3AC
330
396
100
AcDbEntity
  8
ADPDIM
 62
     0
370
    -2
100
AcDbLine
 10
8.709948208504739
 20
12.33430404749804
 30
0.0
 11
8.709948208504737
 21
11.00013738083137
 31
0.0
  0
LINE
  5
3AD
330
396
100
AcDbEntity
  8
ADPDIM
 62
     0
370
    -2
100
AcDbLine
 10
8.709948208504737
 20
9.194304047498039
 30
0.0
 11
8.709948208504737
 21
10.5284707141647
 31
0.0
  0
SOLID
  5
3AE
330
396
100
AcDbEntity
  8
ADPDIM
 62
     0
100
AcDbTrace
 10
8.67994820850474
 20
12.33430404749804
 30
0.0
 11
8.739948208504738
 21
12.33430404749804
 31
0.0
 12
8.709948208504739
 22
12.51430404749804
 32
0.0
 13
8.709948208504739
 23
12.51430404749804
 33
0.0
  0
SOLID
  5
3AF
330
396
100
AcDbEntity
  8
ADPDIM
 62
     0
100
AcDbTrace
 10
8.679948208504738
 20
9.194304047498039
 30
0.0
 11
8.739948208504737
 21
9.194304047498039
 31
0.0
 12
8.709948208504737
 22
9.01430404749804
 32
0.0
 13
8.709948208504737
 23
9.01430404749804
 33
0.0
  0
MTEXT
  5
3B0
330
396
100
AcDbEntity
  8
ADPDIM
 62
     0
100
AcDbMText
 10
8.709948208504735
 20
10.76430404749804
 30
0.0
 40
0.125
 41
0.0
 71
     5
 72
     1
  1
\A1;3{\H1.000000x;\S1/2;}
 73
     1
 44
1.0
1001
ACAD
1000
MTEXTBEGIN
1070
    73
1070
     1
1070
    44
1040
1.0
1070
    74
1070
     0
1000
MTEXTEND
  0
POINT
  5
3B1
330
396
100
AcDbEntity
  8
DEFPOINTS
 62
     0
100
AcDbPoint
 10
8.328272996284507
 20
12.51430404749804
 30
0.0
  0
POINT
  5
3B2
330
396
100
AcDbEntity
  8
DEFPOINTS
 62
     0
100
AcDbPoint
 10
8.328272996284507
 20
9.01430404749804
 30
0.0
  0
POINT
  5
3B3
330
396
100
AcDbEntity
  8
DEFPOINTS
 62
     0
100
AcDbPoint
 10
8.709948208504737
 20
9.01430404749804
 30
0.0
  0
ENDBLK
  5
3A2
330
396
100
AcDbEntity
  8
0
 62
     3
100
AcDbBlockEnd
  0
ENDSEC
  0
SECTION
  2
ENTITIES
  0
LINE
  5
45
330
1E
100
AcDbEntity
  8
ADP1DETAIL
100
AcDbLine
 10
8.293619308842894
 20
11.75659036828412
 30
0.0
 11
5.333283353023825
 21
11.75282882323226
 31
0.0
  0
LINE
  5
46
330
1E
100
AcDbEntity
  8
ADP1DETAIL
100
AcDbLine
 10
8.331571024256714
 20
12.51652745336925
 30
0.0
 11
5.636365544804649
 21
12.513102795835
 31
0.0
  0
ARC
  5
47
330
1E
100
AcDbEntity
  8
ADP1DETAIL
100
AcDbCircle
 10
2.71935750718884
 20
9.489842030294525
 30
0.0
 40
0.650903213795713
100
AcDbArc
 50
189.8356271283888
 51
318.6900791043541
  0
ARC
  5
48
330
1E
100
AcDbEntity
  8
ADP1DETAIL
100
AcDbCircle
 10
2.633917064332166
 20
9.59528685878411
 30
0.0
 40
0.3131551776648765
100
AcDbArc
 50
205.0776146826623
 51
308.3040279265366
  0
ARC
  5
49
330
1E
100
AcDbEntity
  8
ADP1DETAIL
100
AcDbCircle
 10
2.222104404551019
 20
9.394798969335152
 30
0.0
 40
0.1449848541763643
100
AcDbArc
 50
27.86231700736966
 51
186.3937779398233
  0
LWPOLYLINE
  5
4A
330
1E
100
AcDbEntity
  8
ADP1DETAIL
100
AcDbPolyline
 90
        3
 70
     0
 43
0.0
 10
3.780201161242997
 20
10.48913019309527
 42
-0.3222064453947681
 10
5.506228558503277
 20
11.38296580953363
 10
5.589993998501936
 20
11.75315501210834
  0
ARC
  5
4F
330
1E
100
AcDbEntity
  8
ADP1DETAIL
100
AcDbCircle
 10
5.384640128073074
 20
10.09958094203788
 30
0.0
 40
1.654045366674435
100
AcDbArc
 50
91.77927372240061
 51
168.6261877582021
  0
ARC
  5
50
330
1E
100
AcDbEntity
  8
ADP1DETAIL
100
AcDbCircle
 10
5.400217473885861
 20
10.29033379829398
 30
0.0
 40
2.235278042622033
100
AcDbArc
 50
83.93561626712887
 51
127.4674164528084
  0
ARC
  5
51
330
1E
100
AcDbEntity
  8
ADP1DETAIL
100
AcDbCircle
 10
0.1132767168534728
 20
11.13700268665736
 30
0.0
 40
3.250361210614085
100
AcDbArc
 50
326.6380461273076
 51
353.4024163604068
  0
ARC
  5
52
330
1E
100
AcDbEntity
  8
ADP1DETAIL
100
AcDbCircle
 10
1.641518169363484
 20
10.49217683811753
 30
0.0
 40
2.12259862235358
100
AcDbArc
 50
317.5728215787537
 51
358.2072816140685
  0
ARC
  5
54
330
1E
100
AcDbEntity
  8
ADP1DETAIL
100
AcDbCircle
 10
5.388915475113369
 20
10.50269244311654
 30
0.0
 40
2.063358620359138
100
AcDbArc
 50
130.807311351275
 51
172.7369715497832
  0
LINE
  5
58
330
1E
100
AcDbEntity
  8
ADP1DETAIL
100
AcDbLine
 10
9.096072083480722
 20
12.04392471364322
 30
0.0
 11
9.715935097179356
 21
9.408101162526268
 31
0.0
  0
LINE
  5
5B
330
1E
100
AcDbEntity
  8
ADP1DETAIL
100
AcDbLine
 10
8.331571024256714
 20
11.79459033760778
 30
0.0
 11
8.331571024256714
 21
12.51652745336925
 31
0.0
  0
ARC
  5
5C
330
1E
100
AcDbEntity
  8
ADP1DETAIL
100
AcDbCircle
 10
8.293571024256713
 20
11.79459033760778
 30
0.0
 40
0.038
100
AcDbArc
 50
270.0728027302128
 51
0.0
  0
LINE
  5
63
330
1E
100
AcDbEntity
  8
ADP1DETAIL
100
AcDbLine
 10
11.21603919679042
 20
12.04392471364322
 30
0.0
 11
10.59617618309178
 21
9.408101162526268
 31
0.0
  0
ARC
  5
64
330
1E
100
AcDbEntity
  8
ADP1DETAIL
100
AcDbCircle
 10
10.00013751430958
 20
9.572145989408261
 30
0.0
 40
0.6182012616538485
100
AcDbArc
 50
288.4293395674571
 51
344.6117567390325
  0
ARC
  5
65
330
1E
100
AcDbEntity
  8
ADP1DETAIL
100
AcDbCircle
 10
10.31197376596156
 20
9.572145989408261
 30
0.0
 40
0.6182012616538485
100
AcDbArc
 50
195.3882432609676
 51
251.5706604325429
  0
ARC
  5
66
330
1E
100
AcDbEntity
  8
ADP1DETAIL
100
AcDbCircle
 10
10.15605564013557
 20
9.104238923276685
 30
0.0
 40
0.125
100
AcDbArc
 50
251.5706604325429
 51
288.429339567457
  0
TEXT
  5
7B
330
1E
100
AcDbEntity
  8
ADPDIM
100
AcDbText
 10
0.2572540186778873
 20
8.035078282068955
 30
0.0
 40
0.125
  1
J U L I U S  B L U M  &  C O . ,  I N C .      ( 8 0 0 )  5 2 6 - 6 2 9 3        W W W . J U L I U S B L U M . C O M        P A R T  N o .  4 5 3 5 - B
 41
1.25
  7
ARIAL_WIDE
 72
     1
 11
6.952769025499168
 21
8.160078282068955
 31
0.0
100
AcDbText
 73
     3
  0
DIMENSION
  5
333
330
1E
100
AcDbEntity
  8
ADPDIM
100
AcDbDimension
  2
*D8
 10
11.2143971736944
 20
12.74464747006974
 30
0.0
 11
10.1518485113192
 21
12.74464747006974
 31
0.0
 70
    32
 71
     5
 42
2.125097324750395
  3
Standard
100
AcDbAlignedDimension
 13
9.089299848944005
 23
12.10694327697789
 33
0.0
 14
11.2143971736944
 24
12.10694327697789
 34
0.0
100
AcDbRotatedDimension
1001
ACAD
1000
DSTYLE
1002
{
1070
   276
1070
     2
1070
   277
1070
     5
1070
    69
1070
     1
1070
   140
1040
0.125
1002
}
  0
DIMENSION
  5
334
330
1E
100
AcDbEntity
  8
ADPDIM
100
AcDbDimension
  2
*D9
 10
10.92518279090346
 20
11.50564778793089
 30
0.0
 11
10.14556122099334
 21
11.50564778793089
 31
0.0
 70
    32
 71
     5
 42
1.559243139820239
  3
Standard
100
AcDbAlignedDimension
 13
9.36593965108322
 23
11.71929954288545
 33
0.0
 14
10.92518279090346
 24
11.71929954288545
 34
0.0
100
AcDbRotatedDimension
1001
ACAD
1000
DSTYLE
1002
{
1070
   276
1070
     2
1070
   277
1070
     5
1070
    69
1070
     1
1070
   140
1040
0.125
1002
}
  0
ARC
  5
335
330
1E
100
AcDbEntity
  8
0
100
AcDbCircle
 10
9.472783405598853
 20
11.91927934027518
 30
0.0
 40
0.02
100
AcDbArc
 50
270.0
 51
0.0
  0
ARC
  5
336
330
1E
100
AcDbEntity
  8
0
100
AcDbCircle
 10
10.14928340559885
 20
9.760279340275182
 30
0.0
 40
2.75
100
AcDbArc
 50
89.99779716773023
 51
107.9704458166849
  0
ARC
  5
337
330
1E
100
AcDbEntity
  8
0
100
AcDbCircle
 10
9.399783405598853
 20
12.07992928736141
 30
0.0
 40
0.313
100
AcDbArc
 50
108.428824157406
 51
256.8348879005549
  0
ARC
  5
338
330
1E
100
AcDbEntity
  8
0
100
AcDbCircle
 10
9.387783405598852
 20
11.87927934027518
 30
0.0
 40
0.02
100
AcDbArc
 50
90.0
 51
180.0
  0
ARC
  5
339
330
1E
100
AcDbEntity
  8
0
100
AcDbCircle
 10
9.335783405598853
 20
11.80631459477352
 30
0.0
 40
0.032
100
AcDbArc
 50
256.8348879005555
 51
0.0
  0
LINE
  5
33A
330
1E
100
AcDbEntity
  8
0
100
AcDbLine
 10
9.367783405598853
 20
11.87927934027518
 30
0.0
 11
9.367783405598853
 21
11.80631459477352
 31
0.0
  0
LINE
  5
33B
330
1E
100
AcDbEntity
  8
0
100
AcDbLine
 10
9.472783405598853
 20
11.89927934027518
 30
0.0
 11
9.387783405598852
 21
11.89927934027518
 31
0.0
  0
LINE
  5
33C
330
1E
100
AcDbEntity
  8
0
100
AcDbLine
 10
9.617783405598853
 20
12.12927934027518
 30
0.0
 11
9.617783405598853
 21
12.04427934027518
 31
0.0
  0
LINE
  5
33D
330
1E
100
AcDbEntity
  8
0
100
AcDbLine
 10
10.68099486231667
 20
12.12927934027518
 30
0.0
 11
10.68099486231667
 21
12.04427934027518
 31
0.0
  0
ARC
  5
33E
330
1E
100
AcDbEntity
  8
0
100
AcDbCircle
 10
10.89899486231667
 20
12.07992928736141
 30
0.0
 40
0.313
100
AcDbArc
 50
283.1651120994451
 51
71.57117584259395
  0
LINE
  5
33F
330
1E
100
AcDbEntity
  8
0
100
AcDbLine
 10
9.492783405598853
 20
12.02427934027518
 30
0.0
 11
9.492783405598853
 21
11.91927934027518
 31
0.0
  0
ARC
  5
340
330
1E
100
AcDbEntity
  8
0
100
AcDbCircle
 10
9.597783405598853
 20
12.04427934027518
 30
0.0
 40
0.02
100
AcDbArc
 50
270.0
 51
0.0
  0
LINE
  5
341
330
1E
100
AcDbEntity
  8
0
100
AcDbLine
 10
9.597783405598853
 20
12.02427934027518
 30
0.0
 11
9.492783405598853
 21
12.02427934027518
 31
0.0
  0
LINE
  5
342
330
1E
100
AcDbEntity
  8
0
100
AcDbLine
 10
10.70099486231667
 20
12.02427934027518
 30
0.0
 11
10.80599486231667
 21
12.02427934027518
 31
0.0
  0
ARC
  5
343
330
1E
100
AcDbEntity
  8
0
100
AcDbCircle
 10
10.70099486231667
 20
12.04427934027518
 30
0.0
 40
0.02
100
AcDbArc
 50
180.0
 51
270.0
  0
ARC
  5
344
330
1E
100
AcDbEntity
  8
0
100
AcDbCircle
 10
10.96299486231667
 20
11.80631459477352
 30
0.0
 40
0.032
100
AcDbArc
 50
180.0
 51
283.1651120994445
  0
ARC
  5
345
330
1E
100
AcDbEntity
  8
0
100
AcDbCircle
 10
10.82599486231667
 20
11.91927934027518
 30
0.0
 40
0.02
100
AcDbArc
 50
180.0
 51
270.0
  0
ARC
  5
346
330
1E
100
AcDbEntity
  8
0
100
AcDbCircle
 10
10.91099486231668
 20
11.87927934027518
 30
0.0
 40
0.02
100
AcDbArc
 50
0.0
 51
90.0
  0
LINE
  5
347
330
1E
100
AcDbEntity
  8
0
100
AcDbLine
 10
10.93099486231667
 20
11.87927934027518
 30
0.0
 11
10.93099486231667
 21
11.80631459477352
 31
0.0
  0
LINE
  5
348
330
1E
100
AcDbEntity
  8
0
100
AcDbLine
 10
10.82599486231667
 20
11.89927934027518
 30
0.0
 11
10.91099486231668
 21
11.89927934027518
 31
0.0
  0
LINE
  5
349
330
1E
100
AcDbEntity
  8
0
100
AcDbLine
 10
10.80599486231667
 20
12.02427934027518
 30
0.0
 11
10.80599486231667
 21
11.91927934027518
 31
0.0
  0
ARC
  5
34A
330
1E
100
AcDbEntity
  8
0
100
AcDbCircle
 10
10.14949486231667
 20
9.760279340275182
 30
0.0
 40
2.75
100
AcDbArc
 50
72.02955418331504
 51
90.00220283226978
  0
LINE
  5
34B
330
1E
100
AcDbEntity
  8
0
100
AcDbLine
 10
10.14949486231667
 20
12.14927934027518
 30
0.0
 11
10.66099486231667
 21
12.14927934027518
 31
0.0
  0
LINE
  5
34C
330
1E
100
AcDbEntity
  8
0
100
AcDbLine
 10
10.14928340559885
 20
12.14927934027518
 30
0.0
 11
9.637783405598852
 21
12.14927934027518
 31
0.0
  0
ARC
  5
34D
330
1E
100
AcDbEntity
  8
0
100
AcDbCircle
 10
9.637783405598852
 20
12.12927934027518
 30
0.0
 40
0.02
100
AcDbArc
 50
90.0
 51
180.0
  0
ARC
  5
34E
330
1E
100
AcDbEntity
  8
0
100
AcDbCircle
 10
10.66099486231667
 20
12.12927934027518
 30
0.0
 40
0.02
100
AcDbArc
 50
0.0
 51
90.0
  0
DIMENSION
  5
34F
330
1E
100
AcDbEntity
  8
ADPDIM
 62
     3
100
AcDbDimension
  2
*D10
 10
10.80386144290021
 20
11.71119896792379
 30
0.0
 11
10.14761144290021
 21
11.71119896792379
 31
0.0
 70
    32
 71
     5
 42
1.3125
  3
Standard
100
AcDbAlignedDimension
 13
9.491361442900217
 23
11.90172373780387
 33
0.0
 14
10.80386144290021
 24
11.90172373780387
 34
0.0
100
AcDbRotatedDimension
1001
ACAD
1000
DSTYLE
1002
{
1070
   276
1070
     2
1070
   277
1070
     5
1070
    69
1070
     1
1070
   140
1040
0.125
1002
}
  0
DIMENSION
  5
395
330
1E
100
AcDbEntity
  8
ADPDIM
 62
     3
100
AcDbDimension
  2
*D11
 10
8.709948208504737
 20
9.01430404749804
 30
0.0
 11
8.709948208504735
 21
10.76430404749804
 31
0.0
 70
    32
 71
     5
 42
3.5
  3
Standard
100
AcDbAlignedDimension
 13
8.328272996284507
 23
12.51430404749804
 33
0.0
 14
8.328272996284507
 24
9.01430404749804
 34
0.0
 50
90.0
100
AcDbRotatedDimension
1001
ACAD
1000
DSTYLE
1002
{
1070
   140
1040
0.125
1070
   271
1070
     5
1070
   272
1070
     5
1070
   273
1070
     5
1070
   277
1070
     5
1070
   279
1070
     2
1002
}
  0
ENDSEC
  0
SECTION
  2
OBJECTS
  0
DICTIONARY
  5
C
330
0
100
AcDbDictionary
281
     1
  3
ACAD_COLOR
350
21F
  3
ACAD_GROUP
350
D
  3
ACAD_LAYOUT
350
19
  3
ACAD_MATERIAL
350
20A
  3
ACAD_MLINESTYLE
350
16
  3
ACAD_PLOTSETTINGS
350
18
  3
ACAD_PLOTSTYLENAME
350
E
  3
ACAD_TABLESTYLE
350
220
  3
ACAD_VISUALSTYLE
350
20E
  3
AcDbVariableDictionary
350
EC
  3
DWGPROPS
350
3D1
  0
DICTIONARY
  5
B7
330
1E
100
AcDbDictionary
280
     1
281
     1
  3
ACAD_LAYOUTSELFREF
360
206
  0
DICTIONARY
  5
B9
330
1A
100
AcDbDictionary
280
     1
281
     1
  3
ACAD_LAYOUTSELFREF
360
205
  0
DICTIONARY
  5
21F
102
{ACAD_REACTORS
330
C
102
}
330
C
100
AcDbDictionary
281
     1
  0
DICTIONARY
  5
D
102
{ACAD_REACTORS
330
C
102
}
330
C
100
AcDbDictionary
281
     1
  0
DICTIONARY
  5
19
102
{ACAD_REACTORS
330
C
102
}
330
C
100
AcDbDictionary
281
     1
  3
Layout1
350
1D
  3
Model
350
21
  0
DICTIONARY
  5
20A
102
{ACAD_REACTORS
330
C
102
}
330
C
100
AcDbDictionary
281
     1
  3
ByBlock
350
20C
  3
ByLayer
350
20B
  3
Global
350
20D
  0
DICTIONARY
  5
16
102
{ACAD_REACTORS
330
C
102
}
330
C
100
AcDbDictionary
281
     1
  3
Standard
350
17
  0
DICTIONARY
  5
18
102
{ACAD_REACTORS
330
C
102
}
330
C
100
AcDbDictionary
281
     1
  0
ACDBDICTIONARYWDFLT
  5
E
102
{ACAD_REACTORS
330
C
102
}
330
C
100
AcDbDictionary
281
     1
  3
Normal
350
F
100
AcDbDictionaryWithDefault
340
F
  0
DICTIONARY
  5
220
102
{ACAD_REACTORS
330
C
102
}
330
C
100
AcDbDictionary
281
     1
  3
Standard
350
221
  0
DICTIONARY
  5
20E
102
{ACAD_REACTORS
330
C
102
}
330
C
100
AcDbDictionary
281
     1
  3
2dWireframe
350
214
  3
3D Hidden
350
216
  3
3dWireframe
350
215
  3
Basic
350
213
  3
Brighten
350
21A
  3
ColorChange
350
21E
  3
Conceptual
350
217
  3
Dim
350
219
  3
Facepattern
350
21D
  3
Flat
350
20F
  3
FlatWithEdges
350
210
  3
Gouraud
350
211
  3
GouraudWithEdges
350
212
  3
Linepattern
350
21C
  3
Realistic
350
218
  3
Thicken
350
21B
  0
DICTIONARY
  5
EC
102
{ACAD_REACTORS
330
C
102
}
330
C
100
AcDbDictionary
281
     1
  3
CTABLESTYLE
350
3CE
  3
DIMASSOC
350
EE
  3
HIDETEXT
350
ED
  3
INDEXCTL
350
3D0
  3
SORTENTS
350
3CF
  0
XRECORD
  5
3D1
102
{ACAD_REACTORS
330
C
102
}
330
C
100
AcDbXrecord
280
     1
  1
DWGPROPS COOKIE
  2

  3

  4

  6

  7

  8
Yu Hu
  9

300
=
301
=
302
=
303
=
304
=
305
=
306
=
307
=
308
=
309
=
 40
0.0387093287037037
 41
2450358.981739387
 42
2453970.003719943
  1

 90
        0
  0
XRECORD
  5
206
102
{ACAD_REACTORS
330
B7
102
}
330
B7
100
AcDbXrecord
280
     1
340
1E
  0
XRECORD
  5
205
102
{ACAD_REACTORS
330
B9
102
}
330
B9
100
AcDbXrecord
280
     1
340
1A
  0
LAYOUT
  5
1D
102
{ACAD_XDICTIONARY
360
3D2
102
}
102
{ACAD_REACTORS
330
19
102
}
330
19
100
AcDbPlotSettings
  1

  2
Fax
  4

  6

 40
0.0
 41
0.0
 42
0.0
 43
0.0
 44
0.0
 45
0.0
 46
0.0
 47
0.0
 48
0.0
 49
0.0
140
0.0
141
0.0
142
1.0
143
1.0
 70
   688
 72
     0
 73
     0
 74
     5
  7
Default R14 pen assignments.ctb
 75
    16
147
1.0
148
0.0
149
0.0
100
AcDbLayout
  1
Layout1
 70
     1
 71
     1
 10
-21.61579290080726
 20
-19.96805058542324
 11
-9.61579290080726
 21
-10.96805058542324
 12
0.0
 22
0.0
 32
0.0
 14
1.000000000000000E+20
 24
1.000000000000000E+20
 34
1.000000000000000E+20
 15
-1.000000000000000E+20
 25
-1.000000000000000E+20
 35
-1.000000000000000E+20
146
0.0
 13
0.0
 23
0.0
 33
0.0
 16
1.0
 26
0.0
 36
0.0
 17
0.0
 27
1.0
 37
0.0
 76
     0
330
1A
  0
LAYOUT
  5
21
102
{ACAD_XDICTIONARY
360
3D4
102
}
102
{ACAD_REACTORS
330
19
102
}
330
19
100
AcDbPlotSettings
  1

  2
Fax
  4

  6

 40
0.0
 41
0.0
 42
0.0
 43
0.0
 44
0.0
 45
0.0
 46
0.0
 47
0.0
 48
0.0
 49
0.0
140
0.0
141
0.0
142
1.0
143
1.0
 70
  1712
 72
     0
 73
     0
 74
     0
  7
Default R14 pen assignments.ctb
 75
     0
147
1.0
148
0.0
149
0.0
100
AcDbLayout
  1
Model
 70
     1
 71
     0
 10
0.0
 20
0.0
 11
12.0
 21
9.0
 12
0.0
 22
0.0
 32
0.0
 14
0.0
 24
0.0
 34
0.0
 15
0.0
 25
0.0
 35
0.0
146
0.0
 13
0.0
 23
0.0
 33
0.0
 16
1.0
 26
0.0
 36
0.0
 17
0.0
 27
1.0
 37
0.0
 76
     0
330
1E
331
1D3
  0
MATERIAL
  5
20C
102
{ACAD_XDICTIONARY
360
3D8
102
}
102
{ACAD_REACTORS
330
20A
102
}
330
20A
100
AcDbMaterial
  1
ByBlock
  0
MATERIAL
  5
20B
102
{ACAD_XDICTIONARY
360
3D6
102
}
102
{ACAD_REACTORS
330
20A
102
}
330
20A
100
AcDbMaterial
  1
ByLayer
  0
MATERIAL
  5
20D
102
{ACAD_XDICTIONARY
360
3DA
102
}
102
{ACAD_REACTORS
330
20A
102
}
330
20A
100
AcDbMaterial
  1
Global
  0
MLINESTYLE
  5
17
102
{ACAD_REACTORS
330
16
102
}
330
16
100
AcDbMlineStyle
  2
STANDARD
 70
     0
  3

 62
   256
 51
90.0
 52
90.0
 71
     2
 49
0.5
 62
   256
  6
BYLAYER
 49
-0.5
 62
   256
  6
BYLAYER
  0
ACDBPLACEHOLDER
  5
F
102
{ACAD_REACTORS
330
E
102
}
330
E
  0
TABLESTYLE
  5
221
102
{ACAD_XDICTIONARY
360
3DC
102
}
102
{ACAD_REACTORS
330
220
102
}
330
220
100
AcDbTableStyle
  3
Standard
 70
     0
 71
     0
 40
0.06
 41
0.06
280
     0
281
     0
  7
STANDARD
140
0.18
170
     2
 62
     0
 63
     7
283
     0
274
    -2
284
     1
 64
     0
275
    -2
285
     1
 65
     0
276
    -2
286
     1
 66
     0
277
    -2
287
     1
 67
     0
278
    -2
288
     1
 68
     0
279
    -2
289
     1
 69
     0
  7
STANDARD
140
0.25
170
     5
 62
     0
 63
     7
283
     0
274
    -2
284
     1
 64
     0
275
    -2
285
     1
 65
     0
276
    -2
286
     1
 66
     0
277
    -2
287
     1
 67
     0
278
    -2
288
     1
 68
     0
279
    -2
289
     1
 69
     0
  7
STANDARD
140
0.18
170
     5
 62
     0
 63
     7
283
     0
274
    -2
284
     1
 64
     0
275
    -2
285
     1
 65
     0
276
    -2
286
     1
 66
     0
277
    -2
287
     1
 67
     0
278
    -2
288
     1
 68
     0
279
    -2
289
     1
 69
     0
  0
VISUALSTYLE
  5
214
102
{ACAD_REACTORS
330
20E
102
}
330
20E
100
AcDbVisualStyle
  2
2dWireframe
 70
     4
 71
     0
 72
     2
 73
     0
 90
        0
 40
-0.6
 41
-30.0
 62
     5
 63
     7
 74
     1
 91
        4
 64
     7
 65
   257
 75
     1
175
     1
 42
1.0
 92
        0
 66
   257
 43
1.0
 76
     1
 77
     6
 78
     2
 67
     7
 79
     5
170
     0
171
     0
290
     0
174
     0
 93
        1
 44
0.0
173
     0
291
     0
 45
0.0
1001
ACAD
1000
AcDbSavedByObjectVersion
1070
     0
  0
VISUALSTYLE
  5
216
102
{ACAD_REACTORS
330
20E
102
}
330
20E
100
AcDbVisualStyle
  2
3D Hidden
 70
     6
 71
     1
 72
     2
 73
     2
 90
        0
 40
-0.6
 41
-30.0
 62
     5
 63
     7
 74
     2
 91
        2
 64
     7
 65
   257
 75
     2
175
     1
 42
40.0
 92
        0
 66
   257
 43
1.0
 76
     1
 77
     6
 78
     2
 67
     7
 79
     3
170
     0
171
     0
290
     0
174
     0
 93
        1
 44
0.0
173
     0
291
     0
 45
0.0
1001
ACAD
1000
AcDbSavedByObjectVersion
1070
     0
  0
VISUALSTYLE
  5
215
102
{ACAD_REACTORS
330
20E
102
}
330
20E
100
AcDbVisualStyle
  2
3dWireframe
 70
     5
 71
     0
 72
     2
 73
     0
 90
        0
 40
-0.6
 41
-30.0
 62
     5
 63
     7
 74
     1
 91
        4
 64
     7
 65
   257
 75
     1
175
     1
 42
1.0
 92
        0
 66
   257
 43
1.0
 76
     1
 77
     6
 78
     2
 67
     7
 79
     5
170
     0
171
     0
290
     0
174
     0
 93
        1
 44
0.0
173
     0
291
     0
 45
0.0
1001
ACAD
1000
AcDbSavedByObjectVersion
1070
     0
  0
VISUALSTYLE
  5
213
102
{ACAD_REACTORS
330
20E
102
}
330
20E
100
AcDbVisualStyle
  2
Basic
 70
     7
 71
     1
 72
     0
 73
     1
 90
        0
 40
-0.6
 41
-30.0
 62
     5
 63
     7
 74
     0
 91
        4
 64
     7
 65
   257
 75
     1
175
     1
 42
1.0
 92
        8
 66
     7
 43
1.0
 76
     1
 77
     6
 78
     2
 67
     7
 79
     5
170
     0
171
     0
290
     0
174
     0
 93
        1
 44
0.0
173
     0
291
     1
 45
0.0
1001
ACAD
1000
AcDbSavedByObjectVersion
1070
     0
  0
VISUALSTYLE
  5
21A
102
{ACAD_REACTORS
330
20E
102
}
330
20E
100
AcDbVisualStyle
  2
Brighten
 70
    12
 71
     2
 72
     2
 73
     0
 90
        0
 40
-0.6
 41
-30.0
 62
     5
 63
     7
 74
     1
 91
        4
 64
     7
 65
   257
 75
     1
175
     1
 42
1.0
 92
        8
 66
     7
 43
1.0
 76
     1
 77
     6
 78
     2
 67
     7
 79
     5
170
     0
171
     0
290
     0
174
     0
 93
        1
 44
50.0
173
     0
291
     1
 45
0.0
1001
ACAD
1000
AcDbSavedByObjectVersion
1070
     0
  0
VISUALSTYLE
  5
21E
102
{ACAD_REACTORS
330
20E
102
}
330
20E
100
AcDbVisualStyle
  2
ColorChange
 70
    16
 71
     2
 72
     2
 73
     3
 90
        0
 40
-0.6
 41
-30.0
 62
     5
 63
     8
 74
     1
 91
        4
 64
     7
 65
   257
 75
     1
175
     1
 42
1.0
 92
        8
 66
     8
 43
1.0
 76
     1
 77
     6
 78
     2
 67
     7
 79
     5
170
     0
171
     0
290
     0
174
     0
 93
        1
 44
0.0
173
     0
291
     1
 45
0.0
1001
ACAD
1000
AcDbSavedByObjectVersion
1070
     0
  0
VISUALSTYLE
  5
217
102
{ACAD_REACTORS
330
20E
102
}
330
20E
100
AcDbVisualStyle
  2
Conceptual
 70
     9
 71
     3
 72
     2
 73
     0
 90
        0
 40
-0.6
 41
-30.0
 62
     5
 63
     7
 74
     2
 91
        2
 64
     7
 65
   257
 75
     1
175
     1
 42
40.0
 92
        8
 66
     7
 43
1.0
 76
     1
 77
     6
 78
     2
 67
     7
 79
     3
170
     0
171
     0
290
     0
174
     0
 93
        1
 44
0.0
173
     0
291
     0
 45
0.0
1001
ACAD
1000
AcDbSavedByObjectVersion
1070
     0
  0
VISUALSTYLE
  5
219
102
{ACAD_REACTORS
330
20E
102
}
330
20E
100
AcDbVisualStyle
  2
Dim
 70
    11
 71
     2
 72
     2
 73
     0
 90
        0
 40
-0.6
 41
-30.0
 62
     5
 63
     7
 74
     1
 91
        4
 64
     7
 65
   257
 75
     1
175
     1
 42
1.0
 92
        8
 66
     7
 43
1.0
 76
     1
 77
     6
 78
     2
 67
     7
 79
     5
170
     0
171
     0
290
     0
174
     0
 93
        1
 44
-50.0
173
     0
291
     1
 45
0.0
1001
ACAD
1000
AcDbSavedByObjectVersion
1070
     0
  0
VISUALSTYLE
  5
21D
102
{ACAD_REACTORS
330
20E
102
}
330
20E
100
AcDbVisualStyle
  2
Facepattern
 70
    15
 71
     2
 72
     2
 73
     0
 90
        0
 40
-0.6
 41
-30.0
 62
     5
 63
     7
 74
     1
 91
        4
 64
     7
 65
   257
 75
     1
175
     1
 42
1.0
 92
        8
 66
     7
 43
1.0
 76
     1
 77
     6
 78
     2
 67
     7
 79
     5
170
     0
171
     0
290
     0
174
     0
 93
        1
 44
0.0
173
     0
291
     1
 45
0.0
1001
ACAD
1000
AcDbSavedByObjectVersion
1070
     0
  0
VISUALSTYLE
  5
20F
102
{ACAD_REACTORS
330
20E
102
}
330
20E
100
AcDbVisualStyle
  2
Flat
 70
     0
 71
     2
 72
     1
 73
     1
 90
        2
 40
-0.6
 41
30.0
 62
     5
 63
     7
 74
     0
 91
        4
 64
     7
 65
   257
 75
     1
175
     1
 42
1.0
 92
        8
 66
     7
 43
1.0
 76
     1
 77
     6
 78
     2
 67
     7
 79
     5
170
     0
171
     0
290
     0
174
     0
 93
       13
 44
0.0
173
     0
291
     1
 45
0.0
1001
ACAD
1000
AcDbSavedByObjectVersion
1070
     0
  0
VISUALSTYLE
  5
210
102
{ACAD_REACTORS
330
20E
102
}
330
20E
100
AcDbVisualStyle
  2
FlatWithEdges
 70
     1
 71
     2
 72
     1
 73
     1
 90
        2
 40
-0.6
 41
30.0
 62
     5
 63
     7
 74
     1
 91
        4
 64
     7
 65
   257
 75
     1
175
     1
 42
1.0
 92
        0
 66
   257
 43
1.0
 76
     1
 77
     6
 78
     2
 67
     7
 79
     5
170
     0
171
     0
290
     0
174
     0
 93
       13
 44
0.0
173
     0
291
     1
 45
0.0
1001
ACAD
1000
AcDbSavedByObjectVersion
1070
     0
  0
VISUALSTYLE
  5
211
102
{ACAD_REACTORS
330
20E
102
}
330
20E
100
AcDbVisualStyle
  2
Gouraud
 70
     2
 71
     2
 72
     2
 73
     1
 90
        2
 40
-0.6
 41
30.0
 62
     5
 63
     7
 74
     0
 91
        4
 64
     7
 65
   257
 75
     1
175
     1
 42
1.0
 92
        0
 66
     7
 43
1.0
 76
     1
 77
     6
 78
     2
 67
     7
 79
     5
170
     0
171
     0
290
     0
174
     0
 93
       13
 44
0.0
173
     0
291
     1
 45
0.0
1001
ACAD
1000
AcDbSavedByObjectVersion
1070
     0
  0
VISUALSTYLE
  5
212
102
{ACAD_REACTORS
330
20E
102
}
330
20E
100
AcDbVisualStyle
  2
GouraudWithEdges
 70
     3
 71
     2
 72
     2
 73
     1
 90
        2
 40
-0.6
 41
30.0
 62
     5
 63
     7
 74
     1
 91
        4
 64
     7
 65
   257
 75
     1
175
     1
 42
1.0
 92
        0
 66
   257
 43
1.0
 76
     1
 77
     6
 78
     2
 67
     7
 79
     5
170
     0
171
     0
290
     0
174
     0
 93
       13
 44
0.0
173
     0
291
     1
 45
0.0
1001
ACAD
1000
AcDbSavedByObjectVersion
1070
     0
  0
VISUALSTYLE
  5
21C
102
{ACAD_REACTORS
330
20E
102
}
330
20E
100
AcDbVisualStyle
  2
Linepattern
 70
    14
 71
     2
 72
     2
 73
     0
 90
        0
 40
-0.6
 41
-30.0
 62
     5
 63
     7
 74
     1
 91
        4
 64
     7
 65
   257
 75
     7
175
     7
 42
1.0
 92
        8
 66
     7
 43
1.0
 76
     1
 77
     6
 78
     2
 67
     7
 79
     5
170
     0
171
     0
290
     0
174
     0
 93
        1
 44
0.0
173
     0
291
     1
 45
0.0
1001
ACAD
1000
AcDbSavedByObjectVersion
1070
     0
  0
VISUALSTYLE
  5
218
102
{ACAD_REACTORS
330
20E
102
}
330
20E
100
AcDbVisualStyle
  2
Realistic
 70
     8
 71
     2
 72
     2
 73
     0
 90
        0
 40
-0.6
 41
-30.0
 62
     5
 63
     7
 74
     1
 91
        0
 64
     7
 65
   257
 75
     1
175
     1
 42
1.0
 92
        8
 66
     8
 43
1.0
 76
     1
 77
     6
 78
     2
 67
     7
 79
     5
170
     0
171
     0
290
     0
174
     0
 93
       13
 44
0.0
173
     0
291
     0
 45
0.0
1001
ACAD
1000
AcDbSavedByObjectVersion
1070
     0
  0
VISUALSTYLE
  5
21B
102
{ACAD_REACTORS
330
20E
102
}
330
20E
100
AcDbVisualStyle
  2
Thicken
 70
    13
 71
     2
 72
     2
 73
     0
 90
        0
 40
-0.6
 41
-30.0
 62
     5
 63
     7
 74
     1
 91
        4
 64
     7
 65
   257
 75
     1
175
     1
 42
1.0
 92
       12
 66
     7
 43
1.0
 76
     1
 77
     6
 78
     2
 67
     7
 79
     5
170
     0
171
     0
290
     0
174
     0
 93
        1
 44
0.0
173
     0
291
     1
 45
0.0
1001
ACAD
1000
AcDbSavedByObjectVersion
1070
     0
  0
DICTIONARYVAR
  5
3CE
102
{ACAD_REACTORS
330
EC
102
}
330
EC
100
DictionaryVariables
280
     0
  1
STANDARD
  0
DICTIONARYVAR
  5
EE
102
{ACAD_REACTORS
330
EC
102
}
330
EC
100
DictionaryVariables
280
     0
  1
2
  0
DICTIONARYVAR
  5
ED
102
{ACAD_REACTORS
330
EC
102
}
330
EC
100
DictionaryVariables
280
     0
  1
1
  0
DICTIONARYVAR
  5
3D0
102
{ACAD_REACTORS
330
EC
102
}
330
EC
100
DictionaryVariables
280
     0
  1
0
  0
DICTIONARYVAR
  5
3CF
102
{ACAD_REACTORS
330
EC
102
}
330
EC
100
DictionaryVariables
280
     0
  1
127
  0
DICTIONARY
  5
3D2
330
1D
100
AcDbDictionary
280
     1
281
     1
  3
ACAD_XREC_ROUNDTRIP
360
3D3
  0
DICTIONARY
  5
3D4
330
21
100
AcDbDictionary
280
     1
281
     1
  3
ACAD_XREC_ROUNDTRIP
360
3D5
  0
DICTIONARY
  5
3D8
330
20C
100
AcDbDictionary
280
     1
281
     1
  3
ACAD_XREC_ROUNDTRIP
360
3D9
  0
DICTIONARY
  5
3D6
330
20B
100
AcDbDictionary
280
     1
281
     1
  3
ACAD_XREC_ROUNDTRIP
360
3D7
  0
DICTIONARY
  5
3DA
330
20D
100
AcDbDictionary
280
     1
281
     1
  3
ACAD_XREC_ROUNDTRIP
360
3DB
  0
DICTIONARY
  5
3DC
330
221
100
AcDbDictionary
280
     1
281
     1
  3
ACAD_XREC_ROUNDTRIP
360
3DD
  0
XRECORD
  5
3D3
102
{ACAD_REACTORS
330
3D2
102
}
330
3D2
100
AcDbXrecord
280
     1
102
SHADEPLOT
 70
     0
102
SHADEPLOTRESLEVEL
 70
     2
102
SHADEPLOTCUSTOMDPI
 70
   300
  0
XRECORD
  5
3D5
102
{ACAD_REACTORS
330
3D4
102
}
330
3D4
100
AcDbXrecord
280
     1
102
SHADEPLOT
 70
     0
102
SHADEPLOTRESLEVEL
 70
     2
102
SHADEPLOTCUSTOMDPI
 70
   300
  0
XRECORD
  5
3D9
102
{ACAD_REACTORS
330
3D8
102
}
330
3D8
100
AcDbXrecord
280
     1
102
MATERIAL
148
0.0
149
0.0
149
0.0
 93
        0
 94
       63
282
     0
 72
     1
 77
     1
171
     1
175
     1
179
     1
273
     0
  0
XRECORD
  5
3D7
102
{ACAD_REACTORS
330
3D6
102
}
330
3D6
100
AcDbXrecord
280
     1
102
MATERIAL
148
0.0
149
0.0
149
0.0
 93
        0
 94
       63
282
     0
 72
     1
 77
     1
171
     1
175
     1
179
     1
273
     0
  0
XRECORD
  5
3DB
102
{ACAD_REACTORS
330
3DA
102
}
330
3DA
100
AcDbXrecord
280
     1
102
MATERIAL
148
0.0
149
0.0
149
0.0
 93
        0
 94
       63
282
     0
 72
     1
 77
     1
171
     1
175
     1
179
     1
273
     0
  0
XRECORD
  5
3DD
102
{ACAD_REACTORS
330
3DC
102
}
330
3DC
100
AcDbXrecord
280
     1
102
ACAD_ROUNDTRIP_PRE2007_TABLESTYLE
 90
      512
 91
        0
  1

 92
      512
 93
        0
  2

 94
      512
 95
        0
  3

  0
ENDSEC
  0
EOF
