  0
SECTION
  2
HEADER
  9
$ACADVER
  1
AC1014
  9
$ACADMAINTVER
 70
     9
  9
$DWGCODEPAGE
  3
ANSI_1252
  9
$INSBASE
 10
26.45246639480988
 20
-9.15527045137259
 30
0.0
  9
$EXTMIN
 10
18.98981159615281
 20
-10.15850224058949
 30
0.0
  9
$EXTMAX
 10
32.04126964526605
 20
-8.056571993594406
 30
0.0
  9
$LIMMIN
 10
0.0
 20
0.0
  9
$LIMMAX
 10
36.0
 20
36.0
  9
$ORTHOMODE
 70
     1
  9
$REGENMODE
 70
     1
  9
$FILLMODE
 70
     1
  9
$QTEXTMODE
 70
     0
  9
$MIRRTEXT
 70
     1
  9
$DRAGMODE
 70
     0
  9
$LTSCALE
 40
1.0
  9
$OSMODE
 70
    37
  9
$ATTMODE
 70
     1
  9
$TEXTSIZE
 40
0.2
  9
$TRACEWID
 40
0.05
  9
$TEXTSTYLE
  7
STANDARD
  9
$CLAYER
  8
ADP1DETAIL
  9
$CELTYPE
  6
BYLAYER
  9
$CECOLOR
 62
   256
  9
$CELTSCALE
 40
1.0
  9
$DELOBJ
 70
     1
  9
$DISPSILH
 70
     0
  9
$DIMSCALE
 40
1.0
  9
$DIMASZ
 40
0.125
  9
$DIMEXO
 40
0.0625
  9
$DIMDLI
 40
0.38
  9
$DIMRND
 40
0.0
  9
$DIMDLE
 40
0.0
  9
$DIMEXE
 40
0.18
  9
$DIMTP
 40
0.0
  9
$DIMTM
 40
0.0
  9
$DIMTXT
 40
0.125
  9
$DIMCEN
 40
0.1875
  9
$DIMTSZ
 40
0.125
  9
$DIMTOL
 70
     0
  9
$DIMLIM
 70
     0
  9
$DIMTIH
 70
     0
  9
$DIMTOH
 70
     0
  9
$DIMSE1
 70
     0
  9
$DIMSE2
 70
     0
  9
$DIMTAD
 70
     0
  9
$DIMZIN
 70
     3
  9
$DIMBLK
  1

  9
$DIMASO
 70
     1
  9
$DIMSHO
 70
     1
  9
$DIMPOST
  1

  9
$DIMAPOST
  1

  9
$DIMALT
 70
     0
  9
$DIMALTD
 70
     1
  9
$DIMALTF
 40
25.4
  9
$DIMLFAC
 40
1.0
  9
$DIMTOFL
 70
     0
  9
$DIMTVP
 40
0.0
  9
$DIMTIX
 70
     0
  9
$DIMSOXD
 70
     0
  9
$DIMSAH
 70
     0
  9
$DIMBLK1
  1

  9
$DIMBLK2
  1

  9
$DIMSTYLE
  2
STANDARD
  9
$DIMCLRD
 70
     0
  9
$DIMCLRE
 70
     0
  9
$DIMCLRT
 70
     0
  9
$DIMTFAC
 40
1.0
  9
$DIMGAP
 40
0.125
  9
$DIMJUST
 70
     0
  9
$DIMSD1
 70
     0
  9
$DIMSD2
 70
     0
  9
$DIMTOLJ
 70
     1
  9
$DIMTZIN
 70
     0
  9
$DIMALTZ
 70
     0
  9
$DIMALTTZ
 70
     0
  9
$DIMFIT
 70
     3
  9
$DIMUPT
 70
     0
  9
$DIMUNIT
 70
     2
  9
$DIMDEC
 70
     4
  9
$DIMTDEC
 70
     4
  9
$DIMALTU
 70
     2
  9
$DIMALTTD
 70
     2
  9
$DIMTXSTY
  7
STANDARD
  9
$DIMAUNIT
 70
     0
  9
$LUNITS
 70
     5
  9
$LUPREC
 70
     4
  9
$SKETCHINC
 40
0.1
  9
$FILLETRAD
 40
0.062
  9
$AUNITS
 70
     0
  9
$AUPREC
 70
     0
  9
$MENU
  1
acad
  9
$ELEVATION
 40
0.0
  9
$PELEVATION
 40
0.0
  9
$THICKNESS
 40
0.0
  9
$LIMCHECK
 70
     0
  9
$BLIPMODE
 70
     0
  9
$CHAMFERA
 40
0.0
  9
$CHAMFERB
 40
0.0
  9
$CHAMFERC
 40
0.0
  9
$CHAMFERD
 40
0.0
  9
$SKPOLY
 70
     0
  9
$TDCREATE
 40
2450406.638810370
  9
$TDUPDATE
 40
2452297.087547198
  9
$TDINDWG
 40
0.0404901505
  9
$TDUSRTIMER
 40
0.0404901505
  9
$USRTIMER
 70
     1
  9
$ANGBASE
 50
0.0
  9
$ANGDIR
 70
     0
  9
$PDMODE
 70
     0
  9
$PDSIZE
 40
0.0
  9
$PLINEWID
 40
0.0
  9
$COORDS
 70
     2
  9
$SPLFRAME
 70
     0
  9
$SPLINETYPE
 70
     6
  9
$SPLINESEGS
 70
     8
  9
$ATTDIA
 70
     0
  9
$ATTREQ
 70
     1
  9
$HANDLING
 70
 22529
  9
$HANDSEED
  5
22F
  9
$SURFTAB1
 70
     6
  9
$SURFTAB2
 70
     6
  9
$SURFTYPE
 70
     6
  9
$SURFU
 70
     6
  9
$SURFV
 70
     6
  9
$UCSNAME
  2

  9
$UCSORG
 10
0.0
 20
0.0
 30
0.0
  9
$UCSXDIR
 10
1.0
 20
0.0
 30
0.0
  9
$UCSYDIR
 10
0.0
 20
1.0
 30
0.0
  9
$PUCSNAME
  2

  9
$PUCSORG
 10
0.0
 20
0.0
 30
0.0
  9
$PUCSXDIR
 10
1.0
 20
0.0
 30
0.0
  9
$PUCSYDIR
 10
0.0
 20
1.0
 30
0.0
  9
$USERI1
 70
     0
  9
$USERI2
 70
     0
  9
$USERI3
 70
     0
  9
$USERI4
 70
     0
  9
$USERI5
 70
     0
  9
$USERR1
 40
0.0
  9
$USERR2
 40
0.0
  9
$USERR3
 40
0.0
  9
$USERR4
 40
0.0
  9
$USERR5
 40
0.0
  9
$WORLDVIEW
 70
     1
  9
$SHADEDGE
 70
     3
  9
$SHADEDIF
 70
    70
  9
$TILEMODE
 70
     1
  9
$MAXACTVP
 70
    15
  9
$PINSBASE
 10
0.0008545028977096
 20
1.250283272183907
 30
0.0
  9
$PLIMCHECK
 70
     0
  9
$PEXTMIN
 10
1.000000000000000E+20
 20
1.000000000000000E+20
 30
1.000000000000000E+20
  9
$PEXTMAX
 10
-1.000000000000000E+20
 20
-1.000000000000000E+20
 30
-1.000000000000000E+20
  9
$PLIMMIN
 10
0.0
 20
0.0
  9
$PLIMMAX
 10
12.0
 20
9.0
  9
$UNITMODE
 70
     0
  9
$VISRETAIN
 70
     0
  9
$PLINEGEN
 70
     0
  9
$PSLTSCALE
 70
     1
  9
$TREEDEPTH
 70
  3020
  9
$PICKSTYLE
 70
     1
  9
$CMLSTYLE
  2
STANDARD
  9
$CMLJUST
 70
     0
  9
$CMLSCALE
 40
1.0
  9
$PROXYGRAPHICS
 70
     1
  9
$MEASUREMENT
 70
     0
  0
ENDSEC
  0
SECTION
  2
CLASSES
  0
CLASS
  1
ACDBDICTIONARYWDFLT
  2
AcDbDictionaryWithDefault
  3
AutoCAD 2000
 90
        0
280
     0
281
     0
  0
CLASS
  1
ACDBPLACEHOLDER
  2
AcDbPlaceHolder
  3
AutoCAD 2000
 90
        0
280
     0
281
     0
  0
CLASS
  1
LAYOUT
  2
AcDbLayout
  3
AutoCAD 2000
 90
        0
280
     0
281
     0
  0
CLASS
  1
DICTIONARYVAR
  2
AcDbDictionaryVar
  3
AutoCAD 2000
 90
        0
280
     0
281
     0
  0
CLASS
  1
LONG_TRANSACTION
  2
AcDbLongTransaction
  3
AutoCAD 2000
 90
        0
280
     0
281
     0
  0
CLASS
  1
LWPOLYLINE
  2
AcDbPolyline
  3
AutoCAD 2000
 90
        0
280
     0
281
     1
  0
CLASS
  1
HATCH
  2
AcDbHatch
  3
AutoCAD 2000
 90
        0
280
     0
281
     1
  0
CLASS
  1
XRECORD
  2
AcDbXrecord
  3
AutoCAD 2000
 90
        0
280
     0
281
     0
  0
CLASS
  1
LONG_TRANSACTION
  2
AcDbLongTransaction
  3
AutoCAD 2000
 90
        0
280
     0
281
     0
  0
CLASS
  1
LWPOLYLINE
  2
AcDbPolyline
  3
AutoCAD 2000
 90
        0
280
     0
281
     1
  0
CLASS
  1
HATCH
  2
AcDbHatch
  3
AutoCAD 2000
 90
        0
280
     0
281
     1
  0
CLASS
  1
XRECORD
  2
AcDbXrecord
  3
AutoCAD 2000
 90
        0
280
     0
281
     0
  0
CLASS
  1
LONG_TRANSACTION
  2
AcDbLongTransaction
  3
AutoCAD 2000
 90
        0
280
     0
281
     0
  0
CLASS
  1
LWPOLYLINE
  2
AcDbPolyline
  3
AutoCAD 2000
 90
        0
280
     0
281
     1
  0
CLASS
  1
HATCH
  2
AcDbHatch
  3
AutoCAD 2000
 90
        0
280
     0
281
     1
  0
CLASS
  1
XRECORD
  2
AcDbXrecord
  3
AutoCAD 2000
 90
        0
280
     0
281
     0
  0
CLASS
  1
LONG_TRANSACTION
  2
AcDbLongTransaction
  3
AutoCAD 2000
 90
        0
280
     0
281
     0
  0
CLASS
  1
LWPOLYLINE
  2
AcDbPolyline
  3
AutoCAD 2000
 90
        0
280
     0
281
     1
  0
CLASS
  1
HATCH
  2
AcDbHatch
  3
AutoCAD 2000
 90
        0
280
     0
281
     1
  0
CLASS
  1
XRECORD
  2
AcDbXrecord
  3
AutoCAD 2000
 90
        0
280
     0
281
     0
  0
CLASS
  1
LONG_TRANSACTION
  2
AcDbLongTransaction
  3
AutoCAD 2000
 90
        0
280
     0
281
     0
  0
CLASS
  1
LWPOLYLINE
  2
AcDbPolyline
  3
AutoCAD 2000
 90
        0
280
     0
281
     1
  0
CLASS
  1
HATCH
  2
AcDbHatch
  3
AutoCAD 2000
 90
        0
280
     0
281
     1
  0
CLASS
  1
XRECORD
  2
AcDbXrecord
  3
AutoCAD 2000
 90
        0
280
     0
281
     0
  0
ENDSEC
  0
SECTION
  2
TABLES
  0
TABLE
  2
VPORT
  5
8
330
0
100
AcDbSymbolTable
 70
     2
  0
VPORT
  5
20C
330
8
100
AcDbSymbolTableRecord
100
AcDbViewportTableRecord
  2
*ACTIVE
 70
     0
 10
0.0
 20
0.0
 11
1.0
 21
1.0
 12
25.52655783594847
 22
-9.107429929302249
 13
0.0
 23
0.0
 14
0.5740882589684922
 24
0.5740882589684922
 15
0.5
 25
0.5
 16
0.0
 26
0.0
 36
1.0
 17
0.0
 27
0.0
 37
0.0
 40
8.365595802020575
 41
1.570528967254408
 42
50.0
 43
0.0
 44
0.0
 50
0.0
 51
0.0
 71
     0
 72
   100
 73
     1
 74
     0
 75
     0
 76
     0
 77
     0
 78
     0
  0
ENDTAB
  0
TABLE
  2
LTYPE
  5
5
330
0
100
AcDbSymbolTable
 70
     1
  0
LTYPE
  5
12
330
5
100
AcDbSymbolTableRecord
100
AcDbLinetypeTableRecord
  2
BYBLOCK
 70
     0
  3

 72
    65
 73
     0
 40
0.0
  0
LTYPE
  5
13
330
5
100
AcDbSymbolTableRecord
100
AcDbLinetypeTableRecord
  2
BYLAYER
 70
     0
  3

 72
    65
 73
     0
 40
0.0
  0
LTYPE
  5
14
330
5
100
AcDbSymbolTableRecord
100
AcDbLinetypeTableRecord
  2
CONTINUOUS
 70
     0
  3
Solid line
 72
    65
 73
     0
 40
0.0
  0
ENDTAB
  0
TABLE
  2
LAYER
  5
2
330
0
100
AcDbSymbolTable
 70
     4
  0
LAYER
  5
F
330
2
100
AcDbSymbolTableRecord
100
AcDbLayerTableRecord
  2
0
 70
     0
 62
     7
  6
CONTINUOUS
  0
LAYER
  5
5E
330
2
100
AcDbSymbolTableRecord
100
AcDbLayerTableRecord
  2
ADP1DETAIL
 70
     0
 62
     7
  6
CONTINUOUS
  0
LAYER
  5
60
330
2
100
AcDbSymbolTableRecord
100
AcDbLayerTableRecord
  2
DEFPOINTS
 70
     0
 62
     7
  6
CONTINUOUS
  0
LAYER
  5
61
330
2
100
AcDbSymbolTableRecord
100
AcDbLayerTableRecord
  2
ADPDIM
 70
     0
 62
     3
  6
CONTINUOUS
  0
ENDTAB
  0
TABLE
  2
STYLE
  5
3
330
0
100
AcDbSymbolTable
 70
     2
  0
STYLE
  5
10
330
3
100
AcDbSymbolTableRecord
100
AcDbTextStyleTableRecord
  2
STANDARD
 70
     0
 40
0.0
 41
1.0
 50
0.0
 71
     0
 42
0.2
  3
txt
  4

  0
STYLE
  5
C8
330
3
100
AcDbSymbolTableRecord
100
AcDbTextStyleTableRecord
  2
ARIAL_WIDE
 70
     0
 40
0.0
 41
1.25
 50
0.0
 71
     0
 42
0.2
  3
ARIAL.TTF
  4

1001
ACAD
1000
Arial
1071
       34
  0
ENDTAB
  0
TABLE
  2
VIEW
  5
6
330
0
100
AcDbSymbolTable
 70
     0
  0
ENDTAB
  0
TABLE
  2
UCS
  5
7
330
0
100
AcDbSymbolTable
 70
     0
  0
ENDTAB
  0
TABLE
  2
APPID
  5
9
330
0
100
AcDbSymbolTable
 70
     1
  0
APPID
  5
11
330
9
100
AcDbSymbolTableRecord
100
AcDbRegAppTableRecord
  2
ACAD
 70
     0
  0
ENDTAB
  0
TABLE
  2
DIMSTYLE
  5
A
330
0
100
AcDbSymbolTable
 70
     1
  0
DIMSTYLE
105
B9
330
A
100
AcDbSymbolTableRecord
100
AcDbDimStyleTableRecord
  2
STANDARD
 70
     0
  3

  4

  5

  6

  7

 40
1.0
 41
0.18
 42
0.0625
 43
0.38
 44
0.18
 45
0.0
 46
0.0
 47
0.0
 48
0.0
140
0.18
141
0.09
142
0.0
143
25.4
144
1.0
145
0.0
146
1.0
147
0.09
 71
     0
 72
     0
 73
     1
 74
     1
 75
     0
 76
     0
 77
     0
 78
     0
170
     0
171
     2
172
     0
173
     0
174
     0
175
     0
176
     0
177
     0
178
     0
270
     2
271
     4
272
     4
273
     2
274
     2
340
10
275
     0
280
     0
281
     0
282
     0
283
     1
284
     0
285
     0
286
     0
287
     3
288
     0
  0
ENDTAB
  0
TABLE
  2
BLOCK_RECORD
  5
1
330
0
100
AcDbSymbolTable
 70
     3
  0
BLOCK_RECORD
  5
18
102
{ACAD_XDICTIONARY
360
11D
102
}
330
1
100
AcDbSymbolTableRecord
100
AcDbBlockTableRecord
  2
*MODEL_SPACE
  0
BLOCK_RECORD
  5
15
102
{ACAD_XDICTIONARY
360
11B
102
}
330
1
100
AcDbSymbolTableRecord
100
AcDbBlockTableRecord
  2
*PAPER_SPACE
  0
BLOCK_RECORD
  5
56
330
1
100
AcDbSymbolTableRecord
100
AcDbBlockTableRecord
  2
4532
  0
BLOCK_RECORD
  5
59
330
1
100
AcDbSymbolTableRecord
100
AcDbBlockTableRecord
  2
*D1
  0
BLOCK_RECORD
  5
5A
330
1
100
AcDbSymbolTableRecord
100
AcDbBlockTableRecord
  2
*D2
  0
ENDTAB
  0
ENDSEC
  0
SECTION
  2
BLOCKS
  0
BLOCK
  5
64
330
18
100
AcDbEntity
  8
0
100
AcDbBlockBegin
  2
*MODEL_SPACE
 70
     0
 10
0.0
 20
0.0
 30
0.0
  3
*MODEL_SPACE
  1

  0
ENDBLK
  5
65
330
18
100
AcDbEntity
  8
0
100
AcDbBlockEnd
  0
BLOCK
  5
62
330
15
100
AcDbEntity
 67
     1
  8
0
100
AcDbBlockBegin
  2
*PAPER_SPACE
 70
     0
 10
0.0
 20
0.0
 30
0.0
  3
*PAPER_SPACE
  1

  0
ENDBLK
  5
63
330
15
100
AcDbEntity
 67
     1
  8
0
100
AcDbBlockEnd
  0
BLOCK
  5
67
330
56
100
AcDbEntity
  8
0
100
AcDbBlockBegin
  2
4532
 70
     0
 10
0.0
 20
0.0
 30
0.0
  3
4532
  1

  0
LINE
  5
68
330
56
100
AcDbEntity
  8
0
100
AcDbLine
 10
2.087655328681531
 20
0.1995000000000004
 30
0.0
 11
2.00613955995454
 21
0.1995000000000004
 31
0.0
  0
ARC
  5
69
330
56
100
AcDbEntity
  8
0
100
AcDbCircle
 10
2.24815532868153
 20
-0.310331808599198
 30
0.0
 40
0.25
100
AcDbArc
 50
127.6115467749952
 51
176.2132164301837
  0
LINE
  5
6A
330
56
100
AcDbEntity
  8
0
100
AcDbLine
 10
0.4226894650002074
 20
-0.1234999999999999
 30
0.0
 11
0.3281894650002073
 21
-0.1234999999999999
 31
0.0
  0
LINE
  5
6B
330
56
100
AcDbEntity
  8
0
100
AcDbLine
 10
0.2031894650002073
 20
-0.023499999999995
 30
0.0
 11
0.4226894650002074
 21
-0.0234999999999985
 31
0.0
  0
ARC
  5
6C
330
56
100
AcDbEntity
  8
0
100
AcDbCircle
 10
0.1840684293363139
 20
0.947784423378696
 30
0.0
 40
0.8480000000000025
100
AcDbArc
 50
271.2909784579442
 51
309.2171541471246
  0
ARC
  5
6D
330
56
100
AcDbEntity
  8
0
100
AcDbCircle
 10
0.1840684293363139
 20
0.947784423378696
 30
0.0
 40
0.7480000000000001
100
AcDbArc
 50
269.3219081697356
 51
308.0372918232562
  0
LINE
  5
6E
330
56
100
AcDbEntity
  8
0
100
AcDbLine
 10
0.0736894650002071
 20
0.1595866853147214
 30
0.0
 11
0.0736894650002071
 21
0.1795000000000009
 31
0.0
  0
LINE
  5
6F
330
56
100
AcDbEntity
  8
0
100
AcDbLine
 10
0.3081894650002077
 20
-0.1434999999999995
 30
0.0
 11
0.3081894650002077
 21
-0.292500000000004
 31
0.0
  0
ARC
  5
70
330
56
100
AcDbEntity
  8
0
100
AcDbCircle
 10
-0.0668105349997923
 20
-0.310331808599198
 30
0.0
 40
0.25
100
AcDbArc
 50
3.786783569816271
 51
52.38845322500472
  0
ARC
  5
71
330
56
100
AcDbEntity
  8
0
100
AcDbCircle
 10
0.2881894650002081
 20
-0.292500000000004
 30
0.0
 40
0.02
100
AcDbArc
 50
270.0
 51
0.000000000000007
  0
LINE
  5
72
330
56
100
AcDbEntity
  8
0
100
AcDbLine
 10
0.2881894650002081
 20
-0.3125000000000035
 30
0.0
 11
0.2025999818737105
 21
-0.3125
 31
0.0
  0
ARC
  5
73
330
56
100
AcDbEntity
  8
0
100
AcDbCircle
 10
0.2025999818737105
 20
-0.2925000000000004
 30
0.0
 40
0.02
100
AcDbArc
 50
183.7867835698177
 51
270.0
  0
ARC
  5
74
330
56
100
AcDbEntity
  8
0
100
AcDbCircle
 10
0.2025999818737105
 20
-0.2925000000000004
 30
0.0
 40
0.02
100
AcDbArc
 50
183.7867835698177
 51
270.0
  0
ARC
  5
75
330
56
100
AcDbEntity
  8
0
100
AcDbCircle
 10
0.1026894650002106
 20
0.0246681914008029
 30
0.0
 40
0.138
100
AcDbArc
 50
102.1308455010203
 51
262.9557306451093
  0
ARC
  5
76
330
56
100
AcDbEntity
  8
0
100
AcDbCircle
 10
0.3281894650002073
 20
-0.1434999999999995
 30
0.0
 40
0.02
100
AcDbArc
 50
90.0
 51
180.0
  0
LINE
  5
77
330
56
100
AcDbEntity
  8
0
100
AcDbLine
 10
0.1831894650002077
 20
0.0785000000000018
 30
0.0
 11
0.1831894650002077
 21
-0.0034999999999954
 31
0.0
  0
ARC
  5
78
330
56
100
AcDbEntity
  8
0
100
AcDbCircle
 10
0.2031894650002073
 20
0.0785000000000018
 30
0.0
 40
0.02
100
AcDbArc
 50
90.00000000000095
 51
180.0
  0
ARC
  5
79
330
56
100
AcDbEntity
  8
0
100
AcDbCircle
 10
0.2031894650002073
 20
-0.0034999999999954
 30
0.0
 40
0.02
100
AcDbArc
 50
180.0
 51
270.0
  0
ARC
  5
7A
330
56
100
AcDbEntity
  8
0
100
AcDbCircle
 10
0.0936894650002067
 20
0.1795000000000009
 30
0.0
 40
0.02
100
AcDbArc
 50
90.0
 51
180.0
  0
LINE
  5
7B
330
56
100
AcDbEntity
  8
0
100
AcDbLine
 10
0.0936894650002067
 20
0.1995000000000004
 30
0.0
 11
0.1752052337271976
 21
0.1995000000000004
 31
0.0
  0
LINE
  5
7C
330
56
100
AcDbEntity
  8
0
100
AcDbLine
 10
1.263655328681529
 20
0.1404999999999994
 30
0.0
 11
1.263655328681529
 21
0.3711276691882404
 31
0.0
  0
LINE
  5
7D
330
56
100
AcDbEntity
  8
0
100
AcDbLine
 10
0.9176894650002083
 20
0.1404999999999994
 30
0.0
 11
0.9176894650002083
 21
0.3711276691882404
 31
0.0
  0
ARC
  5
7E
330
56
100
AcDbEntity
  8
0
100
AcDbCircle
 10
1.997276364345424
 20
0.947784423378696
 30
0.0
 40
0.8480000000000025
100
AcDbArc
 50
230.7828458528753
 51
268.7090215420557
  0
ARC
  5
7F
330
56
100
AcDbEntity
  8
0
100
AcDbCircle
 10
1.997276364345424
 20
0.947784423378696
 30
0.0
 40
0.7480000000000001
100
AcDbArc
 50
231.9627081767437
 51
270.6780918302644
  0
LINE
  5
80
330
56
100
AcDbEntity
  8
0
100
AcDbLine
 10
1.091655328681529
 20
0.1204999999999998
 30
0.0
 11
1.24365532868153
 21
0.1204999999999998
 31
0.0
  0
ARC
  5
81
330
56
100
AcDbEntity
  8
0
100
AcDbCircle
 10
0.4226894650002074
 20
-0.0434999999999981
 30
0.0
 40
0.02
100
AcDbArc
 50
0.000000000000007
 51
89.99999999999918
  0
LINE
  5
82
330
56
100
AcDbEntity
  8
0
100
AcDbLine
 10
0.4426894650002069
 20
-0.0434999999999981
 30
0.0
 11
0.4426894650002069
 21
-0.1035000000000004
 31
0.0
  0
ARC
  5
83
330
56
100
AcDbEntity
  8
0
100
AcDbCircle
 10
0.4226894650002074
 20
-0.1035000000000004
 30
0.0
 40
0.02
100
AcDbArc
 50
270.0
 51
0.000000000000007
  0
ARC
  5
84
330
56
100
AcDbEntity
  8
0
100
AcDbCircle
 10
0.9376894650002078
 20
0.1404999999999994
 30
0.0
 40
0.02
100
AcDbArc
 50
180.0
 51
270.0
  0
LINE
  5
85
330
56
100
AcDbEntity
  8
0
100
AcDbLine
 10
1.089689465000208
 20
0.1204999999999998
 30
0.0
 11
0.9376894650002078
 21
0.1204999999999998
 31
0.0
  0
LINE
  5
86
330
56
100
AcDbEntity
  8
0
100
AcDbLine
 10
1.87315532868153
 20
-0.1434999999999995
 30
0.0
 11
1.87315532868153
 21
-0.292500000000004
 31
0.0
  0
ARC
  5
87
330
56
100
AcDbEntity
  8
0
100
AcDbCircle
 10
1.978744811808027
 20
-0.2925000000000004
 30
0.0
 40
0.02
100
AcDbArc
 50
270.0
 51
356.2132164301822
  0
ARC
  5
88
330
56
100
AcDbEntity
  8
0
100
AcDbCircle
 10
1.89315532868153
 20
-0.292500000000004
 30
0.0
 40
0.02
100
AcDbArc
 50
180.0
 51
270.0
  0
LINE
  5
89
330
56
100
AcDbEntity
  8
0
100
AcDbLine
 10
1.89315532868153
 20
-0.3125000000000035
 30
0.0
 11
1.978744811808027
 21
-0.3125
 31
0.0
  0
ARC
  5
8A
330
56
100
AcDbEntity
  8
0
100
AcDbCircle
 10
1.24365532868153
 20
0.1404999999999994
 30
0.0
 40
0.02
100
AcDbArc
 50
270.0
 51
0.0
  0
ARC
  5
8B
330
56
100
AcDbEntity
  8
0
100
AcDbCircle
 10
1.97815532868153
 20
-0.0034999999999954
 30
0.0
 40
0.02
100
AcDbArc
 50
270.0
 51
0.0
  0
ARC
  5
8C
330
56
100
AcDbEntity
  8
0
100
AcDbCircle
 10
1.97815532868153
 20
0.0785000000000018
 30
0.0
 40
0.02
100
AcDbArc
 50
0.0
 51
89.99999999999904
  0
LINE
  5
8D
330
56
100
AcDbEntity
  8
0
100
AcDbLine
 10
1.99815532868153
 20
0.0785000000000018
 30
0.0
 11
1.99815532868153
 21
-0.0034999999999954
 31
0.0
  0
ARC
  5
8E
330
56
100
AcDbEntity
  8
0
100
AcDbCircle
 10
1.85315532868153
 20
-0.1434999999999995
 30
0.0
 40
0.02
100
AcDbArc
 50
0.0
 51
90.0
  0
LINE
  5
8F
330
56
100
AcDbEntity
  8
0
100
AcDbLine
 10
1.75865532868153
 20
-0.1234999999999999
 30
0.0
 11
1.85315532868153
 21
-0.1234999999999999
 31
0.0
  0
LINE
  5
90
330
56
100
AcDbEntity
  8
0
100
AcDbLine
 10
1.738655328681531
 20
-0.0434999999999981
 30
0.0
 11
1.738655328681531
 21
-0.1035000000000004
 31
0.0
  0
ARC
  5
91
330
56
100
AcDbEntity
  8
0
100
AcDbCircle
 10
1.75865532868153
 20
-0.1035000000000004
 30
0.0
 40
0.02
100
AcDbArc
 50
180.0
 51
270.0
  0
ARC
  5
92
330
56
100
AcDbEntity
  8
0
100
AcDbCircle
 10
1.75865532868153
 20
-0.0434999999999981
 30
0.0
 40
0.02
100
AcDbArc
 50
90.00000000000083
 51
180.0
  0
LINE
  5
93
330
56
100
AcDbEntity
  8
0
100
AcDbLine
 10
1.97815532868153
 20
-0.023499999999995
 30
0.0
 11
1.75865532868153
 21
-0.0234999999999985
 31
0.0
  0
ARC
  5
94
330
56
100
AcDbEntity
  8
0
100
AcDbCircle
 10
1.091655328681529
 20
-0.1645000000000003
 30
0.0
 40
0.6890000000000001
100
AcDbArc
 50
49.6064883684774
 51
90.08173855605505
  0
ARC
  5
95
330
56
100
AcDbEntity
  8
0
100
AcDbCircle
 10
1.089689465000208
 20
-0.1645000000000003
 30
0.0
 40
0.5889999999999987
100
AcDbArc
 50
109.7206221552231
 51
129.0994027862871
  0
ARC
  5
96
330
56
100
AcDbEntity
  8
0
100
AcDbCircle
 10
1.089689465000208
 20
-0.1645000000000003
 30
0.0
 40
0.6890000000000001
100
AcDbArc
 50
89.91826144394496
 51
130.3935116315225
  0
ARC
  5
97
330
56
100
AcDbEntity
  8
0
100
AcDbCircle
 10
0.8976894650002087
 20
0.3711276691882404
 30
0.0
 40
0.02
100
AcDbArc
 50
0.000000000000007
 51
109.7206221552172
  0
ARC
  5
98
330
56
100
AcDbEntity
  8
0
100
AcDbCircle
 10
1.283655328681529
 20
0.3711276691882404
 30
0.0
 40
0.02
100
AcDbArc
 50
70.27937784478272
 51
180.0
  0
ARC
  5
99
330
56
100
AcDbEntity
  8
0
100
AcDbCircle
 10
1.091655328681529
 20
-0.1645000000000003
 30
0.0
 40
0.5889999999999987
100
AcDbArc
 50
50.90059721371289
 51
70.27937784477687
  0
LINE
  5
9A
330
56
100
AcDbEntity
  8
0
100
AcDbLine
 10
2.107655328681531
 20
0.1595866853147214
 30
0.0
 11
2.107655328681531
 21
0.1795000000000009
 31
0.0
  0
ARC
  5
9B
330
56
100
AcDbEntity
  8
0
100
AcDbCircle
 10
2.078655328681527
 20
0.0246681914008029
 30
0.0
 40
0.138
100
AcDbArc
 50
277.0442693548906
 51
77.86915449897967
  0
ARC
  5
9C
330
56
100
AcDbEntity
  8
0
100
AcDbCircle
 10
2.087655328681531
 20
0.1795000000000009
 30
0.0
 40
0.02
100
AcDbArc
 50
0.0
 51
90.0
  0
ENDBLK
  5
9D
330
56
100
AcDbEntity
  8
0
100
AcDbBlockEnd
  0
BLOCK
  5
9E
330
59
100
AcDbEntity
  8
0
100
AcDbBlockBegin
  2
*D1
 70
     1
 10
0.0
 20
0.0
 30
0.0
  3
*D1
  1

  0
LINE
  5
9F
330
59
100
AcDbEntity
  8
0
  6
BYBLOCK
 62
     0
100
AcDbLine
 10
24.38471984802228
 20
-8.877917677504402
 30
0.0
 11
24.38471984802228
 21
-8.056571993594406
 31
0.0
  0
LINE
  5
A0
330
59
100
AcDbEntity
  8
0
  6
BYBLOCK
 62
     0
100
AcDbLine
 10
26.63556274859196
 20
-8.877917677504402
 30
0.0
 11
26.63556274859196
 21
-8.056571993594406
 31
0.0
  0
LINE
  5
A1
330
59
100
AcDbEntity
  8
0
  6
BYBLOCK
 62
     0
100
AcDbLine
 10
24.38471984802228
 20
-8.236571993594406
 30
0.0
 11
25.11430796497378
 21
-8.236571993594406
 31
0.0
  0
LINE
  5
A2
330
59
100
AcDbEntity
  8
0
  6
BYBLOCK
 62
     0
100
AcDbLine
 10
26.63556274859196
 20
-8.236571993594406
 30
0.0
 11
25.90597463164045
 21
-8.236571993594406
 31
0.0
  0
LINE
  5
A3
330
59
100
AcDbEntity
  8
0
  6
BYBLOCK
 62
     0
100
AcDbLine
 10
24.25971984802227
 20
-8.361571993594406
 30
0.0
 11
24.50971984802228
 21
-8.111571993594406
 31
0.0
  0
LINE
  5
A4
330
59
100
AcDbEntity
  8
0
  6
BYBLOCK
 62
     0
100
AcDbLine
 10
26.51056274859196
 20
-8.361571993594406
 30
0.0
 11
26.76056274859196
 21
-8.111571993594406
 31
0.0
  0
TEXT
  5
A5
330
59
100
AcDbEntity
  8
0
  6
BYBLOCK
 62
     0
100
AcDbText
 10
25.23930796497379
 20
-8.299071993594406
 30
0.0
 40
0.125
  1
2 1/4
 72
     1
 11
25.51014129830712
 21
-8.236571993594406
 31
0.0
100
AcDbText
 73
     2
  0
POINT
  5
A6
330
59
100
AcDbEntity
  8
DEFPOINTS
  6
BYBLOCK
 62
     0
100
AcDbPoint
 10
24.38471984802228
 20
-8.940417677504402
 30
0.0
  0
POINT
  5
A7
330
59
100
AcDbEntity
  8
DEFPOINTS
  6
BYBLOCK
 62
     0
100
AcDbPoint
 10
26.63556274859196
 20
-8.940417677504402
 30
0.0
  0
POINT
  5
A8
330
59
100
AcDbEntity
  8
DEFPOINTS
  6
BYBLOCK
 62
     0
100
AcDbPoint
 10
26.63556274859196
 20
-8.236571993594406
 30
0.0
  0
ENDBLK
  5
A9
330
59
100
AcDbEntity
  8
0
100
AcDbBlockEnd
  0
BLOCK
  5
AA
330
5A
100
AcDbEntity
  8
0
100
AcDbBlockBegin
  2
*D2
 70
     1
 10
0.0
 20
0.0
 30
0.0
  3
*D2
  1

  0
LINE
  5
AB
330
5A
100
AcDbEntity
  8
0
  6
BYBLOCK
 62
     0
100
AcDbLine
 10
24.73680709055394
 20
-9.342246829667747
 30
0.0
 11
24.73680709055394
 21
-9.673398569638148
 31
0.0
  0
LINE
  5
AC
330
5A
100
AcDbEntity
  8
0
  6
BYBLOCK
 62
     0
100
AcDbLine
 10
26.29605005787146
 20
-9.342246829667747
 30
0.0
 11
26.29605005787146
 21
-9.673398569638148
 31
0.0
  0
LINE
  5
AD
330
5A
100
AcDbEntity
  8
0
  6
BYBLOCK
 62
     0
100
AcDbLine
 10
24.73680709055394
 20
-9.493398569638149
 30
0.0
 11
25.0789285742127
 21
-9.493398569638149
 31
0.0
  0
LINE
  5
AE
330
5A
100
AcDbEntity
  8
0
  6
BYBLOCK
 62
     0
100
AcDbLine
 10
26.29605005787146
 20
-9.493398569638149
 30
0.0
 11
25.9539285742127
 21
-9.493398569638149
 31
0.0
  0
LINE
  5
AF
330
5A
100
AcDbEntity
  8
0
  6
BYBLOCK
 62
     0
100
AcDbLine
 10
24.61180709055394
 20
-9.618398569638149
 30
0.0
 11
24.86180709055394
 21
-9.368398569638149
 31
0.0
  0
LINE
  5
B0
330
5A
100
AcDbEntity
  8
0
  6
BYBLOCK
 62
     0
100
AcDbLine
 10
26.17105005787147
 20
-9.618398569638149
 30
0.0
 11
26.42105005787147
 21
-9.368398569638149
 31
0.0
  0
TEXT
  5
B1
330
5A
100
AcDbEntity
  8
0
  6
BYBLOCK
 62
     0
100
AcDbText
 10
25.2039285742127
 20
-9.555898569638149
 30
0.0
 40
0.125
  1
1 9/16
 72
     1
 11
25.5164285742127
 21
-9.493398569638149
 31
0.0
100
AcDbText
 73
     2
  0
POINT
  5
B2
330
5A
100
AcDbEntity
  8
DEFPOINTS
  6
BYBLOCK
 62
     0
100
AcDbPoint
 10
24.73680709055394
 20
-9.279746829667747
 30
0.0
  0
POINT
  5
B3
330
5A
100
AcDbEntity
  8
DEFPOINTS
  6
BYBLOCK
 62
     0
100
AcDbPoint
 10
26.29605005787146
 20
-9.279746829667747
 30
0.0
  0
POINT
  5
B4
330
5A
100
AcDbEntity
  8
DEFPOINTS
  6
BYBLOCK
 62
     0
100
AcDbPoint
 10
26.29605005787146
 20
-9.493398569638149
 30
0.0
  0
ENDBLK
  5
B5
330
5A
100
AcDbEntity
  8
0
100
AcDbBlockEnd
  0
ENDSEC
  0
SECTION
  2
ENTITIES
  0
DIMENSION
  5
B6
330
18
100
AcDbEntity
  8
ADPDIM
100
AcDbDimension
  2
*D2
 10
26.29605005787146
 20
-9.493398569638149
 30
0.0
 11
25.5164285742127
 21
-9.493398569638149
 31
0.0
100
AcDbAlignedDimension
 13
24.73680709055394
 23
-9.279746829667747
 33
0.0
 14
26.29605005787146
 24
-9.279746829667747
 34
0.0
100
AcDbRotatedDimension
  0
DIMENSION
  5
B7
330
18
100
AcDbEntity
  8
ADPDIM
100
AcDbDimension
  2
*D1
 10
26.63556274859196
 20
-8.236571993594406
 30
0.0
 11
25.51014129830712
 21
-8.236571993594406
 31
0.0
100
AcDbAlignedDimension
 13
24.38471984802228
 23
-8.940417677504402
 33
0.0
 14
26.63556274859196
 24
-8.940417677504402
 34
0.0
100
AcDbRotatedDimension
  0
INSERT
  5
B8
330
18
100
AcDbEntity
  8
ADP1DETAIL
100
AcDbBlockReference
  2
4532
 10
24.42486822386856
 20
-8.962643953484334
 30
0.0
  0
TEXT
  5
C9
330
18
100
AcDbEntity
  8
ADPDIM
100
AcDbText
 10
18.98981159615281
 20
-10.12149678356357
 30
0.0
 40
0.125
  1
J U L I U S  B L U M  &  C O . ,  I N C .      ( 8 0 0 )  5 2 6 - 6 2 9 3        W W W . J U L I U S B L U M . C O M        P A R T  N o .  4 5 3 2
 41
1.25
  7
ARIAL_WIDE
 72
     1
 11
25.51554062070943
 21
-9.996496783563573
 31
0.0
100
AcDbText
 73
     3
  0
ENDSEC
  0
SECTION
  2
OBJECTS
  0
DICTIONARY
  5
C
330
0
100
AcDbDictionary
  3
ACAD_GROUP
350
D
  3
ACAD_LAYOUT
350
C2
  3
ACAD_MLINESTYLE
350
E
  3
ACAD_PLOTSETTINGS
350
C3
  3
ACAD_PLOTSTYLENAME
350
C0
  3
ACDBHEADERROUNDTRIPXREC
350
20D
  3
ACDBVARIABLEDICTIONARY
350
123
  0
DICTIONARY
  5
11D
330
18
100
AcDbDictionary
280
     1
  3
ACAD_LAYOUTSELFREF
360
22E
  0
DICTIONARY
  5
11B
330
15
100
AcDbDictionary
280
     1
  3
ACAD_LAYOUTSELFREF
360
22D
  0
DICTIONARY
  5
D
102
{ACAD_REACTORS
330
C
102
}
330
C
100
AcDbDictionary
  0
DICTIONARY
  5
C2
102
{ACAD_REACTORS
330
C
102
}
330
C
100
AcDbDictionary
  0
DICTIONARY
  5
E
102
{ACAD_REACTORS
330
C
102
}
330
C
100
AcDbDictionary
  3
STANDARD
350
1B
  0
DICTIONARY
  5
C3
102
{ACAD_REACTORS
330
C
102
}
330
C
100
AcDbDictionary
  0
ACDBDICTIONARYWDFLT
  5
C0
102
{ACAD_REACTORS
330
C
102
}
330
C
100
AcDbDictionary
281
     1
  3
Normal
350
C1
100
AcDbDictionaryWithDefault
340
C1
  0
DICTIONARY
  5
20D
102
{ACAD_REACTORS
330
C
102
}
330
C
100
AcDbDictionary
  3
CEPSNTYPE
350
217
  3
FINGERPRINTGUID
350
218
  3
HYPERLINKBASE
350
210
  3
INSUNITS
350
216
  3
LAYOUTDICT
350
212
  3
LWETCUNION
350
215
  3
PLOTSETDICT
350
213
  3
PLOTSTYLNAMDICT
350
214
  3
PSVPSCALE
350
21A
  3
PUCSBASE
350
21D
  3
PUCSORGBACK
350
223
  3
PUCSORGBOTTOM
350
21F
  3
PUCSORGFRONT
350
222
  3
PUCSORGLEFT
350
220
  3
PUCSORGRIGHT
350
221
  3
PUCSORGTOP
350
21E
  3
PUCSORTHOREF
350
21B
  3
PUCSORTHOVIEW
350
21C
  3
STYLESHEET
350
211
  3
TSTACKALIGN
350
20E
  3
TSTACKSIZE
350
20F
  3
UCSBASE
350
226
  3
UCSORGBACK
350
22C
  3
UCSORGBOTTOM
350
228
  3
UCSORGFRONT
350
22B
  3
UCSORGLEFT
350
229
  3
UCSORGRIGHT
350
22A
  3
UCSORGTOP
350
227
  3
UCSORTHOREF
350
224
  3
UCSORTHOVIEW
350
225
  3
VERSIONGUID
350
219
  0
DICTIONARY
  5
123
102
{ACAD_REACTORS
330
C
102
}
330
C
100
AcDbDictionary
  3
DIMASSOC
350
124
  0
XRECORD
  5
22E
102
{ACAD_REACTORS
330
11D
102
}
330
11D
100
AcDbXrecord
340
18
  0
XRECORD
  5
22D
102
{ACAD_REACTORS
330
11B
102
}
330
11B
100
AcDbXrecord
340
15
  0
MLINESTYLE
  5
1B
102
{ACAD_REACTORS
330
E
102
}
330
E
100
AcDbMlineStyle
  2
STANDARD
 70
     0
  3

 62
     0
 51
90.0
 52
90.0
 71
     2
 49
0.5
 62
   256
  6
BYLAYER
 49
-0.5
 62
   256
  6
BYLAYER
  0
ACDBPLACEHOLDER
  5
C1
102
{ACAD_REACTORS
330
C0
102
}
330
C0
100
AcDbPlaceHolder
280
     0
  0
XRECORD
  5
217
102
{ACAD_REACTORS
330
20D
102
}
330
20D
100
AcDbXrecord
 90
        0
  0
XRECORD
  5
218
102
{ACAD_REACTORS
330
20D
102
}
330
20D
100
AcDbXrecord
  1
{7CFC5C94-A6D4-4F24-B1EA-C853CF881F9C}
  0
XRECORD
  5
210
102
{ACAD_REACTORS
330
20D
102
}
330
20D
100
AcDbXrecord
  1

  0
XRECORD
  5
216
102
{ACAD_REACTORS
330
20D
102
}
330
20D
100
AcDbXrecord
 90
        0
  0
XRECORD
  5
212
102
{ACAD_REACTORS
330
20D
102
}
330
20D
100
AcDbXrecord
340
C2
  0
XRECORD
  5
215
102
{ACAD_REACTORS
330
20D
102
}
330
20D
100
AcDbXrecord
 90
    14877
  0
XRECORD
  5
213
102
{ACAD_REACTORS
330
20D
102
}
330
20D
100
AcDbXrecord
340
C3
  0
XRECORD
  5
214
102
{ACAD_REACTORS
330
20D
102
}
330
20D
100
AcDbXrecord
340
C0
  0
XRECORD
  5
21A
102
{ACAD_REACTORS
330
20D
102
}
330
20D
100
AcDbXrecord
 40
0.0
  0
XRECORD
  5
21D
102
{ACAD_REACTORS
330
20D
102
}
330
20D
100
AcDbXrecord
340
0
  0
XRECORD
  5
223
102
{ACAD_REACTORS
330
20D
102
}
330
20D
100
AcDbXrecord
 10
0.0
 20
0.0
 30
0.0
  0
XRECORD
  5
21F
102
{ACAD_REACTORS
330
20D
102
}
330
20D
100
AcDbXrecord
 10
0.0
 20
0.0
 30
0.0
  0
XRECORD
  5
222
102
{ACAD_REACTORS
330
20D
102
}
330
20D
100
AcDbXrecord
 10
0.0
 20
0.0
 30
0.0
  0
XRECORD
  5
220
102
{ACAD_REACTORS
330
20D
102
}
330
20D
100
AcDbXrecord
 10
0.0
 20
0.0
 30
0.0
  0
XRECORD
  5
221
102
{ACAD_REACTORS
330
20D
102
}
330
20D
100
AcDbXrecord
 10
0.0
 20
0.0
 30
0.0
  0
XRECORD
  5
21E
102
{ACAD_REACTORS
330
20D
102
}
330
20D
100
AcDbXrecord
 10
0.0
 20
0.0
 30
0.0
  0
XRECORD
  5
21B
102
{ACAD_REACTORS
330
20D
102
}
330
20D
100
AcDbXrecord
340
0
  0
XRECORD
  5
21C
102
{ACAD_REACTORS
330
20D
102
}
330
20D
100
AcDbXrecord
 70
     0
  0
XRECORD
  5
211
102
{ACAD_REACTORS
330
20D
102
}
330
20D
100
AcDbXrecord
  1

  0
XRECORD
  5
20E
102
{ACAD_REACTORS
330
20D
102
}
330
20D
100
AcDbXrecord
 90
        1
  0
XRECORD
  5
20F
102
{ACAD_REACTORS
330
20D
102
}
330
20D
100
AcDbXrecord
 90
       70
  0
XRECORD
  5
226
102
{ACAD_REACTORS
330
20D
102
}
330
20D
100
AcDbXrecord
340
0
  0
XRECORD
  5
22C
102
{ACAD_REACTORS
330
20D
102
}
330
20D
100
AcDbXrecord
 10
0.0
 20
0.0
 30
0.0
  0
XRECORD
  5
228
102
{ACAD_REACTORS
330
20D
102
}
330
20D
100
AcDbXrecord
 10
0.0
 20
0.0
 30
0.0
  0
XRECORD
  5
22B
102
{ACAD_REACTORS
330
20D
102
}
330
20D
100
AcDbXrecord
 10
0.0
 20
0.0
 30
0.0
  0
XRECORD
  5
229
102
{ACAD_REACTORS
330
20D
102
}
330
20D
100
AcDbXrecord
 10
0.0
 20
0.0
 30
0.0
  0
XRECORD
  5
22A
102
{ACAD_REACTORS
330
20D
102
}
330
20D
100
AcDbXrecord
 10
0.0
 20
0.0
 30
0.0
  0
XRECORD
  5
227
102
{ACAD_REACTORS
330
20D
102
}
330
20D
100
AcDbXrecord
 10
0.0
 20
0.0
 30
0.0
  0
XRECORD
  5
224
102
{ACAD_REACTORS
330
20D
102
}
330
20D
100
AcDbXrecord
340
0
  0
XRECORD
  5
225
102
{ACAD_REACTORS
330
20D
102
}
330
20D
100
AcDbXrecord
 70
     0
  0
XRECORD
  5
219
102
{ACAD_REACTORS
330
20D
102
}
330
20D
100
AcDbXrecord
  1
{03078563-6A16-4B96-A8CE-8836D9AAF398}
  0
DICTIONARYVAR
  5
124
102
{ACAD_REACTORS
330
123
102
}
330
123
100
DictionaryVariables
280
     0
  1
1
  0
ENDSEC
  0
EOF
