  0
SECTION
  2
HEADER
  9
$ACADVER
  1
AC1015
  9
$ACADMAINTVER
 70
    20
  9
$DWGCODEPAGE
  3
ANSI_1252
  9
$INSBASE
 10
6.166273785496432
 20
26.05606751252148
 30
0.0
  9
$EXTMIN
 10
-0.4983354767243782
 20
24.94511742113275
 30
-0.0015258207003583
  9
$EXTMAX
 10
12.90692534161351
 20
28.83044245941488
 30
0.0000000349246037
  9
$LIMMIN
 10
-23.61579290080726
 20
-21.96805058542325
  9
$LIMMAX
 10
-4.61579290080726
 20
2.031949414576754
  9
$ORTHOMODE
 70
     1
  9
$REGENMODE
 70
     1
  9
$FILLMODE
 70
     1
  9
$QTEXTMODE
 70
     0
  9
$MIRRTEXT
 70
     1
  9
$LTSCALE
 40
1.0
  9
$ATTMODE
 70
     1
  9
$TEXTSIZE
 40
0.2
  9
$TRACEWID
 40
0.125
  9
$TEXTSTYLE
  7
STANDARD
  9
$CLAYER
  8
ADPDIM
  9
$CELTYPE
  6
BYLAYER
  9
$CECOLOR
 62
   256
  9
$CELTSCALE
 40
1.0
  9
$DISPSILH
 70
     0
  9
$DIMSCALE
 40
1.0
  9
$DIMASZ
 40
0.1875
  9
$DIMEXO
 40
0.0625
  9
$DIMDLI
 40
0.375
  9
$DIMRND
 40
0.0
  9
$DIMDLE
 40
0.0
  9
$DIMEXE
 40
0.1875
  9
$DIMTP
 40
0.0
  9
$DIMTM
 40
0.0
  9
$DIMTXT
 40
0.18
  9
$DIMCEN
 40
0.09375
  9
$DIMTSZ
 40
0.0
  9
$DIMTOL
 70
     0
  9
$DIMLIM
 70
     0
  9
$DIMTIH
 70
     1
  9
$DIMTOH
 70
     1
  9
$DIMSE1
 70
     0
  9
$DIMSE2
 70
     0
  9
$DIMTAD
 70
     0
  9
$DIMZIN
 70
     0
  9
$DIMBLK
  1

  9
$DIMASO
 70
     1
  9
$DIMSHO
 70
     1
  9
$DIMPOST
  1

  9
$DIMAPOST
  1

  9
$DIMALT
 70
     0
  9
$DIMALTD
 70
     2
  9
$DIMALTF
 40
25.4
  9
$DIMLFAC
 40
1.0
  9
$DIMTOFL
 70
     0
  9
$DIMTVP
 40
0.0
  9
$DIMTIX
 70
     0
  9
$DIMSOXD
 70
     0
  9
$DIMSAH
 70
     1
  9
$DIMBLK1
  1
OBLIQUE
  9
$DIMBLK2
  1
OBLIQUE
  9
$DIMSTYLE
  2
STANDARD
  9
$DIMCLRD
 70
     0
  9
$DIMCLRE
 70
     0
  9
$DIMCLRT
 70
     0
  9
$DIMTFAC
 40
1.0
  9
$DIMGAP
 40
0.09375
  9
$DIMJUST
 70
     0
  9
$DIMSD1
 70
     0
  9
$DIMSD2
 70
     0
  9
$DIMTOLJ
 70
     1
  9
$DIMTZIN
 70
     0
  9
$DIMALTZ
 70
     0
  9
$DIMALTTZ
 70
     0
  9
$DIMUPT
 70
     0
  9
$DIMDEC
 70
     2
  9
$DIMTDEC
 70
     4
  9
$DIMALTU
 70
     2
  9
$DIMALTTD
 70
     2
  9
$DIMTXSTY
  7
STANDARD
  9
$DIMAUNIT
 70
     0
  9
$DIMADEC
 70
     0
  9
$DIMALTRND
 40
0.0
  9
$DIMAZIN
 70
     0
  9
$DIMDSEP
 70
    46
  9
$DIMATFIT
 70
     3
  9
$DIMFRAC
 70
     2
  9
$DIMLDRBLK
  1
OBLIQUE
  9
$DIMLUNIT
 70
     5
  9
$DIMLWD
 70
    -2
  9
$DIMLWE
 70
    -2
  9
$DIMTMOVE
 70
     0
  9
$LUNITS
 70
     5
  9
$LUPREC
 70
     5
  9
$SKETCHINC
 40
0.1
  9
$FILLETRAD
 40
0.0
  9
$AUNITS
 70
     0
  9
$AUPREC
 70
     0
  9
$MENU
  1
acad
  9
$ELEVATION
 40
0.0
  9
$PELEVATION
 40
0.0
  9
$THICKNESS
 40
0.0
  9
$LIMCHECK
 70
     0
  9
$CHAMFERA
 40
0.0
  9
$CHAMFERB
 40
0.0
  9
$CHAMFERC
 40
0.0
  9
$CHAMFERD
 40
0.0
  9
$SKPOLY
 70
     0
  9
$TDCREATE
 40
2450359.953075810
  9
$TDUCREATE
 40
2450360.119742477
  9
$TDUPDATE
 40
2453965.005466250
  9
$TDUUPDATE
 40
2453965.172132917
  9
$TDINDWG
 40
0.0649822917
  9
$TDUSRTIMER
 40
0.0649822917
  9
$USRTIMER
 70
     1
  9
$ANGBASE
 50
0.0
  9
$ANGDIR
 70
     0
  9
$PDMODE
 70
    34
  9
$PDSIZE
 40
0.0
  9
$PLINEWID
 40
0.0
  9
$SPLFRAME
 70
     0
  9
$SPLINETYPE
 70
     6
  9
$SPLINESEGS
 70
     8
  9
$HANDSEED
  5
3B9
  9
$SURFTAB1
 70
     6
  9
$SURFTAB2
 70
     6
  9
$SURFTYPE
 70
     6
  9
$SURFU
 70
     6
  9
$SURFV
 70
     6
  9
$UCSBASE
  2

  9
$UCSNAME
  2

  9
$UCSORG
 10
0.0
 20
0.0
 30
0.0
  9
$UCSXDIR
 10
1.0
 20
0.0
 30
0.0
  9
$UCSYDIR
 10
0.0
 20
1.0
 30
0.0
  9
$UCSORTHOREF
  2

  9
$UCSORTHOVIEW
 70
     0
  9
$UCSORGTOP
 10
0.0
 20
0.0
 30
0.0
  9
$UCSORGBOTTOM
 10
0.0
 20
0.0
 30
0.0
  9
$UCSORGLEFT
 10
0.0
 20
0.0
 30
0.0
  9
$UCSORGRIGHT
 10
0.0
 20
0.0
 30
0.0
  9
$UCSORGFRONT
 10
0.0
 20
0.0
 30
0.0
  9
$UCSORGBACK
 10
0.0
 20
0.0
 30
0.0
  9
$PUCSBASE
  2

  9
$PUCSNAME
  2

  9
$PUCSORG
 10
0.0
 20
0.0
 30
0.0
  9
$PUCSXDIR
 10
1.0
 20
0.0
 30
0.0
  9
$PUCSYDIR
 10
0.0
 20
1.0
 30
0.0
  9
$PUCSORTHOREF
  2

  9
$PUCSORTHOVIEW
 70
     0
  9
$PUCSORGTOP
 10
0.0
 20
0.0
 30
0.0
  9
$PUCSORGBOTTOM
 10
0.0
 20
0.0
 30
0.0
  9
$PUCSORGLEFT
 10
0.0
 20
0.0
 30
0.0
  9
$PUCSORGRIGHT
 10
0.0
 20
0.0
 30
0.0
  9
$PUCSORGFRONT
 10
0.0
 20
0.0
 30
0.0
  9
$PUCSORGBACK
 10
0.0
 20
0.0
 30
0.0
  9
$USERI1
 70
     0
  9
$USERI2
 70
     0
  9
$USERI3
 70
     0
  9
$USERI4
 70
     0
  9
$USERI5
 70
     0
  9
$USERR1
 40
0.0
  9
$USERR2
 40
0.0
  9
$USERR3
 40
0.0
  9
$USERR4
 40
0.0
  9
$USERR5
 40
0.0
  9
$WORLDVIEW
 70
     1
  9
$SHADEDGE
 70
     3
  9
$SHADEDIF
 70
    70
  9
$TILEMODE
 70
     1
  9
$MAXACTVP
 70
    15
  9
$PINSBASE
 10
0.0
 20
-0.0000000000727758
 30
0.0
  9
$PLIMCHECK
 70
     0
  9
$PEXTMIN
 10
1.000000000000000E+20
 20
1.000000000000000E+20
 30
1.000000000000000E+20
  9
$PEXTMAX
 10
-1.000000000000000E+20
 20
-1.000000000000000E+20
 30
-1.000000000000000E+20
  9
$PLIMMIN
 10
-21.61579290080726
 20
-19.96805058542324
  9
$PLIMMAX
 10
-9.61579290080726
 20
-10.96805058542324
  9
$UNITMODE
 70
     0
  9
$VISRETAIN
 70
     0
  9
$PLINEGEN
 70
     0
  9
$PSLTSCALE
 70
     1
  9
$TREEDEPTH
 70
  3020
  9
$CMLSTYLE
  2
STANDARD
  9
$CMLJUST
 70
     0
  9
$CMLSCALE
 40
1.0
  9
$PROXYGRAPHICS
 70
     1
  9
$MEASUREMENT
 70
     0
  9
$CELWEIGHT
370
    -1
  9
$ENDCAPS
280
     0
  9
$JOINSTYLE
280
     0
  9
$LWDISPLAY
290
     0
  9
$INSUNITS
 70
     0
  9
$HYPERLINKBASE
  1

  9
$STYLESHEET
  1

  9
$XEDIT
290
     1
  9
$CEPSNTYPE
380
     0
  9
$PSTYLEMODE
290
     1
  9
$FINGERPRINTGUID
  2
{135F6F6F-140D-431C-8208-3F77EFD4E829}
  9
$VERSIONGUID
  2
{2B0D1EEC-8652-4E25-833D-F0A042E705B1}
  9
$EXTNAMES
290
     1
  9
$PSVPSCALE
 40
0.0
  9
$OLESTARTUP
290
     0
  0
ENDSEC
  0
SECTION
  2
CLASSES
  0
CLASS
  1
ACDBDICTIONARYWDFLT
  2
AcDbDictionaryWithDefault
  3
ObjectDBX Classes
 90
        0
280
     0
281
     0
  0
CLASS
  1
ACDBPLACEHOLDER
  2
AcDbPlaceHolder
  3
ObjectDBX Classes
 90
        0
280
     0
281
     0
  0
CLASS
  1
LAYOUT
  2
AcDbLayout
  3
ObjectDBX Classes
 90
        0
280
     0
281
     0
  0
CLASS
  1
DICTIONARYVAR
  2
AcDbDictionaryVar
  3
ObjectDBX Classes
 90
        0
280
     0
281
     0
  0
CLASS
  1
MATERIAL
  2
AcDbMaterial
  3
ObjectDBX Classes
 90
     1024
280
     0
281
     0
  0
CLASS
  1
VISUALSTYLE
  2
AcDbVisualStyle
  3
ObjectDBX Classes
 90
     4095
280
     0
281
     0
  0
CLASS
  1
TABLESTYLE
  2
AcDbTableStyle
  3
ObjectDBX Classes
 90
     4095
280
     0
281
     0
  0
ENDSEC
  0
SECTION
  2
TABLES
  0
TABLE
  2
VPORT
  5
13
330
0
100
AcDbSymbolTable
 70
     1
  0
VPORT
  5
28A
330
13
100
AcDbSymbolTableRecord
100
AcDbViewportTableRecord
  2
*Active
 70
     0
 10
0.0
 20
0.0
 11
1.0
 21
1.0
 12
27.82008783325183
 22
46.85583052569706
 13
0.0
 23
0.0
 14
1.0
 24
1.0
 15
1.0
 25
1.0
 16
0.0
 26
0.0
 36
1.0
 17
-21.61579290080726
 27
-19.96805058542324
 37
0.0
 40
7.813174289448766
 41
1.726930320150659
 42
50.0
 43
0.0
 44
0.0
 50
0.0
 51
0.0
 71
     0
 72
   100
 73
     1
 74
     3
 75
     0
 76
     0
 77
     0
 78
     0
281
     0
 65
     1
110
0.0
120
0.0
130
0.0
111
1.0
121
0.0
131
0.0
112
0.0
122
1.0
132
0.0
 79
     0
146
0.0
  0
ENDTAB
  0
TABLE
  2
LTYPE
  5
F
330
0
100
AcDbSymbolTable
 70
     2
  0
LTYPE
  5
10
330
F
100
AcDbSymbolTableRecord
100
AcDbLinetypeTableRecord
  2
BYBLOCK
 70
     0
  3

 72
    65
 73
     0
 40
0.0
  0
LTYPE
  5
6
330
F
100
AcDbSymbolTableRecord
100
AcDbLinetypeTableRecord
  2
BYLAYER
 70
     0
  3

 72
    65
 73
     0
 40
0.0
  0
LTYPE
  5
5
330
F
100
AcDbSymbolTableRecord
100
AcDbLinetypeTableRecord
  2
CONTINUOUS
 70
     0
  3
Solid line
 72
    65
 73
     0
 40
0.0
  0
LTYPE
  5
62
330
F
100
AcDbSymbolTableRecord
100
AcDbLinetypeTableRecord
  2
HIDDEN2
 70
     0
  3
_ _ _ _ _ _ _ _ _ _ _ _ _ _ _ _ _ _ _ _ _ _ _ _
 72
    65
 73
     2
 40
0.1875
 49
0.125
 74
     0
 49
-0.0625
 74
     0
  0
ENDTAB
  0
TABLE
  2
LAYER
  5
B
330
0
100
AcDbSymbolTable
 70
     5
  0
LAYER
  5
C
330
B
100
AcDbSymbolTableRecord
100
AcDbLayerTableRecord
  2
0
 70
     0
 62
     7
  6
CONTINUOUS
370
    -3
390
A2
  0
LAYER
  5
2F
330
B
100
AcDbSymbolTableRecord
100
AcDbLayerTableRecord
  2
DEFPOINTS
 70
     0
 62
    -7
  6
CONTINUOUS
290
     0
370
    -3
390
A2
  0
LAYER
  5
4
330
B
100
AcDbSymbolTableRecord
100
AcDbLayerTableRecord
  2
ADPDIM
 70
     0
 62
     3
  6
CONTINUOUS
370
    -3
390
A2
  0
LAYER
  5
61
330
B
100
AcDbSymbolTableRecord
100
AcDbLayerTableRecord
  2
ADP2DETAIL
 70
     0
 62
     5
  6
CONTINUOUS
370
    -3
390
A2
  0
LAYER
  5
1F
330
B
100
AcDbSymbolTableRecord
100
AcDbLayerTableRecord
  2
ADP1DETAIL
 70
     0
 62
     7
  6
CONTINUOUS
370
    -3
390
A2
  0
ENDTAB
  0
TABLE
  2
STYLE
  5
D
330
0
100
AcDbSymbolTable
 70
     2
  0
STYLE
  5
E
330
D
100
AcDbSymbolTableRecord
100
AcDbTextStyleTableRecord
  2
STANDARD
 70
     0
 40
0.0
 41
1.0
 50
0.0
 71
     0
 42
0.2
  3
txt
  4

  0
STYLE
  5
A9
330
D
100
AcDbSymbolTableRecord
100
AcDbTextStyleTableRecord
  2
ARIAL_WIDE
 70
     0
 40
0.0
 41
1.25
 50
0.0
 71
     0
 42
0.2
  3
ARIAL.TTF
  4

1001
ACAD
1000
Arial
1071
       34
  0
ENDTAB
  0
TABLE
  2
VIEW
  5
11
330
0
100
AcDbSymbolTable
 70
     0
  0
ENDTAB
  0
TABLE
  2
UCS
  5
12
330
0
100
AcDbSymbolTable
 70
     0
  0
ENDTAB
  0
TABLE
  2
APPID
  5
15
330
0
100
AcDbSymbolTable
 70
     1
  0
APPID
  5
16
330
15
100
AcDbSymbolTableRecord
100
AcDbRegAppTableRecord
  2
ACAD
 70
     0
  0
ENDTAB
  0
TABLE
  2
DIMSTYLE
  5
17
330
0
100
AcDbSymbolTable
 70
     1
100
AcDbDimStyleTable
 71
     0
  0
DIMSTYLE
105
1D
102
{ACAD_REACTORS
330
50
330
339
330
33A
102
}
330
17
100
AcDbSymbolTableRecord
100
AcDbDimStyleTableRecord
  2
STANDARD
 70
     0
340
E
  0
ENDTAB
  0
TABLE
  2
BLOCK_RECORD
  5
1
330
0
100
AcDbSymbolTable
 70
     9
  0
BLOCK_RECORD
  5
2
102
{ACAD_XDICTIONARY
360
125
102
}
330
1
100
AcDbSymbolTableRecord
100
AcDbBlockTableRecord
  2
*MODEL_SPACE
340
A5
  0
BLOCK_RECORD
  5
8
102
{ACAD_XDICTIONARY
360
127
102
}
330
1
100
AcDbSymbolTableRecord
100
AcDbBlockTableRecord
  2
*PAPER_SPACE
340
A6
  0
BLOCK_RECORD
  5
28
330
1
100
AcDbSymbolTableRecord
100
AcDbBlockTableRecord
  2
_OBLIQUE
340
0
102
{BLKREFS
331
2B6
331
2B7
331
2C2
331
2C3
331
2CC
331
2CD
102
}
  0
BLOCK_RECORD
  5
129
330
1
100
AcDbSymbolTableRecord
100
AcDbBlockTableRecord
  2
*D1
340
0
  0
BLOCK_RECORD
  5
138
330
1
100
AcDbSymbolTableRecord
100
AcDbBlockTableRecord
  2
*D2
340
0
  0
BLOCK_RECORD
  5
145
330
1
100
AcDbSymbolTableRecord
100
AcDbBlockTableRecord
  2
*D3
340
0
  0
BLOCK_RECORD
  5
2F0
330
1
100
AcDbSymbolTableRecord
100
AcDbBlockTableRecord
  2
*D4
340
0
  0
BLOCK_RECORD
  5
2FD
330
1
100
AcDbSymbolTableRecord
100
AcDbBlockTableRecord
  2
*D5
340
0
  0
BLOCK_RECORD
  5
35F
330
1
100
AcDbSymbolTableRecord
100
AcDbBlockTableRecord
  2
*D7
340
0
  0
BLOCK_RECORD
  5
36C
330
1
100
AcDbSymbolTableRecord
100
AcDbBlockTableRecord
  2
*D8
340
0
  0
ENDTAB
  0
ENDSEC
  0
SECTION
  2
BLOCKS
  0
BLOCK
  5
3
330
2
100
AcDbEntity
  8
0
100
AcDbBlockBegin
  2
*MODEL_SPACE
 70
     0
 10
0.0
 20
0.0
 30
0.0
  3
*MODEL_SPACE
  1

  0
ENDBLK
  5
7
330
2
100
AcDbEntity
  8
0
100
AcDbBlockEnd
  0
BLOCK
  5
9
330
8
100
AcDbEntity
 67
     1
  8
0
100
AcDbBlockBegin
  2
*PAPER_SPACE
 70
     0
 10
0.0
 20
0.0
 30
0.0
  3
*PAPER_SPACE
  1

  0
ENDBLK
  5
A
330
8
100
AcDbEntity
 67
     1
  8
0
100
AcDbBlockEnd
  0
BLOCK
  5
2A
330
28
100
AcDbEntity
  8
0
100
AcDbBlockBegin
  2
_OBLIQUE
 70
     0
 10
0.0
 20
0.0
 30
0.0
  3
_OBLIQUE
  1

  0
LINE
  5
29
330
28
100
AcDbEntity
  8
0
  6
ByBlock
 62
     0
100
AcDbLine
 10
-0.5
 20
-0.5
 30
0.0
 11
0.5
 21
0.5
 31
0.0
  0
ENDBLK
  5
2B
330
28
100
AcDbEntity
  8
0
100
AcDbBlockEnd
  0
BLOCK
  5
134
330
129
100
AcDbEntity
  8
0
100
AcDbBlockBegin
  2
*D1
 70
     1
 10
0.0
 20
0.0
 30
0.0
  3
*D1
  1

  0
LINE
  5
2B2
330
129
100
AcDbEntity
  8
ADPDIM
 62
     0
100
AcDbLine
 10
3.511122595997417
 20
26.38576224644211
 30
0.0
 11
3.511122595997417
 21
27.06069873883878
 31
0.0
  0
LINE
  5
2B3
330
129
100
AcDbEntity
  8
ADPDIM
 62
     0
100
AcDbLine
 10
5.133238322370786
 20
26.38576224644211
 30
0.0
 11
5.133238322370786
 21
27.06069873883878
 31
0.0
  0
LINE
  5
2B4
330
129
100
AcDbEntity
  8
ADPDIM
 62
     0
100
AcDbLine
 10
3.511122595997417
 20
26.87319873883878
 30
0.0
 11
3.868430459184101
 21
26.87319873883878
 31
0.0
  0
LINE
  5
2B5
330
129
100
AcDbEntity
  8
ADPDIM
 62
     0
100
AcDbLine
 10
5.133238322370786
 20
26.87319873883878
 30
0.0
 11
4.775930459184102
 21
26.87319873883878
 31
0.0
  0
INSERT
  5
2B6
330
129
100
AcDbEntity
  8
ADPDIM
 62
     0
100
AcDbBlockReference
  2
_OBLIQUE
 10
3.511122595997417
 20
26.87319873883878
 30
0.0
 41
0.1875
 42
0.1875
 43
0.1875
 50
180.0
  0
INSERT
  5
2B7
330
129
100
AcDbEntity
  8
ADPDIM
 62
     0
100
AcDbBlockReference
  2
_OBLIQUE
 10
5.133238322370786
 20
26.87319873883878
 30
0.0
 41
0.1875
 42
0.1875
 43
0.1875
  0
MTEXT
  5
2B8
330
129
100
AcDbEntity
  8
ADPDIM
 62
     0
100
AcDbMText
 10
4.322180459184101
 20
26.87319873883878
 30
0.0
 40
0.18
 41
0.0
 71
     5
 72
     1
  1
\A1;1 1/2
 73
     1
 44
1.0
1001
ACAD
1000
MTEXTBEGIN
1070
    73
1070
     1
1070
    44
1040
1.0
1070
    74
1070
     0
1000
MTEXTEND
  0
POINT
  5
2B9
330
129
100
AcDbEntity
  8
DEFPOINTS
 62
     0
100
AcDbPoint
 10
3.511122595997417
 20
26.32326224644211
 30
0.0
  0
POINT
  5
2BA
330
129
100
AcDbEntity
  8
DEFPOINTS
 62
     0
100
AcDbPoint
 10
5.133238322370786
 20
26.32326224644211
 30
0.0
  0
POINT
  5
2BB
330
129
100
AcDbEntity
  8
DEFPOINTS
 62
     0
100
AcDbPoint
 10
5.133238322370786
 20
26.87319873883878
 30
0.0
  0
ENDBLK
  5
135
330
129
100
AcDbEntity
  8
0
100
AcDbBlockEnd
  0
BLOCK
  5
143
330
138
100
AcDbEntity
  8
0
100
AcDbBlockBegin
  2
*D2
 70
     1
 10
0.0
 20
0.0
 30
0.0
  3
*D2
  1

  0
LINE
  5
2BE
330
138
100
AcDbEntity
  8
ADPDIM
 62
     0
100
AcDbLine
 10
4.866547639027116
 20
25.98874075467347
 30
0.0
 11
4.866547639027116
 21
25.54805053484571
 31
0.0
  0
LINE
  5
2BF
330
138
100
AcDbEntity
  8
ADPDIM
 62
     0
100
AcDbLine
 10
3.77954763902712
 20
25.98874075467347
 30
0.0
 11
3.77954763902712
 21
25.54805053484571
 31
0.0
  0
LINE
  5
2C0
330
138
100
AcDbEntity
  8
ADPDIM
 62
     0
100
AcDbLine
 10
4.866547639027116
 20
25.73555053484571
 30
0.0
 11
4.446797639027118
 21
25.73555053484571
 31
0.0
  0
LINE
  5
2C1
330
138
100
AcDbEntity
  8
ADPDIM
 62
     0
100
AcDbLine
 10
3.77954763902712
 20
25.73555053484571
 30
0.0
 11
4.199297639027117
 21
25.73555053484571
 31
0.0
  0
INSERT
  5
2C2
330
138
100
AcDbEntity
  8
ADPDIM
 62
     0
100
AcDbBlockReference
  2
_OBLIQUE
 10
4.866547639027116
 20
25.73555053484571
 30
0.0
 41
0.1875
 42
0.1875
 43
0.1875
  0
INSERT
  5
2C3
330
138
100
AcDbEntity
  8
ADPDIM
 62
     0
100
AcDbBlockReference
  2
_OBLIQUE
 10
3.77954763902712
 20
25.73555053484571
 30
0.0
 41
0.1875
 42
0.1875
 43
0.1875
 50
180.0
  0
MTEXT
  5
2C4
330
138
100
AcDbEntity
  8
ADPDIM
 62
     0
100
AcDbMText
 10
4.323047639027118
 20
25.73555053484571
 30
0.0
 40
0.18
 41
0.0
 71
     5
 72
     1
  1
\A1;1
 73
     1
 44
1.0
1001
ACAD
1000
MTEXTBEGIN
1070
    73
1070
     1
1070
    44
1040
1.0
1070
    74
1070
     0
1000
MTEXTEND
  0
POINT
  5
2C5
330
138
100
AcDbEntity
  8
DEFPOINTS
 62
     0
100
AcDbPoint
 10
4.866547639027116
 20
26.05124075467347
 30
0.0
  0
POINT
  5
2C6
330
138
100
AcDbEntity
  8
DEFPOINTS
 62
     0
100
AcDbPoint
 10
3.77954763902712
 20
26.05124075467347
 30
0.0
  0
POINT
  5
2C7
330
138
100
AcDbEntity
  8
DEFPOINTS
 62
     0
100
AcDbPoint
 10
3.77954763902712
 20
25.73555053484571
 30
0.0
  0
ENDBLK
  5
144
330
138
100
AcDbEntity
  8
0
100
AcDbBlockEnd
  0
BLOCK
  5
150
330
145
100
AcDbEntity
  8
0
100
AcDbBlockBegin
  2
*D3
 70
     1
 10
0.0
 20
0.0
 30
0.0
  3
*D3
  1

  0
LINE
  5
2C8
330
145
100
AcDbEntity
  8
ADPDIM
 62
     0
100
AcDbLine
 10
6.166273785496432
 20
25.99356751252149
 30
0.0
 11
6.166273785496432
 21
25.55188898533801
 31
0.0
  0
LINE
  5
2C9
330
145
100
AcDbEntity
  8
ADPDIM
 62
     0
100
AcDbLine
 10
8.536971377451948
 20
26.29983484877613
 30
0.0
 11
8.536971377451948
 21
25.55188898533801
 31
0.0
  0
LINE
  5
2CA
330
145
100
AcDbEntity
  8
ADPDIM
 62
     0
100
AcDbLine
 10
6.166273785496432
 20
25.73938898533802
 30
0.0
 11
6.86787258147419
 21
25.73938898533802
 31
0.0
  0
LINE
  5
2CB
330
145
100
AcDbEntity
  8
ADPDIM
 62
     0
100
AcDbLine
 10
8.536971377451948
 20
25.73938898533802
 30
0.0
 11
7.83537258147419
 21
25.73938898533802
 31
0.0
  0
INSERT
  5
2CC
330
145
100
AcDbEntity
  8
ADPDIM
 62
     0
100
AcDbBlockReference
  2
_OBLIQUE
 10
6.166273785496432
 20
25.73938898533802
 30
0.0
 41
0.1875
 42
0.1875
 43
0.1875
 50
180.0
  0
INSERT
  5
2CD
330
145
100
AcDbEntity
  8
ADPDIM
 62
     0
100
AcDbBlockReference
  2
_OBLIQUE
 10
8.536971377451948
 20
25.73938898533802
 30
0.0
 41
0.1875
 42
0.1875
 43
0.1875
  0
MTEXT
  5
2CE
330
145
100
AcDbEntity
  8
ADPDIM
 62
     0
100
AcDbMText
 10
7.35162258147419
 20
25.73938898533802
 30
0.0
 40
0.18
 41
0.0
 71
     5
 72
     1
  1
\A1;2 1/4
 73
     1
 44
1.0
1001
ACAD
1000
MTEXTBEGIN
1070
    73
1070
     1
1070
    44
1040
1.0
1070
    74
1070
     0
1000
MTEXTEND
  0
POINT
  5
2CF
330
145
100
AcDbEntity
  8
DEFPOINTS
 62
     0
100
AcDbPoint
 10
6.166273785496432
 20
26.05606751252148
 30
0.0
  0
POINT
  5
2D0
330
145
100
AcDbEntity
  8
DEFPOINTS
 62
     0
100
AcDbPoint
 10
8.536971377451948
 20
26.36233484877613
 30
0.0
  0
POINT
  5
2D1
330
145
100
AcDbEntity
  8
DEFPOINTS
 62
     0
100
AcDbPoint
 10
8.536971377451948
 20
25.73938898533802
 30
0.0
  0
ENDBLK
  5
151
330
145
100
AcDbEntity
  8
0
100
AcDbBlockEnd
  0
BLOCK
  5
2F1
330
2F0
100
AcDbEntity
  8
0
100
AcDbBlockBegin
  2
*D4
 70
     1
 10
0.0
 20
0.0
 30
0.0
  3
*D4
  1

  0
LINE
  5
2F2
330
2F0
100
AcDbEntity
  8
ADPDIM
 62
     0
370
    -2
100
AcDbLine
 10
4.866547639027116
 20
25.98874075467347
 30
0.0
 11
4.866547639027116
 21
25.55555053484571
 31
0.0
  0
LINE
  5
2F3
330
2F0
100
AcDbEntity
  8
ADPDIM
 62
     0
370
    -2
100
AcDbLine
 10
3.77954763902712
 20
25.98874075467347
 30
0.0
 11
3.77954763902712
 21
25.55555053484571
 31
0.0
  0
LINE
  5
2F4
330
2F0
100
AcDbEntity
  8
ADPDIM
 62
     0
370
    -2
100
AcDbLine
 10
5.046547639027116
 20
25.73555053484571
 30
0.0
 11
5.226547639027116
 21
25.73555053484571
 31
0.0
  0
LINE
  5
2F5
330
2F0
100
AcDbEntity
  8
ADPDIM
 62
     0
370
    -2
100
AcDbLine
 10
3.599547639027119
 20
25.73555053484571
 30
0.0
 11
3.41954763902712
 21
25.73555053484571
 31
0.0
  0
SOLID
  5
2F6
330
2F0
100
AcDbEntity
  8
ADPDIM
 62
     0
100
AcDbTrace
 10
5.046547639027116
 20
25.76555053484571
 30
0.0
 11
5.046547639027116
 21
25.70555053484571
 31
0.0
 12
4.866547639027116
 22
25.73555053484571
 32
0.0
 13
4.866547639027116
 23
25.73555053484571
 33
0.0
  0
SOLID
  5
2F7
330
2F0
100
AcDbEntity
  8
ADPDIM
 62
     0
100
AcDbTrace
 10
3.599547639027119
 20
25.76555053484571
 30
0.0
 11
3.599547639027119
 21
25.70555053484571
 31
0.0
 12
3.77954763902712
 22
25.73555053484571
 32
0.0
 13
3.77954763902712
 23
25.73555053484571
 33
0.0
  0
MTEXT
  5
2F8
330
2F0
100
AcDbEntity
  8
ADPDIM
 62
     0
100
AcDbMText
 10
4.323047639027118
 20
25.73555053484571
 30
0.0
 40
0.125
 41
0.0
 71
     5
 72
     1
  1
\A1;1 1/16
 73
     1
 44
1.0
1001
ACAD
1000
MTEXTBEGIN
1070
    73
1070
     1
1070
    44
1040
1.0
1070
    74
1070
     0
1000
MTEXTEND
  0
POINT
  5
2F9
330
2F0
100
AcDbEntity
  8
DEFPOINTS
 62
     0
100
AcDbPoint
 10
4.866547639027116
 20
26.05124075467347
 30
0.0
  0
POINT
  5
2FA
330
2F0
100
AcDbEntity
  8
DEFPOINTS
 62
     0
100
AcDbPoint
 10
3.77954763902712
 20
26.05124075467347
 30
0.0
  0
POINT
  5
2FB
330
2F0
100
AcDbEntity
  8
DEFPOINTS
 62
     0
100
AcDbPoint
 10
3.77954763902712
 20
25.73555053484571
 30
0.0
  0
ENDBLK
  5
2FC
330
2F0
100
AcDbEntity
  8
0
100
AcDbBlockEnd
  0
BLOCK
  5
2FE
330
2FD
100
AcDbEntity
  8
0
100
AcDbBlockBegin
  2
*D5
 70
     1
 10
0.0
 20
0.0
 30
0.0
  3
*D5
  1

  0
LINE
  5
2FF
330
2FD
100
AcDbEntity
  8
ADPDIM
 62
     0
370
    -2
100
AcDbLine
 10
3.511122595997417
 20
26.38576224644211
 30
0.0
 11
3.511122595997417
 21
27.05319873883878
 31
0.0
  0
LINE
  5
300
330
2FD
100
AcDbEntity
  8
ADPDIM
 62
     0
370
    -2
100
AcDbLine
 10
5.133238322370786
 20
26.38576224644211
 30
0.0
 11
5.133238322370786
 21
27.05319873883878
 31
0.0
  0
LINE
  5
301
330
2FD
100
AcDbEntity
  8
ADPDIM
 62
     0
370
    -2
100
AcDbLine
 10
3.691122595997417
 20
26.87319873883878
 30
0.0
 11
3.961347125850768
 21
26.87319873883878
 31
0.0
  0
LINE
  5
302
330
2FD
100
AcDbEntity
  8
ADPDIM
 62
     0
370
    -2
100
AcDbLine
 10
4.953238322370786
 20
26.87319873883878
 30
0.0
 11
4.683013792517435
 21
26.87319873883878
 31
0.0
  0
SOLID
  5
303
330
2FD
100
AcDbEntity
  8
ADPDIM
 62
     0
100
AcDbTrace
 10
3.691122595997417
 20
26.90319873883878
 30
0.0
 11
3.691122595997417
 21
26.84319873883878
 31
0.0
 12
3.511122595997417
 22
26.87319873883878
 32
0.0
 13
3.511122595997417
 23
26.87319873883878
 33
0.0
  0
SOLID
  5
304
330
2FD
100
AcDbEntity
  8
ADPDIM
 62
     0
100
AcDbTrace
 10
4.953238322370786
 20
26.90319873883878
 30
0.0
 11
4.953238322370786
 21
26.84319873883878
 31
0.0
 12
5.133238322370786
 22
26.87319873883878
 32
0.0
 13
5.133238322370786
 23
26.87319873883878
 33
0.0
  0
MTEXT
  5
305
330
2FD
100
AcDbEntity
  8
ADPDIM
 62
     0
100
AcDbMText
 10
4.322180459184101
 20
26.87319873883878
 30
0.0
 40
0.125
 41
0.0
 71
     5
 72
     1
  1
\A1;1 5/8
 73
     1
 44
1.0
1001
ACAD
1000
MTEXTBEGIN
1070
    73
1070
     1
1070
    44
1040
1.0
1070
    74
1070
     0
1000
MTEXTEND
  0
POINT
  5
306
330
2FD
100
AcDbEntity
  8
DEFPOINTS
 62
     0
100
AcDbPoint
 10
3.511122595997417
 20
26.32326224644211
 30
0.0
  0
POINT
  5
307
330
2FD
100
AcDbEntity
  8
DEFPOINTS
 62
     0
100
AcDbPoint
 10
5.133238322370786
 20
26.32326224644211
 30
0.0
  0
POINT
  5
308
330
2FD
100
AcDbEntity
  8
DEFPOINTS
 62
     0
100
AcDbPoint
 10
5.133238322370786
 20
26.87319873883878
 30
0.0
  0
ENDBLK
  5
309
330
2FD
100
AcDbEntity
  8
0
100
AcDbBlockEnd
  0
BLOCK
  5
36A
330
35F
100
AcDbEntity
  8
0
100
AcDbBlockBegin
  2
*D7
 70
     1
 10
0.0
 20
0.0
 30
0.0
  3
*D7
  1

  0
LINE
  5
379
330
35F
100
AcDbEntity
  8
ADPDIM
 62
     0
370
    -2
100
AcDbLine
 10
5.139478207358875
 20
26.00328948895847
 30
0.0
 11
5.139478207358875
 21
25.57009926913071
 31
0.0
  0
LINE
  5
37A
330
35F
100
AcDbEntity
  8
ADPDIM
 62
     0
370
    -2
100
AcDbLine
 10
4.052478207358879
 20
26.00328948895847
 30
0.0
 11
4.052478207358879
 21
25.57009926913071
 31
0.0
  0
LINE
  5
37B
330
35F
100
AcDbEntity
  8
ADPDIM
 62
     0
370
    -2
100
AcDbLine
 10
5.319478207358875
 20
25.75009926913071
 30
0.0
 11
5.499478207358875
 21
25.75009926913071
 31
0.0
  0
LINE
  5
37C
330
35F
100
AcDbEntity
  8
ADPDIM
 62
     0
370
    -2
100
AcDbLine
 10
3.872478207358879
 20
25.75009926913071
 30
0.0
 11
3.692478207358879
 21
25.75009926913071
 31
0.0
  0
SOLID
  5
37D
330
35F
100
AcDbEntity
  8
ADPDIM
 62
     0
100
AcDbTrace
 10
5.319478207358875
 20
25.78009926913071
 30
0.0
 11
5.319478207358875
 21
25.72009926913071
 31
0.0
 12
5.139478207358875
 22
25.75009926913071
 32
0.0
 13
5.139478207358875
 23
25.75009926913071
 33
0.0
  0
SOLID
  5
37E
330
35F
100
AcDbEntity
  8
ADPDIM
 62
     0
100
AcDbTrace
 10
3.872478207358879
 20
25.78009926913071
 30
0.0
 11
3.872478207358879
 21
25.72009926913071
 31
0.0
 12
4.052478207358879
 22
25.75009926913071
 32
0.0
 13
4.052478207358879
 23
25.75009926913071
 33
0.0
  0
MTEXT
  5
37F
330
35F
100
AcDbEntity
  8
ADPDIM
 62
     0
100
AcDbMText
 10
4.595978207358877
 20
25.75009926913071
 30
0.0
 40
0.125
 41
0.0
 71
     5
 72
     1
  1
\A1;1 1/16
 73
     1
 44
1.0
1001
ACAD
1000
MTEXTBEGIN
1070
    73
1070
     1
1070
    44
1040
1.0
1070
    74
1070
     0
1000
MTEXTEND
  0
POINT
  5
380
330
35F
100
AcDbEntity
  8
DEFPOINTS
 62
     0
100
AcDbPoint
 10
5.139478207358875
 20
26.06578948895847
 30
0.0
  0
POINT
  5
381
330
35F
100
AcDbEntity
  8
DEFPOINTS
 62
     0
100
AcDbPoint
 10
4.052478207358879
 20
26.06578948895847
 30
0.0
  0
POINT
  5
382
330
35F
100
AcDbEntity
  8
DEFPOINTS
 62
     0
100
AcDbPoint
 10
4.052478207358879
 20
25.75009926913071
 30
0.0
  0
ENDBLK
  5
36B
330
35F
100
AcDbEntity
  8
0
100
AcDbBlockEnd
  0
BLOCK
  5
377
330
36C
100
AcDbEntity
  8
0
100
AcDbBlockBegin
  2
*D8
 70
     1
 10
0.0
 20
0.0
 30
0.0
  3
*D8
  1

  0
LINE
  5
383
330
36C
100
AcDbEntity
  8
ADPDIM
 62
     0
370
    -2
100
AcDbLine
 10
3.784053164329176
 20
26.40031098072711
 30
0.0
 11
3.784053164329176
 21
27.06774747312378
 31
0.0
  0
LINE
  5
384
330
36C
100
AcDbEntity
  8
ADPDIM
 62
     0
370
    -2
100
AcDbLine
 10
5.406168890702545
 20
26.40031098072711
 30
0.0
 11
5.406168890702545
 21
27.06774747312378
 31
0.0
  0
LINE
  5
385
330
36C
100
AcDbEntity
  8
ADPDIM
 62
     0
370
    -2
100
AcDbLine
 10
3.964053164329176
 20
26.88774747312378
 30
0.0
 11
4.234277694182527
 21
26.88774747312378
 31
0.0
  0
LINE
  5
386
330
36C
100
AcDbEntity
  8
ADPDIM
 62
     0
370
    -2
100
AcDbLine
 10
5.226168890702545
 20
26.88774747312378
 30
0.0
 11
4.955944360849194
 21
26.88774747312378
 31
0.0
  0
SOLID
  5
387
330
36C
100
AcDbEntity
  8
ADPDIM
 62
     0
100
AcDbTrace
 10
3.964053164329176
 20
26.91774747312378
 30
0.0
 11
3.964053164329176
 21
26.85774747312378
 31
0.0
 12
3.784053164329176
 22
26.88774747312378
 32
0.0
 13
3.784053164329176
 23
26.88774747312378
 33
0.0
  0
SOLID
  5
388
330
36C
100
AcDbEntity
  8
ADPDIM
 62
     0
100
AcDbTrace
 10
5.226168890702545
 20
26.91774747312378
 30
0.0
 11
5.226168890702545
 21
26.85774747312378
 31
0.0
 12
5.406168890702545
 22
26.88774747312378
 32
0.0
 13
5.406168890702545
 23
26.88774747312378
 33
0.0
  0
MTEXT
  5
389
330
36C
100
AcDbEntity
  8
ADPDIM
 62
     0
100
AcDbMText
 10
4.59511102751586
 20
26.88774747312378
 30
0.0
 40
0.125
 41
0.0
 71
     5
 72
     1
  1
\A1;1 5/8
 73
     1
 44
1.0
1001
ACAD
1000
MTEXTBEGIN
1070
    73
1070
     1
1070
    44
1040
1.0
1070
    74
1070
     0
1000
MTEXTEND
  0
POINT
  5
38A
330
36C
100
AcDbEntity
  8
DEFPOINTS
 62
     0
100
AcDbPoint
 10
3.784053164329176
 20
26.33781098072711
 30
0.0
  0
POINT
  5
38B
330
36C
100
AcDbEntity
  8
DEFPOINTS
 62
     0
100
AcDbPoint
 10
5.406168890702545
 20
26.33781098072711
 30
0.0
  0
POINT
  5
38C
330
36C
100
AcDbEntity
  8
DEFPOINTS
 62
     0
100
AcDbPoint
 10
5.406168890702545
 20
26.88774747312378
 30
0.0
  0
ENDBLK
  5
378
330
36C
100
AcDbEntity
  8
0
100
AcDbBlockEnd
  0
ENDSEC
  0
SECTION
  2
ENTITIES
  0
ARC
  5
4E
330
2
100
AcDbEntity
  8
ADP1DETAIL
100
AcDbCircle
 10
8.416273785496432
 20
27.32483820911049
 30
0.0
 40
0.125
100
AcDbArc
 50
270.0
 51
0.0
  0
LINE
  5
4F
330
2
100
AcDbEntity
  8
ADP1DETAIL
100
AcDbLine
 10
6.166273785496432
 20
27.23783820911048
 30
0.0
 11
6.166273785496432
 21
28.83014595515223
 31
0.0
  0
DIMENSION
  5
50
330
2
100
AcDbEntity
  8
ADPDIM
100
AcDbDimension
  2
*D3
 10
8.536971377451948
 20
25.73938898533802
 30
0.0
 11
7.35162258147419
 21
25.73938898533802
 31
0.0
 70
    32
 71
     5
 42
-1.0
  3
STANDARD
100
AcDbAlignedDimension
 13
6.166273785496432
 23
26.05606751252148
 33
0.0
 14
8.536971377451948
 24
26.36233484877613
 34
0.0
100
AcDbRotatedDimension
1001
ACAD
1000
DSTYLE
1002
{
1070
   270
1070
     7
1070
   270
1070
     7
1070
   270
1070
     7
1070
   270
1070
     7
1070
    41
1040
0.1875
1070
    43
1040
0.375
1070
    44
1040
0.1875
1070
   141
1040
0.09375
1070
   147
1040
0.09375
1070
   173
1070
     1
1070
   271
1070
     2
1070
   276
1070
     2
1070
   277
1070
     5
1070
     6
1000
OBLIQUE
1070
     7
1000
OBLIQUE
1002
}
  0
LINE
  5
5E
330
2
100
AcDbEntity
  8
ADP1DETAIL
100
AcDbLine
 10
8.466273785496435
 20
26.44675216702482
 30
0.0
 11
6.166273785496432
 21
26.44675216702482
 31
0.0
  0
LINE
  5
5F
330
2
100
AcDbEntity
  8
ADP1DETAIL
100
AcDbLine
 10
8.247768533280435
 20
26.52544553443928
 30
0.0
 11
6.166273785496432
 21
26.52623295319575
 31
0.0
  0
LINE
  5
60
330
2
100
AcDbEntity
  8
ADP2DETAIL
  6
HIDDEN2
100
AcDbLine
 10
8.391273785496437
 20
26.44675216702482
 30
0.0
 11
6.166273785496432
 21
26.44675216702482
 31
0.0
  0
LINE
  5
63
330
2
100
AcDbEntity
  8
ADP2DETAIL
  6
HIDDEN2
100
AcDbLine
 10
7.891273785496434
 20
26.35844016145421
 30
0.0
 11
6.166273785496432
 21
26.35844016145421
 31
0.0
  0
LINE
  5
64
330
2
100
AcDbEntity
  8
ADP1DETAIL
100
AcDbLine
 10
7.916273785496433
 20
26.69536966301627
 30
0.0
 11
6.166273785496432
 21
26.69536966301627
 31
0.0
  0
LINE
  5
65
330
2
100
AcDbEntity
  8
ADP1DETAIL
100
AcDbLine
 10
6.166273785496432
 20
26.05606751252148
 30
0.0
 11
8.391572972088399
 21
26.06220209415893
 31
0.0
  0
LINE
  5
66
330
2
100
AcDbEntity
  8
ADP1DETAIL
100
AcDbLine
 10
8.416273785496432
 20
27.19983820911048
 30
0.0
 11
6.204273785496432
 21
27.19983820911048
 31
0.0
  0
LINE
  5
7E
330
2
100
AcDbEntity
  8
ADP1DETAIL
100
AcDbLine
 10
6.166273785496432
 20
26.69536966301627
 30
0.0
 11
6.166273785496432
 21
26.05606751252148
 31
0.0
  0
ARC
  5
7F
330
2
100
AcDbEntity
  8
ADP1DETAIL
100
AcDbCircle
 10
6.204273785496432
 20
27.23783820911048
 30
0.0
 40
0.038
100
AcDbArc
 50
180.0
 51
270.0
  0
ARC
  5
80
330
2
100
AcDbEntity
  8
ADP1DETAIL
100
AcDbCircle
 10
8.567753179974765
 20
26.07921780305149
 30
0.0
 40
0.177
100
AcDbArc
 50
118.8131381402559
 51
185.5165890188842
  0
LINE
  5
81
330
2
100
AcDbEntity
  8
ADP1DETAIL
100
AcDbLine
 10
8.344333809716911
 20
26.46144622138546
 30
0.0
 11
8.433160873930962
 21
26.45367486025245
 31
0.0
  0
LINE
  5
82
330
2
100
AcDbEntity
  8
ADP2DETAIL
  6
HIDDEN2
100
AcDbLine
 10
8.141273785496435
 20
26.44675216702481
 30
0.0
 11
8.141273785496432
 21
26.2083096828946
 31
0.0
  0
LINE
  5
83
330
2
100
AcDbEntity
  8
ADP2DETAIL
  6
HIDDEN2
100
AcDbLine
 10
8.29127378549643
 20
26.2083096828946
 30
0.0
 11
8.291273785496432
 21
26.05606751252148
 31
0.0
  0
LINE
  5
84
330
2
100
AcDbEntity
  8
ADP2DETAIL
  6
HIDDEN2
100
AcDbLine
 10
8.29127378549643
 20
26.2083096828946
 30
0.0
 11
8.141273785496432
 21
26.2083096828946
 31
0.0
  0
ARC
  5
85
330
2
100
AcDbEntity
  8
ADP1DETAIL
100
AcDbCircle
 10
8.424555927336408
 20
27.34429397184494
 30
0.0
 40
0.8242896907654504
100
AcDbArc
 50
231.9295108835751
 51
263.0721616927555
  0
LINE
  5
86
330
2
100
AcDbEntity
  8
ADP2DETAIL
  6
HIDDEN2
100
AcDbLine
 10
7.891273785496434
 20
26.44675216702482
 30
0.0
 11
7.891273785496434
 21
26.35844016145421
 31
0.0
  0
LINE
  5
87
330
2
100
AcDbEntity
  8
ADP1DETAIL
100
AcDbLine
 10
8.32513078424569
 20
26.52602254058047
 30
0.0
 11
8.247768533280435
 21
26.52544553443928
 31
0.0
  0
ARC
  5
88
330
2
100
AcDbEntity
  8
ADP1DETAIL
100
AcDbCircle
 10
8.325205367144388
 20
26.51602281871478
 30
0.0
 40
0.01
100
AcDbArc
 50
0.0
 51
90.42733249378619
  0
LINE
  5
89
330
2
100
AcDbEntity
  8
ADP1DETAIL
100
AcDbLine
 10
8.335205367144386
 20
26.47140816836638
 30
0.0
 11
8.335205367144389
 21
26.51602281871478
 31
0.0
  0
ARC
  5
8A
330
2
100
AcDbEntity
  8
ADP1DETAIL
100
AcDbCircle
 10
8.345205367144387
 20
26.47140816836638
 30
0.0
 40
0.01
100
AcDbArc
 50
180.0
 51
265.0000000000007
  0
ARC
  5
8B
330
2
100
AcDbEntity
  8
ADP1DETAIL
100
AcDbCircle
 10
8.421754682292846
 20
26.3368571495744
 30
0.0
 40
0.1179999999999985
100
AcDbArc
 50
300.4851810105997
 51
84.45297740033117
  0
LINE
  5
8C
330
2
100
AcDbEntity
  8
ADP1DETAIL
100
AcDbLine
 10
8.284523785496428
 20
28.66021937993095
 30
0.0
 11
6.204273785496432
 21
28.66021937993095
 31
0.0
  0
LINE
  5
8D
330
2
100
AcDbEntity
  8
ADP2DETAIL
  6
HIDDEN2
100
AcDbLine
 10
7.891273785496434
 20
28.17399208213135
 30
0.0
 11
6.166273785496432
 21
28.17399208213135
 31
0.0
  0
LINE
  5
8E
330
2
100
AcDbEntity
  8
ADP2DETAIL
  6
HIDDEN2
100
AcDbLine
 10
8.141273785496437
 20
28.36399208213136
 30
0.0
 11
6.166273785496432
 21
28.36399208213136
 31
0.0
  0
LINE
  5
8F
330
2
100
AcDbEntity
  8
ADP2DETAIL
  6
HIDDEN2
100
AcDbLine
 10
8.291273785496429
 20
28.59091052975383
 30
0.0
 11
6.166273785496432
 21
28.59091052975383
 31
0.0
  0
LINE
  5
90
330
2
100
AcDbEntity
  8
ADP2DETAIL
  6
HIDDEN2
100
AcDbLine
 10
8.39127378549643
 20
28.71220101756378
 30
0.0
 11
6.166273785496432
 21
28.71220101756378
 31
0.0
  0
LINE
  5
91
330
2
100
AcDbEntity
  8
ADP2DETAIL
  6
HIDDEN2
100
AcDbLine
 10
7.891273785496434
 20
27.89399208213136
 30
0.0
 11
6.166273785496432
 21
27.89399208213136
 31
0.0
  0
LINE
  5
92
330
2
100
AcDbEntity
  8
ADP1DETAIL
100
AcDbLine
 10
6.166273785496432
 20
28.83014595515223
 30
0.0
 11
8.416273785496432
 21
28.83014595515223
 31
0.0
  0
LINE
  5
93
330
2
100
AcDbEntity
  8
ADP2DETAIL
  6
HIDDEN2
100
AcDbLine
 10
8.391273785496437
 20
27.35578314669894
 30
0.0
 11
6.166273785496432
 21
27.35578314669894
 31
0.0
  0
LINE
  5
94
330
2
100
AcDbEntity
  8
ADP2DETAIL
  6
HIDDEN2
100
AcDbLine
 10
8.291273785496432
 20
27.47707363450888
 30
0.0
 11
6.166273785496432
 21
27.47707363450888
 31
0.0
  0
LINE
  5
95
330
2
100
AcDbEntity
  8
ADP2DETAIL
  6
HIDDEN2
100
AcDbLine
 10
8.14127378549643
 20
27.70399208213136
 30
0.0
 11
6.166273785496432
 21
27.70399208213136
 31
0.0
  0
LINE
  5
96
330
2
100
AcDbEntity
  8
ADP1DETAIL
100
AcDbLine
 10
8.284523785496432
 20
27.40776478433177
 30
0.0
 11
6.204273785496432
 21
27.40776478433177
 31
0.0
  0
ARC
  5
97
330
2
100
AcDbEntity
  8
ADP1DETAIL
100
AcDbCircle
 10
8.416273785496432
 20
28.70514595515223
 30
0.0
 40
0.125
100
AcDbArc
 50
0.0
 51
90.0
  0
LINE
  5
98
330
2
100
AcDbEntity
  8
ADP1DETAIL
100
AcDbLine
 10
8.322523785496429
 20
28.62221937993095
 30
0.0
 11
8.322523785496432
 21
27.44576478433177
 31
0.0
  0
LINE
  5
99
330
2
100
AcDbEntity
  8
ADP2DETAIL
  6
HIDDEN2
100
AcDbLine
 10
8.141273785496437
 20
28.36399208213136
 30
0.0
 11
8.14127378549643
 21
27.70399208213136
 31
0.0
  0
LINE
  5
9A
330
2
100
AcDbEntity
  8
ADP2DETAIL
  6
HIDDEN2
100
AcDbLine
 10
8.291273785496429
 20
28.59091052975383
 30
0.0
 11
8.291273785496432
 21
27.47707363450888
 31
0.0
  0
LINE
  5
9B
330
2
100
AcDbEntity
  8
ADP2DETAIL
  6
HIDDEN2
100
AcDbLine
 10
8.39127378549643
 20
28.71220101756378
 30
0.0
 11
8.391273785496437
 21
27.35578314669894
 31
0.0
  0
LINE
  5
9C
330
2
100
AcDbEntity
  8
ADP2DETAIL
  6
HIDDEN2
100
AcDbLine
 10
7.891273785496434
 20
28.17399208213135
 30
0.0
 11
7.891273785496434
 21
27.89399208213136
 31
0.0
  0
ARC
  5
9D
330
2
100
AcDbEntity
  8
ADP1DETAIL
100
AcDbCircle
 10
8.284523785496432
 20
27.44576478433177
 30
0.0
 40
0.038
100
AcDbArc
 50
270.0
 51
0.0
  0
ARC
  5
9E
330
2
100
AcDbEntity
  8
ADP1DETAIL
100
AcDbCircle
 10
8.284523785496428
 20
28.62221937993095
 30
0.0
 40
0.038
100
AcDbArc
 50
0.0
 51
90.0
  0
LINE
  5
9F
330
2
100
AcDbEntity
  8
ADP1DETAIL
100
AcDbLine
 10
8.541273785496432
 20
28.70514595515223
 30
0.0
 11
8.541273785496432
 21
27.32483820911049
 31
0.0
  0
TEXT
  5
AA
330
2
100
AcDbEntity
  8
ADPDIM
100
AcDbText
 10
-0.4972631346945633
 20
24.98452484215348
 30
0.0
 40
0.125
  1
J U L I U S  B L U M  &  C O . ,  I N C .      ( 8 0 0 )  5 2 6 - 6 2 9 3        W W W . J U L I U S B L U M . C O M        P A R T  N o .  4 5 3 1 - N
 41
1.25
  7
ARIAL_WIDE
 72
     1
 11
6.204273785496432
 21
25.10952484215348
 31
0.0
100
AcDbText
 73
     3
  0
ARC
  5
337
330
2
100
AcDbEntity
  8
0
100
AcDbCircle
 10
4.598774804567815
 20
26.361953219686
 30
0.0
 40
0.3578471972264042
100
AcDbArc
 50
49.18300244968262
 51
90.44777449537637
  0
LINE
  5
338
330
2
100
AcDbEntity
  8
0
100
AcDbLine
 10
4.595978207358877
 20
26.36778948895847
 30
0.0
 11
4.917978207358876
 21
26.36778948895847
 31
0.0
  0
DIMENSION
  5
339
330
2
100
AcDbEntity
  8
ADPDIM
100
AcDbDimension
  2
*D7
 10
4.052478207358879
 20
25.75009926913071
 30
0.0
 11
4.595978207358877
 21
25.75009926913071
 31
0.0
 70
    32
 71
     5
 42
1.086999999999996
  3
STANDARD
100
AcDbAlignedDimension
 13
5.139478207358875
 23
26.06578948895847
 33
0.0
 14
4.052478207358879
 24
26.06578948895847
 34
0.0
100
AcDbRotatedDimension
1001
ACAD
1000
DSTYLE
1002
{
1070
   140
1040
0.125
1070
   276
1070
     2
1070
   277
1070
     5
1002
}
  0
DIMENSION
  5
33A
330
2
100
AcDbEntity
  8
ADPDIM
100
AcDbDimension
  2
*D8
 10
5.406168890702545
 20
26.88774747312378
 30
0.0
 11
4.59511102751586
 21
26.88774747312378
 31
0.0
 70
    32
 71
     5
 42
1.622115726373369
  3
STANDARD
100
AcDbAlignedDimension
 13
3.784053164329176
 23
26.33781098072711
 33
0.0
 14
5.406168890702545
 24
26.33781098072711
 34
0.0
100
AcDbRotatedDimension
1001
ACAD
1000
DSTYLE
1002
{
1070
   140
1040
0.125
1070
   276
1070
     2
1070
   277
1070
     5
1002
}
  0
ARC
  5
33B
330
2
100
AcDbEntity
  8
0
100
AcDbCircle
 10
4.593181610149938
 20
26.361953219686
 30
0.0
 40
0.3578471972264042
100
AcDbArc
 50
89.55222550462364
 51
130.8169975503174
  0
LINE
  5
33C
330
2
100
AcDbEntity
  8
0
100
AcDbLine
 10
3.983349764786355
 20
26.47599495567046
 30
0.0
 11
3.894522700572304
 21
26.46822359453745
 31
0.0
  0
ARC
  5
33D
330
2
100
AcDbEntity
  8
0
100
AcDbCircle
 10
3.946064286476209
 20
26.07578948895847
 30
0.0
 40
0.01
100
AcDbArc
 50
174.483410981109
 51
270.0
  0
ARC
  5
33E
330
2
100
AcDbEntity
  8
0
100
AcDbCircle
 10
3.759930394528501
 20
26.09376653733649
 30
0.0
 40
0.177
100
AcDbArc
 50
354.4834109811158
 51
61.18686185974412
  0
ARC
  5
33F
330
2
100
AcDbEntity
  8
0
100
AcDbCircle
 10
3.90592889221042
 20
26.3514058838594
 30
0.0
 40
0.1179999999999985
100
AcDbArc
 50
95.54702259966877
 51
239.5148189894003
  0
LINE
  5
340
330
2
100
AcDbEntity
  8
0
100
AcDbLine
 10
4.595978207358877
 20
26.36778948895847
 30
0.0
 11
4.273978207358878
 21
26.36778948895847
 31
0.0
  0
ARC
  5
341
330
2
100
AcDbEntity
  8
0
100
AcDbCircle
 10
4.08158335082672
 20
27.01264539235669
 30
0.0
 40
0.4720000000000001
100
AcDbArc
 50
269.7955928626708
 51
306.4075433808796
  0
LINE
  5
342
330
2
100
AcDbEntity
  8
0
100
AcDbLine
 10
4.253978207358874
 20
26.21978948895847
 30
0.0
 11
4.072478207358878
 21
26.21978948895847
 31
0.0
  0
ARC
  5
343
330
2
100
AcDbEntity
  8
0
100
AcDbCircle
 10
4.072478207358878
 20
26.20978948895847
 30
0.0
 40
0.01
100
AcDbArc
 50
90.0
 51
180.0000000000014
  0
ARC
  5
344
330
2
100
AcDbEntity
  8
0
100
AcDbCircle
 10
4.273978207358878
 20
26.35778948895847
 30
0.0
 40
0.01
100
AcDbArc
 50
90.0
 51
180.0
  0
LINE
  5
345
330
2
100
AcDbEntity
  8
0
100
AcDbLine
 10
4.263978207358876
 20
26.35778948895847
 30
0.0
 11
4.263978207358876
 21
26.22978948895847
 31
0.0
  0
ARC
  5
346
330
2
100
AcDbEntity
  8
0
100
AcDbCircle
 10
4.253978207358874
 20
26.22978948895847
 30
0.0
 40
0.01
100
AcDbArc
 50
270.0
 51
0.0
  0
LINE
  5
347
330
2
100
AcDbEntity
  8
0
100
AcDbLine
 10
4.062478207358877
 20
26.20978948895847
 30
0.0
 11
4.06247820735888
 21
26.07578948895847
 31
0.0
  0
ARC
  5
348
330
2
100
AcDbEntity
  8
0
100
AcDbCircle
 10
4.002478207358878
 20
26.53057155299978
 30
0.0
 40
0.01
100
AcDbArc
 50
89.57266750621379
 51
180.0
  0
ARC
  5
349
330
2
100
AcDbEntity
  8
0
100
AcDbCircle
 10
3.982478207358878
 20
26.48595690265138
 30
0.0
 40
0.01
100
AcDbArc
 50
274.9999999999993
 51
0.0
  0
LINE
  5
34A
330
2
100
AcDbEntity
  8
0
100
AcDbLine
 10
3.99247820735888
 20
26.48595690265138
 30
0.0
 11
3.992478207358876
 21
26.53057155299978
 31
0.0
  0
LINE
  5
34B
330
2
100
AcDbEntity
  8
0
100
AcDbLine
 10
4.052478207358879
 20
26.06578948895847
 30
0.0
 11
3.946064286476209
 21
26.06578948895847
 31
0.0
  0
ARC
  5
34C
330
2
100
AcDbEntity
  8
0
100
AcDbCircle
 10
4.052478207358879
 20
26.07578948895847
 30
0.0
 40
0.01
100
AcDbArc
 50
270.0
 51
0.0
  0
LINE
  5
34D
330
2
100
AcDbEntity
  8
0
100
AcDbLine
 10
4.002552790257576
 20
26.54057127486547
 30
0.0
 11
4.079915041222831
 21
26.53999426872428
 31
0.0
  0
LINE
  5
34E
330
2
100
AcDbEntity
  8
0
100
AcDbLine
 10
4.937978207358879
 20
26.21978948895847
 30
0.0
 11
5.119478207358875
 21
26.21978948895847
 31
0.0
  0
ARC
  5
34F
330
2
100
AcDbEntity
  8
0
100
AcDbCircle
 10
5.110373063891033
 20
27.01264539235669
 30
0.0
 40
0.4720000000000001
100
AcDbArc
 50
233.5924566191204
 51
270.2044071373292
  0
LINE
  5
350
330
2
100
AcDbEntity
  8
0
100
AcDbLine
 10
4.927978207358878
 20
26.35778948895847
 30
0.0
 11
4.927978207358878
 21
26.22978948895847
 31
0.0
  0
ARC
  5
351
330
2
100
AcDbEntity
  8
0
100
AcDbCircle
 10
4.937978207358879
 20
26.22978948895847
 30
0.0
 40
0.01
100
AcDbArc
 50
180.0
 51
270.0
  0
ARC
  5
352
330
2
100
AcDbEntity
  8
0
100
AcDbCircle
 10
4.917978207358876
 20
26.35778948895847
 30
0.0
 40
0.01
100
AcDbArc
 50
0.0
 51
90.0
  0
ARC
  5
353
330
2
100
AcDbEntity
  8
0
100
AcDbCircle
 10
5.286027522507334
 20
26.3514058838594
 30
0.0
 40
0.1179999999999985
100
AcDbArc
 50
300.4851810105997
 51
84.45297740033117
  0
LINE
  5
354
330
2
100
AcDbEntity
  8
0
100
AcDbLine
 10
5.199478207358874
 20
26.48595690265138
 30
0.0
 11
5.199478207358877
 21
26.53057155299978
 31
0.0
  0
LINE
  5
355
330
2
100
AcDbEntity
  8
0
100
AcDbLine
 10
5.189403624460178
 20
26.54057127486547
 30
0.0
 11
5.112041373494923
 21
26.53999426872428
 31
0.0
  0
ARC
  5
356
330
2
100
AcDbEntity
  8
0
100
AcDbCircle
 10
5.119478207358875
 20
26.20978948895847
 30
0.0
 40
0.01
100
AcDbArc
 50
359.9999999999986
 51
90.0
  0
ARC
  5
357
330
2
100
AcDbEntity
  8
0
100
AcDbCircle
 10
5.189478207358876
 20
26.53057155299978
 30
0.0
 40
0.01
100
AcDbArc
 50
0.0
 51
90.42733249378619
  0
ARC
  5
358
330
2
100
AcDbEntity
  8
0
100
AcDbCircle
 10
5.209478207358875
 20
26.48595690265138
 30
0.0
 40
0.01
100
AcDbArc
 50
180.0
 51
265.0000000000007
  0
LINE
  5
359
330
2
100
AcDbEntity
  8
0
100
AcDbLine
 10
5.208606649931398
 20
26.47599495567046
 30
0.0
 11
5.29743371414545
 21
26.46822359453745
 31
0.0
  0
LINE
  5
35A
330
2
100
AcDbEntity
  8
0
100
AcDbLine
 10
5.139478207358875
 20
26.06578948895847
 30
0.0
 11
5.245892128241544
 21
26.06578948895847
 31
0.0
  0
ARC
  5
35B
330
2
100
AcDbEntity
  8
0
100
AcDbCircle
 10
5.245892128241544
 20
26.07578948895847
 30
0.0
 40
0.01
100
AcDbArc
 50
270.0
 51
5.516589018890748
  0
ARC
  5
35C
330
2
100
AcDbEntity
  8
0
100
AcDbCircle
 10
5.139478207358875
 20
26.07578948895847
 30
0.0
 40
0.01
100
AcDbArc
 50
180.0
 51
270.0
  0
LINE
  5
35D
330
2
100
AcDbEntity
  8
0
100
AcDbLine
 10
5.129478207358877
 20
26.20978948895847
 30
0.0
 11
5.129478207358873
 21
26.07578948895847
 31
0.0
  0
ARC
  5
35E
330
2
100
AcDbEntity
  8
0
100
AcDbCircle
 10
5.432026020189253
 20
26.09376653733649
 30
0.0
 40
0.177
100
AcDbArc
 50
118.8131381402558
 51
185.5165890188842
  0
ENDSEC
  0
SECTION
  2
OBJECTS
  0
DICTIONARY
  5
1B
330
0
100
AcDbDictionary
281
     1
  3
ACAD_COLOR
350
2EA
  3
ACAD_GROUP
350
19
  3
ACAD_LAYOUT
350
A3
  3
ACAD_MATERIAL
350
2D5
  3
ACAD_MLINESTYLE
350
1A
  3
ACAD_PLOTSETTINGS
350
A4
  3
ACAD_PLOTSTYLENAME
350
A1
  3
ACAD_TABLESTYLE
350
2EB
  3
ACAD_VISUALSTYLE
350
2D9
  3
AcDbVariableDictionary
350
154
  3
DWGPROPS
350
3AC
  0
DICTIONARY
  5
125
330
2
100
AcDbDictionary
280
     1
281
     1
  3
ACAD_LAYOUTSELFREF
360
2AE
  0
DICTIONARY
  5
127
330
8
100
AcDbDictionary
280
     1
281
     1
  3
ACAD_LAYOUTSELFREF
360
2AF
  0
DICTIONARY
  5
2EA
102
{ACAD_REACTORS
330
1B
102
}
330
1B
100
AcDbDictionary
281
     1
  0
DICTIONARY
  5
19
102
{ACAD_REACTORS
330
1B
102
}
330
1B
100
AcDbDictionary
281
     1
  0
DICTIONARY
  5
A3
102
{ACAD_REACTORS
330
1B
102
}
330
1B
100
AcDbDictionary
281
     1
  3
Layout1
350
A6
  3
Model
350
A5
  0
DICTIONARY
  5
2D5
102
{ACAD_REACTORS
330
1B
102
}
330
1B
100
AcDbDictionary
281
     1
  3
ByBlock
350
2D7
  3
ByLayer
350
2D6
  3
Global
350
2D8
  0
DICTIONARY
  5
1A
102
{ACAD_REACTORS
330
1B
102
}
330
1B
100
AcDbDictionary
281
     1
  3
STANDARD
350
1C
  0
DICTIONARY
  5
A4
102
{ACAD_REACTORS
330
1B
102
}
330
1B
100
AcDbDictionary
281
     1
  0
ACDBDICTIONARYWDFLT
  5
A1
102
{ACAD_REACTORS
330
1B
102
}
330
1B
100
AcDbDictionary
281
     1
  3
Normal
350
A2
100
AcDbDictionaryWithDefault
340
A2
  0
DICTIONARY
  5
2EB
102
{ACAD_REACTORS
330
1B
102
}
330
1B
100
AcDbDictionary
281
     1
  3
Standard
350
2EC
  0
DICTIONARY
  5
2D9
102
{ACAD_REACTORS
330
1B
102
}
330
1B
100
AcDbDictionary
281
     1
  3
2dWireframe
350
2DF
  3
3D Hidden
350
2E1
  3
3dWireframe
350
2E0
  3
Basic
350
2DE
  3
Brighten
350
2E5
  3
ColorChange
350
2E9
  3
Conceptual
350
2E2
  3
Dim
350
2E4
  3
Facepattern
350
2E8
  3
Flat
350
2DA
  3
FlatWithEdges
350
2DB
  3
Gouraud
350
2DC
  3
GouraudWithEdges
350
2DD
  3
Linepattern
350
2E7
  3
Realistic
350
2E3
  3
Thicken
350
2E6
  0
DICTIONARY
  5
154
102
{ACAD_REACTORS
330
1B
102
}
330
1B
100
AcDbDictionary
281
     1
  3
CTABLESTYLE
350
3A9
  3
DIMASSOC
350
155
  3
INDEXCTL
350
3AB
  3
SORTENTS
350
3AA
  0
XRECORD
  5
3AC
102
{ACAD_REACTORS
330
1B
102
}
330
1B
100
AcDbXrecord
280
     1
  1
DWGPROPS COOKIE
  2

  3

  4

  6

  7

  8
Yu Hu
  9

300
=
301
=
302
=
303
=
304
=
305
=
306
=
307
=
308
=
309
=
 40
0.0649813657407408
 41
2450359.95307581
 42
2453965.00546625
  1

 90
        0
  0
XRECORD
  5
2AE
102
{ACAD_REACTORS
330
125
102
}
330
125
100
AcDbXrecord
280
     1
340
2
  0
XRECORD
  5
2AF
102
{ACAD_REACTORS
330
127
102
}
330
127
100
AcDbXrecord
280
     1
340
8
  0
LAYOUT
  5
A6
102
{ACAD_XDICTIONARY
360
3AF
102
}
102
{ACAD_REACTORS
330
A3
102
}
330
A3
100
AcDbPlotSettings
  1

  2
Fax
  4

  6

 40
0.0
 41
0.0
 42
0.0
 43
0.0
 44
0.0
 45
0.0
 46
0.0
 47
0.0
 48
0.0
 49
0.0
140
0.0
141
0.0
142
1.0
143
1.0
 70
   688
 72
     0
 73
     0
 74
     5
  7
Default R14 pen assignments.ctb
 75
    16
147
1.0
148
0.0
149
0.0
100
AcDbLayout
  1
Layout1
 70
     1
 71
     1
 10
-21.61579290080726
 20
-19.96805058542324
 11
-9.61579290080726
 21
-10.96805058542324
 12
0.0
 22
-0.0000000000727758
 32
0.0
 14
1.000000000000000E+20
 24
1.000000000000000E+20
 34
1.000000000000000E+20
 15
-1.000000000000000E+20
 25
-1.000000000000000E+20
 35
-1.000000000000000E+20
146
0.0
 13
0.0
 23
0.0
 33
0.0
 16
1.0
 26
0.0
 36
0.0
 17
0.0
 27
1.0
 37
0.0
 76
     0
330
8
  0
LAYOUT
  5
A5
102
{ACAD_XDICTIONARY
360
3AD
102
}
102
{ACAD_REACTORS
330
A3
102
}
330
A3
100
AcDbPlotSettings
  1

  2
Fax
  4

  6

 40
0.0
 41
0.0
 42
0.0
 43
0.0
 44
0.0
 45
0.0
 46
0.0
 47
0.0
 48
0.0
 49
0.0
140
0.0
141
0.0
142
1.0
143
1.0
 70
  1712
 72
     0
 73
     0
 74
     0
  7
Default R14 pen assignments.ctb
 75
     0
147
1.0
148
0.0
149
0.0
100
AcDbLayout
  1
Model
 70
     1
 71
     0
 10
0.0
 20
0.0
 11
12.0
 21
9.0
 12
0.0
 22
0.0
 32
0.0
 14
0.0
 24
0.0
 34
0.0
 15
0.0
 25
0.0
 35
0.0
146
0.0
 13
0.0
 23
0.0
 33
0.0
 16
1.0
 26
0.0
 36
0.0
 17
0.0
 27
1.0
 37
0.0
 76
     0
330
2
331
28A
  0
MATERIAL
  5
2D7
102
{ACAD_XDICTIONARY
360
3B3
102
}
102
{ACAD_REACTORS
330
2D5
102
}
330
2D5
100
AcDbMaterial
  1
ByBlock
  0
MATERIAL
  5
2D6
102
{ACAD_XDICTIONARY
360
3B1
102
}
102
{ACAD_REACTORS
330
2D5
102
}
330
2D5
100
AcDbMaterial
  1
ByLayer
  0
MATERIAL
  5
2D8
102
{ACAD_XDICTIONARY
360
3B5
102
}
102
{ACAD_REACTORS
330
2D5
102
}
330
2D5
100
AcDbMaterial
  1
Global
  0
MLINESTYLE
  5
1C
102
{ACAD_REACTORS
330
1A
102
}
330
1A
100
AcDbMlineStyle
  2
STANDARD
 70
     0
  3

 62
     0
 51
90.0
 52
90.0
 71
     2
 49
0.5
 62
   256
  6
BYLAYER
 49
-0.5
 62
   256
  6
BYLAYER
  0
ACDBPLACEHOLDER
  5
A2
102
{ACAD_REACTORS
330
A1
102
}
330
A1
  0
TABLESTYLE
  5
2EC
102
{ACAD_XDICTIONARY
360
3B7
102
}
102
{ACAD_REACTORS
330
2EB
102
}
330
2EB
100
AcDbTableStyle
  3
Standard
 70
     0
 71
     0
 40
0.06
 41
0.06
280
     0
281
     0
  7
STANDARD
140
0.18
170
     2
 62
     0
 63
     7
283
     0
274
    -2
284
     1
 64
     0
275
    -2
285
     1
 65
     0
276
    -2
286
     1
 66
     0
277
    -2
287
     1
 67
     0
278
    -2
288
     1
 68
     0
279
    -2
289
     1
 69
     0
  7
STANDARD
140
0.25
170
     5
 62
     0
 63
     7
283
     0
274
    -2
284
     1
 64
     0
275
    -2
285
     1
 65
     0
276
    -2
286
     1
 66
     0
277
    -2
287
     1
 67
     0
278
    -2
288
     1
 68
     0
279
    -2
289
     1
 69
     0
  7
STANDARD
140
0.18
170
     5
 62
     0
 63
     7
283
     0
274
    -2
284
     1
 64
     0
275
    -2
285
     1
 65
     0
276
    -2
286
     1
 66
     0
277
    -2
287
     1
 67
     0
278
    -2
288
     1
 68
     0
279
    -2
289
     1
 69
     0
  0
VISUALSTYLE
  5
2DF
102
{ACAD_REACTORS
330
2D9
102
}
330
2D9
100
AcDbVisualStyle
  2
2dWireframe
 70
     4
 71
     0
 72
     2
 73
     0
 90
        0
 40
-0.6
 41
-30.0
 62
     5
 63
     7
 74
     1
 91
        4
 64
     7
 65
   257
 75
     1
175
     1
 42
1.0
 92
        0
 66
   257
 43
1.0
 76
     1
 77
     6
 78
     2
 67
     7
 79
     5
170
     0
171
     0
290
     0
174
     0
 93
        1
 44
0.0
173
     0
291
     0
 45
0.0
1001
ACAD
1000
AcDbSavedByObjectVersion
1070
     0
  0
VISUALSTYLE
  5
2E1
102
{ACAD_REACTORS
330
2D9
102
}
330
2D9
100
AcDbVisualStyle
  2
3D Hidden
 70
     6
 71
     1
 72
     2
 73
     2
 90
        0
 40
-0.6
 41
-30.0
 62
     5
 63
     7
 74
     2
 91
        2
 64
     7
 65
   257
 75
     2
175
     1
 42
40.0
 92
        0
 66
   257
 43
1.0
 76
     1
 77
     6
 78
     2
 67
     7
 79
     3
170
     0
171
     0
290
     0
174
     0
 93
        1
 44
0.0
173
     0
291
     0
 45
0.0
1001
ACAD
1000
AcDbSavedByObjectVersion
1070
     0
  0
VISUALSTYLE
  5
2E0
102
{ACAD_REACTORS
330
2D9
102
}
330
2D9
100
AcDbVisualStyle
  2
3dWireframe
 70
     5
 71
     0
 72
     2
 73
     0
 90
        0
 40
-0.6
 41
-30.0
 62
     5
 63
     7
 74
     1
 91
        4
 64
     7
 65
   257
 75
     1
175
     1
 42
1.0
 92
        0
 66
   257
 43
1.0
 76
     1
 77
     6
 78
     2
 67
     7
 79
     5
170
     0
171
     0
290
     0
174
     0
 93
        1
 44
0.0
173
     0
291
     0
 45
0.0
1001
ACAD
1000
AcDbSavedByObjectVersion
1070
     0
  0
VISUALSTYLE
  5
2DE
102
{ACAD_REACTORS
330
2D9
102
}
330
2D9
100
AcDbVisualStyle
  2
Basic
 70
     7
 71
     1
 72
     0
 73
     1
 90
        0
 40
-0.6
 41
-30.0
 62
     5
 63
     7
 74
     0
 91
        4
 64
     7
 65
   257
 75
     1
175
     1
 42
1.0
 92
        8
 66
     7
 43
1.0
 76
     1
 77
     6
 78
     2
 67
     7
 79
     5
170
     0
171
     0
290
     0
174
     0
 93
        1
 44
0.0
173
     0
291
     1
 45
0.0
1001
ACAD
1000
AcDbSavedByObjectVersion
1070
     0
  0
VISUALSTYLE
  5
2E5
102
{ACAD_REACTORS
330
2D9
102
}
330
2D9
100
AcDbVisualStyle
  2
Brighten
 70
    12
 71
     2
 72
     2
 73
     0
 90
        0
 40
-0.6
 41
-30.0
 62
     5
 63
     7
 74
     1
 91
        4
 64
     7
 65
   257
 75
     1
175
     1
 42
1.0
 92
        8
 66
     7
 43
1.0
 76
     1
 77
     6
 78
     2
 67
     7
 79
     5
170
     0
171
     0
290
     0
174
     0
 93
        1
 44
50.0
173
     0
291
     1
 45
0.0
1001
ACAD
1000
AcDbSavedByObjectVersion
1070
     0
  0
VISUALSTYLE
  5
2E9
102
{ACAD_REACTORS
330
2D9
102
}
330
2D9
100
AcDbVisualStyle
  2
ColorChange
 70
    16
 71
     2
 72
     2
 73
     3
 90
        0
 40
-0.6
 41
-30.0
 62
     5
 63
     8
 74
     1
 91
        4
 64
     7
 65
   257
 75
     1
175
     1
 42
1.0
 92
        8
 66
     8
 43
1.0
 76
     1
 77
     6
 78
     2
 67
     7
 79
     5
170
     0
171
     0
290
     0
174
     0
 93
        1
 44
0.0
173
     0
291
     1
 45
0.0
1001
ACAD
1000
AcDbSavedByObjectVersion
1070
     0
  0
VISUALSTYLE
  5
2E2
102
{ACAD_REACTORS
330
2D9
102
}
330
2D9
100
AcDbVisualStyle
  2
Conceptual
 70
     9
 71
     3
 72
     2
 73
     0
 90
        0
 40
-0.6
 41
-30.0
 62
     5
 63
     7
 74
     2
 91
        2
 64
     7
 65
   257
 75
     1
175
     1
 42
40.0
 92
        8
 66
     7
 43
1.0
 76
     1
 77
     6
 78
     2
 67
     7
 79
     3
170
     0
171
     0
290
     0
174
     0
 93
        1
 44
0.0
173
     0
291
     0
 45
0.0
1001
ACAD
1000
AcDbSavedByObjectVersion
1070
     0
  0
VISUALSTYLE
  5
2E4
102
{ACAD_REACTORS
330
2D9
102
}
330
2D9
100
AcDbVisualStyle
  2
Dim
 70
    11
 71
     2
 72
     2
 73
     0
 90
        0
 40
-0.6
 41
-30.0
 62
     5
 63
     7
 74
     1
 91
        4
 64
     7
 65
   257
 75
     1
175
     1
 42
1.0
 92
        8
 66
     7
 43
1.0
 76
     1
 77
     6
 78
     2
 67
     7
 79
     5
170
     0
171
     0
290
     0
174
     0
 93
        1
 44
-50.0
173
     0
291
     1
 45
0.0
1001
ACAD
1000
AcDbSavedByObjectVersion
1070
     0
  0
VISUALSTYLE
  5
2E8
102
{ACAD_REACTORS
330
2D9
102
}
330
2D9
100
AcDbVisualStyle
  2
Facepattern
 70
    15
 71
     2
 72
     2
 73
     0
 90
        0
 40
-0.6
 41
-30.0
 62
     5
 63
     7
 74
     1
 91
        4
 64
     7
 65
   257
 75
     1
175
     1
 42
1.0
 92
        8
 66
     7
 43
1.0
 76
     1
 77
     6
 78
     2
 67
     7
 79
     5
170
     0
171
     0
290
     0
174
     0
 93
        1
 44
0.0
173
     0
291
     1
 45
0.0
1001
ACAD
1000
AcDbSavedByObjectVersion
1070
     0
  0
VISUALSTYLE
  5
2DA
102
{ACAD_REACTORS
330
2D9
102
}
330
2D9
100
AcDbVisualStyle
  2
Flat
 70
     0
 71
     2
 72
     1
 73
     1
 90
        2
 40
-0.6
 41
30.0
 62
     5
 63
     7
 74
     0
 91
        4
 64
     7
 65
   257
 75
     1
175
     1
 42
1.0
 92
        8
 66
     7
 43
1.0
 76
     1
 77
     6
 78
     2
 67
     7
 79
     5
170
     0
171
     0
290
     0
174
     0
 93
       13
 44
0.0
173
     0
291
     1
 45
0.0
1001
ACAD
1000
AcDbSavedByObjectVersion
1070
     0
  0
VISUALSTYLE
  5
2DB
102
{ACAD_REACTORS
330
2D9
102
}
330
2D9
100
AcDbVisualStyle
  2
FlatWithEdges
 70
     1
 71
     2
 72
     1
 73
     1
 90
        2
 40
-0.6
 41
30.0
 62
     5
 63
     7
 74
     1
 91
        4
 64
     7
 65
   257
 75
     1
175
     1
 42
1.0
 92
        0
 66
   257
 43
1.0
 76
     1
 77
     6
 78
     2
 67
     7
 79
     5
170
     0
171
     0
290
     0
174
     0
 93
       13
 44
0.0
173
     0
291
     1
 45
0.0
1001
ACAD
1000
AcDbSavedByObjectVersion
1070
     0
  0
VISUALSTYLE
  5
2DC
102
{ACAD_REACTORS
330
2D9
102
}
330
2D9
100
AcDbVisualStyle
  2
Gouraud
 70
     2
 71
     2
 72
     2
 73
     1
 90
        2
 40
-0.6
 41
30.0
 62
     5
 63
     7
 74
     0
 91
        4
 64
     7
 65
   257
 75
     1
175
     1
 42
1.0
 92
        0
 66
     7
 43
1.0
 76
     1
 77
     6
 78
     2
 67
     7
 79
     5
170
     0
171
     0
290
     0
174
     0
 93
       13
 44
0.0
173
     0
291
     1
 45
0.0
1001
ACAD
1000
AcDbSavedByObjectVersion
1070
     0
  0
VISUALSTYLE
  5
2DD
102
{ACAD_REACTORS
330
2D9
102
}
330
2D9
100
AcDbVisualStyle
  2
GouraudWithEdges
 70
     3
 71
     2
 72
     2
 73
     1
 90
        2
 40
-0.6
 41
30.0
 62
     5
 63
     7
 74
     1
 91
        4
 64
     7
 65
   257
 75
     1
175
     1
 42
1.0
 92
        0
 66
   257
 43
1.0
 76
     1
 77
     6
 78
     2
 67
     7
 79
     5
170
     0
171
     0
290
     0
174
     0
 93
       13
 44
0.0
173
     0
291
     1
 45
0.0
1001
ACAD
1000
AcDbSavedByObjectVersion
1070
     0
  0
VISUALSTYLE
  5
2E7
102
{ACAD_REACTORS
330
2D9
102
}
330
2D9
100
AcDbVisualStyle
  2
Linepattern
 70
    14
 71
     2
 72
     2
 73
     0
 90
        0
 40
-0.6
 41
-30.0
 62
     5
 63
     7
 74
     1
 91
        4
 64
     7
 65
   257
 75
     7
175
     7
 42
1.0
 92
        8
 66
     7
 43
1.0
 76
     1
 77
     6
 78
     2
 67
     7
 79
     5
170
     0
171
     0
290
     0
174
     0
 93
        1
 44
0.0
173
     0
291
     1
 45
0.0
1001
ACAD
1000
AcDbSavedByObjectVersion
1070
     0
  0
VISUALSTYLE
  5
2E3
102
{ACAD_REACTORS
330
2D9
102
}
330
2D9
100
AcDbVisualStyle
  2
Realistic
 70
     8
 71
     2
 72
     2
 73
     0
 90
        0
 40
-0.6
 41
-30.0
 62
     5
 63
     7
 74
     1
 91
        0
 64
     7
 65
   257
 75
     1
175
     1
 42
1.0
 92
        8
 66
     8
 43
1.0
 76
     1
 77
     6
 78
     2
 67
     7
 79
     5
170
     0
171
     0
290
     0
174
     0
 93
       13
 44
0.0
173
     0
291
     0
 45
0.0
1001
ACAD
1000
AcDbSavedByObjectVersion
1070
     0
  0
VISUALSTYLE
  5
2E6
102
{ACAD_REACTORS
330
2D9
102
}
330
2D9
100
AcDbVisualStyle
  2
Thicken
 70
    13
 71
     2
 72
     2
 73
     0
 90
        0
 40
-0.6
 41
-30.0
 62
     5
 63
     7
 74
     1
 91
        4
 64
     7
 65
   257
 75
     1
175
     1
 42
1.0
 92
       12
 66
     7
 43
1.0
 76
     1
 77
     6
 78
     2
 67
     7
 79
     5
170
     0
171
     0
290
     0
174
     0
 93
        1
 44
0.0
173
     0
291
     1
 45
0.0
1001
ACAD
1000
AcDbSavedByObjectVersion
1070
     0
  0
DICTIONARYVAR
  5
3A9
102
{ACAD_REACTORS
330
154
102
}
330
154
100
DictionaryVariables
280
     0
  1
STANDARD
  0
DICTIONARYVAR
  5
155
102
{ACAD_REACTORS
330
154
102
}
330
154
100
DictionaryVariables
280
     0
  1
1
  0
DICTIONARYVAR
  5
3AB
102
{ACAD_REACTORS
330
154
102
}
330
154
100
DictionaryVariables
280
     0
  1
0
  0
DICTIONARYVAR
  5
3AA
102
{ACAD_REACTORS
330
154
102
}
330
154
100
DictionaryVariables
280
     0
  1
127
  0
DICTIONARY
  5
3AF
330
A6
100
AcDbDictionary
280
     1
281
     1
  3
ACAD_XREC_ROUNDTRIP
360
3B0
  0
DICTIONARY
  5
3AD
330
A5
100
AcDbDictionary
280
     1
281
     1
  3
ACAD_XREC_ROUNDTRIP
360
3AE
  0
DICTIONARY
  5
3B3
330
2D7
100
AcDbDictionary
280
     1
281
     1
  3
ACAD_XREC_ROUNDTRIP
360
3B4
  0
DICTIONARY
  5
3B1
330
2D6
100
AcDbDictionary
280
     1
281
     1
  3
ACAD_XREC_ROUNDTRIP
360
3B2
  0
DICTIONARY
  5
3B5
330
2D8
100
AcDbDictionary
280
     1
281
     1
  3
ACAD_XREC_ROUNDTRIP
360
3B6
  0
DICTIONARY
  5
3B7
330
2EC
100
AcDbDictionary
280
     1
281
     1
  3
ACAD_XREC_ROUNDTRIP
360
3B8
  0
XRECORD
  5
3B0
102
{ACAD_REACTORS
330
3AF
102
}
330
3AF
100
AcDbXrecord
280
     1
102
SHADEPLOT
 70
     0
102
SHADEPLOTRESLEVEL
 70
     2
102
SHADEPLOTCUSTOMDPI
 70
   300
  0
XRECORD
  5
3AE
102
{ACAD_REACTORS
330
3AD
102
}
330
3AD
100
AcDbXrecord
280
     1
102
SHADEPLOT
 70
     0
102
SHADEPLOTRESLEVEL
 70
     2
102
SHADEPLOTCUSTOMDPI
 70
   300
  0
XRECORD
  5
3B4
102
{ACAD_REACTORS
330
3B3
102
}
330
3B3
100
AcDbXrecord
280
     1
102
MATERIAL
148
0.0
149
0.0
149
0.0
 93
        0
 94
       63
282
     0
 72
     1
 77
     1
171
     1
175
     1
179
     1
273
     0
  0
XRECORD
  5
3B2
102
{ACAD_REACTORS
330
3B1
102
}
330
3B1
100
AcDbXrecord
280
     1
102
MATERIAL
148
0.0
149
0.0
149
0.0
 93
        0
 94
       63
282
     0
 72
     1
 77
     1
171
     1
175
     1
179
     1
273
     0
  0
XRECORD
  5
3B6
102
{ACAD_REACTORS
330
3B5
102
}
330
3B5
100
AcDbXrecord
280
     1
102
MATERIAL
148
0.0
149
0.0
149
0.0
 93
        0
 94
       63
282
     0
 72
     1
 77
     1
171
     1
175
     1
179
     1
273
     0
  0
XRECORD
  5
3B8
102
{ACAD_REACTORS
330
3B7
102
}
330
3B7
100
AcDbXrecord
280
     1
102
ACAD_ROUNDTRIP_PRE2007_TABLESTYLE
 90
      512
 91
        0
  1

 92
      512
 93
        0
  2

 94
      512
 95
        0
  3

  0
ENDSEC
  0
EOF
