  0
SECTION
  2
HEADER
  9
$ACADVER
  1
AC1014
  9
$ACADMAINTVER
 70
     9
  9
$DWGCODEPAGE
  3
ANSI_1252
  9
$INSBASE
 10
-5.50638116659595
 20
-9.742629914979007
 30
0.0
  9
$EXTMIN
 10
-14.62967318377523
 20
-15.754354797148
 30
0.0
  9
$EXTMAX
 10
2.109114333277977
 20
-7.07947809647867
 30
0.0
  9
$LIMMIN
 10
0.0
 20
0.0
  9
$LIMMAX
 10
36.0
 20
36.0
  9
$ORTHOMODE
 70
     1
  9
$REGENMODE
 70
     1
  9
$FILLMODE
 70
     1
  9
$QTEXTMODE
 70
     0
  9
$MIRRTEXT
 70
     1
  9
$DRAGMODE
 70
     0
  9
$LTSCALE
 40
1.0
  9
$OSMODE
 70
    37
  9
$ATTMODE
 70
     1
  9
$TEXTSIZE
 40
0.2
  9
$TRACEWID
 40
0.05
  9
$TEXTSTYLE
  7
STANDARD
  9
$CLAYER
  8
ADP1DETAIL
  9
$CELTYPE
  6
BYLAYER
  9
$CECOLOR
 62
   256
  9
$CELTSCALE
 40
1.0
  9
$DELOBJ
 70
     1
  9
$DISPSILH
 70
     0
  9
$DIMSCALE
 40
1.0
  9
$DIMASZ
 40
0.125
  9
$DIMEXO
 40
0.0625
  9
$DIMDLI
 40
0.38
  9
$DIMRND
 40
0.0
  9
$DIMDLE
 40
0.0
  9
$DIMEXE
 40
0.18
  9
$DIMTP
 40
0.0
  9
$DIMTM
 40
0.0
  9
$DIMTXT
 40
0.125
  9
$DIMCEN
 40
0.1875
  9
$DIMTSZ
 40
0.125
  9
$DIMTOL
 70
     0
  9
$DIMLIM
 70
     0
  9
$DIMTIH
 70
     0
  9
$DIMTOH
 70
     0
  9
$DIMSE1
 70
     0
  9
$DIMSE2
 70
     0
  9
$DIMTAD
 70
     0
  9
$DIMZIN
 70
     3
  9
$DIMBLK
  1

  9
$DIMASO
 70
     1
  9
$DIMSHO
 70
     1
  9
$DIMPOST
  1

  9
$DIMAPOST
  1

  9
$DIMALT
 70
     0
  9
$DIMALTD
 70
     1
  9
$DIMALTF
 40
25.4
  9
$DIMLFAC
 40
1.0
  9
$DIMTOFL
 70
     0
  9
$DIMTVP
 40
0.0
  9
$DIMTIX
 70
     0
  9
$DIMSOXD
 70
     0
  9
$DIMSAH
 70
     0
  9
$DIMBLK1
  1

  9
$DIMBLK2
  1

  9
$DIMSTYLE
  2
STANDARD
  9
$DIMCLRD
 70
     0
  9
$DIMCLRE
 70
     0
  9
$DIMCLRT
 70
     0
  9
$DIMTFAC
 40
1.0
  9
$DIMGAP
 40
0.125
  9
$DIMJUST
 70
     0
  9
$DIMSD1
 70
     0
  9
$DIMSD2
 70
     0
  9
$DIMTOLJ
 70
     1
  9
$DIMTZIN
 70
     3
  9
$DIMALTZ
 70
     3
  9
$DIMALTTZ
 70
     3
  9
$DIMFIT
 70
     5
  9
$DIMUPT
 70
     0
  9
$DIMUNIT
 70
     5
  9
$DIMDEC
 70
     4
  9
$DIMTDEC
 70
     4
  9
$DIMALTU
 70
     5
  9
$DIMALTTD
 70
     1
  9
$DIMTXSTY
  7
STANDARD
  9
$DIMAUNIT
 70
     0
  9
$LUNITS
 70
     5
  9
$LUPREC
 70
     4
  9
$SKETCHINC
 40
0.1
  9
$FILLETRAD
 40
0.062
  9
$AUNITS
 70
     0
  9
$AUPREC
 70
     0
  9
$MENU
  1
acad
  9
$ELEVATION
 40
0.0
  9
$PELEVATION
 40
0.0
  9
$THICKNESS
 40
0.0
  9
$LIMCHECK
 70
     0
  9
$BLIPMODE
 70
     0
  9
$CHAMFERA
 40
0.0
  9
$CHAMFERB
 40
0.0
  9
$CHAMFERC
 40
0.0
  9
$CHAMFERD
 40
0.0
  9
$SKPOLY
 70
     0
  9
$TDCREATE
 40
2450406.637516007
  9
$TDUPDATE
 40
2452297.087296006
  9
$TDINDWG
 40
0.0368865856
  9
$TDUSRTIMER
 40
0.0368865856
  9
$USRTIMER
 70
     1
  9
$ANGBASE
 50
0.0
  9
$ANGDIR
 70
     0
  9
$PDMODE
 70
     0
  9
$PDSIZE
 40
0.0
  9
$PLINEWID
 40
0.0
  9
$COORDS
 70
     2
  9
$SPLFRAME
 70
     0
  9
$SPLINETYPE
 70
     6
  9
$SPLINESEGS
 70
     8
  9
$ATTDIA
 70
     0
  9
$ATTREQ
 70
     1
  9
$HANDLING
 70
 22529
  9
$HANDSEED
  5
2DF
  9
$SURFTAB1
 70
     6
  9
$SURFTAB2
 70
     6
  9
$SURFTYPE
 70
     6
  9
$SURFU
 70
     6
  9
$SURFV
 70
     6
  9
$UCSNAME
  2

  9
$UCSORG
 10
0.0
 20
0.0
 30
0.0
  9
$UCSXDIR
 10
1.0
 20
0.0
 30
0.0
  9
$UCSYDIR
 10
0.0
 20
1.0
 30
0.0
  9
$PUCSNAME
  2

  9
$PUCSORG
 10
0.0
 20
0.0
 30
0.0
  9
$PUCSXDIR
 10
1.0
 20
0.0
 30
0.0
  9
$PUCSYDIR
 10
0.0
 20
1.0
 30
0.0
  9
$USERI1
 70
     0
  9
$USERI2
 70
     0
  9
$USERI3
 70
     0
  9
$USERI4
 70
     0
  9
$USERI5
 70
     0
  9
$USERR1
 40
0.0
  9
$USERR2
 40
0.0
  9
$USERR3
 40
0.0
  9
$USERR4
 40
0.0
  9
$USERR5
 40
0.0
  9
$WORLDVIEW
 70
     1
  9
$SHADEDGE
 70
     3
  9
$SHADEDIF
 70
    70
  9
$TILEMODE
 70
     1
  9
$MAXACTVP
 70
    15
  9
$PINSBASE
 10
0.0008545028977096
 20
1.250283272183907
 30
0.0
  9
$PLIMCHECK
 70
     0
  9
$PEXTMIN
 10
1.000000000000000E+20
 20
1.000000000000000E+20
 30
1.000000000000000E+20
  9
$PEXTMAX
 10
-1.000000000000000E+20
 20
-1.000000000000000E+20
 30
-1.000000000000000E+20
  9
$PLIMMIN
 10
0.0
 20
0.0
  9
$PLIMMAX
 10
12.0
 20
9.0
  9
$UNITMODE
 70
     0
  9
$VISRETAIN
 70
     0
  9
$PLINEGEN
 70
     0
  9
$PSLTSCALE
 70
     1
  9
$TREEDEPTH
 70
  3020
  9
$PICKSTYLE
 70
     1
  9
$CMLSTYLE
  2
STANDARD
  9
$CMLJUST
 70
     0
  9
$CMLSCALE
 40
1.0
  9
$PROXYGRAPHICS
 70
     1
  9
$MEASUREMENT
 70
     0
  0
ENDSEC
  0
SECTION
  2
CLASSES
  0
CLASS
  1
ACDBDICTIONARYWDFLT
  2
AcDbDictionaryWithDefault
  3
AutoCAD 2000
 90
        0
280
     0
281
     0
  0
CLASS
  1
ACDBPLACEHOLDER
  2
AcDbPlaceHolder
  3
AutoCAD 2000
 90
        0
280
     0
281
     0
  0
CLASS
  1
LAYOUT
  2
AcDbLayout
  3
AutoCAD 2000
 90
        0
280
     0
281
     0
  0
CLASS
  1
DICTIONARYVAR
  2
AcDbDictionaryVar
  3
AutoCAD 2000
 90
        0
280
     0
281
     0
  0
CLASS
  1
LONG_TRANSACTION
  2
AcDbLongTransaction
  3
AutoCAD 2000
 90
        0
280
     0
281
     0
  0
CLASS
  1
LWPOLYLINE
  2
AcDbPolyline
  3
AutoCAD 2000
 90
        0
280
     0
281
     1
  0
CLASS
  1
HATCH
  2
AcDbHatch
  3
AutoCAD 2000
 90
        0
280
     0
281
     1
  0
CLASS
  1
XRECORD
  2
AcDbXrecord
  3
AutoCAD 2000
 90
        0
280
     0
281
     0
  0
CLASS
  1
LONG_TRANSACTION
  2
AcDbLongTransaction
  3
AutoCAD 2000
 90
        0
280
     0
281
     0
  0
CLASS
  1
LWPOLYLINE
  2
AcDbPolyline
  3
AutoCAD 2000
 90
        0
280
     0
281
     1
  0
CLASS
  1
HATCH
  2
AcDbHatch
  3
AutoCAD 2000
 90
        0
280
     0
281
     1
  0
CLASS
  1
XRECORD
  2
AcDbXrecord
  3
AutoCAD 2000
 90
        0
280
     0
281
     0
  0
CLASS
  1
LONG_TRANSACTION
  2
AcDbLongTransaction
  3
AutoCAD 2000
 90
        0
280
     0
281
     0
  0
CLASS
  1
LWPOLYLINE
  2
AcDbPolyline
  3
AutoCAD 2000
 90
        0
280
     0
281
     1
  0
CLASS
  1
HATCH
  2
AcDbHatch
  3
AutoCAD 2000
 90
        0
280
     0
281
     1
  0
CLASS
  1
XRECORD
  2
AcDbXrecord
  3
AutoCAD 2000
 90
        0
280
     0
281
     0
  0
CLASS
  1
LONG_TRANSACTION
  2
AcDbLongTransaction
  3
AutoCAD 2000
 90
        0
280
     0
281
     0
  0
CLASS
  1
LWPOLYLINE
  2
AcDbPolyline
  3
AutoCAD 2000
 90
        0
280
     0
281
     1
  0
CLASS
  1
HATCH
  2
AcDbHatch
  3
AutoCAD 2000
 90
        0
280
     0
281
     1
  0
CLASS
  1
XRECORD
  2
AcDbXrecord
  3
AutoCAD 2000
 90
        0
280
     0
281
     0
  0
CLASS
  1
LONG_TRANSACTION
  2
AcDbLongTransaction
  3
AutoCAD 2000
 90
        0
280
     0
281
     0
  0
CLASS
  1
LWPOLYLINE
  2
AcDbPolyline
  3
AutoCAD 2000
 90
        0
280
     0
281
     1
  0
CLASS
  1
HATCH
  2
AcDbHatch
  3
AutoCAD 2000
 90
        0
280
     0
281
     1
  0
CLASS
  1
XRECORD
  2
AcDbXrecord
  3
AutoCAD 2000
 90
        0
280
     0
281
     0
  0
ENDSEC
  0
SECTION
  2
TABLES
  0
TABLE
  2
VPORT
  5
8
330
0
100
AcDbSymbolTable
 70
     2
  0
VPORT
  5
2BB
330
8
100
AcDbSymbolTableRecord
100
AcDbViewportTableRecord
  2
*ACTIVE
 70
     0
 10
0.0
 20
0.0
 11
1.0
 21
1.0
 12
-6.24721060969531
 22
-11.41586438090844
 13
0.0
 23
0.0
 14
0.5740882589684922
 24
0.5740882589684922
 15
0.5
 25
0.5
 16
0.0
 26
0.0
 36
1.0
 17
0.0
 27
0.0
 37
0.0
 40
10.72768577376663
 41
1.570528967254408
 42
50.0
 43
0.0
 44
0.0
 50
0.0
 51
0.0
 71
     0
 72
   100
 73
     1
 74
     0
 75
     0
 76
     0
 77
     0
 78
     0
  0
ENDTAB
  0
TABLE
  2
LTYPE
  5
5
330
0
100
AcDbSymbolTable
 70
     1
  0
LTYPE
  5
13
330
5
100
AcDbSymbolTableRecord
100
AcDbLinetypeTableRecord
  2
BYBLOCK
 70
     0
  3

 72
    65
 73
     0
 40
0.0
  0
LTYPE
  5
14
330
5
100
AcDbSymbolTableRecord
100
AcDbLinetypeTableRecord
  2
BYLAYER
 70
     0
  3

 72
    65
 73
     0
 40
0.0
  0
LTYPE
  5
15
330
5
100
AcDbSymbolTableRecord
100
AcDbLinetypeTableRecord
  2
CONTINUOUS
 70
     0
  3
Solid line
 72
    65
 73
     0
 40
0.0
  0
ENDTAB
  0
TABLE
  2
LAYER
  5
2
330
0
100
AcDbSymbolTable
 70
     4
  0
LAYER
  5
10
330
2
100
AcDbSymbolTableRecord
100
AcDbLayerTableRecord
  2
0
 70
     0
 62
     7
  6
CONTINUOUS
  0
LAYER
  5
70
330
2
100
AcDbSymbolTableRecord
100
AcDbLayerTableRecord
  2
ADP1DETAIL
 70
     0
 62
     7
  6
CONTINUOUS
  0
LAYER
  5
72
330
2
100
AcDbSymbolTableRecord
100
AcDbLayerTableRecord
  2
DEFPOINTS
 70
     0
 62
     7
  6
CONTINUOUS
  0
LAYER
  5
73
330
2
100
AcDbSymbolTableRecord
100
AcDbLayerTableRecord
  2
ADPDIM
 70
     0
 62
     3
  6
CONTINUOUS
  0
ENDTAB
  0
TABLE
  2
STYLE
  5
3
330
0
100
AcDbSymbolTable
 70
     2
  0
STYLE
  5
11
330
3
100
AcDbSymbolTableRecord
100
AcDbTextStyleTableRecord
  2
STANDARD
 70
     0
 40
0.0
 41
1.0
 50
0.0
 71
     0
 42
0.2
  3
txt
  4

  0
STYLE
  5
128
330
3
100
AcDbSymbolTableRecord
100
AcDbTextStyleTableRecord
  2
ARIAL_WIDE
 70
     0
 40
0.0
 41
1.25
 50
0.0
 71
     0
 42
0.2
  3
ARIAL.TTF
  4

1001
ACAD
1000
Arial
1071
       34
  0
ENDTAB
  0
TABLE
  2
VIEW
  5
6
330
0
100
AcDbSymbolTable
 70
     0
  0
ENDTAB
  0
TABLE
  2
UCS
  5
7
330
0
100
AcDbSymbolTable
 70
     0
  0
ENDTAB
  0
TABLE
  2
APPID
  5
9
330
0
100
AcDbSymbolTable
 70
     1
  0
APPID
  5
12
330
9
100
AcDbSymbolTableRecord
100
AcDbRegAppTableRecord
  2
ACAD
 70
     0
  0
ENDTAB
  0
TABLE
  2
DIMSTYLE
  5
A
330
0
100
AcDbSymbolTable
 70
     1
  0
DIMSTYLE
105
126
330
A
100
AcDbSymbolTableRecord
100
AcDbDimStyleTableRecord
  2
STANDARD
 70
     0
  3

  4

  5

  6

  7

 40
1.0
 41
0.18
 42
0.0625
 43
0.38
 44
0.18
 45
0.0
 46
0.0
 47
0.0
 48
0.0
140
0.18
141
0.09
142
0.0
143
25.4
144
1.0
145
0.0
146
1.0
147
0.09
 71
     0
 72
     0
 73
     1
 74
     1
 75
     0
 76
     0
 77
     0
 78
     0
170
     0
171
     2
172
     0
173
     0
174
     0
175
     0
176
     0
177
     0
178
     0
270
     2
271
     4
272
     4
273
     2
274
     2
340
11
275
     0
280
     0
281
     0
282
     0
283
     1
284
     0
285
     0
286
     0
287
     3
288
     0
  0
ENDTAB
  0
TABLE
  2
BLOCK_RECORD
  5
1
330
0
100
AcDbSymbolTable
 70
     5
  0
BLOCK_RECORD
  5
1E
102
{ACAD_XDICTIONARY
360
165
102
}
330
1
100
AcDbSymbolTableRecord
100
AcDbBlockTableRecord
  2
*MODEL_SPACE
  0
BLOCK_RECORD
  5
1A
102
{ACAD_XDICTIONARY
360
167
102
}
330
1
100
AcDbSymbolTableRecord
100
AcDbBlockTableRecord
  2
*PAPER_SPACE
  0
BLOCK_RECORD
  5
68
330
1
100
AcDbSymbolTableRecord
100
AcDbBlockTableRecord
  2
*D0
  0
BLOCK_RECORD
  5
69
330
1
100
AcDbSymbolTableRecord
100
AcDbBlockTableRecord
  2
*D1
  0
BLOCK_RECORD
  5
6A
330
1
100
AcDbSymbolTableRecord
100
AcDbBlockTableRecord
  2
*D2
  0
BLOCK_RECORD
  5
6B
330
1
100
AcDbSymbolTableRecord
100
AcDbBlockTableRecord
  2
*D3
  0
BLOCK_RECORD
  5
6C
330
1
100
AcDbSymbolTableRecord
100
AcDbBlockTableRecord
  2
*D4
  0
ENDTAB
  0
ENDSEC
  0
SECTION
  2
BLOCKS
  0
BLOCK
  5
76
330
1E
100
AcDbEntity
  8
0
100
AcDbBlockBegin
  2
*MODEL_SPACE
 70
     0
 10
0.0
 20
0.0
 30
0.0
  3
*MODEL_SPACE
  1

  0
ENDBLK
  5
77
330
1E
100
AcDbEntity
  8
0
100
AcDbBlockEnd
  0
BLOCK
  5
74
330
1A
100
AcDbEntity
 67
     1
  8
0
100
AcDbBlockBegin
  2
*PAPER_SPACE
 70
     0
 10
0.0
 20
0.0
 30
0.0
  3
*PAPER_SPACE
  1

  0
ENDBLK
  5
75
330
1A
100
AcDbEntity
 67
     1
  8
0
100
AcDbBlockEnd
  0
BLOCK
  5
79
330
68
100
AcDbEntity
  8
0
100
AcDbBlockBegin
  2
*D0
 70
     1
 10
0.0
 20
0.0
 30
0.0
  3
*D0
  1

  0
LINE
  5
7A
330
68
100
AcDbEntity
  8
0
  6
BYBLOCK
 62
     0
100
AcDbLine
 10
-4.143651958971343
 20
-9.742629914979007
 30
0.0
 11
-5.180008649941871
 21
-9.742629914979007
 31
0.0
  0
LINE
  5
7B
330
68
100
AcDbEntity
  8
0
  6
BYBLOCK
 62
     0
100
AcDbLine
 10
-4.143730197457557
 20
-8.128648624064524
 30
0.0
 11
-5.180008649941871
 21
-8.128648624064524
 31
0.0
  0
LINE
  5
7C
330
68
100
AcDbEntity
  8
0
  6
BYBLOCK
 62
     0
100
AcDbLine
 10
-5.000008649941872
 20
-9.742629914979007
 30
0.0
 11
-5.000008649941872
 21
-9.331472602855098
 31
0.0
  0
LINE
  5
7D
330
68
100
AcDbEntity
  8
0
  6
BYBLOCK
 62
     0
100
AcDbLine
 10
-5.000008649941872
 20
-8.128648624064524
 30
0.0
 11
-5.000008649941872
 21
-8.539805936188431
 31
0.0
  0
LINE
  5
7E
330
68
100
AcDbEntity
  8
0
  6
BYBLOCK
 62
     0
100
AcDbLine
 10
-4.875008649941872
 20
-9.867629914979007
 30
0.0
 11
-5.125008649941872
 21
-9.617629914979007
 31
0.0
  0
LINE
  5
7F
330
68
100
AcDbEntity
  8
0
  6
BYBLOCK
 62
     0
100
AcDbLine
 10
-4.875008649941872
 20
-8.253648624064524
 30
0.0
 11
-5.125008649941872
 21
-8.003648624064524
 31
0.0
  0
TEXT
  5
80
330
68
100
AcDbEntity
  8
0
  6
BYBLOCK
 62
     0
100
AcDbText
 10
-4.937508649941872
 20
-9.206472602855098
 30
0.0
 40
0.125
  1
1 5/8
 50
90.0
 72
     1
 11
-5.000008649941872
 21
-8.935639269521765
 31
0.0
100
AcDbText
 73
     2
  0
POINT
  5
82
330
68
100
AcDbEntity
  8
DEFPOINTS
  6
BYBLOCK
 62
     0
100
AcDbPoint
 10
-4.081151958971343
 20
-9.742629914979007
 30
0.0
  0
POINT
  5
83
330
68
100
AcDbEntity
  8
DEFPOINTS
  6
BYBLOCK
 62
     0
100
AcDbPoint
 10
-4.081230197457557
 20
-8.128648624064524
 30
0.0
  0
POINT
  5
84
330
68
100
AcDbEntity
  8
DEFPOINTS
  6
BYBLOCK
 62
     0
100
AcDbPoint
 10
-5.000008649941872
 20
-8.128648624064524
 30
0.0
  0
ENDBLK
  5
85
330
68
100
AcDbEntity
  8
0
100
AcDbBlockEnd
  0
BLOCK
  5
86
330
69
100
AcDbEntity
  8
0
100
AcDbBlockBegin
  2
*D1
 70
     1
 10
0.0
 20
0.0
 30
0.0
  3
*D1
  1

  0
LINE
  5
87
330
69
100
AcDbEntity
  8
0
  6
BYBLOCK
 62
     0
100
AcDbLine
 10
-9.60013116659595
 20
-14.38357383863924
 30
0.0
 11
-9.60013116659595
 21
-14.98963169779097
 31
0.0
  0
LINE
  5
88
330
69
100
AcDbEntity
  8
0
  6
BYBLOCK
 62
     0
100
AcDbLine
 10
-7.28763116659595
 20
-14.38357383863924
 30
0.0
 11
-7.28763116659595
 21
-14.98963169779097
 31
0.0
  0
LINE
  5
89
330
69
100
AcDbEntity
  8
0
  6
BYBLOCK
 62
     0
100
AcDbLine
 10
-9.60013116659595
 20
-14.80963169779097
 30
0.0
 11
-8.902214499929284
 21
-14.80963169779097
 31
0.0
  0
LINE
  5
8A
330
69
100
AcDbEntity
  8
0
  6
BYBLOCK
 62
     0
100
AcDbLine
 10
-7.28763116659595
 20
-14.80963169779097
 30
0.0
 11
-7.985547833262617
 21
-14.80963169779097
 31
0.0
  0
LINE
  5
8B
330
69
100
AcDbEntity
  8
0
  6
BYBLOCK
 62
     0
100
AcDbLine
 10
-9.72513116659595
 20
-14.93463169779097
 30
0.0
 11
-9.47513116659595
 21
-14.68463169779097
 31
0.0
  0
LINE
  5
8C
330
69
100
AcDbEntity
  8
0
  6
BYBLOCK
 62
     0
100
AcDbLine
 10
-7.41263116659595
 20
-14.93463169779097
 30
0.0
 11
-7.16263116659595
 21
-14.68463169779097
 31
0.0
  0
TEXT
  5
8D
330
69
100
AcDbEntity
  8
0
  6
BYBLOCK
 62
     0
100
AcDbText
 10
-8.777214499929284
 20
-14.87213169779097
 30
0.0
 40
0.125
  1
2 5/16
 72
     1
 11
-8.44388116659595
 21
-14.80963169779097
 31
0.0
100
AcDbText
 73
     2
  0
POINT
  5
8E
330
69
100
AcDbEntity
  8
DEFPOINTS
  6
BYBLOCK
 62
     0
100
AcDbPoint
 10
-9.60013116659595
 20
-14.32107383863923
 30
0.0
  0
POINT
  5
8F
330
69
100
AcDbEntity
  8
DEFPOINTS
  6
BYBLOCK
 62
     0
100
AcDbPoint
 10
-7.28763116659595
 20
-14.32107383863923
 30
0.0
  0
POINT
  5
90
330
69
100
AcDbEntity
  8
DEFPOINTS
  6
BYBLOCK
 62
     0
100
AcDbPoint
 10
-7.28763116659595
 20
-14.80963169779097
 30
0.0
  0
ENDBLK
  5
91
330
69
100
AcDbEntity
  8
0
100
AcDbBlockEnd
  0
BLOCK
  5
92
330
6A
100
AcDbEntity
  8
0
100
AcDbBlockBegin
  2
*D2
 70
     1
 10
0.0
 20
0.0
 30
0.0
  3
*D2
  1

  0
LINE
  5
93
330
6A
100
AcDbEntity
  8
0
  6
BYBLOCK
 62
     0
100
AcDbLine
 10
-9.88138116659595
 20
-7.430129914979007
 30
0.0
 11
-9.88138116659595
 21
-7.07947809647867
 31
0.0
  0
LINE
  5
94
330
6A
100
AcDbEntity
  8
0
  6
BYBLOCK
 62
     0
100
AcDbLine
 10
-7.00638116659595
 20
-7.430129914979007
 30
0.0
 11
-7.00638116659595
 21
-7.07947809647867
 31
0.0
  0
LINE
  5
95
330
6A
100
AcDbEntity
  8
0
  6
BYBLOCK
 62
     0
100
AcDbLine
 10
-9.88138116659595
 20
-7.25947809647867
 30
0.0
 11
-8.860547833262616
 21
-7.25947809647867
 31
0.0
  0
LINE
  5
96
330
6A
100
AcDbEntity
  8
0
  6
BYBLOCK
 62
     0
100
AcDbLine
 10
-7.00638116659595
 20
-7.25947809647867
 30
0.0
 11
-8.027214499929284
 21
-7.25947809647867
 31
0.0
  0
LINE
  5
97
330
6A
100
AcDbEntity
  8
0
  6
BYBLOCK
 62
     0
100
AcDbLine
 10
-10.00638116659595
 20
-7.38447809647867
 30
0.0
 11
-9.75638116659595
 21
-7.13447809647867
 31
0.0
  0
LINE
  5
98
330
6A
100
AcDbEntity
  8
0
  6
BYBLOCK
 62
     0
100
AcDbLine
 10
-7.13138116659595
 20
-7.38447809647867
 30
0.0
 11
-6.88138116659595
 21
-7.13447809647867
 31
0.0
  0
TEXT
  5
99
330
6A
100
AcDbEntity
  8
0
  6
BYBLOCK
 62
     0
100
AcDbText
 10
-8.735547833262616
 20
-7.32197809647867
 30
0.0
 40
0.125
  1
2 7/8
 72
     1
 11
-8.44388116659595
 21
-7.25947809647867
 31
0.0
100
AcDbText
 73
     2
  0
POINT
  5
9A
330
6A
100
AcDbEntity
  8
DEFPOINTS
  6
BYBLOCK
 62
     0
100
AcDbPoint
 10
-9.88138116659595
 20
-7.492629914979007
 30
0.0
  0
POINT
  5
9B
330
6A
100
AcDbEntity
  8
DEFPOINTS
  6
BYBLOCK
 62
     0
100
AcDbPoint
 10
-7.00638116659595
 20
-7.492629914979007
 30
0.0
  0
POINT
  5
9C
330
6A
100
AcDbEntity
  8
DEFPOINTS
  6
BYBLOCK
 62
     0
100
AcDbPoint
 10
-7.00638116659595
 20
-7.25947809647867
 30
0.0
  0
ENDBLK
  5
9D
330
6A
100
AcDbEntity
  8
0
100
AcDbBlockEnd
  0
BLOCK
  5
9E
330
6B
100
AcDbEntity
  8
0
100
AcDbBlockBegin
  2
*D3
 70
     1
 10
0.0
 20
0.0
 30
0.0
  3
*D3
  1

  0
LINE
  5
9F
330
6B
100
AcDbEntity
  8
0
  6
BYBLOCK
 62
     0
100
AcDbLine
 10
-7.00638116659595
 20
-7.430129914979007
 30
0.0
 11
-7.00638116659595
 21
-7.07947809647867
 31
0.0
  0
LINE
  5
A0
330
6B
100
AcDbEntity
  8
0
  6
BYBLOCK
 62
     0
100
AcDbLine
 10
-5.50638116659595
 20
-8.055129914979007
 30
0.0
 11
-5.50638116659595
 21
-7.07947809647867
 31
0.0
  0
LINE
  5
A1
330
6B
100
AcDbEntity
  8
0
  6
BYBLOCK
 62
     0
100
AcDbLine
 10
-7.00638116659595
 20
-7.25947809647867
 30
0.0
 11
-6.63138116659595
 21
-7.25947809647867
 31
0.0
  0
LINE
  5
A2
330
6B
100
AcDbEntity
  8
0
  6
BYBLOCK
 62
     0
100
AcDbLine
 10
-5.50638116659595
 20
-7.25947809647867
 30
0.0
 11
-5.88138116659595
 21
-7.25947809647867
 31
0.0
  0
LINE
  5
A3
330
6B
100
AcDbEntity
  8
0
  6
BYBLOCK
 62
     0
100
AcDbLine
 10
-7.13138116659595
 20
-7.38447809647867
 30
0.0
 11
-6.88138116659595
 21
-7.13447809647867
 31
0.0
  0
LINE
  5
A4
330
6B
100
AcDbEntity
  8
0
  6
BYBLOCK
 62
     0
100
AcDbLine
 10
-5.63138116659595
 20
-7.38447809647867
 30
0.0
 11
-5.38138116659595
 21
-7.13447809647867
 31
0.0
  0
TEXT
  5
A5
330
6B
100
AcDbEntity
  8
0
  6
BYBLOCK
 62
     0
100
AcDbText
 10
-6.50638116659595
 20
-7.32197809647867
 30
0.0
 40
0.125
  1
1 1/2
 72
     1
 11
-6.25638116659595
 21
-7.25947809647867
 31
0.0
100
AcDbText
 73
     2
  0
POINT
  5
A6
330
6B
100
AcDbEntity
  8
DEFPOINTS
  6
BYBLOCK
 62
     0
100
AcDbPoint
 10
-7.00638116659595
 20
-7.492629914979007
 30
0.0
  0
POINT
  5
A7
330
6B
100
AcDbEntity
  8
DEFPOINTS
  6
BYBLOCK
 62
     0
100
AcDbPoint
 10
-5.50638116659595
 20
-8.117629914979007
 30
0.0
  0
POINT
  5
A8
330
6B
100
AcDbEntity
  8
DEFPOINTS
  6
BYBLOCK
 62
     0
100
AcDbPoint
 10
-5.50638116659595
 20
-7.25947809647867
 30
0.0
  0
ENDBLK
  5
A9
330
6B
100
AcDbEntity
  8
0
100
AcDbBlockEnd
  0
BLOCK
  5
AA
330
6C
100
AcDbEntity
  8
0
100
AcDbBlockBegin
  2
*D4
 70
     1
 10
0.0
 20
0.0
 30
0.0
  3
*D4
  1

  0
LINE
  5
AB
330
6C
100
AcDbEntity
  8
0
  6
BYBLOCK
 62
     0
100
AcDbLine
 10
-3.761988162866522
 20
-9.466939149971921
 30
0.0
 11
-2.880755317824447
 21
-9.466939149971921
 31
0.0
  0
LINE
  5
AC
330
6C
100
AcDbEntity
  8
0
  6
BYBLOCK
 62
     0
100
AcDbLine
 10
-3.762039674085507
 20
-8.404314503984608
 30
0.0
 11
-2.880755317824447
 21
-8.404314503984608
 31
0.0
  0
LINE
  5
AD
330
6C
100
AcDbEntity
  8
0
  6
BYBLOCK
 62
     0
100
AcDbLine
 10
-3.060755317824447
 20
-9.466939149971921
 30
0.0
 11
-3.060755317824447
 21
-9.716939149971921
 31
0.0
  0
LINE
  5
AE
330
6C
100
AcDbEntity
  8
0
  6
BYBLOCK
 62
     0
100
AcDbLine
 10
-3.060755317824447
 20
-8.404314503984608
 30
0.0
 11
-3.060755317824447
 21
-8.154314503984608
 31
0.0
  0
LINE
  5
AF
330
6C
100
AcDbEntity
  8
0
  6
BYBLOCK
 62
     0
100
AcDbLine
 10
-2.935755317824447
 20
-9.591939149971921
 30
0.0
 11
-3.185755317824447
 21
-9.341939149971921
 31
0.0
  0
LINE
  5
B0
330
6C
100
AcDbEntity
  8
0
  6
BYBLOCK
 62
     0
100
AcDbLine
 10
-2.935755317824447
 20
-8.529314503984608
 30
0.0
 11
-3.185755317824447
 21
-8.279314503984608
 31
0.0
  0
TEXT
  5
B1
330
6C
100
AcDbEntity
  8
0
  6
BYBLOCK
 62
     0
100
AcDbText
 10
-2.998255317824447
 20
-8.029314503984608
 30
0.0
 40
0.125
  1
1 1/16
 50
90.0
 72
     1
 11
-3.060755317824447
 21
-7.737647837317941
 31
0.0
100
AcDbText
 73
     2
  0
POINT
  5
B2
330
6C
100
AcDbEntity
  8
DEFPOINTS
  6
BYBLOCK
 62
     0
100
AcDbPoint
 10
-3.824488162866522
 20
-9.466939149971921
 30
0.0
  0
POINT
  5
B3
330
6C
100
AcDbEntity
  8
DEFPOINTS
  6
BYBLOCK
 62
     0
100
AcDbPoint
 10
-3.824539674085507
 20
-8.404314503984608
 30
0.0
  0
POINT
  5
B4
330
6C
100
AcDbEntity
  8
DEFPOINTS
  6
BYBLOCK
 62
     0
100
AcDbPoint
 10
-3.060755317824447
 20
-8.404314503984608
 30
0.0
  0
ENDBLK
  5
B5
330
6C
100
AcDbEntity
  8
0
100
AcDbBlockEnd
  0
ENDSEC
  0
SECTION
  2
ENTITIES
  0
DIMENSION
  5
B6
330
1E
100
AcDbEntity
  8
ADPDIM
100
AcDbDimension
  2
*D2
 10
-7.00638116659595
 20
-7.25947809647867
 30
0.0
 11
-8.44388116659595
 21
-7.25947809647867
 31
0.0
100
AcDbAlignedDimension
 13
-9.88138116659595
 23
-7.492629914979007
 33
0.0
 14
-7.00638116659595
 24
-7.492629914979007
 34
0.0
100
AcDbRotatedDimension
  0
DIMENSION
  5
B7
330
1E
100
AcDbEntity
  8
ADPDIM
100
AcDbDimension
  2
*D1
 10
-7.28763116659595
 20
-14.80963169779097
 30
0.0
 11
-8.44388116659595
 21
-14.80963169779097
 31
0.0
100
AcDbAlignedDimension
 13
-9.60013116659595
 23
-14.32107383863923
 33
0.0
 14
-7.28763116659595
 24
-14.32107383863923
 34
0.0
100
AcDbRotatedDimension
  0
LINE
  5
B8
330
1E
100
AcDbEntity
  8
ADP1DETAIL
100
AcDbLine
 10
-7.00638116659595
 20
-14.60232383863924
 30
0.0
 11
-9.88138116659595
 21
-14.60232383863924
 31
0.0
  0
LINE
  5
B9
330
1E
100
AcDbEntity
  8
ADP1DETAIL
100
AcDbLine
 10
-7.28763116659595
 20
-14.32107383863923
 30
0.0
 11
-9.60013116659595
 21
-14.32107383863923
 31
0.0
  0
LINE
  5
BA
330
1E
100
AcDbEntity
  8
ADP1DETAIL
100
AcDbLine
 10
-7.16263116659595
 20
-14.44607383863924
 30
0.0
 11
-9.72513116659595
 21
-14.44607383863924
 31
0.0
  0
LINE
  5
BB
330
1E
100
AcDbEntity
  8
ADP1DETAIL
100
AcDbLine
 10
-9.88138116659595
 20
-11.72732383863924
 30
0.0
 11
-7.00638116659595
 21
-11.72732383863924
 31
0.0
  0
LINE
  5
BC
330
1E
100
AcDbEntity
  8
ADP1DETAIL
100
AcDbLine
 10
-9.60013116659595
 20
-12.00857383863924
 30
0.0
 11
-7.28763116659595
 21
-12.00857383863924
 31
0.0
  0
LINE
  5
BD
330
1E
100
AcDbEntity
  8
ADP1DETAIL
100
AcDbLine
 10
-9.72513116659595
 20
-11.88357383863924
 30
0.0
 11
-7.16263116659595
 21
-11.88357383863924
 31
0.0
  0
LINE
  5
BE
330
1E
100
AcDbEntity
  8
ADP1DETAIL
100
AcDbLine
 10
-9.88138116659595
 20
-10.367629914979
 30
0.0
 11
-7.00638116659595
 21
-10.367629914979
 31
0.0
  0
LINE
  5
BF
330
1E
100
AcDbEntity
  8
ADP1DETAIL
100
AcDbLine
 10
-7.13138116659595
 20
-10.242629914979
 30
0.0
 11
-9.75638116659595
 21
-10.242629914979
 31
0.0
  0
LINE
  5
C0
330
1E
100
AcDbEntity
  8
ADP1DETAIL
100
AcDbLine
 10
-7.60013116659595
 20
-14.13357383863924
 30
0.0
 11
-9.28763116659595
 21
-14.13357383863924
 31
0.0
  0
LINE
  5
C1
330
1E
100
AcDbEntity
  8
ADP1DETAIL
100
AcDbLine
 10
-9.28763116659595
 20
-12.19607383863924
 30
0.0
 11
-7.60013116659595
 21
-12.19607383863924
 31
0.0
  0
LINE
  5
C2
330
1E
100
AcDbEntity
  8
ADP1DETAIL
100
AcDbLine
 10
-9.75638116659595
 20
-7.617629914979007
 30
0.0
 11
-7.13138116659595
 21
-7.617629914979007
 31
0.0
  0
LINE
  5
C3
330
1E
100
AcDbEntity
  8
ADP1DETAIL
100
AcDbLine
 10
-9.88138116659595
 20
-7.492629914979007
 30
0.0
 11
-7.00638116659595
 21
-7.492629914979007
 31
0.0
  0
LINE
  5
C4
330
1E
100
AcDbEntity
  8
ADP1DETAIL
100
AcDbLine
 10
-9.197381166595951
 20
-9.683629914979007
 30
0.0
 11
-7.690381166595951
 21
-9.683629914979007
 31
0.0
  0
LINE
  5
C5
330
1E
100
AcDbEntity
  8
ADP1DETAIL
100
AcDbLine
 10
-9.197381166595951
 20
-8.176629914979006
 30
0.0
 11
-7.690381166595951
 21
-8.176629914979006
 31
0.0
  0
LINE
  5
C6
330
1E
100
AcDbEntity
  8
ADP1DETAIL
100
AcDbLine
 10
-9.88138116659595
 20
-14.60232383863924
 30
0.0
 11
-9.88138116659595
 21
-11.72732383863924
 31
0.0
  0
LINE
  5
C7
330
1E
100
AcDbEntity
  8
ADP1DETAIL
100
AcDbLine
 10
-9.72513116659595
 20
-14.44607383863924
 30
0.0
 11
-9.72513116659595
 21
-11.88357383863924
 31
0.0
  0
LINE
  5
C8
330
1E
100
AcDbEntity
  8
ADP1DETAIL
100
AcDbLine
 10
-9.60013116659595
 20
-13.69607383863923
 30
0.0
 11
-9.60013116659595
 21
-12.00857383863924
 31
0.0
  0
LINE
  5
C9
330
1E
100
AcDbEntity
  8
ADP1DETAIL
100
AcDbLine
 10
-9.28763116659595
 20
-14.00857383863923
 30
0.0
 11
-9.28763116659595
 21
-14.13357383863924
 31
0.0
  0
LINE
  5
CA
330
1E
100
AcDbEntity
  8
ADP1DETAIL
100
AcDbLine
 10
-9.60013116659595
 20
-14.32107383863923
 30
0.0
 11
-9.60013116659595
 21
-13.69607383863923
 31
0.0
  0
LINE
  5
CB
330
1E
100
AcDbEntity
  8
ADP1DETAIL
100
AcDbLine
 10
-9.60013116659595
 20
-14.00857383863923
 30
0.0
 11
-9.28763116659595
 21
-14.00857383863923
 31
0.0
  0
LINE
  5
CC
330
1E
100
AcDbEntity
  8
ADP1DETAIL
100
AcDbLine
 10
-9.88138116659595
 20
-10.367629914979
 30
0.0
 11
-9.88138116659595
 21
-7.430129914979007
 31
0.0
  0
LINE
  5
CD
330
1E
100
AcDbEntity
  8
ADP1DETAIL
100
AcDbLine
 10
-9.75638116659595
 20
-10.242629914979
 30
0.0
 11
-9.75638116659595
 21
-7.617629914979007
 31
0.0
  0
LINE
  5
CE
330
1E
100
AcDbEntity
  8
ADP1DETAIL
100
AcDbLine
 10
-9.197381166595949
 20
-9.683629914979007
 30
0.0
 11
-9.197381166595951
 21
-8.176629914979006
 31
0.0
  0
LINE
  5
CF
330
1E
100
AcDbEntity
  8
ADP1DETAIL
100
AcDbLine
 10
-9.28763116659595
 20
-12.19607383863924
 30
0.0
 11
-9.28763116659595
 21
-12.32107383863924
 31
0.0
  0
LINE
  5
D0
330
1E
100
AcDbEntity
  8
ADP1DETAIL
100
AcDbLine
 10
-9.28763116659595
 20
-12.32107383863924
 30
0.0
 11
-9.60013116659595
 21
-12.32107383863924
 31
0.0
  0
LINE
  5
D1
330
1E
100
AcDbEntity
  8
ADP1DETAIL
100
AcDbLine
 10
-9.88138116659595
 20
-10.367629914979
 30
0.0
 11
-9.197381166595951
 21
-9.683629914979007
 31
0.0
  0
LINE
  5
D2
330
1E
100
AcDbEntity
  8
ADP1DETAIL
100
AcDbLine
 10
-9.197381166595951
 20
-8.176629914979006
 30
0.0
 11
-9.88138116659595
 21
-7.492629914979007
 31
0.0
  0
LINE
  5
D3
330
1E
100
AcDbEntity
  8
ADP1DETAIL
100
AcDbLine
 10
-5.50638116659595
 20
-12.35232383863924
 30
0.0
 11
-5.50638116659595
 21
-13.97732383863924
 31
0.0
  0
LINE
  5
D4
330
1E
100
AcDbEntity
  8
ADP1DETAIL
100
AcDbLine
 10
-7.28763116659595
 20
-12.00857383863924
 30
0.0
 11
-7.28763116659595
 21
-14.32107383863923
 31
0.0
  0
LINE
  5
D5
330
1E
100
AcDbEntity
  8
ADP1DETAIL
100
AcDbLine
 10
-5.50638116659595
 20
-13.97732383863924
 30
0.0
 11
-7.00638116659595
 21
-13.97732383863924
 31
0.0
  0
LINE
  5
D6
330
1E
100
AcDbEntity
  8
ADP1DETAIL
100
AcDbLine
 10
-5.50638116659595
 20
-13.69607383863923
 30
0.0
 11
-7.28763116659595
 21
-13.69607383863923
 31
0.0
  0
LINE
  5
D7
330
1E
100
AcDbEntity
  8
ADP1DETAIL
100
AcDbLine
 10
-5.50638116659595
 20
-13.82107383863924
 30
0.0
 11
-7.16263116659595
 21
-13.82107383863924
 31
0.0
  0
LINE
  5
D8
330
1E
100
AcDbEntity
  8
ADP1DETAIL
100
AcDbLine
 10
-5.50638116659595
 20
-13.50857383863924
 30
0.0
 11
-7.28763116659595
 21
-13.50857383863924
 31
0.0
  0
LINE
  5
D9
330
1E
100
AcDbEntity
  8
ADP1DETAIL
100
AcDbLine
 10
-7.60013116659595
 20
-14.13357383863924
 30
0.0
 11
-7.60013116659595
 21
-14.00857383863923
 31
0.0
  0
LINE
  5
DA
330
1E
100
AcDbEntity
  8
ADP1DETAIL
100
AcDbLine
 10
-7.16263116659595
 20
-13.82107383863924
 30
0.0
 11
-7.16263116659595
 21
-14.44607383863924
 31
0.0
  0
LINE
  5
DB
330
1E
100
AcDbEntity
  8
ADP1DETAIL
100
AcDbLine
 10
-7.60013116659595
 20
-14.00857383863923
 30
0.0
 11
-7.28763116659595
 21
-14.00857383863923
 31
0.0
  0
LINE
  5
DC
330
1E
100
AcDbEntity
  8
ADP1DETAIL
100
AcDbLine
 10
-7.00638116659595
 20
-13.97732383863924
 30
0.0
 11
-7.00638116659595
 21
-14.60232383863924
 31
0.0
  0
ARC
  5
DD
330
1E
100
AcDbEntity
  8
ADP1DETAIL
100
AcDbCircle
 10
-3.737431892154575
 20
-7.388781887956408
 30
0.0
 40
0.25
100
AcDbArc
 50
215.7721420757122
 51
267.9093935297879
  0
LINE
  5
DE
330
1E
100
AcDbEntity
  8
ADP1DETAIL
100
AcDbLine
 10
-3.887539673789422
 20
-8.404320611892607
 30
0.0
 11
-3.761539674381587
 21
-8.404308396076608
 31
0.0
  0
ARC
  5
DF
330
1E
100
AcDbEntity
  8
ADP1DETAIL
100
AcDbCircle
 10
-3.737431892154575
 20
-8.02878833440549
 30
0.0
 40
0.25
100
AcDbArc
 50
215.7721420757122
 51
267.9093935297879
  0
LINE
  5
E0
330
1E
100
AcDbEntity
  8
ADP1DETAIL
100
AcDbLine
 10
-3.887488162866521
 20
-9.466939149971921
 30
0.0
 11
-3.76148816286652
 21
-9.466939149971921
 31
0.0
  0
ARC
  5
E1
330
1E
100
AcDbEntity
  8
ADP1DETAIL
100
AcDbCircle
 10
-3.737343973737107
 20
-9.842456872606511
 30
0.0
 40
0.25
100
AcDbArc
 50
92.09616134879359
 51
144.2334128028693
  0
ARC
  5
E2
330
1E
100
AcDbEntity
  8
ADP1DETAIL
100
AcDbCircle
 10
-3.737343973737107
 20
-10.46773140253998
 30
0.0
 40
0.25
100
AcDbArc
 50
92.09616134879359
 51
144.2334128028693
  0
DIMENSION
  5
E3
330
1E
100
AcDbEntity
  8
ADPDIM
100
AcDbDimension
  2
*D0
 10
-5.000008649941872
 20
-8.128648624064524
 30
0.0
 11
-5.000008649941872
 21
-8.935639269521765
 31
0.0
100
AcDbAlignedDimension
 13
-4.081151958971343
 23
-9.742629914979007
 33
0.0
 14
-4.081230197457557
 24
-8.128648624064524
 34
0.0
 50
90.0
100
AcDbRotatedDimension
  0
ARC
  5
E4
330
1E
100
AcDbEntity
  8
ADP1DETAIL
100
AcDbCircle
 10
-3.996488162866519
 20
-8.935939149971922
 30
0.0
 40
0.4060000000000001
100
AcDbArc
 50
179.9598780723828
 51
223.0663233236764
  0
LINE
  5
E5
330
1E
100
AcDbEntity
  8
ADP1DETAIL
100
AcDbLine
 10
-4.05848816286652
 20
-8.934439149971922
 30
0.0
 11
-4.05848816286652
 21
-9.26443914997192
 31
0.0
  0
LINE
  5
E6
330
1E
100
AcDbEntity
  8
ADP1DETAIL
100
AcDbLine
 10
-7.00638116659595
 20
-9.742629914979007
 30
0.0
 11
-7.690381166595951
 21
-9.058629914979007
 31
0.0
  0
LINE
  5
E7
330
1E
100
AcDbEntity
  8
ADP1DETAIL
100
AcDbLine
 10
-7.690381166595951
 20
-8.176629914979006
 30
0.0
 11
-7.690381166595951
 21
-9.683629914979007
 31
0.0
  0
LINE
  5
E8
330
1E
100
AcDbEntity
  8
ADP1DETAIL
100
AcDbLine
 10
-5.50638116659595
 20
-8.117629914979007
 30
0.0
 11
-5.50638116659595
 21
-9.742629914979007
 31
0.0
  0
LINE
  5
E9
330
1E
100
AcDbEntity
  8
ADP1DETAIL
100
AcDbLine
 10
-4.402488063322689
 20
-8.182154844541056
 30
0.0
 11
-4.402488063322689
 21
-9.689154844541057
 31
0.0
  0
LINE
  5
EA
330
1E
100
AcDbEntity
  8
ADP1DETAIL
100
AcDbLine
 10
-7.00638116659595
 20
-12.35232383863924
 30
0.0
 11
-5.50638116659595
 21
-12.35232383863924
 31
0.0
  0
LINE
  5
EB
330
1E
100
AcDbEntity
  8
ADP1DETAIL
100
AcDbLine
 10
-7.28763116659595
 20
-12.63357383863924
 30
0.0
 11
-5.50638116659595
 21
-12.63357383863924
 31
0.0
  0
LINE
  5
EC
330
1E
100
AcDbEntity
  8
ADP1DETAIL
100
AcDbLine
 10
-7.28763116659595
 20
-12.82107383863924
 30
0.0
 11
-5.50638116659595
 21
-12.82107383863924
 31
0.0
  0
LINE
  5
ED
330
1E
100
AcDbEntity
  8
ADP1DETAIL
100
AcDbLine
 10
-7.16263116659595
 20
-12.50857383863924
 30
0.0
 11
-5.50638116659595
 21
-12.50857383863924
 31
0.0
  0
LINE
  5
EE
330
1E
100
AcDbEntity
  8
ADP1DETAIL
100
AcDbLine
 10
-5.50638116659595
 20
-9.617629914979007
 30
0.0
 11
-7.13138116659595
 21
-9.617629914979007
 31
0.0
  0
LINE
  5
EF
330
1E
100
AcDbEntity
  8
ADP1DETAIL
100
AcDbLine
 10
-5.50638116659595
 20
-9.742629914979007
 30
0.0
 11
-7.00638116659595
 21
-9.742629914979007
 31
0.0
  0
LINE
  5
F0
330
1E
100
AcDbEntity
  8
ADP1DETAIL
100
AcDbLine
 10
-7.16263116659595
 20
-11.88357383863924
 30
0.0
 11
-7.16263116659595
 21
-12.50857383863924
 31
0.0
  0
LINE
  5
F1
330
1E
100
AcDbEntity
  8
ADP1DETAIL
100
AcDbLine
 10
-7.28763116659595
 20
-12.32107383863924
 30
0.0
 11
-7.60013116659595
 21
-12.32107383863924
 31
0.0
  0
LINE
  5
F2
330
1E
100
AcDbEntity
  8
ADP1DETAIL
100
AcDbLine
 10
-7.60013116659595
 20
-12.32107383863924
 30
0.0
 11
-7.60013116659595
 21
-12.19607383863924
 31
0.0
  0
LINE
  5
F3
330
1E
100
AcDbEntity
  8
ADP1DETAIL
100
AcDbLine
 10
-7.00638116659595
 20
-11.72732383863924
 30
0.0
 11
-7.00638116659595
 21
-12.35232383863924
 31
0.0
  0
LINE
  5
F4
330
1E
100
AcDbEntity
  8
ADP1DETAIL
100
AcDbLine
 10
-7.00638116659595
 20
-10.367629914979
 30
0.0
 11
-7.690381166595951
 21
-9.683629914979007
 31
0.0
  0
LINE
  5
F5
330
1E
100
AcDbEntity
  8
ADP1DETAIL
100
AcDbLine
 10
-7.13138116659595
 20
-9.617629914979007
 30
0.0
 11
-7.13138116659595
 21
-10.242629914979
 31
0.0
  0
LINE
  5
F6
330
1E
100
AcDbEntity
  8
ADP1DETAIL
100
AcDbLine
 10
-7.00638116659595
 20
-9.742629914979007
 30
0.0
 11
-7.00638116659595
 21
-10.367629914979
 31
0.0
  0
LINE
  5
F7
330
1E
100
AcDbEntity
  8
ADP1DETAIL
100
AcDbLine
 10
-4.184493650344403
 20
-10.24871367990539
 30
0.0
 11
-4.184509438611637
 21
-9.623439149971922
 31
0.0
  0
LINE
  5
F8
330
1E
100
AcDbEntity
  8
ADP1DETAIL
100
AcDbLine
 10
-4.214475085591693
 20
-9.613886432225196
 30
0.0
 11
-4.21549913380436
 21
-10.23372465887615
 31
0.0
  0
ARC
  5
F9
330
1E
100
AcDbEntity
  8
ADP1DETAIL
100
AcDbCircle
 10
-5.098113905477401
 20
-10.2325264751085
 30
0.0
 40
0.8826936281513425
100
AcDbArc
 50
358.9647418692438
 51
37.99433047685981
  0
ARC
  5
FA
330
1E
100
AcDbEntity
  8
ADP1DETAIL
100
AcDbCircle
 10
-4.200499137822287
 20
-10.23371367990539
 30
0.0
 40
0.0150000000000006
100
AcDbArc
 50
180.0419365829274
 51
270.0
  0
LINE
  5
FB
330
1E
100
AcDbEntity
  8
ADP1DETAIL
100
AcDbLine
 10
-4.16848816286652
 20
-10.24871367990539
 30
0.0
 11
-4.200499137822287
 21
-10.24871367990539
 31
0.0
  0
ARC
  5
FC
330
1E
100
AcDbEntity
  8
ADP1DETAIL
100
AcDbCircle
 10
-4.04348816286652
 20
-10.24871367990539
 30
0.0
 40
0.125
100
AcDbArc
 50
180.0
 51
324.927352164704
  0
LINE
  5
FD
330
1E
100
AcDbEntity
  8
ADP1DETAIL
100
AcDbLine
 10
-3.902488162866522
 20
-9.294439149971921
 30
0.0
 11
-3.902488162866522
 21
-9.45193914997192
 31
0.0
  0
ARC
  5
FE
330
1E
100
AcDbEntity
  8
ADP1DETAIL
100
AcDbCircle
 10
-3.887488162866521
 20
-9.45193914997192
 30
0.0
 40
0.0150000000000006
100
AcDbArc
 50
180.0
 51
270.0
  0
ARC
  5
FF
330
1E
100
AcDbEntity
  8
ADP1DETAIL
100
AcDbCircle
 10
-3.917488162866519
 20
-9.294439149971921
 30
0.0
 40
0.0150000000000006
100
AcDbArc
 50
0.0
 51
90.0
  0
ARC
  5
100
330
1E
100
AcDbEntity
  8
ADP1DETAIL
100
AcDbCircle
 10
-4.569837801545766
 20
-9.434266121884927
 30
0.0
 40
0.3542134459117149
100
AcDbArc
 50
359.8326154630628
 51
38.62185314587851
  0
LINE
  5
101
330
1E
100
AcDbEntity
  8
ADP1DETAIL
100
AcDbLine
 10
-4.16848816286652
 20
-9.623439149971922
 30
0.0
 11
-4.200499137822287
 21
-9.623439149971922
 31
0.0
  0
ARC
  5
102
330
1E
100
AcDbEntity
  8
ADP1DETAIL
100
AcDbCircle
 10
-4.200499137822287
 20
-9.608439149971921
 30
0.0
 40
0.0150000000000006
100
AcDbArc
 50
180.0419365829274
 51
270.0
  0
LINE
  5
103
330
1E
100
AcDbEntity
  8
ADP1DETAIL
100
AcDbLine
 10
-4.21549913380436
 20
-9.608450128942678
 30
0.0
 11
-4.215625867175791
 21
-9.435300923571695
 31
0.0
  0
ARC
  5
104
330
1E
100
AcDbEntity
  8
ADP1DETAIL
100
AcDbCircle
 10
-4.04348816286652
 20
-9.26443914997192
 30
0.0
 40
0.0150000000000006
100
AcDbArc
 50
180.0
 51
269.9999999999966
  0
ARC
  5
105
330
1E
100
AcDbEntity
  8
ADP1DETAIL
100
AcDbCircle
 10
-4.04348816286652
 20
-9.623439149971922
 30
0.0
 40
0.125
100
AcDbArc
 50
180.0
 51
324.927352164704
  0
LINE
  5
106
330
1E
100
AcDbEntity
  8
ADP1DETAIL
100
AcDbLine
 10
-4.04348816286652
 20
-9.279439149971921
 30
0.0
 11
-3.917488162866519
 21
-9.279439149971921
 31
0.0
  0
DIMENSION
  5
107
330
1E
100
AcDbEntity
  8
ADPDIM
100
AcDbDimension
  2
*D3
 10
-5.50638116659595
 20
-7.25947809647867
 30
0.0
 11
-6.25638116659595
 21
-7.25947809647867
 31
0.0
100
AcDbAlignedDimension
 13
-7.00638116659595
 23
-7.492629914979007
 33
0.0
 14
-5.50638116659595
 24
-8.117629914979007
 34
0.0
100
AcDbRotatedDimension
  0
LINE
  5
108
330
1E
100
AcDbEntity
  8
ADP1DETAIL
100
AcDbLine
 10
-7.13138116659595
 20
-8.242629914979007
 30
0.0
 11
-5.50638116659595
 21
-8.242629914979007
 31
0.0
  0
LINE
  5
109
330
1E
100
AcDbEntity
  8
ADP1DETAIL
100
AcDbLine
 10
-7.00638116659595
 20
-8.117629914979007
 30
0.0
 11
-5.50638116659595
 21
-8.117629914979007
 31
0.0
  0
LINE
  5
10A
330
1E
100
AcDbEntity
  8
ADP1DETAIL
100
AcDbLine
 10
-7.00638116659595
 20
-8.117629914979007
 30
0.0
 11
-7.690381166595951
 21
-8.801629914979006
 31
0.0
  0
LINE
  5
10B
330
1E
100
AcDbEntity
  8
ADP1DETAIL
100
AcDbLine
 10
-7.00638116659595
 20
-7.492629914979007
 30
0.0
 11
-7.690381166595951
 21
-8.176629914979006
 31
0.0
  0
LINE
  5
10C
330
1E
100
AcDbEntity
  8
ADP1DETAIL
100
AcDbLine
 10
-7.13138116659595
 20
-7.617629914979007
 30
0.0
 11
-7.13138116659595
 21
-8.242629914979007
 31
0.0
  0
LINE
  5
10D
330
1E
100
AcDbEntity
  8
ADP1DETAIL
100
AcDbLine
 10
-7.00638116659595
 20
-7.492629914979007
 30
0.0
 11
-7.00638116659595
 21
-8.117629914979007
 31
0.0
  0
ARC
  5
10E
330
1E
100
AcDbEntity
  8
ADP1DETAIL
100
AcDbCircle
 10
-5.098113905477401
 20
-7.638783213973605
 30
0.0
 40
0.8826936281513425
100
AcDbArc
 50
322.0056695231401
 51
1.035258130756192
  0
LINE
  5
10F
330
1E
100
AcDbEntity
  8
ADP1DETAIL
100
AcDbLine
 10
-4.184544172440443
 20
-8.247849406016811
 30
0.0
 11
-4.184560332690537
 21
-7.607842961134483
 31
0.0
  0
LINE
  5
110
330
1E
100
AcDbEntity
  8
ADP1DETAIL
100
AcDbLine
 10
-4.211168113830549
 20
-7.612235058143884
 30
0.0
 11
-4.212227426786657
 21
-8.253418408750693
 31
0.0
  0
ARC
  5
111
330
1E
100
AcDbEntity
  8
ADP1DETAIL
100
AcDbCircle
 10
-3.996488192338286
 20
-8.935331177047395
 30
0.0
 40
0.4060000000000001
100
AcDbArc
 50
136.9392315549051
 51
180.0456768061986
  0
LINE
  5
112
330
1E
100
AcDbEntity
  8
ADP1DETAIL
100
AcDbLine
 10
-3.902522949685113
 20
-8.576822065345712
 30
0.0
 11
-3.902538219455117
 21
-8.419322066085921
 31
0.0
  0
ARC
  5
113
330
1E
100
AcDbEntity
  8
ADP1DETAIL
100
AcDbCircle
 10
-3.887538219525612
 20
-8.419320611822111
 30
0.0
 40
0.0150000000000002
100
AcDbArc
 50
90.00555487858212
 51
180.005554878582
  0
ARC
  5
114
330
1E
100
AcDbEntity
  8
ADP1DETAIL
100
AcDbCircle
 10
-3.917522949614617
 20
-8.576823519609522
 30
0.0
 40
0.0150000000000002
100
AcDbArc
 50
270.005554878582
 51
0.0055548785820747
  0
ARC
  5
115
330
1E
100
AcDbEntity
  8
ADP1DETAIL
100
AcDbCircle
 10
-4.569886141581651
 20
-8.437059794251716
 30
0.0
 40
0.3542134459117149
100
AcDbArc
 50
321.383701732703
 51
0.1729394155187425
  0
LINE
  5
116
330
1E
100
AcDbEntity
  8
ADP1DETAIL
100
AcDbLine
 10
-4.215564362805391
 20
-8.26284143455253
 30
0.0
 11
-4.215674309201354
 21
-8.435990651396679
 31
0.0
  0
ARC
  5
117
330
1E
100
AcDbEntity
  8
ADP1DETAIL
100
AcDbCircle
 10
-4.043520040494833
 20
-8.60683573528453
 30
0.0
 40
0.0150000000000002
100
AcDbArc
 50
90.00555487858212
 51
180.005554878582
  0
LINE
  5
118
330
1E
100
AcDbEntity
  8
ADP1DETAIL
100
AcDbLine
 10
-4.168554845287875
 20
-8.247847855836816
 30
0.0
 11
-4.200565820093203
 21
-8.24785095933031
 31
0.0
  0
ARC
  5
119
330
1E
100
AcDbEntity
  8
ADP1DETAIL
100
AcDbCircle
 10
-4.200564365829393
 20
-8.262850959259814
 30
0.0
 40
0.0150000000000002
100
AcDbArc
 50
90.00555487858212
 51
179.9636182956563
  0
LINE
  5
11A
330
1E
100
AcDbEntity
  8
ADP1DETAIL
100
AcDbLine
 10
-4.043521494758643
 20
-8.591835735355026
 30
0.0
 11
-3.917521495350808
 21
-8.591823519539026
 31
0.0
  0
ARC
  5
11B
330
1E
100
AcDbEntity
  8
ADP1DETAIL
100
AcDbCircle
 10
-4.043554845875345
 20
-8.247835736971737
 30
0.0
 40
0.125
100
AcDbArc
 50
35.07820271387751
 51
180.0055548785815
  0
LINE
  5
11C
330
1E
100
AcDbEntity
  8
ADP1DETAIL
100
AcDbLine
 10
-4.058488046620521
 20
-8.936837187997426
 30
0.0
 11
-4.058520040424337
 21
-8.60683718954834
 31
0.0
  0
ARC
  5
11D
330
1E
100
AcDbEntity
  8
ADP1DETAIL
100
AcDbCircle
 10
-4.200564365829393
 20
-7.622844512810733
 30
0.0
 40
0.0150000000000002
100
AcDbArc
 50
90.00555487858212
 51
179.9636182956563
  0
LINE
  5
11E
330
1E
100
AcDbEntity
  8
ADP1DETAIL
100
AcDbLine
 10
-4.168554845287875
 20
-7.607841409387734
 30
0.0
 11
-4.200565820093203
 21
-7.607844512881229
 31
0.0
  0
ARC
  5
11F
330
1E
100
AcDbEntity
  8
ADP1DETAIL
100
AcDbCircle
 10
-4.043554845875345
 20
-7.607829290522655
 30
0.0
 40
0.125
100
AcDbArc
 50
35.07820271387751
 51
180.0055548785815
  0
DIMENSION
  5
120
330
1E
100
AcDbEntity
  8
ADPDIM
100
AcDbDimension
  2
*D4
 10
-3.060755317824447
 20
-8.404314503984608
 30
0.0
 11
-3.060755317824447
 21
-7.737647837317941
 31
0.0
100
AcDbAlignedDimension
 13
-3.824488162866522
 23
-9.466939149971921
 33
0.0
 14
-3.824539674085507
 24
-8.404314503984608
 34
0.0
 50
90.0
100
AcDbRotatedDimension
  0
LINE
  5
121
330
1E
100
AcDbEntity
  8
ADP1DETAIL
100
AcDbLine
 10
-3.74655185972961
 20
-7.638615484959355
 30
0.0
 11
-3.746488162866519
 21
-10.21789869090044
 31
0.0
  0
LINE
  5
122
330
1E
100
AcDbEntity
  8
ADP1DETAIL
100
AcDbLine
 10
-3.746488162866519
 20
-9.481939149971921
 30
0.0
 11
-3.746488162866519
 21
-9.591429668580857
 31
0.0
  0
ARC
  5
123
330
1E
100
AcDbEntity
  8
ADP1DETAIL
100
AcDbCircle
 10
-3.76148816286652
 20
-9.481939149971921
 30
0.0
 40
0.0150000000000006
100
AcDbArc
 50
0.0
 51
90.0
  0
LINE
  5
124
330
1E
100
AcDbEntity
  8
ADP1DETAIL
100
AcDbLine
 10
-3.746541128715893
 20
-8.38930694188329
 30
0.0
 11
-3.746551743922477
 21
-8.279816423788936
 31
0.0
  0
ARC
  5
125
330
1E
100
AcDbEntity
  8
ADP1DETAIL
100
AcDbCircle
 10
-3.761541128645401
 20
-8.3893083961471
 30
0.0
 40
0.0150000000000037
100
AcDbArc
 50
270.0055548785889
 51
0.0055548785820747
  0
TEXT
  5
129
330
1E
100
AcDbEntity
  8
ADPDIM
100
AcDbText
 10
-14.62967318377523
 20
-15.7080979758656
 30
0.0
 40
0.15625
  1
J U L I U S  B L U M  &  C O . ,  I N C .      ( 8 0 0 )  5 2 6 - 6 2 9 3        W W W . J U L I U S B L U M . C O M        P A R T  N o .  4 5 3 1 - E
 41
1.25
  7
ARIAL_WIDE
 72
     1
 11
-6.260279425248626
 21
-15.5518479758656
 31
0.0
100
AcDbText
 73
     3
  0
ENDSEC
  0
SECTION
  2
OBJECTS
  0
DICTIONARY
  5
C
330
0
100
AcDbDictionary
  3
ACAD_GROUP
350
D
  3
ACAD_LAYOUT
350
19
  3
ACAD_MLINESTYLE
350
16
  3
ACAD_PLOTSETTINGS
350
18
  3
ACAD_PLOTSTYLENAME
350
E
  3
ACDBHEADERROUNDTRIPXREC
350
2BC
  3
ACDBVARIABLEDICTIONARY
350
19A
  0
DICTIONARY
  5
165
330
1E
100
AcDbDictionary
280
     1
  3
ACAD_LAYOUTSELFREF
360
2DE
  0
DICTIONARY
  5
167
330
1A
100
AcDbDictionary
280
     1
  3
ACAD_LAYOUTSELFREF
360
2DD
  0
DICTIONARY
  5
D
102
{ACAD_REACTORS
330
C
102
}
330
C
100
AcDbDictionary
  0
DICTIONARY
  5
19
102
{ACAD_REACTORS
330
C
102
}
330
C
100
AcDbDictionary
  0
DICTIONARY
  5
16
102
{ACAD_REACTORS
330
C
102
}
330
C
100
AcDbDictionary
  3
STANDARD
350
17
  0
DICTIONARY
  5
18
102
{ACAD_REACTORS
330
C
102
}
330
C
100
AcDbDictionary
  0
ACDBDICTIONARYWDFLT
  5
E
102
{ACAD_REACTORS
330
C
102
}
330
C
100
AcDbDictionary
281
     1
  3
Normal
350
F
100
AcDbDictionaryWithDefault
340
F
  0
DICTIONARY
  5
2BC
102
{ACAD_REACTORS
330
C
102
}
330
C
100
AcDbDictionary
  3
CEPSNTYPE
350
2C6
  3
DIMSTYLEDATA
350
2CA
  3
FINGERPRINTGUID
350
2C7
  3
HYPERLINKBASE
350
2BF
  3
INSUNITS
350
2C5
  3
LAYOUTDICT
350
2C1
  3
LWETCUNION
350
2C4
  3
PLOTSETDICT
350
2C2
  3
PLOTSTYLNAMDICT
350
2C3
  3
PSVPSCALE
350
2C9
  3
PUCSBASE
350
2CD
  3
PUCSORGBACK
350
2D3
  3
PUCSORGBOTTOM
350
2CF
  3
PUCSORGFRONT
350
2D2
  3
PUCSORGLEFT
350
2D0
  3
PUCSORGRIGHT
350
2D1
  3
PUCSORGTOP
350
2CE
  3
PUCSORTHOREF
350
2CB
  3
PUCSORTHOVIEW
350
2CC
  3
STYLESHEET
350
2C0
  3
TSTACKALIGN
350
2BD
  3
TSTACKSIZE
350
2BE
  3
UCSBASE
350
2D6
  3
UCSORGBACK
350
2DC
  3
UCSORGBOTTOM
350
2D8
  3
UCSORGFRONT
350
2DB
  3
UCSORGLEFT
350
2D9
  3
UCSORGRIGHT
350
2DA
  3
UCSORGTOP
350
2D7
  3
UCSORTHOREF
350
2D4
  3
UCSORTHOVIEW
350
2D5
  3
VERSIONGUID
350
2C8
  0
DICTIONARY
  5
19A
102
{ACAD_REACTORS
330
C
102
}
330
C
100
AcDbDictionary
  3
DIMASSOC
350
19C
  3
HIDETEXT
350
19B
  0
XRECORD
  5
2DE
102
{ACAD_REACTORS
330
165
102
}
330
165
100
AcDbXrecord
340
1E
  0
XRECORD
  5
2DD
102
{ACAD_REACTORS
330
167
102
}
330
167
100
AcDbXrecord
340
1A
  0
MLINESTYLE
  5
17
102
{ACAD_REACTORS
330
16
102
}
330
16
100
AcDbMlineStyle
  2
STANDARD
 70
     0
  3

 62
   256
 51
90.0
 52
90.0
 71
     2
 49
0.5
 62
   256
  6
BYLAYER
 49
-0.5
 62
   256
  6
BYLAYER
  0
ACDBPLACEHOLDER
  5
F
102
{ACAD_REACTORS
330
E
102
}
330
E
100
AcDbPlaceHolder
280
     0
  0
XRECORD
  5
2C6
102
{ACAD_REACTORS
330
2BC
102
}
330
2BC
100
AcDbXrecord
 90
        0
  0
XRECORD
  5
2CA
102
{ACAD_REACTORS
330
2BC
102
}
330
2BC
100
AcDbXrecord
1000
DSTYLE
1002
{
1070
   277
 70
     5
1070
   279
 70
     2
1002
}
  0
XRECORD
  5
2C7
102
{ACAD_REACTORS
330
2BC
102
}
330
2BC
100
AcDbXrecord
  1
{9469EDFB-E9B6-4AE4-97AB-29A7E490665A}
  0
XRECORD
  5
2BF
102
{ACAD_REACTORS
330
2BC
102
}
330
2BC
100
AcDbXrecord
  1

  0
XRECORD
  5
2C5
102
{ACAD_REACTORS
330
2BC
102
}
330
2BC
100
AcDbXrecord
 90
        0
  0
XRECORD
  5
2C1
102
{ACAD_REACTORS
330
2BC
102
}
330
2BC
100
AcDbXrecord
340
19
  0
XRECORD
  5
2C4
102
{ACAD_REACTORS
330
2BC
102
}
330
2BC
100
AcDbXrecord
 90
    14877
  0
XRECORD
  5
2C2
102
{ACAD_REACTORS
330
2BC
102
}
330
2BC
100
AcDbXrecord
340
18
  0
XRECORD
  5
2C3
102
{ACAD_REACTORS
330
2BC
102
}
330
2BC
100
AcDbXrecord
340
E
  0
XRECORD
  5
2C9
102
{ACAD_REACTORS
330
2BC
102
}
330
2BC
100
AcDbXrecord
 40
0.0
  0
XRECORD
  5
2CD
102
{ACAD_REACTORS
330
2BC
102
}
330
2BC
100
AcDbXrecord
340
0
  0
XRECORD
  5
2D3
102
{ACAD_REACTORS
330
2BC
102
}
330
2BC
100
AcDbXrecord
 10
0.0
 20
0.0
 30
0.0
  0
XRECORD
  5
2CF
102
{ACAD_REACTORS
330
2BC
102
}
330
2BC
100
AcDbXrecord
 10
0.0
 20
0.0
 30
0.0
  0
XRECORD
  5
2D2
102
{ACAD_REACTORS
330
2BC
102
}
330
2BC
100
AcDbXrecord
 10
0.0
 20
0.0
 30
0.0
  0
XRECORD
  5
2D0
102
{ACAD_REACTORS
330
2BC
102
}
330
2BC
100
AcDbXrecord
 10
0.0
 20
0.0
 30
0.0
  0
XRECORD
  5
2D1
102
{ACAD_REACTORS
330
2BC
102
}
330
2BC
100
AcDbXrecord
 10
0.0
 20
0.0
 30
0.0
  0
XRECORD
  5
2CE
102
{ACAD_REACTORS
330
2BC
102
}
330
2BC
100
AcDbXrecord
 10
0.0
 20
0.0
 30
0.0
  0
XRECORD
  5
2CB
102
{ACAD_REACTORS
330
2BC
102
}
330
2BC
100
AcDbXrecord
340
0
  0
XRECORD
  5
2CC
102
{ACAD_REACTORS
330
2BC
102
}
330
2BC
100
AcDbXrecord
 70
     0
  0
XRECORD
  5
2C0
102
{ACAD_REACTORS
330
2BC
102
}
330
2BC
100
AcDbXrecord
  1

  0
XRECORD
  5
2BD
102
{ACAD_REACTORS
330
2BC
102
}
330
2BC
100
AcDbXrecord
 90
        1
  0
XRECORD
  5
2BE
102
{ACAD_REACTORS
330
2BC
102
}
330
2BC
100
AcDbXrecord
 90
       70
  0
XRECORD
  5
2D6
102
{ACAD_REACTORS
330
2BC
102
}
330
2BC
100
AcDbXrecord
340
0
  0
XRECORD
  5
2DC
102
{ACAD_REACTORS
330
2BC
102
}
330
2BC
100
AcDbXrecord
 10
0.0
 20
0.0
 30
0.0
  0
XRECORD
  5
2D8
102
{ACAD_REACTORS
330
2BC
102
}
330
2BC
100
AcDbXrecord
 10
0.0
 20
0.0
 30
0.0
  0
XRECORD
  5
2DB
102
{ACAD_REACTORS
330
2BC
102
}
330
2BC
100
AcDbXrecord
 10
0.0
 20
0.0
 30
0.0
  0
XRECORD
  5
2D9
102
{ACAD_REACTORS
330
2BC
102
}
330
2BC
100
AcDbXrecord
 10
0.0
 20
0.0
 30
0.0
  0
XRECORD
  5
2DA
102
{ACAD_REACTORS
330
2BC
102
}
330
2BC
100
AcDbXrecord
 10
0.0
 20
0.0
 30
0.0
  0
XRECORD
  5
2D7
102
{ACAD_REACTORS
330
2BC
102
}
330
2BC
100
AcDbXrecord
 10
0.0
 20
0.0
 30
0.0
  0
XRECORD
  5
2D4
102
{ACAD_REACTORS
330
2BC
102
}
330
2BC
100
AcDbXrecord
340
0
  0
XRECORD
  5
2D5
102
{ACAD_REACTORS
330
2BC
102
}
330
2BC
100
AcDbXrecord
 70
     0
  0
XRECORD
  5
2C8
102
{ACAD_REACTORS
330
2BC
102
}
330
2BC
100
AcDbXrecord
  1
{9852F4E6-99FE-46D8-9875-B24D631D69D8}
  0
DICTIONARYVAR
  5
19C
102
{ACAD_REACTORS
330
19A
102
}
330
19A
100
DictionaryVariables
280
     0
  1
2
  0
DICTIONARYVAR
  5
19B
102
{ACAD_REACTORS
330
19A
102
}
330
19A
100
DictionaryVariables
280
     0
  1
1
  0
ENDSEC
  0
EOF
