  0
SECTION
  2
HEADER
  9
$ACADVER
  1
AC1015
  9
$ACADMAINTVER
 70
    20
  9
$DWGCODEPAGE
  3
ANSI_1252
  9
$INSBASE
 10
35.58356652710132
 20
11.44521797576077
 30
0.0
  9
$EXTMIN
 10
17.73510024981619
 20
0.4408954382860388
 30
0.0
  9
$EXTMAX
 10
51.18203280438645
 20
18.13271797576078
 30
0.0
  9
$LIMMIN
 10
0.0
 20
0.0
  9
$LIMMAX
 10
36.0
 20
36.0
  9
$ORTHOMODE
 70
     1
  9
$REGENMODE
 70
     1
  9
$FILLMODE
 70
     1
  9
$QTEXTMODE
 70
     0
  9
$MIRRTEXT
 70
     1
  9
$LTSCALE
 40
1.0
  9
$ATTMODE
 70
     1
  9
$TEXTSIZE
 40
0.2
  9
$TRACEWID
 40
0.05
  9
$TEXTSTYLE
  7
STANDARD
  9
$CLAYER
  8
ADP1DETAIL
  9
$CELTYPE
  6
ByLayer
  9
$CECOLOR
 62
   256
  9
$CELTSCALE
 40
1.0
  9
$DISPSILH
 70
     0
  9
$DIMSCALE
 40
1.0
  9
$DIMASZ
 40
0.125
  9
$DIMEXO
 40
0.0625
  9
$DIMDLI
 40
0.38
  9
$DIMRND
 40
0.0
  9
$DIMDLE
 40
0.0
  9
$DIMEXE
 40
0.18
  9
$DIMTP
 40
0.0
  9
$DIMTM
 40
0.0
  9
$DIMTXT
 40
0.125
  9
$DIMCEN
 40
0.1875
  9
$DIMTSZ
 40
0.125
  9
$DIMTOL
 70
     0
  9
$DIMLIM
 70
     0
  9
$DIMTIH
 70
     0
  9
$DIMTOH
 70
     0
  9
$DIMSE1
 70
     0
  9
$DIMSE2
 70
     0
  9
$DIMTAD
 70
     0
  9
$DIMZIN
 70
     3
  9
$DIMBLK
  1

  9
$DIMASO
 70
     1
  9
$DIMSHO
 70
     1
  9
$DIMPOST
  1

  9
$DIMAPOST
  1

  9
$DIMALT
 70
     0
  9
$DIMALTD
 70
     1
  9
$DIMALTF
 40
25.4
  9
$DIMLFAC
 40
1.0
  9
$DIMTOFL
 70
     0
  9
$DIMTVP
 40
0.0
  9
$DIMTIX
 70
     0
  9
$DIMSOXD
 70
     0
  9
$DIMSAH
 70
     0
  9
$DIMBLK1
  1

  9
$DIMBLK2
  1

  9
$DIMSTYLE
  2
Standard
  9
$DIMCLRD
 70
     0
  9
$DIMCLRE
 70
     0
  9
$DIMCLRT
 70
     0
  9
$DIMTFAC
 40
1.0
  9
$DIMGAP
 40
0.125
  9
$DIMJUST
 70
     0
  9
$DIMSD1
 70
     0
  9
$DIMSD2
 70
     0
  9
$DIMTOLJ
 70
     1
  9
$DIMTZIN
 70
     3
  9
$DIMALTZ
 70
     3
  9
$DIMALTTZ
 70
     3
  9
$DIMUPT
 70
     0
  9
$DIMDEC
 70
     4
  9
$DIMTDEC
 70
     4
  9
$DIMALTU
 70
     5
  9
$DIMALTTD
 70
     1
  9
$DIMTXSTY
  7
STANDARD
  9
$DIMAUNIT
 70
     0
  9
$DIMADEC
 70
     0
  9
$DIMALTRND
 40
0.0
  9
$DIMAZIN
 70
     0
  9
$DIMDSEP
 70
    46
  9
$DIMATFIT
 70
     3
  9
$DIMFRAC
 70
     0
  9
$DIMLDRBLK
  1

  9
$DIMLUNIT
 70
     5
  9
$DIMLWD
 70
    -2
  9
$DIMLWE
 70
    -2
  9
$DIMTMOVE
 70
     2
  9
$LUNITS
 70
     5
  9
$LUPREC
 70
     4
  9
$SKETCHINC
 40
0.1
  9
$FILLETRAD
 40
0.062
  9
$AUNITS
 70
     0
  9
$AUPREC
 70
     0
  9
$MENU
  1
acad
  9
$ELEVATION
 40
0.0
  9
$PELEVATION
 40
0.0
  9
$THICKNESS
 40
0.0
  9
$LIMCHECK
 70
     0
  9
$CHAMFERA
 40
0.0
  9
$CHAMFERB
 40
0.0
  9
$CHAMFERC
 40
0.0
  9
$CHAMFERD
 40
0.0
  9
$SKPOLY
 70
     0
  9
$TDCREATE
 40
2450406.633903542
  9
$TDUCREATE
 40
2450406.800570208
  9
$TDUPDATE
 40
2453963.945156065
  9
$TDUUPDATE
 40
2453964.111822731
  9
$TDINDWG
 40
0.0419356944
  9
$TDUSRTIMER
 40
0.0419356944
  9
$USRTIMER
 70
     1
  9
$ANGBASE
 50
0.0
  9
$ANGDIR
 70
     0
  9
$PDMODE
 70
     0
  9
$PDSIZE
 40
0.0
  9
$PLINEWID
 40
0.0
  9
$SPLFRAME
 70
     0
  9
$SPLINETYPE
 70
     6
  9
$SPLINESEGS
 70
     8
  9
$HANDSEED
  5
3D9
  9
$SURFTAB1
 70
     6
  9
$SURFTAB2
 70
     6
  9
$SURFTYPE
 70
     6
  9
$SURFU
 70
     6
  9
$SURFV
 70
     6
  9
$UCSBASE
  2

  9
$UCSNAME
  2

  9
$UCSORG
 10
0.0
 20
0.0
 30
0.0
  9
$UCSXDIR
 10
1.0
 20
0.0
 30
0.0
  9
$UCSYDIR
 10
0.0
 20
1.0
 30
0.0
  9
$UCSORTHOREF
  2

  9
$UCSORTHOVIEW
 70
     0
  9
$UCSORGTOP
 10
0.0
 20
0.0
 30
0.0
  9
$UCSORGBOTTOM
 10
0.0
 20
0.0
 30
0.0
  9
$UCSORGLEFT
 10
0.0
 20
0.0
 30
0.0
  9
$UCSORGRIGHT
 10
0.0
 20
0.0
 30
0.0
  9
$UCSORGFRONT
 10
0.0
 20
0.0
 30
0.0
  9
$UCSORGBACK
 10
0.0
 20
0.0
 30
0.0
  9
$PUCSBASE
  2

  9
$PUCSNAME
  2

  9
$PUCSORG
 10
0.0
 20
0.0
 30
0.0
  9
$PUCSXDIR
 10
1.0
 20
0.0
 30
0.0
  9
$PUCSYDIR
 10
0.0
 20
1.0
 30
0.0
  9
$PUCSORTHOREF
  2

  9
$PUCSORTHOVIEW
 70
     0
  9
$PUCSORGTOP
 10
0.0
 20
0.0
 30
0.0
  9
$PUCSORGBOTTOM
 10
0.0
 20
0.0
 30
0.0
  9
$PUCSORGLEFT
 10
0.0
 20
0.0
 30
0.0
  9
$PUCSORGRIGHT
 10
0.0
 20
0.0
 30
0.0
  9
$PUCSORGFRONT
 10
0.0
 20
0.0
 30
0.0
  9
$PUCSORGBACK
 10
0.0
 20
0.0
 30
0.0
  9
$USERI1
 70
     0
  9
$USERI2
 70
     0
  9
$USERI3
 70
     0
  9
$USERI4
 70
     0
  9
$USERI5
 70
     0
  9
$USERR1
 40
0.0
  9
$USERR2
 40
0.0
  9
$USERR3
 40
0.0
  9
$USERR4
 40
0.0
  9
$USERR5
 40
0.0
  9
$WORLDVIEW
 70
     1
  9
$SHADEDGE
 70
     3
  9
$SHADEDIF
 70
    70
  9
$TILEMODE
 70
     1
  9
$MAXACTVP
 70
    15
  9
$PINSBASE
 10
0.0008545028977096
 20
1.250283272183907
 30
0.0
  9
$PLIMCHECK
 70
     0
  9
$PEXTMIN
 10
1.000000000000000E+20
 20
1.000000000000000E+20
 30
1.000000000000000E+20
  9
$PEXTMAX
 10
-1.000000000000000E+20
 20
-1.000000000000000E+20
 30
-1.000000000000000E+20
  9
$PLIMMIN
 10
0.0
 20
0.0
  9
$PLIMMAX
 10
12.0
 20
9.0
  9
$UNITMODE
 70
     0
  9
$VISRETAIN
 70
     0
  9
$PLINEGEN
 70
     0
  9
$PSLTSCALE
 70
     1
  9
$TREEDEPTH
 70
  3020
  9
$CMLSTYLE
  2
Standard
  9
$CMLJUST
 70
     0
  9
$CMLSCALE
 40
1.0
  9
$PROXYGRAPHICS
 70
     1
  9
$MEASUREMENT
 70
     0
  9
$CELWEIGHT
370
    -1
  9
$ENDCAPS
280
     0
  9
$JOINSTYLE
280
     0
  9
$LWDISPLAY
290
     0
  9
$INSUNITS
 70
     0
  9
$HYPERLINKBASE
  1

  9
$STYLESHEET
  1

  9
$XEDIT
290
     1
  9
$CEPSNTYPE
380
     0
  9
$PSTYLEMODE
290
     1
  9
$FINGERPRINTGUID
  2
{C6DB92C0-E010-4F77-B9C7-F8DA7D02A5C2}
  9
$VERSIONGUID
  2
{FF259679-15DE-41CB-9064-03B7A82E324A}
  9
$EXTNAMES
290
     1
  9
$PSVPSCALE
 40
0.0
  9
$OLESTARTUP
290
     0
  0
ENDSEC
  0
SECTION
  2
CLASSES
  0
CLASS
  1
ACDBDICTIONARYWDFLT
  2
AcDbDictionaryWithDefault
  3
ObjectDBX Classes
 90
        0
280
     0
281
     0
  0
CLASS
  1
ACDBPLACEHOLDER
  2
AcDbPlaceHolder
  3
ObjectDBX Classes
 90
        0
280
     0
281
     0
  0
CLASS
  1
LAYOUT
  2
AcDbLayout
  3
ObjectDBX Classes
 90
        0
280
     0
281
     0
  0
CLASS
  1
DICTIONARYVAR
  2
AcDbDictionaryVar
  3
ObjectDBX Classes
 90
        0
280
     0
281
     0
  0
CLASS
  1
MATERIAL
  2
AcDbMaterial
  3
ObjectDBX Classes
 90
     1024
280
     0
281
     0
  0
CLASS
  1
VISUALSTYLE
  2
AcDbVisualStyle
  3
ObjectDBX Classes
 90
     4095
280
     0
281
     0
  0
CLASS
  1
TABLESTYLE
  2
AcDbTableStyle
  3
ObjectDBX Classes
 90
     4095
280
     0
281
     0
  0
ENDSEC
  0
SECTION
  2
TABLES
  0
TABLE
  2
VPORT
  5
8
102
{ACAD_XDICTIONARY
360
39C
102
}
330
0
100
AcDbSymbolTable
 70
     1
  0
VPORT
  5
2A0
330
8
100
AcDbSymbolTableRecord
100
AcDbViewportTableRecord
  2
*Active
 70
     0
 10
0.0
 20
0.0
 11
1.0
 21
1.0
 12
35.58796347255852
 22
9.115221903723922
 13
0.0
 23
0.0
 14
0.5740882589684922
 24
0.5740882589684922
 15
0.5
 25
0.5
 16
0.0
 26
0.0
 36
1.0
 17
0.0
 27
0.0
 37
0.0
 40
21.90975240125469
 41
1.726930320150659
 42
50.0
 43
0.0
 44
0.0
 50
0.0
 51
0.0
 71
     0
 72
   100
 73
     1
 74
     0
 75
     0
 76
     0
 77
     0
 78
     0
281
     0
 65
     1
110
0.0
120
0.0
130
0.0
111
1.0
121
0.0
131
0.0
112
0.0
122
1.0
132
0.0
 79
     0
146
0.0
  0
ENDTAB
  0
TABLE
  2
LTYPE
  5
5
330
0
100
AcDbSymbolTable
 70
     1
  0
LTYPE
  5
13
330
5
100
AcDbSymbolTableRecord
100
AcDbLinetypeTableRecord
  2
ByBlock
 70
     0
  3

 72
    65
 73
     0
 40
0.0
  0
LTYPE
  5
14
330
5
100
AcDbSymbolTableRecord
100
AcDbLinetypeTableRecord
  2
ByLayer
 70
     0
  3

 72
    65
 73
     0
 40
0.0
  0
LTYPE
  5
15
330
5
100
AcDbSymbolTableRecord
100
AcDbLinetypeTableRecord
  2
CONTINUOUS
 70
     0
  3
Solid line
 72
    65
 73
     0
 40
0.0
  0
ENDTAB
  0
TABLE
  2
LAYER
  5
2
330
0
100
AcDbSymbolTable
 70
     4
  0
LAYER
  5
10
330
2
100
AcDbSymbolTableRecord
100
AcDbLayerTableRecord
  2
0
 70
     0
 62
     7
  6
CONTINUOUS
370
    -3
390
F
  0
LAYER
  5
78
330
2
100
AcDbSymbolTableRecord
100
AcDbLayerTableRecord
  2
ADP1DETAIL
 70
     0
 62
     7
  6
CONTINUOUS
370
    -3
390
F
  0
LAYER
  5
7A
330
2
100
AcDbSymbolTableRecord
100
AcDbLayerTableRecord
  2
DEFPOINTS
 70
     0
 62
     7
  6
CONTINUOUS
290
     0
370
    -3
390
F
  0
LAYER
  5
7B
330
2
100
AcDbSymbolTableRecord
100
AcDbLayerTableRecord
  2
ADPDIM
 70
     0
 62
     3
  6
CONTINUOUS
370
    -3
390
F
  0
ENDTAB
  0
TABLE
  2
STYLE
  5
3
330
0
100
AcDbSymbolTable
 70
     2
  0
STYLE
  5
11
330
3
100
AcDbSymbolTableRecord
100
AcDbTextStyleTableRecord
  2
STANDARD
 70
     0
 40
0.0
 41
1.0
 50
0.0
 71
     0
 42
0.2
  3
txt
  4

  0
STYLE
  5
147
330
3
100
AcDbSymbolTableRecord
100
AcDbTextStyleTableRecord
  2
ARIAL_WIDE
 70
     0
 40
0.0
 41
1.25
 50
0.0
 71
     0
 42
0.2
  3
ARIAL.TTF
  4

1001
ACAD
1000
Arial
1071
       34
  0
ENDTAB
  0
TABLE
  2
VIEW
  5
6
330
0
100
AcDbSymbolTable
 70
     0
  0
ENDTAB
  0
TABLE
  2
UCS
  5
7
330
0
100
AcDbSymbolTable
 70
     0
  0
ENDTAB
  0
TABLE
  2
APPID
  5
9
330
0
100
AcDbSymbolTable
 70
     2
  0
APPID
  5
12
330
9
100
AcDbSymbolTableRecord
100
AcDbRegAppTableRecord
  2
ACAD
 70
     0
  0
APPID
  5
32E
330
9
100
AcDbSymbolTableRecord
100
AcDbRegAppTableRecord
  2
DCO15
 70
     0
  0
ENDTAB
  0
TABLE
  2
DIMSTYLE
  5
A
330
0
100
AcDbSymbolTable
 70
     1
100
AcDbDimStyleTable
 71
     0
  0
DIMSTYLE
105
145
102
{ACAD_REACTORS
330
358
330
359
102
}
330
A
100
AcDbSymbolTableRecord
100
AcDbDimStyleTableRecord
  2
Standard
 70
     0
340
11
  0
ENDTAB
  0
TABLE
  2
BLOCK_RECORD
  5
1
330
0
100
AcDbSymbolTable
 70
    11
  0
BLOCK_RECORD
  5
1E
102
{ACAD_XDICTIONARY
360
184
102
}
330
1
100
AcDbSymbolTableRecord
100
AcDbBlockTableRecord
  2
*Model_Space
340
21
  0
BLOCK_RECORD
  5
1A
102
{ACAD_XDICTIONARY
360
186
102
}
330
1
100
AcDbSymbolTableRecord
100
AcDbBlockTableRecord
  2
*Paper_Space
340
1D
  0
BLOCK_RECORD
  5
6F
330
1
100
AcDbSymbolTableRecord
100
AcDbBlockTableRecord
  2
*D0
340
0
  0
BLOCK_RECORD
  5
70
330
1
100
AcDbSymbolTableRecord
100
AcDbBlockTableRecord
  2
*D1
340
0
  0
BLOCK_RECORD
  5
72
330
1
100
AcDbSymbolTableRecord
100
AcDbBlockTableRecord
  2
*D3
340
0
  0
BLOCK_RECORD
  5
73
330
1
100
AcDbSymbolTableRecord
100
AcDbBlockTableRecord
  2
*D4
340
0
  0
BLOCK_RECORD
  5
74
330
1
100
AcDbSymbolTableRecord
100
AcDbBlockTableRecord
  2
*D5
340
0
  0
BLOCK_RECORD
  5
2F2
330
1
100
AcDbSymbolTableRecord
100
AcDbBlockTableRecord
  2
AI9-BLK1
340
0
102
{BLKREFS
331
357
102
}
  0
BLOCK_RECORD
  5
35A
330
1
100
AcDbSymbolTableRecord
100
AcDbBlockTableRecord
  2
*D9
340
0
  0
BLOCK_RECORD
  5
367
330
1
100
AcDbSymbolTableRecord
100
AcDbBlockTableRecord
  2
*D10
340
0
  0
ENDTAB
  0
ENDSEC
  0
SECTION
  2
BLOCKS
  0
BLOCK
  5
7E
330
1E
100
AcDbEntity
  8
0
100
AcDbBlockBegin
  2
*Model_Space
 70
     0
 10
0.0
 20
0.0
 30
0.0
  3
*Model_Space
  1

  0
ENDBLK
  5
7F
330
1E
100
AcDbEntity
  8
0
100
AcDbBlockEnd
  0
BLOCK
  5
7C
330
1A
100
AcDbEntity
 67
     1
  8
0
100
AcDbBlockBegin
  2
*Paper_Space
 70
     0
 10
0.0
 20
0.0
 30
0.0
  3
*Paper_Space
  1

  0
ENDBLK
  5
7D
330
1A
100
AcDbEntity
 67
     1
  8
0
100
AcDbBlockEnd
  0
BLOCK
  5
81
330
6F
100
AcDbEntity
  8
0
100
AcDbBlockBegin
  2
*D0
 70
     1
 10
0.0
 20
0.0
 30
0.0
  3
*D0
  1

  0
LINE
  5
82
330
6F
100
AcDbEntity
  8
0
  6
ByBlock
 62
     0
100
AcDbLine
 10
35.92731652710133
 20
6.177607674739999
 30
0.0
 11
37.1149115485779
 21
6.177607674739998
 31
0.0
  0
LINE
  5
83
330
6F
100
AcDbEntity
  8
0
  6
ByBlock
 62
     0
100
AcDbLine
 10
35.92731652710133
 20
3.365107674739999
 30
0.0
 11
37.1149115485779
 21
3.365107674739999
 31
0.0
  0
LINE
  5
84
330
6F
100
AcDbEntity
  8
0
  6
ByBlock
 62
     0
100
AcDbLine
 10
36.9349115485779
 20
6.177607674739998
 30
0.0
 11
36.9349115485779
 21
5.271357674739998
 31
0.0
  0
LINE
  5
85
330
6F
100
AcDbEntity
  8
0
  6
ByBlock
 62
     0
100
AcDbLine
 10
36.9349115485779
 20
3.365107674739999
 30
0.0
 11
36.9349115485779
 21
4.271357674739998
 31
0.0
  0
LINE
  5
86
330
6F
100
AcDbEntity
  8
0
  6
ByBlock
 62
     0
100
AcDbLine
 10
37.0599115485779
 20
6.052607674739998
 30
0.0
 11
36.8099115485779
 21
6.302607674739998
 31
0.0
  0
LINE
  5
87
330
6F
100
AcDbEntity
  8
0
  6
ByBlock
 62
     0
100
AcDbLine
 10
37.0599115485779
 20
3.240107674739999
 30
0.0
 11
36.8099115485779
 21
3.490107674739999
 31
0.0
  0
TEXT
  5
88
330
6F
100
AcDbEntity
  8
0
  6
ByBlock
 62
     0
100
AcDbText
 10
36.9974115485779
 20
4.396357674739998
 30
0.0
 40
0.125
  1
2 13/16
 50
90.0
 72
     1
 11
36.9349115485779
 21
4.771357674739998
 31
0.0
100
AcDbText
 73
     2
  0
POINT
  5
8A
330
6F
100
AcDbEntity
  8
DEFPOINTS
  6
ByBlock
 62
     0
100
AcDbPoint
 10
35.86481652710133
 20
6.177607674739999
 30
0.0
  0
POINT
  5
8B
330
6F
100
AcDbEntity
  8
DEFPOINTS
  6
ByBlock
 62
     0
100
AcDbPoint
 10
35.86481652710133
 20
3.365107674739999
 30
0.0
  0
POINT
  5
8C
330
6F
100
AcDbEntity
  8
DEFPOINTS
  6
ByBlock
 62
     0
100
AcDbPoint
 10
36.9349115485779
 20
3.365107674739999
 30
0.0
  0
ENDBLK
  5
8D
330
6F
100
AcDbEntity
  8
0
100
AcDbBlockEnd
  0
BLOCK
  5
8E
330
70
100
AcDbEntity
  8
0
100
AcDbBlockBegin
  2
*D1
 70
     1
 10
0.0
 20
0.0
 30
0.0
  3
*D1
  1

  0
LINE
  5
8F
330
70
100
AcDbEntity
  8
0
  6
ByBlock
 62
     0
100
AcDbLine
 10
33.33356652710132
 20
11.44521797576077
 30
0.0
 11
33.33356652710132
 21
10.71904556224599
 31
0.0
  0
LINE
  5
90
330
70
100
AcDbEntity
  8
0
  6
ByBlock
 62
     0
100
AcDbLine
 10
35.58356652710132
 20
11.44521797576077
 30
0.0
 11
35.58356652710132
 21
10.71904556224599
 31
0.0
  0
LINE
  5
91
330
70
100
AcDbEntity
  8
0
  6
ByBlock
 62
     0
100
AcDbLine
 10
33.33356652710132
 20
10.89904556224599
 30
0.0
 11
34.06273319376798
 21
10.89904556224599
 31
0.0
  0
LINE
  5
92
330
70
100
AcDbEntity
  8
0
  6
ByBlock
 62
     0
100
AcDbLine
 10
35.58356652710132
 20
10.89904556224599
 30
0.0
 11
34.85439986043465
 21
10.89904556224599
 31
0.0
  0
LINE
  5
93
330
70
100
AcDbEntity
  8
0
  6
ByBlock
 62
     0
100
AcDbLine
 10
33.20856652710132
 20
10.77404556224599
 30
0.0
 11
33.45856652710132
 21
11.02404556224598
 31
0.0
  0
LINE
  5
94
330
70
100
AcDbEntity
  8
0
  6
ByBlock
 62
     0
100
AcDbLine
 10
35.45856652710132
 20
10.77404556224599
 30
0.0
 11
35.70856652710132
 21
11.02404556224598
 31
0.0
  0
TEXT
  5
95
330
70
100
AcDbEntity
  8
0
  6
ByBlock
 62
     0
100
AcDbText
 10
34.18773319376799
 20
10.83654556224598
 30
0.0
 40
0.125
  1
2 1/4
 72
     1
 11
34.45856652710132
 21
10.89904556224599
 31
0.0
100
AcDbText
 73
     2
  0
POINT
  5
96
330
70
100
AcDbEntity
  8
DEFPOINTS
  6
ByBlock
 62
     0
100
AcDbPoint
 10
33.33356652710132
 20
11.50771797576077
 30
0.0
  0
POINT
  5
97
330
70
100
AcDbEntity
  8
DEFPOINTS
  6
ByBlock
 62
     0
100
AcDbPoint
 10
35.58356652710132
 20
11.50771797576077
 30
0.0
  0
POINT
  5
98
330
70
100
AcDbEntity
  8
DEFPOINTS
  6
ByBlock
 62
     0
100
AcDbPoint
 10
35.58356652710132
 20
10.89904556224599
 30
0.0
  0
ENDBLK
  5
99
330
70
100
AcDbEntity
  8
0
100
AcDbBlockEnd
  0
BLOCK
  5
A6
330
72
100
AcDbEntity
  8
0
100
AcDbBlockBegin
  2
*D3
 70
     1
 10
0.0
 20
0.0
 30
0.0
  3
*D3
  1

  0
LINE
  5
A7
330
72
100
AcDbEntity
  8
0
  6
ByBlock
 62
     0
100
AcDbLine
 10
35.64751435518822
 20
11.5122729970211
 30
0.0
 11
36.88662318250887
 21
11.5122729970211
 31
0.0
  0
LINE
  5
A8
330
72
100
AcDbEntity
  8
0
  6
ByBlock
 62
     0
100
AcDbLine
 10
36.27106652710132
 20
13.00771797576077
 30
0.0
 11
36.88662318250887
 21
13.00771797576077
 31
0.0
  0
LINE
  5
A9
330
72
100
AcDbEntity
  8
0
  6
ByBlock
 62
     0
100
AcDbLine
 10
36.70662318250887
 20
11.5122729970211
 30
0.0
 11
36.70662318250887
 21
11.88499548639094
 31
0.0
  0
LINE
  5
AA
330
72
100
AcDbEntity
  8
0
  6
ByBlock
 62
     0
100
AcDbLine
 10
36.70662318250887
 20
13.00771797576077
 30
0.0
 11
36.70662318250887
 21
12.63499548639094
 31
0.0
  0
LINE
  5
AB
330
72
100
AcDbEntity
  8
0
  6
ByBlock
 62
     0
100
AcDbLine
 10
36.83162318250887
 20
11.3872729970211
 30
0.0
 11
36.58162318250887
 21
11.6372729970211
 31
0.0
  0
LINE
  5
AC
330
72
100
AcDbEntity
  8
0
  6
ByBlock
 62
     0
100
AcDbLine
 10
36.83162318250887
 20
12.88271797576078
 30
0.0
 11
36.58162318250887
 21
13.13271797576077
 31
0.0
  0
TEXT
  5
AD
330
72
100
AcDbEntity
  8
0
  6
ByBlock
 62
     0
100
AcDbText
 10
36.76912318250887
 20
12.00999548639094
 30
0.0
 40
0.125
  1
1 1/2
 50
90.0
 72
     1
 11
36.70662318250887
 21
12.25999548639094
 31
0.0
100
AcDbText
 73
     2
  0
POINT
  5
AE
330
72
100
AcDbEntity
  8
DEFPOINTS
  6
ByBlock
 62
     0
100
AcDbPoint
 10
35.58501435518822
 20
11.5122729970211
 30
0.0
  0
POINT
  5
AF
330
72
100
AcDbEntity
  8
DEFPOINTS
  6
ByBlock
 62
     0
100
AcDbPoint
 10
36.20856652710132
 20
13.00771797576077
 30
0.0
  0
POINT
  5
B0
330
72
100
AcDbEntity
  8
DEFPOINTS
  6
ByBlock
 62
     0
100
AcDbPoint
 10
36.70662318250887
 20
13.00771797576077
 30
0.0
  0
ENDBLK
  5
B1
330
72
100
AcDbEntity
  8
0
100
AcDbBlockEnd
  0
BLOCK
  5
B2
330
73
100
AcDbEntity
  8
0
100
AcDbBlockBegin
  2
*D4
 70
     1
 10
0.0
 20
0.0
 30
0.0
  3
*D4
  1

  0
LINE
  5
B3
330
73
100
AcDbEntity
  8
0
  6
ByBlock
 62
     0
100
AcDbLine
 10
35.64606652710132
 20
18.00771797576078
 30
0.0
 11
36.88942243830002
 21
18.00771797576078
 31
0.0
  0
LINE
  5
B4
330
73
100
AcDbEntity
  8
0
  6
ByBlock
 62
     0
100
AcDbLine
 10
36.27106652710132
 20
16.50771797576078
 30
0.0
 11
36.88942243830002
 21
16.50771797576078
 31
0.0
  0
LINE
  5
B5
330
73
100
AcDbEntity
  8
0
  6
ByBlock
 62
     0
100
AcDbLine
 10
36.70942243830003
 20
18.00771797576078
 30
0.0
 11
36.70942243830003
 21
17.63271797576077
 31
0.0
  0
LINE
  5
B6
330
73
100
AcDbEntity
  8
0
  6
ByBlock
 62
     0
100
AcDbLine
 10
36.70942243830003
 20
16.50771797576078
 30
0.0
 11
36.70942243830003
 21
16.88271797576077
 31
0.0
  0
LINE
  5
B7
330
73
100
AcDbEntity
  8
0
  6
ByBlock
 62
     0
100
AcDbLine
 10
36.83442243830003
 20
17.88271797576078
 30
0.0
 11
36.58442243830002
 21
18.13271797576078
 31
0.0
  0
LINE
  5
B8
330
73
100
AcDbEntity
  8
0
  6
ByBlock
 62
     0
100
AcDbLine
 10
36.83442243830003
 20
16.38271797576077
 30
0.0
 11
36.58442243830002
 21
16.63271797576078
 31
0.0
  0
TEXT
  5
B9
330
73
100
AcDbEntity
  8
0
  6
ByBlock
 62
     0
100
AcDbText
 10
36.77192243830003
 20
17.00771797576077
 30
0.0
 40
0.125
  1
1 1/2
 50
90.0
 72
     1
 11
36.70942243830003
 21
17.25771797576078
 31
0.0
100
AcDbText
 73
     2
  0
POINT
  5
BA
330
73
100
AcDbEntity
  8
DEFPOINTS
  6
ByBlock
 62
     0
100
AcDbPoint
 10
35.58356652710132
 20
18.00771797576078
 30
0.0
  0
POINT
  5
BB
330
73
100
AcDbEntity
  8
DEFPOINTS
  6
ByBlock
 62
     0
100
AcDbPoint
 10
36.20856652710132
 20
16.50771797576078
 30
0.0
  0
POINT
  5
BC
330
73
100
AcDbEntity
  8
DEFPOINTS
  6
ByBlock
 62
     0
100
AcDbPoint
 10
36.70942243830003
 20
16.50771797576078
 30
0.0
  0
ENDBLK
  5
BD
330
73
100
AcDbEntity
  8
0
100
AcDbBlockEnd
  0
BLOCK
  5
BE
330
74
100
AcDbEntity
  8
0
100
AcDbBlockBegin
  2
*D5
 70
     1
 10
0.0
 20
0.0
 30
0.0
  3
*D5
  1

  0
LINE
  5
BF
330
74
100
AcDbEntity
  8
0
  6
ByBlock
 62
     0
100
AcDbLine
 10
36.27106652710132
 20
16.50771797576078
 30
0.0
 11
36.88662318250887
 21
16.50771797576078
 31
0.0
  0
LINE
  5
C0
330
74
100
AcDbEntity
  8
0
  6
ByBlock
 62
     0
100
AcDbLine
 10
36.27106652710132
 20
13.00771797576077
 30
0.0
 11
36.88662318250887
 21
13.00771797576077
 31
0.0
  0
LINE
  5
C1
330
74
100
AcDbEntity
  8
0
  6
ByBlock
 62
     0
100
AcDbLine
 10
36.70662318250887
 20
16.50771797576078
 30
0.0
 11
36.70662318250887
 21
15.15355130909411
 31
0.0
  0
LINE
  5
C2
330
74
100
AcDbEntity
  8
0
  6
ByBlock
 62
     0
100
AcDbLine
 10
36.70662318250887
 20
13.00771797576077
 30
0.0
 11
36.70662318250887
 21
14.36188464242744
 31
0.0
  0
LINE
  5
C3
330
74
100
AcDbEntity
  8
0
  6
ByBlock
 62
     0
100
AcDbLine
 10
36.83162318250887
 20
16.38271797576077
 30
0.0
 11
36.58162318250887
 21
16.63271797576078
 31
0.0
  0
LINE
  5
C4
330
74
100
AcDbEntity
  8
0
  6
ByBlock
 62
     0
100
AcDbLine
 10
36.83162318250887
 20
12.88271797576078
 30
0.0
 11
36.58162318250887
 21
13.13271797576077
 31
0.0
  0
TEXT
  5
C5
330
74
100
AcDbEntity
  8
0
  6
ByBlock
 62
     0
100
AcDbText
 10
36.76912318250887
 20
14.48688464242744
 30
0.0
 40
0.125
  1
3 1/2
 50
90.0
 72
     1
 11
36.70662318250887
 21
14.75771797576078
 31
0.0
100
AcDbText
 73
     2
  0
POINT
  5
C6
330
74
100
AcDbEntity
  8
DEFPOINTS
  6
ByBlock
 62
     0
100
AcDbPoint
 10
36.20856652710132
 20
16.50771797576078
 30
0.0
  0
POINT
  5
C7
330
74
100
AcDbEntity
  8
DEFPOINTS
  6
ByBlock
 62
     0
100
AcDbPoint
 10
36.20856652710132
 20
13.00771797576077
 30
0.0
  0
POINT
  5
C8
330
74
100
AcDbEntity
  8
DEFPOINTS
  6
ByBlock
 62
     0
100
AcDbPoint
 10
36.70662318250887
 20
13.00771797576077
 30
0.0
  0
ENDBLK
  5
C9
330
74
100
AcDbEntity
  8
0
100
AcDbBlockEnd
  0
BLOCK
  5
2F3
330
2F2
100
AcDbEntity
  8
0
 62
     7
100
AcDbBlockBegin
  2
AI9-BLK1
 70
     0
 10
0.0
 20
0.0
 30
0.0
  3
AI9-BLK1
  1

  0
SPLINE
  5
2F4
330
2F2
100
AcDbEntity
  8
0
 62
     7
100
AcDbSpline
210
0.0
220
0.0
230
1.0
 70
     8
 71
     3
 72
     8
 73
     4
 74
     0
 42
0.0000000001
 43
0.0000000001
 40
0.0
 40
0.0
 40
0.0
 40
0.0
 40
1.0
 40
1.0
 40
1.0
 40
1.0
 10
23.44887017144097
 20
3.050718180338541
 30
0.0
 10
20.03719211154514
 20
2.53257581922743
 30
0.0
 10
16.54972195095486
 20
3.14029066297743
 30
0.0
 10
13.51442057291666
 20
4.781706407335068
 30
0.0
  0
SPLINE
  5
2F5
330
2F2
100
AcDbEntity
  8
0
 62
     7
100
AcDbSpline
210
0.0
220
0.0
230
1.0
 70
     8
 71
     3
 72
     8
 73
     4
 74
     0
 42
0.0000000001
 43
0.0000000001
 40
0.0
 40
0.0
 40
0.0
 40
0.0
 40
1.0
 40
1.0
 40
1.0
 40
1.0
 10
-13.51373155381944
 20
4.781706407335068
 30
0.0
 10
-9.951847330729165
 20
8.412320285373263
 30
0.0
 10
-5.085822211371527
 20
10.46783650716146
 30
0.0
 10
0.0003445095486111
 20
10.49022962782118
 30
0.0
  0
SPLINE
  5
2F6
330
2F2
100
AcDbEntity
  8
0
 62
     7
100
AcDbSpline
210
0.0
220
0.0
230
1.0
 70
     8
 71
     3
 72
    14
 73
    10
 74
     0
 42
0.0000000001
 43
0.0000000001
 40
0.0
 40
0.0
 40
0.0
 40
0.0
 40
1.0
 40
1.0
 40
1.0
 40
2.0
 40
2.0
 40
2.0
 40
3.0
 40
3.0
 40
3.0
 40
3.0
 10
-25.13696695963542
 20
-3.539404975043402
 30
0.0
 10
-26.62852105034722
 20
-3.875818549262152
 30
0.0
 10
-28.11042887369791
 20
-2.939269341362846
 30
0.0
 10
-28.44667019314236
 20
-1.447715250651041
 30
0.0
 10
-28.78308376736111
 20
0.0440110948350694
 30
0.0
 10
-27.8465345594618
 20
1.525746663411458
 30
0.0
 10
-26.35498046875
 20
1.862160237630208
 30
0.0
 10
-26.15499267578125
 20
1.907118733723958
 30
0.0
 10
-25.95087076822917
 20
1.929856363932291
 30
0.0
 10
-25.74588758680555
 20
1.929856363932291
 30
0.0
  0
SPLINE
  5
2F7
330
2F2
100
AcDbEntity
  8
0
 62
     7
100
AcDbSpline
210
0.0
220
0.0
230
1.0
 70
     8
 71
     3
 72
     8
 73
     4
 74
     0
 42
0.0000000001
 43
0.0000000001
 40
0.0
 40
0.0
 40
0.0
 40
0.0
 40
1.0
 40
1.0
 40
1.0
 40
1.0
 10
-25.13696695963542
 20
-3.539404975043402
 30
0.0
 10
-22.00330810546875
 20
-4.179331461588541
 30
0.0
 10
-19.75279947916666
 20
-6.936096869574652
 30
0.0
 10
-19.75279947916666
 20
-10.1343512641059
 30
0.0
  0
SPLINE
  5
2F8
330
2F2
100
AcDbEntity
  8
0
 62
     7
100
AcDbSpline
210
0.0
220
0.0
230
1.0
 70
     8
 71
     3
 72
     8
 73
     4
 74
     0
 42
0.0000000001
 43
0.0000000001
 40
0.0
 40
0.0
 40
0.0
 40
0.0
 40
1.0
 40
1.0
 40
1.0
 40
1.0
 10
-19.3726331922743
 20
-10.49022962782118
 30
0.0
 10
-19.57331000434027
 20
-10.49022962782118
 30
0.0
 10
-19.73953586154513
 20
-10.33468356662326
 30
0.0
 10
-19.75279947916666
 20
-10.1343512641059
 30
0.0
  0
SPLINE
  5
2F9
330
2F2
100
AcDbEntity
  8
0
 62
     7
100
AcDbSpline
210
0.0
220
0.0
230
1.0
 70
     8
 71
     3
 72
     8
 73
     4
 74
     0
 42
0.0000000001
 43
0.0000000001
 40
0.0
 40
0.0
 40
0.0
 40
0.0
 40
1.0
 40
1.0
 40
1.0
 40
1.0
 10
-13.51373155381944
 20
4.781706407335068
 30
0.0
 10
-16.54920518663194
 20
3.14029066297743
 30
0.0
 10
-20.03667534722222
 20
2.53257581922743
 30
0.0
 10
-23.44818115234375
 20
3.050718180338541
 30
0.0
  0
LINE
  5
2FA
330
2F2
100
AcDbEntity
  8
0
 62
     7
100
AcDbLine
 10
-25.74588758680555
 20
1.929856363932291
 30
0.0
 11
-25.75915120442708
 21
3.02866956922743
 31
0.0
  0
LINE
  5
2FB
330
2F2
100
AcDbEntity
  8
0
 62
     7
100
AcDbLine
 10
-25.74588758680555
 20
3.050718180338541
 30
0.0
 11
-23.533447265625
 21
3.059158664279513
 31
0.0
  0
SPLINE
  5
2FC
330
2F2
100
AcDbEntity
  8
0
 62
     7
100
AcDbSpline
210
0.0
220
0.0
230
1.0
 70
     8
 71
     3
 72
     8
 73
     4
 74
     0
 42
0.0000000001
 43
0.0000000001
 40
0.0
 40
0.0
 40
0.0
 40
0.0
 40
1.0
 40
1.0
 40
1.0
 40
1.0
 10
0.0003445095486111
 20
10.49022962782118
 30
0.0
 10
5.086338975694443
 20
10.46783650716146
 30
0.0
 10
9.952364095052082
 20
8.412320285373263
 30
0.0
 10
13.51442057291666
 20
4.781706407335068
 30
0.0
  0
SPLINE
  5
2FD
330
2F2
100
AcDbEntity
  8
0
 62
     7
100
AcDbSpline
210
0.0
220
0.0
230
1.0
 70
     8
 71
     3
 72
    14
 73
    10
 74
     0
 42
0.0000000001
 43
0.0000000001
 40
0.0
 40
0.0
 40
0.0
 40
0.0
 40
1.0
 40
1.0
 40
1.0
 40
2.0
 40
2.0
 40
2.0
 40
3.0
 40
3.0
 40
3.0
 40
3.0
 10
25.74657660590278
 20
1.929856363932291
 30
0.0
 10
27.27550998263889
 20
1.929856363932291
 30
0.0
 10
28.51505533854167
 20
0.6903110080295139
 30
0.0
 10
28.51505533854167
 20
-0.8386223687065971
 30
0.0
 10
28.51505533854167
 20
-2.367728000217013
 30
0.0
 10
27.27550998263889
 20
-3.607273356119791
 30
0.0
 10
25.74657660590278
 20
-3.607273356119791
 30
0.0
 10
25.54159342447916
 20
-3.607273356119791
 30
0.0
 10
25.33729926215278
 20
-3.584535725911457
 30
0.0
 10
25.13748372395833
 20
-3.539404975043402
 30
0.0
  0
SPLINE
  5
2FE
330
2F2
100
AcDbEntity
  8
0
 62
     7
100
AcDbSpline
210
0.0
220
0.0
230
1.0
 70
     8
 71
     3
 72
     8
 73
     4
 74
     0
 42
0.0000000001
 43
0.0000000001
 40
0.0
 40
0.0
 40
0.0
 40
0.0
 40
1.0
 40
1.0
 40
1.0
 40
1.0
 10
19.75331624348958
 20
-10.1343512641059
 30
0.0
 10
19.75331624348958
 20
-6.936096869574652
 30
0.0
 10
22.00399712456597
 20
-4.179331461588541
 30
0.0
 10
25.13748372395833
 20
-3.539404975043402
 30
0.0
  0
SPLINE
  5
2FF
330
2F2
100
AcDbEntity
  8
0
 62
     7
100
AcDbSpline
210
0.0
220
0.0
230
1.0
 70
     8
 71
     3
 72
     8
 73
     4
 74
     0
 42
0.0000000001
 43
0.0000000001
 40
0.0
 40
0.0
 40
0.0
 40
0.0
 40
1.0
 40
1.0
 40
1.0
 40
1.0
 10
19.75331624348958
 20
-10.1343512641059
 30
0.0
 10
19.74022488064236
 20
-10.33468356662326
 30
0.0
 10
19.57382676866319
 20
-10.49022962782118
 30
0.0
 10
19.37314995659722
 20
-10.49022962782118
 30
0.0
  0
LINE
  5
300
330
2F2
100
AcDbEntity
  8
0
 62
     7
100
AcDbLine
 10
25.74657660590278
 20
1.929856363932291
 30
0.0
 11
25.75984022352431
 21
3.02866956922743
 31
0.0
  0
LINE
  5
301
330
2F2
100
AcDbEntity
  8
0
 62
     7
100
AcDbLine
 10
25.74657660590278
 20
3.050718180338541
 30
0.0
 11
23.53413628472222
 21
3.059158664279513
 31
0.0
  0
POLYLINE
  5
302
330
2F2
100
AcDbEntity
  8
0
 62
     7
100
AcDb2dPolyline
 66
     1
 10
0.0
 20
0.0
 30
0.0
  0
VERTEX
  5
303
330
302
100
AcDbEntity
  8
0
 62
     7
100
AcDbVertex
100
AcDb2dVertex
 10
16.61638454861111
 20
-5.801626925998263
 30
0.0
  0
VERTEX
  5
304
330
302
100
AcDbEntity
  8
0
 62
     7
100
AcDbVertex
100
AcDb2dVertex
 10
16.56815321180555
 20
-0.9993360731336803
 30
0.0
  0
VERTEX
  5
305
330
302
100
AcDbEntity
  8
0
 62
     7
100
AcDbVertex
100
AcDb2dVertex
 10
-16.58882378472222
 20
-0.9993360731336803
 30
0.0
  0
VERTEX
  5
306
330
302
100
AcDbEntity
  8
0
 62
     7
100
AcDbVertex
100
AcDb2dVertex
 10
-16.60449896918402
 20
-5.922377522786457
 30
0.0
  0
VERTEX
  5
307
330
302
100
AcDbEntity
  8
0
 62
     7
100
AcDbVertex
100
AcDb2dVertex
 10
-18.30861545138889
 20
-5.922377522786457
 30
0.0
  0
VERTEX
  5
308
330
302
100
AcDbEntity
  8
0
 62
     7
100
AcDbVertex
100
AcDb2dVertex
 10
-18.30861545138889
 20
-10.46680297851562
 30
0.0
  0
VERTEX
  5
309
330
302
100
AcDbEntity
  8
0
 62
     7
100
AcDbVertex
100
AcDb2dVertex
 10
-18.30861545138889
 20
-6.206425645616318
 30
0.0
  0
SEQEND
  5
30A
330
302
100
AcDbEntity
  8
0
 62
     7
  0
POLYLINE
  5
30B
330
2F2
100
AcDbEntity
  8
0
 62
     7
100
AcDb2dPolyline
 66
     1
 10
0.0
 20
0.0
 30
0.0
  0
VERTEX
  5
30C
330
30B
100
AcDbEntity
  8
0
 62
     7
100
AcDbVertex
100
AcDb2dVertex
 10
16.62379150390625
 20
-5.827637396918402
 30
0.0
  0
VERTEX
  5
30D
330
30B
100
AcDbEntity
  8
0
 62
     7
100
AcDbVertex
100
AcDb2dVertex
 10
18.23592393663194
 20
-5.827637396918402
 30
0.0
  0
VERTEX
  5
30E
330
30B
100
AcDbEntity
  8
0
 62
     7
100
AcDbVertex
100
AcDb2dVertex
 10
18.23592393663194
 20
-10.46852552625868
 30
0.0
  0
VERTEX
  5
30F
330
30B
100
AcDbEntity
  8
0
 62
     7
100
AcDbVertex
100
AcDb2dVertex
 10
18.23592393663194
 20
-10.27749498155382
 30
0.0
  0
SEQEND
  5
310
330
30B
100
AcDbEntity
  8
0
 62
     7
  0
LINE
  5
311
330
2F2
100
AcDbEntity
  8
0
 62
     7
100
AcDbLine
 10
18.23592393663194
 20
-10.49022962782118
 30
0.0
 11
19.37314995659722
 21
-10.49022962782118
 31
0.0
  0
LINE
  5
312
330
2F2
100
AcDbEntity
  8
0
 62
     7
100
AcDbLine
 10
-18.30861545138889
 20
-10.49022962782118
 30
0.0
 11
-19.3726331922743
 21
-10.49022962782118
 31
0.0
  0
ENDBLK
  5
313
330
2F2
100
AcDbEntity
  8
0
100
AcDbBlockEnd
  0
BLOCK
  5
365
330
35A
100
AcDbEntity
  8
0
100
AcDbBlockBegin
  2
*D9
 70
     1
 10
0.0
 20
0.0
 30
0.0
  3
*D9
  1

  0
LINE
  5
374
330
35A
100
AcDbEntity
  8
ADPDIM
  6
Continuous
 62
     0
370
    -2
100
AcDbLine
 10
33.66838365714289
 20
9.350661711854282
 30
0.0
 11
33.66838365714289
 21
8.740469254664006
 31
0.0
  0
LINE
  5
375
330
35A
100
AcDbEntity
  8
ADPDIM
  6
Continuous
 62
     0
370
    -2
100
AcDbLine
 10
35.16838365714288
 20
9.350661711854282
 30
0.0
 11
35.16838365714288
 21
8.740469254664006
 31
0.0
  0
LINE
  5
376
330
35A
100
AcDbEntity
  8
ADPDIM
  6
Continuous
 62
     0
370
    -2
100
AcDbLine
 10
33.84838365714288
 20
8.920469254664006
 30
0.0
 11
34.12838365714288
 21
8.920469254664006
 31
0.0
  0
LINE
  5
377
330
35A
100
AcDbEntity
  8
ADPDIM
  6
Continuous
 62
     0
370
    -2
100
AcDbLine
 10
34.98838365714288
 20
8.920469254664006
 30
0.0
 11
34.70838365714288
 21
8.920469254664006
 31
0.0
  0
SOLID
  5
378
330
35A
100
AcDbEntity
  8
ADPDIM
  6
Continuous
 62
     0
100
AcDbTrace
 10
33.84838365714288
 20
8.950469254664005
 30
0.0
 11
33.84838365714288
 21
8.890469254664006
 31
0.0
 12
33.66838365714289
 22
8.920469254664006
 32
0.0
 13
33.66838365714289
 23
8.920469254664006
 33
0.0
  0
SOLID
  5
379
330
35A
100
AcDbEntity
  8
ADPDIM
  6
Continuous
 62
     0
100
AcDbTrace
 10
34.98838365714288
 20
8.950469254664005
 30
0.0
 11
34.98838365714288
 21
8.890469254664006
 31
0.0
 12
35.16838365714288
 22
8.920469254664006
 32
0.0
 13
35.16838365714288
 23
8.920469254664006
 33
0.0
  0
MTEXT
  5
37A
330
35A
100
AcDbEntity
  8
ADPDIM
  6
Continuous
 62
     0
100
AcDbMText
 10
34.41838365714288
 20
8.920469254664006
 30
0.0
 40
0.1
 41
0.0
 71
     5
 72
     1
  1
\A1;1 1/2
 73
     1
 44
1.0
1001
ACAD
1000
MTEXTBEGIN
1070
    73
1070
     1
1070
    44
1040
1.0
1070
    74
1070
     0
1000
MTEXTEND
  0
POINT
  5
37B
330
35A
100
AcDbEntity
  8
DEFPOINTS
  6
Continuous
 62
     0
100
AcDbPoint
 10
33.66838365714289
 20
9.413161711854282
 30
0.0
  0
POINT
  5
37C
330
35A
100
AcDbEntity
  8
DEFPOINTS
  6
Continuous
 62
     0
100
AcDbPoint
 10
35.16838365714288
 20
9.413161711854282
 30
0.0
  0
POINT
  5
37D
330
35A
100
AcDbEntity
  8
DEFPOINTS
  6
Continuous
 62
     0
100
AcDbPoint
 10
35.16838365714288
 20
8.920469254664006
 30
0.0
  0
ENDBLK
  5
366
330
35A
100
AcDbEntity
  8
0
100
AcDbBlockEnd
  0
BLOCK
  5
372
330
367
100
AcDbEntity
  8
0
100
AcDbBlockBegin
  2
*D10
 70
     1
 10
0.0
 20
0.0
 30
0.0
  3
*D10
  1

  0
LINE
  5
37E
330
367
100
AcDbEntity
  8
ADPDIM
  6
Continuous
 62
     0
370
    -2
100
AcDbLine
 10
33.74481962409371
 20
9.529050357628982
 30
0.0
 11
33.74481962409371
 21
9.139720040953548
 31
0.0
  0
LINE
  5
37F
330
367
100
AcDbEntity
  8
ADPDIM
  6
Continuous
 62
     0
370
    -2
100
AcDbLine
 10
35.05731962409371
 20
9.529050357628982
 30
0.0
 11
35.05731962409371
 21
9.139720040953548
 31
0.0
  0
LINE
  5
380
330
367
100
AcDbEntity
  8
ADPDIM
  6
Continuous
 62
     0
370
    -2
100
AcDbLine
 10
33.92481962409371
 20
9.319720040953548
 30
0.0
 11
34.06106962409371
 21
9.319720040953548
 31
0.0
  0
LINE
  5
381
330
367
100
AcDbEntity
  8
ADPDIM
  6
Continuous
 62
     0
370
    -2
100
AcDbLine
 10
34.87731962409371
 20
9.319720040953548
 30
0.0
 11
34.74106962409371
 21
9.319720040953548
 31
0.0
  0
SOLID
  5
382
330
367
100
AcDbEntity
  8
ADPDIM
  6
Continuous
 62
     0
100
AcDbTrace
 10
33.92481962409371
 20
9.349720040953547
 30
0.0
 11
33.92481962409371
 21
9.289720040953548
 31
0.0
 12
33.74481962409371
 22
9.319720040953548
 32
0.0
 13
33.74481962409371
 23
9.319720040953548
 33
0.0
  0
SOLID
  5
383
330
367
100
AcDbEntity
  8
ADPDIM
  6
Continuous
 62
     0
100
AcDbTrace
 10
34.87731962409371
 20
9.349720040953547
 30
0.0
 11
34.87731962409371
 21
9.289720040953548
 31
0.0
 12
35.05731962409371
 22
9.319720040953548
 32
0.0
 13
35.05731962409371
 23
9.319720040953548
 33
0.0
  0
MTEXT
  5
384
330
367
100
AcDbEntity
  8
ADPDIM
  6
Continuous
 62
     0
100
AcDbMText
 10
34.40106962409371
 20
9.319720040953548
 30
0.0
 40
0.1
 41
0.0
 71
     5
 72
     1
  1
\A1;1 5/16
 73
     1
 44
1.0
1001
ACAD
1000
MTEXTBEGIN
1070
    73
1070
     1
1070
    44
1040
1.0
1070
    74
1070
     0
1000
MTEXTEND
  0
POINT
  5
385
330
367
100
AcDbEntity
  8
DEFPOINTS
  6
Continuous
 62
     0
100
AcDbPoint
 10
33.74481962409371
 20
9.591550357628982
 30
0.0
  0
POINT
  5
386
330
367
100
AcDbEntity
  8
DEFPOINTS
  6
Continuous
 62
     0
100
AcDbPoint
 10
35.05731962409371
 20
9.591550357628982
 30
0.0
  0
POINT
  5
387
330
367
100
AcDbEntity
  8
DEFPOINTS
  6
Continuous
 62
     0
100
AcDbPoint
 10
35.05731962409371
 20
9.319720040953548
 30
0.0
  0
ENDBLK
  5
373
330
367
100
AcDbEntity
  8
0
100
AcDbBlockEnd
  0
ENDSEC
  0
SECTION
  2
ENTITIES
  0
LINE
  5
CF
330
1E
100
AcDbEntity
  8
ADP1DETAIL
100
AcDbLine
 10
35.58356652710132
 20
8.016002835516545
 30
0.0
 11
33.33356652710132
 21
8.016002835516545
 31
0.0
  0
LINE
  5
D0
330
1E
100
AcDbEntity
  8
ADP1DETAIL
100
AcDbLine
 10
35.58356652710132
 20
1.526712513963452
 30
0.0
 11
33.33356652710132
 21
1.526712513963452
 31
0.0
  0
LINE
  5
D1
330
1E
100
AcDbEntity
  8
ADP1DETAIL
100
AcDbLine
 10
35.86481652710133
 20
3.365107674739999
 30
0.0
 11
33.05231652710133
 21
3.365107674739999
 31
0.0
  0
LINE
  5
D2
330
1E
100
AcDbEntity
  8
ADP1DETAIL
100
AcDbLine
 10
33.05231652710133
 20
6.177607674739999
 30
0.0
 11
35.86481652710133
 21
6.177607674739999
 31
0.0
  0
LINE
  5
D3
330
1E
100
AcDbEntity
  8
ADP1DETAIL
100
AcDbLine
 10
33.9344952939299
 20
1.526712513963452
 30
0.0
 11
33.9344952939299
 21
3.365107674739999
 31
0.0
  0
LINE
  5
D4
330
1E
100
AcDbEntity
  8
ADP1DETAIL
100
AcDbLine
 10
33.8094952939299
 20
1.526712513963452
 30
0.0
 11
33.8094952939299
 21
3.365107674739999
 31
0.0
  0
LINE
  5
D5
330
1E
100
AcDbEntity
  8
ADP1DETAIL
100
AcDbLine
 10
33.6844952939299
 20
1.526712513963452
 30
0.0
 11
33.6844952939299
 21
3.365107674739997
 31
0.0
  0
LINE
  5
D6
330
1E
100
AcDbEntity
  8
ADP1DETAIL
100
AcDbLine
 10
33.33356652710132
 20
1.526712513963452
 30
0.0
 11
33.33356652710132
 21
3.026712513963452
 31
0.0
  0
LINE
  5
D7
330
1E
100
AcDbEntity
  8
ADP1DETAIL
100
AcDbLine
 10
33.6844952939299
 20
8.016002835516545
 30
0.0
 11
33.6844952939299
 21
6.17760767474
 31
0.0
  0
LINE
  5
D8
330
1E
100
AcDbEntity
  8
ADP1DETAIL
100
AcDbLine
 10
33.8094952939299
 20
8.016002835516545
 30
0.0
 11
33.8094952939299
 21
6.177607674739999
 31
0.0
  0
LINE
  5
D9
330
1E
100
AcDbEntity
  8
ADP1DETAIL
100
AcDbLine
 10
33.9344952939299
 20
8.016002835516545
 30
0.0
 11
33.9344952939299
 21
6.177607674739999
 31
0.0
  0
LINE
  5
DA
330
1E
100
AcDbEntity
  8
ADP1DETAIL
100
AcDbLine
 10
33.33356652710132
 20
8.016002835516545
 30
0.0
 11
33.33356652710132
 21
6.516002835516545
 31
0.0
  0
LINE
  5
DB
330
1E
100
AcDbEntity
  8
ADP1DETAIL
100
AcDbLine
 10
32.70856652710132
 20
6.516002835516545
 30
0.0
 11
32.70856652710132
 21
3.016002835516545
 31
0.0
  0
LINE
  5
DC
330
1E
100
AcDbEntity
  8
ADP1DETAIL
100
AcDbLine
 10
33.05231652710133
 20
3.365107674739999
 30
0.0
 11
33.05231652710133
 21
6.177607674739999
 31
0.0
  0
LINE
  5
DD
330
1E
100
AcDbEntity
  8
ADP1DETAIL
100
AcDbLine
 10
33.17731652710133
 20
3.691204929919329
 30
0.0
 11
33.17731652710133
 21
5.851510419560668
 31
0.0
  0
LINE
  5
DE
330
1E
100
AcDbEntity
  8
ADP1DETAIL
100
AcDbLine
 10
33.33356652710133
 20
3.026712513963452
 30
0.0
 11
32.70856652710132
 21
3.026712513963452
 31
0.0
  0
LINE
  5
DF
330
1E
100
AcDbEntity
  8
ADP1DETAIL
100
AcDbLine
 10
33.17731652710133
 20
3.691204929919329
 30
0.0
 11
33.36481652710133
 21
3.691204929919329
 31
0.0
  0
LINE
  5
E0
330
1E
100
AcDbEntity
  8
ADP1DETAIL
100
AcDbLine
 10
33.36481652710133
 20
3.691204929919329
 30
0.0
 11
33.36481652710133
 21
3.378704929919329
 31
0.0
  0
LINE
  5
E1
330
1E
100
AcDbEntity
  8
ADP1DETAIL
100
AcDbLine
 10
33.33356652710133
 20
6.516002835516545
 30
0.0
 11
32.70856652710132
 21
6.516002835516545
 31
0.0
  0
LINE
  5
E2
330
1E
100
AcDbEntity
  8
ADP1DETAIL
100
AcDbLine
 10
33.36481652710133
 20
6.164010419560668
 30
0.0
 11
33.36481652710133
 21
5.851510419560668
 31
0.0
  0
LINE
  5
E3
330
1E
100
AcDbEntity
  8
ADP1DETAIL
100
AcDbLine
 10
33.36481652710133
 20
5.851510419560668
 30
0.0
 11
33.17731652710133
 21
5.851510419560668
 31
0.0
  0
LINE
  5
F9
330
1E
100
AcDbEntity
  8
ADP1DETAIL
100
AcDbLine
 10
35.10598658240596
 20
3.365107674739999
 30
0.0
 11
35.10598658240596
 21
1.526712513963452
 31
0.0
  0
LINE
  5
FA
330
1E
100
AcDbEntity
  8
ADP1DETAIL
100
AcDbLine
 10
35.23098658240596
 20
3.365107674739999
 30
0.0
 11
35.23098658240596
 21
1.526712513963452
 31
0.0
  0
LINE
  5
FB
330
1E
100
AcDbEntity
  8
ADP1DETAIL
100
AcDbLine
 10
34.98098658240596
 20
3.365107674739999
 30
0.0
 11
34.98098658240596
 21
1.526712513963452
 31
0.0
  0
LINE
  5
FC
330
1E
100
AcDbEntity
  8
ADP1DETAIL
100
AcDbLine
 10
35.58356652710132
 20
3.026712513963449
 30
0.0
 11
35.58356652710132
 21
1.526712513963452
 31
0.0
  0
LINE
  5
FD
330
1E
100
AcDbEntity
  8
ADP1DETAIL
100
AcDbLine
 10
35.58356652710132
 20
6.516002835516548
 30
0.0
 11
35.58356652710132
 21
8.016002835516545
 31
0.0
  0
LINE
  5
FE
330
1E
100
AcDbEntity
  8
ADP1DETAIL
100
AcDbLine
 10
34.98098658240596
 20
6.177607674739999
 30
0.0
 11
34.98098658240596
 21
8.016002835516545
 31
0.0
  0
LINE
  5
FF
330
1E
100
AcDbEntity
  8
ADP1DETAIL
100
AcDbLine
 10
35.23098658240596
 20
6.177607674739999
 30
0.0
 11
35.23098658240596
 21
8.016002835516545
 31
0.0
  0
LINE
  5
100
330
1E
100
AcDbEntity
  8
ADP1DETAIL
100
AcDbLine
 10
35.10598658240596
 20
6.177607674739999
 30
0.0
 11
35.10598658240596
 21
8.016002835516545
 31
0.0
  0
DIMENSION
  5
101
330
1E
100
AcDbEntity
  8
ADPDIM
100
AcDbDimension
  2
*D0
 10
36.9349115485779
 20
3.365107674739999
 30
0.0
 11
36.9349115485779
 21
4.771357674739998
 31
0.0
 71
     5
 42
-1.0
100
AcDbAlignedDimension
 13
35.86481652710133
 23
6.177607674739999
 33
0.0
 14
35.86481652710133
 24
3.365107674739999
 34
0.0
 50
90.0
100
AcDbRotatedDimension
  0
LINE
  5
102
330
1E
100
AcDbEntity
  8
ADP1DETAIL
100
AcDbLine
 10
36.20856652710132
 20
3.016002835516545
 30
0.0
 11
36.20856652710132
 21
6.516002835516545
 31
0.0
  0
LINE
  5
103
330
1E
100
AcDbEntity
  8
ADP1DETAIL
100
AcDbLine
 10
35.73981652710133
 20
3.691204929919329
 30
0.0
 11
35.73981652710133
 21
5.851510419560668
 31
0.0
  0
LINE
  5
104
330
1E
100
AcDbEntity
  8
ADP1DETAIL
100
AcDbLine
 10
35.86481652710133
 20
6.177607674739999
 30
0.0
 11
35.86481652710133
 21
3.365107674739999
 31
0.0
  0
LINE
  5
105
330
1E
100
AcDbEntity
  8
ADP1DETAIL
100
AcDbLine
 10
35.73981652710133
 20
3.691204929919329
 30
0.0
 11
35.55231652710133
 21
3.691204929919329
 31
0.0
  0
LINE
  5
106
330
1E
100
AcDbEntity
  8
ADP1DETAIL
100
AcDbLine
 10
35.55231652710133
 20
3.691204929919329
 30
0.0
 11
35.55231652710133
 21
3.378704929919329
 31
0.0
  0
LINE
  5
107
330
1E
100
AcDbEntity
  8
ADP1DETAIL
100
AcDbLine
 10
36.20856652710132
 20
3.026712513963452
 30
0.0
 11
35.58356652710132
 21
3.026712513963452
 31
0.0
  0
LINE
  5
108
330
1E
100
AcDbEntity
  8
ADP1DETAIL
100
AcDbLine
 10
35.55231652710133
 20
5.851510419560668
 30
0.0
 11
35.73981652710133
 21
5.851510419560668
 31
0.0
  0
LINE
  5
109
330
1E
100
AcDbEntity
  8
ADP1DETAIL
100
AcDbLine
 10
35.55231652710133
 20
6.164010419560668
 30
0.0
 11
35.55231652710133
 21
5.851510419560668
 31
0.0
  0
LINE
  5
10A
330
1E
100
AcDbEntity
  8
ADP1DETAIL
100
AcDbLine
 10
36.20856652710132
 20
6.516002835516545
 30
0.0
 11
35.58356652710132
 21
6.516002835516545
 31
0.0
  0
DIMENSION
  5
11F
330
1E
100
AcDbEntity
  8
ADPDIM
100
AcDbDimension
  2
*D1
 10
35.58356652710132
 20
10.89904556224599
 30
0.0
 11
34.45856652710132
 21
10.89904556224599
 31
0.0
 71
     5
 42
-1.0
100
AcDbAlignedDimension
 13
33.33356652710132
 23
11.50771797576077
 33
0.0
 14
35.58356652710132
 24
11.50771797576077
 34
0.0
100
AcDbRotatedDimension
  0
LINE
  5
120
330
1E
100
AcDbEntity
  8
ADP1DETAIL
100
AcDbLine
 10
35.58356652710132
 20
18.00771797576078
 30
0.0
 11
33.33356652710132
 21
18.00771797576078
 31
0.0
  0
LINE
  5
121
330
1E
100
AcDbEntity
  8
ADP1DETAIL
100
AcDbLine
 10
33.45856652710132
 20
15.75771797576077
 30
0.0
 11
35.45856652710132
 21
15.75771797576077
 31
0.0
  0
LINE
  5
122
330
1E
100
AcDbEntity
  8
ADP1DETAIL
100
AcDbLine
 10
35.45856652710131
 20
13.75771797576077
 30
0.0
 11
33.45856652710132
 21
13.75771797576078
 31
0.0
  0
LINE
  5
123
330
1E
100
AcDbEntity
  8
ADP1DETAIL
100
AcDbLine
 10
35.58356652710132
 20
11.50771797576077
 30
0.0
 11
33.33356652710132
 21
11.50771797576077
 31
0.0
  0
LINE
  5
124
330
1E
100
AcDbEntity
  8
ADP1DETAIL
100
AcDbLine
 10
32.70856652710132
 20
13.00771797576077
 30
0.0
 11
32.70856652710132
 21
16.50771797576078
 31
0.0
  0
LINE
  5
125
330
1E
100
AcDbEntity
  8
ADP1DETAIL
100
AcDbLine
 10
32.83356652710132
 20
13.13271797576078
 30
0.0
 11
32.83356652710132
 21
16.38271797576078
 31
0.0
  0
LINE
  5
126
330
1E
100
AcDbEntity
  8
ADP1DETAIL
100
AcDbLine
 10
33.45856652710132
 20
13.75771797576078
 30
0.0
 11
33.45856652710132
 21
15.75771797576077
 31
0.0
  0
LINE
  5
127
330
1E
100
AcDbEntity
  8
ADP1DETAIL
100
AcDbLine
 10
33.4494855328046
 20
11.50771797576077
 30
0.0
 11
33.4494855328046
 21
13.13271797576077
 31
0.0
  0
LINE
  5
128
330
1E
100
AcDbEntity
  8
ADP1DETAIL
100
AcDbLine
 10
33.33356652710132
 20
11.50771797576077
 30
0.0
 11
33.33356652710132
 21
13.00771797576077
 31
0.0
  0
LINE
  5
129
330
1E
100
AcDbEntity
  8
ADP1DETAIL
100
AcDbLine
 10
33.4494855328046
 20
13.13271797576077
 30
0.0
 11
32.83356652710132
 21
13.13271797576078
 31
0.0
  0
LINE
  5
12A
330
1E
100
AcDbEntity
  8
ADP1DETAIL
100
AcDbLine
 10
32.70856652710132
 20
13.00771797576077
 30
0.0
 11
33.45856652710132
 21
13.75771797576078
 31
0.0
  0
LINE
  5
12B
330
1E
100
AcDbEntity
  8
ADP1DETAIL
100
AcDbLine
 10
33.33356652710132
 20
13.00771797576077
 30
0.0
 11
34.08356652710132
 21
13.75771797576078
 31
0.0
  0
LINE
  5
12C
330
1E
100
AcDbEntity
  8
ADP1DETAIL
100
AcDbLine
 10
33.33356652710133
 20
13.00771797576077
 30
0.0
 11
32.70856652710132
 21
13.00771797576077
 31
0.0
  0
LINE
  5
12D
330
1E
100
AcDbEntity
  8
ADP1DETAIL
100
AcDbLine
 10
33.33356652710132
 20
18.00771797576078
 30
0.0
 11
33.33356652710132
 21
16.50771797576078
 31
0.0
  0
LINE
  5
12E
330
1E
100
AcDbEntity
  8
ADP1DETAIL
100
AcDbLine
 10
33.4494855328046
 20
18.00771797576078
 30
0.0
 11
33.4494855328046
 21
16.38271797576077
 31
0.0
  0
LINE
  5
12F
330
1E
100
AcDbEntity
  8
ADP1DETAIL
100
AcDbLine
 10
33.4494855328046
 20
16.38271797576077
 30
0.0
 11
32.83356652710132
 21
16.38271797576077
 31
0.0
  0
LINE
  5
130
330
1E
100
AcDbEntity
  8
ADP1DETAIL
100
AcDbLine
 10
33.45856652710132
 20
15.75771797576077
 30
0.0
 11
32.70856652710132
 21
16.50771797576078
 31
0.0
  0
LINE
  5
131
330
1E
100
AcDbEntity
  8
ADP1DETAIL
100
AcDbLine
 10
33.33356652710132
 20
16.50771797576078
 30
0.0
 11
34.08356652710132
 21
15.75771797576077
 31
0.0
  0
LINE
  5
132
330
1E
100
AcDbEntity
  8
ADP1DETAIL
100
AcDbLine
 10
33.33356652710133
 20
16.50771797576078
 30
0.0
 11
32.70856652710132
 21
16.50771797576078
 31
0.0
  0
DIMENSION
  5
133
330
1E
100
AcDbEntity
  8
ADPDIM
100
AcDbDimension
  2
*D5
 10
36.70662318250887
 20
13.00771797576077
 30
0.0
 11
36.70662318250887
 21
14.75771797576078
 31
0.0
 71
     5
 42
-1.0
100
AcDbAlignedDimension
 13
36.20856652710132
 23
16.50771797576078
 33
0.0
 14
36.20856652710132
 24
13.00771797576077
 34
0.0
 50
90.0
100
AcDbRotatedDimension
  0
LINE
  5
134
330
1E
100
AcDbEntity
  8
ADP1DETAIL
100
AcDbLine
 10
36.20856652710132
 20
16.50771797576078
 30
0.0
 11
36.20856652710132
 21
13.00771797576077
 31
0.0
  0
LINE
  5
135
330
1E
100
AcDbEntity
  8
ADP1DETAIL
100
AcDbLine
 10
36.08356652710132
 20
16.38271797576077
 30
0.0
 11
36.08356652710132
 21
13.13271797576077
 31
0.0
  0
LINE
  5
136
330
1E
100
AcDbEntity
  8
ADP1DETAIL
100
AcDbLine
 10
35.45856652710132
 20
15.75771797576077
 30
0.0
 11
35.45856652710131
 21
13.75771797576077
 31
0.0
  0
DIMENSION
  5
137
330
1E
100
AcDbEntity
  8
ADPDIM
100
AcDbDimension
  2
*D3
 10
36.70662318250887
 20
13.00771797576077
 30
0.0
 11
36.70662318250887
 21
12.25999548639094
 31
0.0
 71
     5
 42
-1.0
100
AcDbAlignedDimension
 13
35.58501435518822
 23
11.5122729970211
 33
0.0
 14
36.20856652710132
 24
13.00771797576077
 34
0.0
 50
90.0
100
AcDbRotatedDimension
  0
LINE
  5
138
330
1E
100
AcDbEntity
  8
ADP1DETAIL
100
AcDbLine
 10
35.46764752139804
 20
13.13271797576077
 30
0.0
 11
35.46764752139804
 21
11.50771797576077
 31
0.0
  0
LINE
  5
139
330
1E
100
AcDbEntity
  8
ADP1DETAIL
100
AcDbLine
 10
35.58356652710132
 20
13.00771797576077
 30
0.0
 11
35.58356652710132
 21
11.50771797576077
 31
0.0
  0
LINE
  5
13A
330
1E
100
AcDbEntity
  8
ADP1DETAIL
100
AcDbLine
 10
35.58356652710132
 20
13.00771797576077
 30
0.0
 11
34.83356652710131
 21
13.75771797576077
 31
0.0
  0
LINE
  5
13B
330
1E
100
AcDbEntity
  8
ADP1DETAIL
100
AcDbLine
 10
36.08356652710132
 20
13.13271797576077
 30
0.0
 11
35.46764752139804
 21
13.13271797576077
 31
0.0
  0
LINE
  5
13C
330
1E
100
AcDbEntity
  8
ADP1DETAIL
100
AcDbLine
 10
36.20856652710132
 20
13.00771797576077
 30
0.0
 11
35.45856652710131
 21
13.75771797576077
 31
0.0
  0
LINE
  5
13D
330
1E
100
AcDbEntity
  8
ADP1DETAIL
100
AcDbLine
 10
36.20856652710132
 20
13.00771797576077
 30
0.0
 11
35.58356652710132
 21
13.00771797576077
 31
0.0
  0
DIMENSION
  5
13E
330
1E
100
AcDbEntity
  8
ADPDIM
100
AcDbDimension
  2
*D4
 10
36.70942243830003
 20
16.50771797576078
 30
0.0
 11
36.70942243830003
 21
17.25771797576078
 31
0.0
 71
     5
 42
-1.0
100
AcDbAlignedDimension
 13
35.58356652710132
 23
18.00771797576078
 33
0.0
 14
36.20856652710132
 24
16.50771797576078
 34
0.0
 50
90.0
100
AcDbRotatedDimension
  0
LINE
  5
13F
330
1E
100
AcDbEntity
  8
ADP1DETAIL
100
AcDbLine
 10
35.58356652710132
 20
16.50771797576078
 30
0.0
 11
35.58356652710132
 21
18.00771797576078
 31
0.0
  0
LINE
  5
140
330
1E
100
AcDbEntity
  8
ADP1DETAIL
100
AcDbLine
 10
35.46764752139804
 20
16.38271797576077
 30
0.0
 11
35.46764752139804
 21
18.00771797576078
 31
0.0
  0
LINE
  5
141
330
1E
100
AcDbEntity
  8
ADP1DETAIL
100
AcDbLine
 10
35.58356652710132
 20
16.50771797576078
 30
0.0
 11
34.83356652710131
 21
15.75771797576078
 31
0.0
  0
LINE
  5
142
330
1E
100
AcDbEntity
  8
ADP1DETAIL
100
AcDbLine
 10
36.08356652710132
 20
16.38271797576077
 30
0.0
 11
35.46764752139804
 21
16.38271797576077
 31
0.0
  0
LINE
  5
143
330
1E
100
AcDbEntity
  8
ADP1DETAIL
100
AcDbLine
 10
35.45856652710132
 20
15.75771797576077
 30
0.0
 11
36.20856652710132
 21
16.50771797576078
 31
0.0
  0
LINE
  5
144
330
1E
100
AcDbEntity
  8
ADP1DETAIL
100
AcDbLine
 10
36.20856652710132
 20
16.50771797576078
 30
0.0
 11
35.58356652710132
 21
16.50771797576078
 31
0.0
  0
TEXT
  5
148
330
1E
100
AcDbEntity
  8
ADPDIM
100
AcDbText
 10
17.73510024981619
 20
0.533409080850841
 30
0.0
 40
0.3125
  1
J U L I U S  B L U M  &  C O . ,  I N C .      ( 8 0 0 )  5 2 6 - 6 2 9 3        W W W . J U L I U S B L U M . C O M        P A R T  N o .  4 5 3 0 - T
 41
1.25
  7
ARIAL_WIDE
 72
     1
 11
34.45856652710132
 21
0.845909080850841
 31
0.0
100
AcDbText
 73
     3
  0
LINE
  5
347
330
1E
100
AcDbEntity
  8
ADP1DETAIL
100
AcDbLine
 10
33.01138467379595
 20
9.40737971413305
 30
0.0
 11
35.79543728625906
 21
9.40737971413305
 31
0.0
  0
LINE
  5
348
330
1E
100
AcDbEntity
  8
ADP1DETAIL
100
AcDbLine
 10
35.40402086801698
 20
10.23338613937292
 30
0.0
 11
33.40402086801698
 21
10.23338613937293
 31
0.0
  0
ARC
  5
349
330
1E
100
AcDbEntity
  8
ADP1DETAIL
100
AcDbCircle
 10
32.80767940127199
 20
10.69040976057241
 30
0.0
 40
0.7513279811732399
100
AcDbArc
 50
266.4904592099829
 51
322.5341998017491
  0
LINE
  5
34A
330
1E
100
AcDbEntity
  8
ADP1DETAIL
100
AcDbLine
 10
33.4854205444839
 20
9.93981396872078
 30
0.0
 11
32.75994359439438
 21
9.939622230237265
 31
0.0
  0
LINE
  5
34B
330
1E
100
AcDbEntity
  8
ADP1DETAIL
100
AcDbLine
 10
33.3903886111262
 20
9.896530991687395
 30
0.0
 11
32.76046727353988
 21
9.896364507883898
 31
0.0
  0
ARC
  5
34C
330
1E
100
AcDbEntity
  8
ADP1DETAIL
100
AcDbCircle
 10
32.73141713044318
 20
9.421393485973485
 30
0.0
 40
0.2649999999999998
100
AcDbArc
 50
0.0
 51
78.45730220113797
  0
ARC
  5
34D
330
1E
100
AcDbEntity
  8
ADP1DETAIL
100
AcDbCircle
 10
33.01138467379595
 20
9.42237971413305
 30
0.0
 40
0.015
100
AcDbArc
 50
183.7698334967863
 51
270.0
  0
ARC
  5
34E
330
1E
100
AcDbEntity
  8
ADP1DETAIL
100
AcDbCircle
 10
32.76046727353988
 20
9.787364507883896
 30
0.0
 40
0.1089999999999999
100
AcDbArc
 50
90.0
 51
282.7068037043093
  0
LINE
  5
34F
330
1E
100
AcDbEntity
  8
ADP1DETAIL
100
AcDbLine
 10
32.76046727353988
 20
9.896364507883898
 30
0.0
 11
32.75994359439438
 21
9.939622230237265
 31
0.0
  0
LINE
  5
350
330
1E
100
AcDbEntity
  8
ADP1DETAIL
100
AcDbLine
 10
36.04635468651513
 20
9.940490805701902
 30
0.0
 11
35.32592941551742
 21
9.940300402341836
 31
0.0
  0
ARC
  5
351
330
1E
100
AcDbEntity
  8
ADP1DETAIL
100
AcDbCircle
 10
36.07540482961183
 20
9.421393485973485
 30
0.0
 40
0.2649999999999998
100
AcDbArc
 50
101.542697798862
 51
180.0
  0
ARC
  5
352
330
1E
100
AcDbEntity
  8
ADP1DETAIL
100
AcDbCircle
 10
35.79543728625906
 20
9.42237971413305
 30
0.0
 40
0.015
100
AcDbArc
 50
270.0
 51
356.2301665032137
  0
ARC
  5
353
330
1E
100
AcDbEntity
  8
ADP1DETAIL
100
AcDbCircle
 10
36.00036233476198
 20
10.69040976057241
 30
0.0
 40
0.7513279811732399
100
AcDbArc
 50
217.4658001982511
 51
273.5095407900171
  0
LINE
  5
354
330
1E
100
AcDbEntity
  8
ADP1DETAIL
100
AcDbLine
 10
36.04687836566063
 20
9.897233083348535
 30
0.0
 11
35.41765961123878
 21
9.897066785232851
 31
0.0
  0
ARC
  5
355
330
1E
100
AcDbEntity
  8
ADP1DETAIL
100
AcDbCircle
 10
36.04635468651513
 20
9.787364507883896
 30
0.0
 40
0.1089999999999999
100
AcDbArc
 50
257.2931962956907
 51
90.0
  0
LINE
  5
356
330
1E
100
AcDbEntity
  8
ADP1DETAIL
100
AcDbLine
 10
36.04635468651513
 20
9.896364507883898
 30
0.0
 11
36.04687836566063
 21
9.939622230237265
 31
0.0
  0
INSERT
  5
357
330
1E
100
AcDbEntity
  8
0
 62
     7
100
AcDbBlockReference
  2
AI9-BLK1
 10
34.4042922721948
 20
9.818284157395162
 30
0.0
 41
0.0398152694002221
 42
0.0398152694002239
 43
0.0398152694002312
  0
DIMENSION
  5
358
330
1E
100
AcDbEntity
  8
ADPDIM
  6
Continuous
 62
     3
100
AcDbDimension
  2
*D9
 10
35.16838365714288
 20
8.920469254664006
 30
0.0
 11
34.41838365714288
 21
8.920469254664006
 31
0.0
 70
    32
 71
     5
 42
1.5
  3
Standard
100
AcDbAlignedDimension
 13
33.66838365714289
 23
9.413161711854282
 33
0.0
 14
35.16838365714288
 24
9.413161711854282
 34
0.0
100
AcDbRotatedDimension
1001
ACAD
1000
DSTYLE
1002
{
1070
   140
1040
0.1
1070
   276
1070
     2
1070
   277
1070
     5
1070
   289
1070
     3
1002
}
  0
DIMENSION
  5
359
330
1E
100
AcDbEntity
  8
ADPDIM
  6
Continuous
 62
     3
100
AcDbDimension
  2
*D10
 10
35.05731962409371
 20
9.319720040953548
 30
0.0
 11
34.40106962409371
 21
9.319720040953548
 31
0.0
 70
    32
 71
     5
 42
1.3125
  3
Standard
100
AcDbAlignedDimension
 13
33.74481962409371
 23
9.591550357628982
 33
0.0
 14
35.05731962409371
 24
9.591550357628982
 34
0.0
100
AcDbRotatedDimension
1001
ACAD
1000
DSTYLE
1002
{
1070
   140
1040
0.1
1070
   276
1070
     2
1070
   277
1070
     5
1070
   289
1070
     3
1002
}
  0
ENDSEC
  0
SECTION
  2
OBJECTS
  0
DICTIONARY
  5
C
330
0
100
AcDbDictionary
281
     1
  3
ACAD_COLOR
350
2EC
  3
ACAD_GROUP
350
D
  3
ACAD_LAYOUT
350
19
  3
ACAD_MATERIAL
350
2D7
  3
ACAD_MLINESTYLE
350
16
  3
ACAD_PLOTSETTINGS
350
18
  3
ACAD_PLOTSTYLENAME
350
E
  3
ACAD_TABLESTYLE
350
2ED
  3
ACAD_VISUALSTYLE
350
2DB
  3
AcDbVariableDictionary
350
1B9
  3
ASE_INDEX_DICTIONARY
350
389
  3
DWGPROPS
350
3CC
  0
DICTIONARY
  5
39C
330
8
100
AcDbDictionary
280
     1
281
     1
  0
DICTIONARY
  5
184
330
1E
100
AcDbDictionary
280
     1
281
     1
  3
ACAD_LAYOUTSELFREF
360
2D3
  0
DICTIONARY
  5
186
330
1A
100
AcDbDictionary
280
     1
281
     1
  3
ACAD_LAYOUTSELFREF
360
2D2
  0
DICTIONARY
  5
2EC
102
{ACAD_REACTORS
330
C
102
}
330
C
100
AcDbDictionary
281
     1
  0
DICTIONARY
  5
D
102
{ACAD_REACTORS
330
C
102
}
330
C
100
AcDbDictionary
281
     1
  0
DICTIONARY
  5
19
102
{ACAD_REACTORS
330
C
102
}
330
C
100
AcDbDictionary
281
     1
  3
Layout1
350
1D
  3
Model
350
21
  0
DICTIONARY
  5
2D7
102
{ACAD_REACTORS
330
C
102
}
330
C
100
AcDbDictionary
281
     1
  3
ByBlock
350
2D9
  3
ByLayer
350
2D8
  3
Global
350
2DA
  0
DICTIONARY
  5
16
102
{ACAD_REACTORS
330
C
102
}
330
C
100
AcDbDictionary
281
     1
  3
Standard
350
17
  0
DICTIONARY
  5
18
102
{ACAD_REACTORS
330
C
102
}
330
C
100
AcDbDictionary
281
     1
  0
ACDBDICTIONARYWDFLT
  5
E
102
{ACAD_REACTORS
330
C
102
}
330
C
100
AcDbDictionary
281
     1
  3
Normal
350
F
100
AcDbDictionaryWithDefault
340
F
  0
DICTIONARY
  5
2ED
102
{ACAD_REACTORS
330
C
102
}
330
C
100
AcDbDictionary
281
     1
  3
Standard
350
2EE
  0
DICTIONARY
  5
2DB
102
{ACAD_REACTORS
330
C
102
}
330
C
100
AcDbDictionary
281
     1
  3
2dWireframe
350
2E1
  3
3D Hidden
350
2E3
  3
3dWireframe
350
2E2
  3
Basic
350
2E0
  3
Brighten
350
2E7
  3
ColorChange
350
2EB
  3
Conceptual
350
2E4
  3
Dim
350
2E6
  3
Facepattern
350
2EA
  3
Flat
350
2DC
  3
FlatWithEdges
350
2DD
  3
Gouraud
350
2DE
  3
GouraudWithEdges
350
2DF
  3
Linepattern
350
2E9
  3
Realistic
350
2E5
  3
Thicken
350
2E8
  0
DICTIONARY
  5
1B9
102
{ACAD_REACTORS
330
C
102
}
330
C
100
AcDbDictionary
281
     1
  3
CTABLESTYLE
350
38B
  3
DIMASSOC
350
1BB
  3
HIDETEXT
350
1BA
  3
INDEXCTL
350
38D
  3
SORTENTS
350
38C
  0
DICTIONARY
  5
389
102
{ACAD_REACTORS
330
C
102
}
330
C
100
AcDbDictionary
281
     1
  3
ASEBlockHierarchyIndexRecord
350
38A
1001
DCO15
1040
1569087357.484
  0
XRECORD
  5
3CC
102
{ACAD_REACTORS
330
C
102
}
330
C
100
AcDbXrecord
280
     1
  1
DWGPROPS COOKIE
  2

  3

  4

  6

  7

  8
Yu Hu
  9

300
=
301
=
302
=
303
=
304
=
305
=
306
=
307
=
308
=
309
=
 40
0.0419355787037037
 41
2450406.633903542
 42
2453963.945156065
  1

 90
        0
  0
XRECORD
  5
2D3
102
{ACAD_REACTORS
330
184
102
}
330
184
100
AcDbXrecord
280
     1
340
1E
  0
XRECORD
  5
2D2
102
{ACAD_REACTORS
330
186
102
}
330
186
100
AcDbXrecord
280
     1
340
1A
  0
LAYOUT
  5
1D
102
{ACAD_XDICTIONARY
360
3CD
102
}
102
{ACAD_REACTORS
330
19
102
}
330
19
100
AcDbPlotSettings
  1

  2
Fax
  4

  6

 40
0.0
 41
0.0
 42
0.0
 43
0.0
 44
0.0
 45
0.0
 46
0.0
 47
0.0
 48
0.0
 49
0.0
140
0.0
141
0.0
142
1.0
143
1.0
 70
   688
 72
     0
 73
     0
 74
     5
  7
Default R14 pen assignments.ctb
 75
    16
147
1.0
148
0.0
149
0.0
100
AcDbLayout
  1
Layout1
 70
     1
 71
     1
 10
0.0
 20
0.0
 11
12.0
 21
9.0
 12
0.0008545028977096
 22
1.250283272183907
 32
0.0
 14
1.000000000000000E+20
 24
1.000000000000000E+20
 34
1.000000000000000E+20
 15
-1.000000000000000E+20
 25
-1.000000000000000E+20
 35
-1.000000000000000E+20
146
0.0
 13
0.0
 23
0.0
 33
0.0
 16
1.0
 26
0.0
 36
0.0
 17
0.0
 27
1.0
 37
0.0
 76
     0
330
1A
  0
LAYOUT
  5
21
102
{ACAD_XDICTIONARY
360
3CF
102
}
102
{ACAD_REACTORS
330
19
102
}
330
19
100
AcDbPlotSettings
  1

  2
Fax
  4

  6

 40
0.0
 41
0.0
 42
0.0
 43
0.0
 44
0.0
 45
0.0
 46
0.0
 47
0.0
 48
0.0
 49
0.0
140
0.0
141
0.0
142
1.0
143
1.0
 70
  1712
 72
     0
 73
     0
 74
     0
  7
Default R14 pen assignments.ctb
 75
     0
147
1.0
148
0.0
149
0.0
100
AcDbLayout
  1
Model
 70
     1
 71
     0
 10
0.0
 20
0.0
 11
12.0
 21
9.0
 12
0.0
 22
0.0
 32
0.0
 14
0.0
 24
0.0
 34
0.0
 15
0.0
 25
0.0
 35
0.0
146
0.0
 13
0.0
 23
0.0
 33
0.0
 16
1.0
 26
0.0
 36
0.0
 17
0.0
 27
1.0
 37
0.0
 76
     0
330
1E
331
2A0
  0
MATERIAL
  5
2D9
102
{ACAD_XDICTIONARY
360
3D3
102
}
102
{ACAD_REACTORS
330
2D7
102
}
330
2D7
100
AcDbMaterial
  1
ByBlock
  0
MATERIAL
  5
2D8
102
{ACAD_XDICTIONARY
360
3D1
102
}
102
{ACAD_REACTORS
330
2D7
102
}
330
2D7
100
AcDbMaterial
  1
ByLayer
  0
MATERIAL
  5
2DA
102
{ACAD_XDICTIONARY
360
3D5
102
}
102
{ACAD_REACTORS
330
2D7
102
}
330
2D7
100
AcDbMaterial
  1
Global
  0
MLINESTYLE
  5
17
102
{ACAD_REACTORS
330
16
102
}
330
16
100
AcDbMlineStyle
  2
STANDARD
 70
     0
  3

 62
   256
 51
90.0
 52
90.0
 71
     2
 49
0.5
 62
   256
  6
BYLAYER
 49
-0.5
 62
   256
  6
BYLAYER
  0
ACDBPLACEHOLDER
  5
F
102
{ACAD_REACTORS
330
E
102
}
330
E
  0
TABLESTYLE
  5
2EE
102
{ACAD_XDICTIONARY
360
3D7
102
}
102
{ACAD_REACTORS
330
2ED
102
}
330
2ED
100
AcDbTableStyle
  3
Standard
 70
     0
 71
     0
 40
0.06
 41
0.06
280
     0
281
     0
  7
STANDARD
140
0.18
170
     2
 62
     0
 63
     7
283
     0
274
    -2
284
     1
 64
     0
275
    -2
285
     1
 65
     0
276
    -2
286
     1
 66
     0
277
    -2
287
     1
 67
     0
278
    -2
288
     1
 68
     0
279
    -2
289
     1
 69
     0
  7
STANDARD
140
0.25
170
     5
 62
     0
 63
     7
283
     0
274
    -2
284
     1
 64
     0
275
    -2
285
     1
 65
     0
276
    -2
286
     1
 66
     0
277
    -2
287
     1
 67
     0
278
    -2
288
     1
 68
     0
279
    -2
289
     1
 69
     0
  7
STANDARD
140
0.18
170
     5
 62
     0
 63
     7
283
     0
274
    -2
284
     1
 64
     0
275
    -2
285
     1
 65
     0
276
    -2
286
     1
 66
     0
277
    -2
287
     1
 67
     0
278
    -2
288
     1
 68
     0
279
    -2
289
     1
 69
     0
  0
VISUALSTYLE
  5
2E1
102
{ACAD_REACTORS
330
2DB
102
}
330
2DB
100
AcDbVisualStyle
  2
2dWireframe
 70
     4
 71
     0
 72
     2
 73
     0
 90
        0
 40
-0.6
 41
-30.0
 62
     5
 63
     7
 74
     1
 91
        4
 64
     7
 65
   257
 75
     1
175
     1
 42
1.0
 92
        0
 66
   257
 43
1.0
 76
     1
 77
     6
 78
     2
 67
     7
 79
     5
170
     0
171
     0
290
     0
174
     0
 93
        1
 44
0.0
173
     0
291
     0
 45
0.0
1001
ACAD
1000
AcDbSavedByObjectVersion
1070
     0
  0
VISUALSTYLE
  5
2E3
102
{ACAD_REACTORS
330
2DB
102
}
330
2DB
100
AcDbVisualStyle
  2
3D Hidden
 70
     6
 71
     1
 72
     2
 73
     2
 90
        0
 40
-0.6
 41
-30.0
 62
     5
 63
     7
 74
     2
 91
        2
 64
     7
 65
   257
 75
     2
175
     1
 42
40.0
 92
        0
 66
   257
 43
1.0
 76
     1
 77
     6
 78
     2
 67
     7
 79
     3
170
     0
171
     0
290
     0
174
     0
 93
        1
 44
0.0
173
     0
291
     0
 45
0.0
1001
ACAD
1000
AcDbSavedByObjectVersion
1070
     0
  0
VISUALSTYLE
  5
2E2
102
{ACAD_REACTORS
330
2DB
102
}
330
2DB
100
AcDbVisualStyle
  2
3dWireframe
 70
     5
 71
     0
 72
     2
 73
     0
 90
        0
 40
-0.6
 41
-30.0
 62
     5
 63
     7
 74
     1
 91
        4
 64
     7
 65
   257
 75
     1
175
     1
 42
1.0
 92
        0
 66
   257
 43
1.0
 76
     1
 77
     6
 78
     2
 67
     7
 79
     5
170
     0
171
     0
290
     0
174
     0
 93
        1
 44
0.0
173
     0
291
     0
 45
0.0
1001
ACAD
1000
AcDbSavedByObjectVersion
1070
     0
  0
VISUALSTYLE
  5
2E0
102
{ACAD_REACTORS
330
2DB
102
}
330
2DB
100
AcDbVisualStyle
  2
Basic
 70
     7
 71
     1
 72
     0
 73
     1
 90
        0
 40
-0.6
 41
-30.0
 62
     5
 63
     7
 74
     0
 91
        4
 64
     7
 65
   257
 75
     1
175
     1
 42
1.0
 92
        8
 66
     7
 43
1.0
 76
     1
 77
     6
 78
     2
 67
     7
 79
     5
170
     0
171
     0
290
     0
174
     0
 93
        1
 44
0.0
173
     0
291
     1
 45
0.0
1001
ACAD
1000
AcDbSavedByObjectVersion
1070
     0
  0
VISUALSTYLE
  5
2E7
102
{ACAD_REACTORS
330
2DB
102
}
330
2DB
100
AcDbVisualStyle
  2
Brighten
 70
    12
 71
     2
 72
     2
 73
     0
 90
        0
 40
-0.6
 41
-30.0
 62
     5
 63
     7
 74
     1
 91
        4
 64
     7
 65
   257
 75
     1
175
     1
 42
1.0
 92
        8
 66
     7
 43
1.0
 76
     1
 77
     6
 78
     2
 67
     7
 79
     5
170
     0
171
     0
290
     0
174
     0
 93
        1
 44
50.0
173
     0
291
     1
 45
0.0
1001
ACAD
1000
AcDbSavedByObjectVersion
1070
     0
  0
VISUALSTYLE
  5
2EB
102
{ACAD_REACTORS
330
2DB
102
}
330
2DB
100
AcDbVisualStyle
  2
ColorChange
 70
    16
 71
     2
 72
     2
 73
     3
 90
        0
 40
-0.6
 41
-30.0
 62
     5
 63
     8
 74
     1
 91
        4
 64
     7
 65
   257
 75
     1
175
     1
 42
1.0
 92
        8
 66
     8
 43
1.0
 76
     1
 77
     6
 78
     2
 67
     7
 79
     5
170
     0
171
     0
290
     0
174
     0
 93
        1
 44
0.0
173
     0
291
     1
 45
0.0
1001
ACAD
1000
AcDbSavedByObjectVersion
1070
     0
  0
VISUALSTYLE
  5
2E4
102
{ACAD_REACTORS
330
2DB
102
}
330
2DB
100
AcDbVisualStyle
  2
Conceptual
 70
     9
 71
     3
 72
     2
 73
     0
 90
        0
 40
-0.6
 41
-30.0
 62
     5
 63
     7
 74
     2
 91
        2
 64
     7
 65
   257
 75
     1
175
     1
 42
40.0
 92
        8
 66
     7
 43
1.0
 76
     1
 77
     6
 78
     2
 67
     7
 79
     3
170
     0
171
     0
290
     0
174
     0
 93
        1
 44
0.0
173
     0
291
     0
 45
0.0
1001
ACAD
1000
AcDbSavedByObjectVersion
1070
     0
  0
VISUALSTYLE
  5
2E6
102
{ACAD_REACTORS
330
2DB
102
}
330
2DB
100
AcDbVisualStyle
  2
Dim
 70
    11
 71
     2
 72
     2
 73
     0
 90
        0
 40
-0.6
 41
-30.0
 62
     5
 63
     7
 74
     1
 91
        4
 64
     7
 65
   257
 75
     1
175
     1
 42
1.0
 92
        8
 66
     7
 43
1.0
 76
     1
 77
     6
 78
     2
 67
     7
 79
     5
170
     0
171
     0
290
     0
174
     0
 93
        1
 44
-50.0
173
     0
291
     1
 45
0.0
1001
ACAD
1000
AcDbSavedByObjectVersion
1070
     0
  0
VISUALSTYLE
  5
2EA
102
{ACAD_REACTORS
330
2DB
102
}
330
2DB
100
AcDbVisualStyle
  2
Facepattern
 70
    15
 71
     2
 72
     2
 73
     0
 90
        0
 40
-0.6
 41
-30.0
 62
     5
 63
     7
 74
     1
 91
        4
 64
     7
 65
   257
 75
     1
175
     1
 42
1.0
 92
        8
 66
     7
 43
1.0
 76
     1
 77
     6
 78
     2
 67
     7
 79
     5
170
     0
171
     0
290
     0
174
     0
 93
        1
 44
0.0
173
     0
291
     1
 45
0.0
1001
ACAD
1000
AcDbSavedByObjectVersion
1070
     0
  0
VISUALSTYLE
  5
2DC
102
{ACAD_REACTORS
330
2DB
102
}
330
2DB
100
AcDbVisualStyle
  2
Flat
 70
     0
 71
     2
 72
     1
 73
     1
 90
        2
 40
-0.6
 41
30.0
 62
     5
 63
     7
 74
     0
 91
        4
 64
     7
 65
   257
 75
     1
175
     1
 42
1.0
 92
        8
 66
     7
 43
1.0
 76
     1
 77
     6
 78
     2
 67
     7
 79
     5
170
     0
171
     0
290
     0
174
     0
 93
       13
 44
0.0
173
     0
291
     1
 45
0.0
1001
ACAD
1000
AcDbSavedByObjectVersion
1070
     0
  0
VISUALSTYLE
  5
2DD
102
{ACAD_REACTORS
330
2DB
102
}
330
2DB
100
AcDbVisualStyle
  2
FlatWithEdges
 70
     1
 71
     2
 72
     1
 73
     1
 90
        2
 40
-0.6
 41
30.0
 62
     5
 63
     7
 74
     1
 91
        4
 64
     7
 65
   257
 75
     1
175
     1
 42
1.0
 92
        0
 66
   257
 43
1.0
 76
     1
 77
     6
 78
     2
 67
     7
 79
     5
170
     0
171
     0
290
     0
174
     0
 93
       13
 44
0.0
173
     0
291
     1
 45
0.0
1001
ACAD
1000
AcDbSavedByObjectVersion
1070
     0
  0
VISUALSTYLE
  5
2DE
102
{ACAD_REACTORS
330
2DB
102
}
330
2DB
100
AcDbVisualStyle
  2
Gouraud
 70
     2
 71
     2
 72
     2
 73
     1
 90
        2
 40
-0.6
 41
30.0
 62
     5
 63
     7
 74
     0
 91
        4
 64
     7
 65
   257
 75
     1
175
     1
 42
1.0
 92
        0
 66
     7
 43
1.0
 76
     1
 77
     6
 78
     2
 67
     7
 79
     5
170
     0
171
     0
290
     0
174
     0
 93
       13
 44
0.0
173
     0
291
     1
 45
0.0
1001
ACAD
1000
AcDbSavedByObjectVersion
1070
     0
  0
VISUALSTYLE
  5
2DF
102
{ACAD_REACTORS
330
2DB
102
}
330
2DB
100
AcDbVisualStyle
  2
GouraudWithEdges
 70
     3
 71
     2
 72
     2
 73
     1
 90
        2
 40
-0.6
 41
30.0
 62
     5
 63
     7
 74
     1
 91
        4
 64
     7
 65
   257
 75
     1
175
     1
 42
1.0
 92
        0
 66
   257
 43
1.0
 76
     1
 77
     6
 78
     2
 67
     7
 79
     5
170
     0
171
     0
290
     0
174
     0
 93
       13
 44
0.0
173
     0
291
     1
 45
0.0
1001
ACAD
1000
AcDbSavedByObjectVersion
1070
     0
  0
VISUALSTYLE
  5
2E9
102
{ACAD_REACTORS
330
2DB
102
}
330
2DB
100
AcDbVisualStyle
  2
Linepattern
 70
    14
 71
     2
 72
     2
 73
     0
 90
        0
 40
-0.6
 41
-30.0
 62
     5
 63
     7
 74
     1
 91
        4
 64
     7
 65
   257
 75
     7
175
     7
 42
1.0
 92
        8
 66
     7
 43
1.0
 76
     1
 77
     6
 78
     2
 67
     7
 79
     5
170
     0
171
     0
290
     0
174
     0
 93
        1
 44
0.0
173
     0
291
     1
 45
0.0
1001
ACAD
1000
AcDbSavedByObjectVersion
1070
     0
  0
VISUALSTYLE
  5
2E5
102
{ACAD_REACTORS
330
2DB
102
}
330
2DB
100
AcDbVisualStyle
  2
Realistic
 70
     8
 71
     2
 72
     2
 73
     0
 90
        0
 40
-0.6
 41
-30.0
 62
     5
 63
     7
 74
     1
 91
        0
 64
     7
 65
   257
 75
     1
175
     1
 42
1.0
 92
        8
 66
     8
 43
1.0
 76
     1
 77
     6
 78
     2
 67
     7
 79
     5
170
     0
171
     0
290
     0
174
     0
 93
       13
 44
0.0
173
     0
291
     0
 45
0.0
1001
ACAD
1000
AcDbSavedByObjectVersion
1070
     0
  0
VISUALSTYLE
  5
2E8
102
{ACAD_REACTORS
330
2DB
102
}
330
2DB
100
AcDbVisualStyle
  2
Thicken
 70
    13
 71
     2
 72
     2
 73
     0
 90
        0
 40
-0.6
 41
-30.0
 62
     5
 63
     7
 74
     1
 91
        4
 64
     7
 65
   257
 75
     1
175
     1
 42
1.0
 92
       12
 66
     7
 43
1.0
 76
     1
 77
     6
 78
     2
 67
     7
 79
     5
170
     0
171
     0
290
     0
174
     0
 93
        1
 44
0.0
173
     0
291
     1
 45
0.0
1001
ACAD
1000
AcDbSavedByObjectVersion
1070
     0
  0
DICTIONARYVAR
  5
38B
102
{ACAD_REACTORS
330
1B9
102
}
330
1B9
100
DictionaryVariables
280
     0
  1
STANDARD
  0
DICTIONARYVAR
  5
1BB
102
{ACAD_REACTORS
330
1B9
102
}
330
1B9
100
DictionaryVariables
280
     0
  1
2
  0
DICTIONARYVAR
  5
1BA
102
{ACAD_REACTORS
330
1B9
102
}
330
1B9
100
DictionaryVariables
280
     0
  1
1
  0
DICTIONARYVAR
  5
38D
102
{ACAD_REACTORS
330
1B9
102
}
330
1B9
100
DictionaryVariables
280
     0
  1
0
  0
DICTIONARYVAR
  5
38C
102
{ACAD_REACTORS
330
1B9
102
}
330
1B9
100
DictionaryVariables
280
     0
  1
127
  0
XRECORD
  5
38A
102
{ACAD_REACTORS
330
389
102
}
330
389
100
AcDbXrecord
280
     1
330
357
  0
DICTIONARY
  5
3CD
330
1D
100
AcDbDictionary
280
     1
281
     1
  3
ACAD_XREC_ROUNDTRIP
360
3CE
  0
DICTIONARY
  5
3CF
330
21
100
AcDbDictionary
280
     1
281
     1
  3
ACAD_XREC_ROUNDTRIP
360
3D0
  0
DICTIONARY
  5
3D3
330
2D9
100
AcDbDictionary
280
     1
281
     1
  3
ACAD_XREC_ROUNDTRIP
360
3D4
  0
DICTIONARY
  5
3D1
330
2D8
100
AcDbDictionary
280
     1
281
     1
  3
ACAD_XREC_ROUNDTRIP
360
3D2
  0
DICTIONARY
  5
3D5
330
2DA
100
AcDbDictionary
280
     1
281
     1
  3
ACAD_XREC_ROUNDTRIP
360
3D6
  0
DICTIONARY
  5
3D7
330
2EE
100
AcDbDictionary
280
     1
281
     1
  3
ACAD_XREC_ROUNDTRIP
360
3D8
  0
XRECORD
  5
3CE
102
{ACAD_REACTORS
330
3CD
102
}
330
3CD
100
AcDbXrecord
280
     1
102
SHADEPLOT
 70
     0
102
SHADEPLOTRESLEVEL
 70
     2
102
SHADEPLOTCUSTOMDPI
 70
   300
  0
XRECORD
  5
3D0
102
{ACAD_REACTORS
330
3CF
102
}
330
3CF
100
AcDbXrecord
280
     1
102
SHADEPLOT
 70
     0
102
SHADEPLOTRESLEVEL
 70
     2
102
SHADEPLOTCUSTOMDPI
 70
   300
  0
XRECORD
  5
3D4
102
{ACAD_REACTORS
330
3D3
102
}
330
3D3
100
AcDbXrecord
280
     1
102
MATERIAL
148
0.0
149
0.0
149
0.0
 93
        0
 94
       63
282
     0
 72
     1
 77
     1
171
     1
175
     1
179
     1
273
     0
  0
XRECORD
  5
3D2
102
{ACAD_REACTORS
330
3D1
102
}
330
3D1
100
AcDbXrecord
280
     1
102
MATERIAL
148
0.0
149
0.0
149
0.0
 93
        0
 94
       63
282
     0
 72
     1
 77
     1
171
     1
175
     1
179
     1
273
     0
  0
XRECORD
  5
3D6
102
{ACAD_REACTORS
330
3D5
102
}
330
3D5
100
AcDbXrecord
280
     1
102
MATERIAL
148
0.0
149
0.0
149
0.0
 93
        0
 94
       63
282
     0
 72
     1
 77
     1
171
     1
175
     1
179
     1
273
     0
  0
XRECORD
  5
3D8
102
{ACAD_REACTORS
330
3D7
102
}
330
3D7
100
AcDbXrecord
280
     1
102
ACAD_ROUNDTRIP_PRE2007_TABLESTYLE
 90
      512
 91
        0
  1

 92
      512
 93
        0
  2

 94
      512
 95
        0
  3

  0
ENDSEC
  0
EOF
