  0
SECTION
  2
HEADER
  9
$ACADVER
  1
AC1015
  9
$ACADMAINTVER
 70
    20
  9
$DWGCODEPAGE
  3
ANSI_1252
  9
$INSBASE
 10
-5.393759487641484
 20
9.506813522439298
 30
0.0
  9
$EXTMIN
 10
-10.41551703973485
 20
8.340271089622135
 30
-0.0015258207003583
  9
$EXTMAX
 10
2.99114378435955
 20
13.37200933482033
 30
0.0000000349246037
  9
$LIMMIN
 10
0.0
 20
0.0
  9
$LIMMAX
 10
36.0
 20
36.0
  9
$ORTHOMODE
 70
     1
  9
$REGENMODE
 70
     1
  9
$FILLMODE
 70
     1
  9
$QTEXTMODE
 70
     0
  9
$MIRRTEXT
 70
     1
  9
$LTSCALE
 40
1.0
  9
$ATTMODE
 70
     1
  9
$TEXTSIZE
 40
0.2
  9
$TRACEWID
 40
0.05
  9
$TEXTSTYLE
  7
STANDARD
  9
$CLAYER
  8
ADP1DETAIL
  9
$CELTYPE
  6
CONTINUOUS
  9
$CECOLOR
 62
   256
  9
$CELTSCALE
 40
1.0
  9
$DISPSILH
 70
     0
  9
$DIMSCALE
 40
1.0
  9
$DIMASZ
 40
0.125
  9
$DIMEXO
 40
0.0625
  9
$DIMDLI
 40
0.38
  9
$DIMRND
 40
0.0
  9
$DIMDLE
 40
0.0
  9
$DIMEXE
 40
0.18
  9
$DIMTP
 40
0.0
  9
$DIMTM
 40
0.0
  9
$DIMTXT
 40
0.125
  9
$DIMCEN
 40
0.1875
  9
$DIMTSZ
 40
0.125
  9
$DIMTOL
 70
     0
  9
$DIMLIM
 70
     0
  9
$DIMTIH
 70
     0
  9
$DIMTOH
 70
     0
  9
$DIMSE1
 70
     0
  9
$DIMSE2
 70
     0
  9
$DIMTAD
 70
     0
  9
$DIMZIN
 70
     2
  9
$DIMBLK
  1

  9
$DIMASO
 70
     1
  9
$DIMSHO
 70
     1
  9
$DIMPOST
  1

  9
$DIMAPOST
  1

  9
$DIMALT
 70
     0
  9
$DIMALTD
 70
     1
  9
$DIMALTF
 40
25.4
  9
$DIMLFAC
 40
1.0
  9
$DIMTOFL
 70
     0
  9
$DIMTVP
 40
0.0
  9
$DIMTIX
 70
     0
  9
$DIMSOXD
 70
     0
  9
$DIMSAH
 70
     0
  9
$DIMBLK1
  1

  9
$DIMBLK2
  1

  9
$DIMSTYLE
  2
STANDARD
  9
$DIMCLRD
 70
     0
  9
$DIMCLRE
 70
     0
  9
$DIMCLRT
 70
     0
  9
$DIMTFAC
 40
1.0
  9
$DIMGAP
 40
0.125
  9
$DIMJUST
 70
     0
  9
$DIMSD1
 70
     0
  9
$DIMSD2
 70
     0
  9
$DIMTOLJ
 70
     1
  9
$DIMTZIN
 70
     0
  9
$DIMALTZ
 70
     0
  9
$DIMALTTZ
 70
     0
  9
$DIMUPT
 70
     0
  9
$DIMDEC
 70
     2
  9
$DIMTDEC
 70
     4
  9
$DIMALTU
 70
     2
  9
$DIMALTTD
 70
     2
  9
$DIMTXSTY
  7
STANDARD
  9
$DIMAUNIT
 70
     0
  9
$DIMADEC
 70
     0
  9
$DIMALTRND
 40
0.0
  9
$DIMAZIN
 70
     0
  9
$DIMDSEP
 70
    46
  9
$DIMATFIT
 70
     3
  9
$DIMFRAC
 70
     2
  9
$DIMLDRBLK
  1

  9
$DIMLUNIT
 70
     5
  9
$DIMLWD
 70
    -2
  9
$DIMLWE
 70
    -2
  9
$DIMTMOVE
 70
     0
  9
$LUNITS
 70
     5
  9
$LUPREC
 70
     4
  9
$SKETCHINC
 40
0.1
  9
$FILLETRAD
 40
0.0
  9
$AUNITS
 70
     0
  9
$AUPREC
 70
     0
  9
$MENU
  1
acad
  9
$ELEVATION
 40
0.0
  9
$PELEVATION
 40
0.0
  9
$THICKNESS
 40
0.0
  9
$LIMCHECK
 70
     0
  9
$CHAMFERA
 40
0.0
  9
$CHAMFERB
 40
0.0
  9
$CHAMFERC
 40
0.0
  9
$CHAMFERD
 40
0.0
  9
$SKPOLY
 70
     0
  9
$TDCREATE
 40
2450406.632464503
  9
$TDUCREATE
 40
2450406.799131169
  9
$TDUPDATE
 40
2453963.938720672
  9
$TDUUPDATE
 40
2453964.105387338
  9
$TDINDWG
 40
0.0701297454
  9
$TDUSRTIMER
 40
0.0701297454
  9
$USRTIMER
 70
     1
  9
$ANGBASE
 50
0.0
  9
$ANGDIR
 70
     0
  9
$PDMODE
 70
     0
  9
$PDSIZE
 40
0.0
  9
$PLINEWID
 40
0.0
  9
$SPLFRAME
 70
     0
  9
$SPLINETYPE
 70
     6
  9
$SPLINESEGS
 70
     8
  9
$HANDSEED
  5
4D0
  9
$SURFTAB1
 70
     6
  9
$SURFTAB2
 70
     6
  9
$SURFTYPE
 70
     6
  9
$SURFU
 70
     6
  9
$SURFV
 70
     6
  9
$UCSBASE
  2

  9
$UCSNAME
  2

  9
$UCSORG
 10
0.0
 20
0.0
 30
0.0
  9
$UCSXDIR
 10
1.0
 20
0.0
 30
0.0
  9
$UCSYDIR
 10
0.0
 20
1.0
 30
0.0
  9
$UCSORTHOREF
  2

  9
$UCSORTHOVIEW
 70
     0
  9
$UCSORGTOP
 10
0.0
 20
0.0
 30
0.0
  9
$UCSORGBOTTOM
 10
0.0
 20
0.0
 30
0.0
  9
$UCSORGLEFT
 10
0.0
 20
0.0
 30
0.0
  9
$UCSORGRIGHT
 10
0.0
 20
0.0
 30
0.0
  9
$UCSORGFRONT
 10
0.0
 20
0.0
 30
0.0
  9
$UCSORGBACK
 10
0.0
 20
0.0
 30
0.0
  9
$PUCSBASE
  2

  9
$PUCSNAME
  2

  9
$PUCSORG
 10
0.0
 20
0.0
 30
0.0
  9
$PUCSXDIR
 10
1.0
 20
0.0
 30
0.0
  9
$PUCSYDIR
 10
0.0
 20
1.0
 30
0.0
  9
$PUCSORTHOREF
  2

  9
$PUCSORTHOVIEW
 70
     0
  9
$PUCSORGTOP
 10
0.0
 20
0.0
 30
0.0
  9
$PUCSORGBOTTOM
 10
0.0
 20
0.0
 30
0.0
  9
$PUCSORGLEFT
 10
0.0
 20
0.0
 30
0.0
  9
$PUCSORGRIGHT
 10
0.0
 20
0.0
 30
0.0
  9
$PUCSORGFRONT
 10
0.0
 20
0.0
 30
0.0
  9
$PUCSORGBACK
 10
0.0
 20
0.0
 30
0.0
  9
$USERI1
 70
     0
  9
$USERI2
 70
     0
  9
$USERI3
 70
     0
  9
$USERI4
 70
     0
  9
$USERI5
 70
     0
  9
$USERR1
 40
0.0
  9
$USERR2
 40
0.0
  9
$USERR3
 40
0.0
  9
$USERR4
 40
0.0
  9
$USERR5
 40
0.0
  9
$WORLDVIEW
 70
     1
  9
$SHADEDGE
 70
     3
  9
$SHADEDIF
 70
    70
  9
$TILEMODE
 70
     1
  9
$MAXACTVP
 70
    15
  9
$PINSBASE
 10
0.0008545028977096
 20
1.250283272183907
 30
0.0
  9
$PLIMCHECK
 70
     0
  9
$PEXTMIN
 10
1.000000000000000E+20
 20
1.000000000000000E+20
 30
1.000000000000000E+20
  9
$PEXTMAX
 10
-1.000000000000000E+20
 20
-1.000000000000000E+20
 30
-1.000000000000000E+20
  9
$PLIMMIN
 10
0.0
 20
0.0
  9
$PLIMMAX
 10
12.0
 20
9.0
  9
$UNITMODE
 70
     0
  9
$VISRETAIN
 70
     0
  9
$PLINEGEN
 70
     0
  9
$PSLTSCALE
 70
     1
  9
$TREEDEPTH
 70
  3020
  9
$CMLSTYLE
  2
STANDARD
  9
$CMLJUST
 70
     0
  9
$CMLSCALE
 40
1.0
  9
$PROXYGRAPHICS
 70
     1
  9
$MEASUREMENT
 70
     0
  9
$CELWEIGHT
370
    -1
  9
$ENDCAPS
280
     0
  9
$JOINSTYLE
280
     0
  9
$LWDISPLAY
290
     0
  9
$INSUNITS
 70
     0
  9
$HYPERLINKBASE
  1

  9
$STYLESHEET
  1

  9
$XEDIT
290
     1
  9
$CEPSNTYPE
380
     0
  9
$PSTYLEMODE
290
     1
  9
$FINGERPRINTGUID
  2
{38B3CF2D-E84F-4ADF-B98A-BE48EEF0B195}
  9
$VERSIONGUID
  2
{5EBA6F67-F980-46E4-841D-058B2366FEC1}
  9
$EXTNAMES
290
     1
  9
$PSVPSCALE
 40
0.0
  9
$OLESTARTUP
290
     0
  0
ENDSEC
  0
SECTION
  2
CLASSES
  0
CLASS
  1
ACDBDICTIONARYWDFLT
  2
AcDbDictionaryWithDefault
  3
ObjectDBX Classes
 90
        0
280
     0
281
     0
  0
CLASS
  1
ACDBPLACEHOLDER
  2
AcDbPlaceHolder
  3
ObjectDBX Classes
 90
        0
280
     0
281
     0
  0
CLASS
  1
LAYOUT
  2
AcDbLayout
  3
ObjectDBX Classes
 90
        0
280
     0
281
     0
  0
CLASS
  1
DICTIONARYVAR
  2
AcDbDictionaryVar
  3
ObjectDBX Classes
 90
        0
280
     0
281
     0
  0
CLASS
  1
MATERIAL
  2
AcDbMaterial
  3
ObjectDBX Classes
 90
     1024
280
     0
281
     0
  0
CLASS
  1
VISUALSTYLE
  2
AcDbVisualStyle
  3
ObjectDBX Classes
 90
     4095
280
     0
281
     0
  0
CLASS
  1
TABLESTYLE
  2
AcDbTableStyle
  3
ObjectDBX Classes
 90
     4095
280
     0
281
     0
  0
ENDSEC
  0
SECTION
  2
TABLES
  0
TABLE
  2
VPORT
  5
8
330
0
100
AcDbSymbolTable
 70
     1
  0
VPORT
  5
39F
330
8
100
AcDbSymbolTableRecord
100
AcDbViewportTableRecord
  2
*Active
 70
     0
 10
0.0
 20
0.0
 11
1.0
 21
1.0
 12
-2.777795059683025
 22
10.4431828914872
 13
0.0
 23
0.0
 14
0.5740882589684922
 24
0.5740882589684922
 15
0.5
 25
0.5
 16
0.0
 26
0.0
 36
1.0
 17
0.0
 27
0.0
 37
0.0
 40
8.016759453767013
 41
1.726930320150659
 42
50.0
 43
0.0
 44
0.0
 50
0.0
 51
0.0
 71
     0
 72
   100
 73
     1
 74
     0
 75
     0
 76
     0
 77
     0
 78
     0
281
     0
 65
     1
110
0.0
120
0.0
130
0.0
111
1.0
121
0.0
131
0.0
112
0.0
122
1.0
132
0.0
 79
     0
146
0.0
  0
ENDTAB
  0
TABLE
  2
LTYPE
  5
5
330
0
100
AcDbSymbolTable
 70
     2
  0
LTYPE
  5
12
330
5
100
AcDbSymbolTableRecord
100
AcDbLinetypeTableRecord
  2
BYBLOCK
 70
     0
  3

 72
    65
 73
     0
 40
0.0
  0
LTYPE
  5
13
330
5
100
AcDbSymbolTableRecord
100
AcDbLinetypeTableRecord
  2
BYLAYER
 70
     0
  3

 72
    65
 73
     0
 40
0.0
  0
LTYPE
  5
14
330
5
100
AcDbSymbolTableRecord
100
AcDbLinetypeTableRecord
  2
CONTINUOUS
 70
     0
  3
Solid line
 72
    65
 73
     0
 40
0.0
  0
LTYPE
  5
106
330
5
100
AcDbSymbolTableRecord
100
AcDbLinetypeTableRecord
  2
HIDDEN2
 70
     0
  3
_ _ _ _ _ _ _ _ _ _ _ _ _ _ _ _ _ _ _ _ _ _ _ _
 72
    65
 73
     2
 40
0.1875
 49
0.125
 74
     0
 49
-0.0625
 74
     0
  0
ENDTAB
  0
TABLE
  2
LAYER
  5
2
330
0
100
AcDbSymbolTable
 70
     5
  0
LAYER
  5
F
330
2
100
AcDbSymbolTableRecord
100
AcDbLayerTableRecord
  2
0
 70
     0
 62
     7
  6
CONTINUOUS
370
    -3
390
17B
  0
LAYER
  5
97
330
2
100
AcDbSymbolTableRecord
100
AcDbLayerTableRecord
  2
DEFPOINTS
 70
     0
 62
     7
  6
CONTINUOUS
290
     0
370
    -3
390
17B
  0
LAYER
  5
98
330
2
100
AcDbSymbolTableRecord
100
AcDbLayerTableRecord
  2
ADPDIM
 70
     0
 62
     3
  6
CONTINUOUS
370
    -3
390
17B
  0
LAYER
  5
DB
330
2
100
AcDbSymbolTableRecord
100
AcDbLayerTableRecord
  2
ADP1DETAIL
 70
     0
 62
     7
  6
CONTINUOUS
370
    -3
390
17B
  0
LAYER
  5
DC
330
2
100
AcDbSymbolTableRecord
100
AcDbLayerTableRecord
  2
ADP2DETAIL
 70
     0
 62
     5
  6
CONTINUOUS
370
    -3
390
17B
  0
ENDTAB
  0
TABLE
  2
STYLE
  5
3
330
0
100
AcDbSymbolTable
 70
     2
  0
STYLE
  5
10
330
3
100
AcDbSymbolTableRecord
100
AcDbTextStyleTableRecord
  2
STANDARD
 70
     0
 40
0.0
 41
1.0
 50
0.0
 71
     0
 42
0.2
  3
txt
  4

  0
STYLE
  5
182
330
3
100
AcDbSymbolTableRecord
100
AcDbTextStyleTableRecord
  2
ARIAL_WIDE
 70
     0
 40
0.0
 41
1.25
 50
0.0
 71
     0
 42
0.2
  3
ARIAL.TTF
  4

1001
ACAD
1000
Arial
1071
       34
  0
ENDTAB
  0
TABLE
  2
VIEW
  5
6
330
0
100
AcDbSymbolTable
 70
     0
  0
ENDTAB
  0
TABLE
  2
UCS
  5
7
330
0
100
AcDbSymbolTable
 70
     0
  0
ENDTAB
  0
TABLE
  2
APPID
  5
9
330
0
100
AcDbSymbolTable
 70
     2
  0
APPID
  5
11
330
9
100
AcDbSymbolTableRecord
100
AcDbRegAppTableRecord
  2
ACAD
 70
     0
  0
APPID
  5
44E
330
9
100
AcDbSymbolTableRecord
100
AcDbRegAppTableRecord
  2
DCO15
 70
     0
  0
ENDTAB
  0
TABLE
  2
DIMSTYLE
  5
A
330
0
100
AcDbSymbolTable
 70
     1
100
AcDbDimStyleTable
 71
     0
  0
DIMSTYLE
105
D9
102
{ACAD_REACTORS
330
15C
330
459
330
45A
330
45B
102
}
330
A
100
AcDbSymbolTableRecord
100
AcDbDimStyleTableRecord
  2
STANDARD
 70
     0
340
10
  0
ENDTAB
  0
TABLE
  2
BLOCK_RECORD
  5
1
330
0
100
AcDbSymbolTable
 70
    11
  0
BLOCK_RECORD
  5
18
102
{ACAD_XDICTIONARY
360
1F7
102
}
330
1
100
AcDbSymbolTableRecord
100
AcDbBlockTableRecord
  2
*MODEL_SPACE
340
17E
  0
BLOCK_RECORD
  5
15
102
{ACAD_XDICTIONARY
360
1F5
102
}
330
1
100
AcDbSymbolTableRecord
100
AcDbBlockTableRecord
  2
*PAPER_SPACE
340
17F
  0
BLOCK_RECORD
  5
14F
330
1
100
AcDbSymbolTableRecord
100
AcDbBlockTableRecord
  2
*D0
340
0
  0
BLOCK_RECORD
  5
15D
330
1
100
AcDbSymbolTableRecord
100
AcDbBlockTableRecord
  2
*D1
340
0
  0
BLOCK_RECORD
  5
16A
330
1
100
AcDbSymbolTableRecord
100
AcDbBlockTableRecord
  2
*D2
340
0
  0
BLOCK_RECORD
  5
405
330
1
100
AcDbSymbolTableRecord
100
AcDbBlockTableRecord
  2
AI9-BLK1
340
0
102
{BLKREFS
331
450
331
458
102
}
  0
BLOCK_RECORD
  5
427
330
1
100
AcDbSymbolTableRecord
100
AcDbBlockTableRecord
  2
*D4
340
0
  0
BLOCK_RECORD
  5
434
330
1
100
AcDbSymbolTableRecord
100
AcDbBlockTableRecord
  2
*D5
340
0
  0
BLOCK_RECORD
  5
441
330
1
100
AcDbSymbolTableRecord
100
AcDbBlockTableRecord
  2
*D6
340
0
  0
BLOCK_RECORD
  5
45C
330
1
100
AcDbSymbolTableRecord
100
AcDbBlockTableRecord
  2
*D8
340
0
  0
BLOCK_RECORD
  5
469
330
1
100
AcDbSymbolTableRecord
100
AcDbBlockTableRecord
  2
*D9
340
0
  0
BLOCK_RECORD
  5
476
330
1
100
AcDbSymbolTableRecord
100
AcDbBlockTableRecord
  2
*D10
340
0
  0
ENDTAB
  0
ENDSEC
  0
SECTION
  2
BLOCKS
  0
BLOCK
  5
9B
330
18
100
AcDbEntity
  8
0
100
AcDbBlockBegin
  2
*MODEL_SPACE
 70
     0
 10
0.0
 20
0.0
 30
0.0
  3
*MODEL_SPACE
  1

  0
ENDBLK
  5
9C
330
18
100
AcDbEntity
  8
0
100
AcDbBlockEnd
  0
BLOCK
  5
99
330
15
100
AcDbEntity
 67
     1
  8
0
100
AcDbBlockBegin
  2
*PAPER_SPACE
 70
     0
 10
0.0
 20
0.0
 30
0.0
  3
*PAPER_SPACE
  1

  0
ENDBLK
  5
9A
330
15
100
AcDbEntity
 67
     1
  8
0
100
AcDbBlockEnd
  0
BLOCK
  5
150
330
14F
100
AcDbEntity
  8
0
100
AcDbBlockBegin
  2
*D0
 70
     1
 10
0.0
 20
0.0
 30
0.0
  3
*D0
  1

  0
LINE
  5
3DD
330
14F
100
AcDbEntity
  8
ADPDIM
  6
Continuous
 62
     0
100
AcDbLine
 10
-3.712563781664179
 20
9.435350779012926
 30
0.0
 11
-3.712563781664179
 21
9.139454906945784
 31
0.0
  0
LINE
  5
3DE
330
14F
100
AcDbEntity
  8
ADPDIM
  6
Continuous
 62
     0
100
AcDbLine
 10
-0.0897252598000619
 20
9.812236302852657
 30
0.0
 11
-0.089725259800062
 21
9.139454906945784
 31
0.0
  0
LINE
  5
3DF
330
14F
100
AcDbEntity
  8
ADPDIM
  6
Continuous
 62
     0
100
AcDbLine
 10
-3.712563781664179
 20
9.319454906945784
 30
0.0
 11
-2.296977854065454
 21
9.319454906945784
 31
0.0
  0
LINE
  5
3E0
330
14F
100
AcDbEntity
  8
ADPDIM
  6
Continuous
 62
     0
100
AcDbLine
 10
-0.089725259800062
 20
9.319454906945784
 30
0.0
 11
-1.505311187398787
 21
9.319454906945784
 31
0.0
  0
LINE
  5
3E1
330
14F
100
AcDbEntity
  8
ADPDIM
  6
Continuous
 62
     0
100
AcDbLine
 10
-0.214725259800062
 20
9.194454906945784
 30
0.0
 11
0.0352747401999381
 21
9.444454906945784
 31
0.0
  0
LINE
  5
3E2
330
14F
100
AcDbEntity
  8
ADPDIM
  6
Continuous
 62
     0
100
AcDbLine
 10
-3.837563781664179
 20
9.194454906945784
 30
0.0
 11
-3.587563781664179
 21
9.444454906945784
 31
0.0
  0
MTEXT
  5
3E3
330
14F
100
AcDbEntity
  8
ADPDIM
  6
Continuous
 62
     0
100
AcDbMText
 10
-1.90114452073212
 20
9.319454906945784
 30
0.0
 40
0.125
 41
0.0
 71
     5
 72
     1
  1
\A1;3 1/2
 73
     1
 44
1.0
1001
ACAD
1000
MTEXTBEGIN
1070
    73
1070
     1
1070
    44
1040
1.0
1070
    74
1070
     0
1000
MTEXTEND
  0
POINT
  5
3E4
330
14F
100
AcDbEntity
  8
DEFPOINTS
  6
Continuous
 62
     0
100
AcDbPoint
 10
-3.712563781664179
 20
9.497850779012926
 30
0.0
  0
POINT
  5
3E5
330
14F
100
AcDbEntity
  8
DEFPOINTS
  6
Continuous
 62
     0
100
AcDbPoint
 10
-0.0897252598000619
 20
9.874736302852657
 30
0.0
  0
POINT
  5
3E6
330
14F
100
AcDbEntity
  8
DEFPOINTS
  6
Continuous
 62
     0
100
AcDbPoint
 10
-0.089725259800062
 20
9.319454906945784
 30
0.0
  0
ENDBLK
  5
15B
330
14F
100
AcDbEntity
  8
0
100
AcDbBlockEnd
  0
BLOCK
  5
15E
330
15D
100
AcDbEntity
  8
0
100
AcDbBlockBegin
  2
*D1
 70
     1
 10
0.0
 20
0.0
 30
0.0
  3
*D1
  1

  0
LINE
  5
3D3
330
15D
100
AcDbEntity
  8
ADPDIM
 62
     0
100
AcDbLine
 10
-6.753444697768263
 20
9.530813522439297
 30
0.0
 11
-6.753444697768263
 21
9.136309740565815
 31
0.0
  0
LINE
  5
3D4
330
15D
100
AcDbEntity
  8
ADPDIM
 62
     0
100
AcDbLine
 10
-5.449006311717442
 20
9.530813522439297
 30
0.0
 11
-5.449006311717442
 21
9.136309740565815
 31
0.0
  0
LINE
  5
3D5
330
15D
100
AcDbEntity
  8
ADPDIM
 62
     0
100
AcDbLine
 10
-6.753444697768263
 20
9.316309740565815
 30
0.0
 11
-6.476225504742853
 21
9.316309740565815
 31
0.0
  0
LINE
  5
3D6
330
15D
100
AcDbEntity
  8
ADPDIM
 62
     0
100
AcDbLine
 10
-5.449006311717442
 20
9.316309740565815
 30
0.0
 11
-5.726225504742853
 21
9.316309740565815
 31
0.0
  0
LINE
  5
3D7
330
15D
100
AcDbEntity
  8
ADPDIM
 62
     0
100
AcDbLine
 10
-5.574006311717442
 20
9.191309740565815
 30
0.0
 11
-5.324006311717442
 21
9.441309740565815
 31
0.0
  0
LINE
  5
3D8
330
15D
100
AcDbEntity
  8
ADPDIM
 62
     0
100
AcDbLine
 10
-6.878444697768263
 20
9.191309740565815
 30
0.0
 11
-6.628444697768263
 21
9.441309740565815
 31
0.0
  0
MTEXT
  5
3D9
330
15D
100
AcDbEntity
  8
ADPDIM
 62
     0
100
AcDbMText
 10
-6.101225504742853
 20
9.316309740565815
 30
0.0
 40
0.125
 41
0.0
 71
     5
 72
     1
  1
\A1;1 1/4
 73
     1
 44
1.0
1001
ACAD
1000
MTEXTBEGIN
1070
    73
1070
     1
1070
    44
1040
1.0
1070
    74
1070
     0
1000
MTEXTEND
  0
POINT
  5
3DA
330
15D
100
AcDbEntity
  8
DEFPOINTS
 62
     0
100
AcDbPoint
 10
-6.753444697768263
 20
9.593313522439297
 30
0.0
  0
POINT
  5
3DB
330
15D
100
AcDbEntity
  8
DEFPOINTS
 62
     0
100
AcDbPoint
 10
-5.449006311717442
 20
9.593313522439297
 30
0.0
  0
POINT
  5
3DC
330
15D
100
AcDbEntity
  8
DEFPOINTS
 62
     0
100
AcDbPoint
 10
-5.449006311717442
 20
9.316309740565815
 30
0.0
  0
ENDBLK
  5
169
330
15D
100
AcDbEntity
  8
0
100
AcDbBlockEnd
  0
BLOCK
  5
16B
330
16A
100
AcDbEntity
  8
0
100
AcDbBlockBegin
  2
*D2
 70
     1
 10
0.0
 20
0.0
 30
0.0
  3
*D2
  1

  0
LINE
  5
3C9
330
16A
100
AcDbEntity
  8
ADPDIM
 62
     0
100
AcDbLine
 10
-7.223186295119043
 20
9.937236302852658
 30
0.0
 11
-7.223186295119043
 21
10.70403177724833
 31
0.0
  0
LINE
  5
3CA
330
16A
100
AcDbEntity
  8
ADPDIM
 62
     0
100
AcDbLine
 10
-4.979264714366663
 20
9.937236302852658
 30
0.0
 11
-4.979264714366663
 21
10.70403177724833
 31
0.0
  0
LINE
  5
3CB
330
16A
100
AcDbEntity
  8
ADPDIM
 62
     0
100
AcDbLine
 10
-7.223186295119043
 20
10.52403177724833
 30
0.0
 11
-6.497058838076186
 21
10.52403177724833
 31
0.0
  0
LINE
  5
3CC
330
16A
100
AcDbEntity
  8
ADPDIM
 62
     0
100
AcDbLine
 10
-4.979264714366663
 20
10.52403177724833
 30
0.0
 11
-5.70539217140952
 21
10.52403177724833
 31
0.0
  0
LINE
  5
3CD
330
16A
100
AcDbEntity
  8
ADPDIM
 62
     0
100
AcDbLine
 10
-5.104264714366663
 20
10.39903177724833
 30
0.0
 11
-4.854264714366663
 21
10.64903177724833
 31
0.0
  0
LINE
  5
3CE
330
16A
100
AcDbEntity
  8
ADPDIM
 62
     0
100
AcDbLine
 10
-7.348186295119043
 20
10.39903177724833
 30
0.0
 11
-7.098186295119043
 21
10.64903177724833
 31
0.0
  0
MTEXT
  5
3CF
330
16A
100
AcDbEntity
  8
ADPDIM
 62
     0
100
AcDbMText
 10
-6.101225504742853
 20
10.52403177724833
 30
0.0
 40
0.125
 41
0.0
 71
     5
 72
     1
  1
\A1;2 1/4
 73
     1
 44
1.0
1001
ACAD
1000
MTEXTBEGIN
1070
    73
1070
     1
1070
    44
1040
1.0
1070
    74
1070
     0
1000
MTEXTEND
  0
POINT
  5
3D0
330
16A
100
AcDbEntity
  8
DEFPOINTS
 62
     0
100
AcDbPoint
 10
-7.223186295119043
 20
9.874736302852658
 30
0.0
  0
POINT
  5
3D1
330
16A
100
AcDbEntity
  8
DEFPOINTS
 62
     0
100
AcDbPoint
 10
-4.979264714366663
 20
9.874736302852658
 30
0.0
  0
POINT
  5
3D2
330
16A
100
AcDbEntity
  8
DEFPOINTS
 62
     0
100
AcDbPoint
 10
-4.979264714366663
 20
10.52403177724833
 30
0.0
  0
ENDBLK
  5
176
330
16A
100
AcDbEntity
  8
0
100
AcDbBlockEnd
  0
BLOCK
  5
406
330
405
100
AcDbEntity
  8
0
 62
     7
100
AcDbBlockBegin
  2
AI9-BLK1
 70
     0
 10
0.0
 20
0.0
 30
0.0
  3
AI9-BLK1
  1

  0
SPLINE
  5
407
330
405
100
AcDbEntity
  8
0
 62
     7
100
AcDbSpline
210
0.0
220
0.0
230
1.0
 70
     8
 71
     3
 72
     8
 73
     4
 74
     0
 42
0.0000000001
 43
0.0000000001
 40
0.0
 40
0.0
 40
0.0
 40
0.0
 40
1.0
 40
1.0
 40
1.0
 40
1.0
 10
23.44887017144097
 20
3.050718180338541
 30
0.0
 10
20.03719211154514
 20
2.53257581922743
 30
0.0
 10
16.54972195095486
 20
3.14029066297743
 30
0.0
 10
13.51442057291666
 20
4.781706407335068
 30
0.0
  0
SPLINE
  5
408
330
405
100
AcDbEntity
  8
0
 62
     7
100
AcDbSpline
210
0.0
220
0.0
230
1.0
 70
     8
 71
     3
 72
     8
 73
     4
 74
     0
 42
0.0000000001
 43
0.0000000001
 40
0.0
 40
0.0
 40
0.0
 40
0.0
 40
1.0
 40
1.0
 40
1.0
 40
1.0
 10
-13.51373155381944
 20
4.781706407335068
 30
0.0
 10
-9.951847330729165
 20
8.412320285373263
 30
0.0
 10
-5.085822211371527
 20
10.46783650716146
 30
0.0
 10
0.0003445095486111
 20
10.49022962782118
 30
0.0
  0
SPLINE
  5
409
330
405
100
AcDbEntity
  8
0
 62
     7
100
AcDbSpline
210
0.0
220
0.0
230
1.0
 70
     8
 71
     3
 72
    14
 73
    10
 74
     0
 42
0.0000000001
 43
0.0000000001
 40
0.0
 40
0.0
 40
0.0
 40
0.0
 40
1.0
 40
1.0
 40
1.0
 40
2.0
 40
2.0
 40
2.0
 40
3.0
 40
3.0
 40
3.0
 40
3.0
 10
-25.13696695963542
 20
-3.539404975043402
 30
0.0
 10
-26.62852105034722
 20
-3.875818549262152
 30
0.0
 10
-28.11042887369791
 20
-2.939269341362846
 30
0.0
 10
-28.44667019314236
 20
-1.447715250651041
 30
0.0
 10
-28.78308376736111
 20
0.0440110948350694
 30
0.0
 10
-27.8465345594618
 20
1.525746663411458
 30
0.0
 10
-26.35498046875
 20
1.862160237630208
 30
0.0
 10
-26.15499267578125
 20
1.907118733723958
 30
0.0
 10
-25.95087076822917
 20
1.929856363932291
 30
0.0
 10
-25.74588758680555
 20
1.929856363932291
 30
0.0
  0
SPLINE
  5
40A
330
405
100
AcDbEntity
  8
0
 62
     7
100
AcDbSpline
210
0.0
220
0.0
230
1.0
 70
     8
 71
     3
 72
     8
 73
     4
 74
     0
 42
0.0000000001
 43
0.0000000001
 40
0.0
 40
0.0
 40
0.0
 40
0.0
 40
1.0
 40
1.0
 40
1.0
 40
1.0
 10
-25.13696695963542
 20
-3.539404975043402
 30
0.0
 10
-22.00330810546875
 20
-4.179331461588541
 30
0.0
 10
-19.75279947916666
 20
-6.936096869574652
 30
0.0
 10
-19.75279947916666
 20
-10.1343512641059
 30
0.0
  0
SPLINE
  5
40B
330
405
100
AcDbEntity
  8
0
 62
     7
100
AcDbSpline
210
0.0
220
0.0
230
1.0
 70
     8
 71
     3
 72
     8
 73
     4
 74
     0
 42
0.0000000001
 43
0.0000000001
 40
0.0
 40
0.0
 40
0.0
 40
0.0
 40
1.0
 40
1.0
 40
1.0
 40
1.0
 10
-19.3726331922743
 20
-10.49022962782118
 30
0.0
 10
-19.57331000434027
 20
-10.49022962782118
 30
0.0
 10
-19.73953586154513
 20
-10.33468356662326
 30
0.0
 10
-19.75279947916666
 20
-10.1343512641059
 30
0.0
  0
SPLINE
  5
40C
330
405
100
AcDbEntity
  8
0
 62
     7
100
AcDbSpline
210
0.0
220
0.0
230
1.0
 70
     8
 71
     3
 72
     8
 73
     4
 74
     0
 42
0.0000000001
 43
0.0000000001
 40
0.0
 40
0.0
 40
0.0
 40
0.0
 40
1.0
 40
1.0
 40
1.0
 40
1.0
 10
-13.51373155381944
 20
4.781706407335068
 30
0.0
 10
-16.54920518663194
 20
3.14029066297743
 30
0.0
 10
-20.03667534722222
 20
2.53257581922743
 30
0.0
 10
-23.44818115234375
 20
3.050718180338541
 30
0.0
  0
LINE
  5
40D
330
405
100
AcDbEntity
  8
0
 62
     7
100
AcDbLine
 10
-25.74588758680555
 20
1.929856363932291
 30
0.0
 11
-25.75915120442708
 21
3.02866956922743
 31
0.0
  0
LINE
  5
40E
330
405
100
AcDbEntity
  8
0
 62
     7
100
AcDbLine
 10
-25.74588758680555
 20
3.050718180338541
 30
0.0
 11
-23.533447265625
 21
3.059158664279513
 31
0.0
  0
SPLINE
  5
40F
330
405
100
AcDbEntity
  8
0
 62
     7
100
AcDbSpline
210
0.0
220
0.0
230
1.0
 70
     8
 71
     3
 72
     8
 73
     4
 74
     0
 42
0.0000000001
 43
0.0000000001
 40
0.0
 40
0.0
 40
0.0
 40
0.0
 40
1.0
 40
1.0
 40
1.0
 40
1.0
 10
0.0003445095486111
 20
10.49022962782118
 30
0.0
 10
5.086338975694443
 20
10.46783650716146
 30
0.0
 10
9.952364095052082
 20
8.412320285373263
 30
0.0
 10
13.51442057291666
 20
4.781706407335068
 30
0.0
  0
SPLINE
  5
410
330
405
100
AcDbEntity
  8
0
 62
     7
100
AcDbSpline
210
0.0
220
0.0
230
1.0
 70
     8
 71
     3
 72
    14
 73
    10
 74
     0
 42
0.0000000001
 43
0.0000000001
 40
0.0
 40
0.0
 40
0.0
 40
0.0
 40
1.0
 40
1.0
 40
1.0
 40
2.0
 40
2.0
 40
2.0
 40
3.0
 40
3.0
 40
3.0
 40
3.0
 10
25.74657660590278
 20
1.929856363932291
 30
0.0
 10
27.27550998263889
 20
1.929856363932291
 30
0.0
 10
28.51505533854167
 20
0.6903110080295139
 30
0.0
 10
28.51505533854167
 20
-0.8386223687065971
 30
0.0
 10
28.51505533854167
 20
-2.367728000217013
 30
0.0
 10
27.27550998263889
 20
-3.607273356119791
 30
0.0
 10
25.74657660590278
 20
-3.607273356119791
 30
0.0
 10
25.54159342447916
 20
-3.607273356119791
 30
0.0
 10
25.33729926215278
 20
-3.584535725911457
 30
0.0
 10
25.13748372395833
 20
-3.539404975043402
 30
0.0
  0
SPLINE
  5
411
330
405
100
AcDbEntity
  8
0
 62
     7
100
AcDbSpline
210
0.0
220
0.0
230
1.0
 70
     8
 71
     3
 72
     8
 73
     4
 74
     0
 42
0.0000000001
 43
0.0000000001
 40
0.0
 40
0.0
 40
0.0
 40
0.0
 40
1.0
 40
1.0
 40
1.0
 40
1.0
 10
19.75331624348958
 20
-10.1343512641059
 30
0.0
 10
19.75331624348958
 20
-6.936096869574652
 30
0.0
 10
22.00399712456597
 20
-4.179331461588541
 30
0.0
 10
25.13748372395833
 20
-3.539404975043402
 30
0.0
  0
SPLINE
  5
412
330
405
100
AcDbEntity
  8
0
 62
     7
100
AcDbSpline
210
0.0
220
0.0
230
1.0
 70
     8
 71
     3
 72
     8
 73
     4
 74
     0
 42
0.0000000001
 43
0.0000000001
 40
0.0
 40
0.0
 40
0.0
 40
0.0
 40
1.0
 40
1.0
 40
1.0
 40
1.0
 10
19.75331624348958
 20
-10.1343512641059
 30
0.0
 10
19.74022488064236
 20
-10.33468356662326
 30
0.0
 10
19.57382676866319
 20
-10.49022962782118
 30
0.0
 10
19.37314995659722
 20
-10.49022962782118
 30
0.0
  0
LINE
  5
413
330
405
100
AcDbEntity
  8
0
 62
     7
100
AcDbLine
 10
25.74657660590278
 20
1.929856363932291
 30
0.0
 11
25.75984022352431
 21
3.02866956922743
 31
0.0
  0
LINE
  5
414
330
405
100
AcDbEntity
  8
0
 62
     7
100
AcDbLine
 10
25.74657660590278
 20
3.050718180338541
 30
0.0
 11
23.53413628472222
 21
3.059158664279513
 31
0.0
  0
POLYLINE
  5
415
330
405
100
AcDbEntity
  8
0
 62
     7
100
AcDb2dPolyline
 66
     1
 10
0.0
 20
0.0
 30
0.0
  0
VERTEX
  5
416
330
415
100
AcDbEntity
  8
0
 62
     7
100
AcDbVertex
100
AcDb2dVertex
 10
16.61638454861111
 20
-5.801626925998263
 30
0.0
  0
VERTEX
  5
417
330
415
100
AcDbEntity
  8
0
 62
     7
100
AcDbVertex
100
AcDb2dVertex
 10
16.56815321180555
 20
-0.9993360731336803
 30
0.0
  0
VERTEX
  5
418
330
415
100
AcDbEntity
  8
0
 62
     7
100
AcDbVertex
100
AcDb2dVertex
 10
-16.58882378472222
 20
-0.9993360731336803
 30
0.0
  0
VERTEX
  5
419
330
415
100
AcDbEntity
  8
0
 62
     7
100
AcDbVertex
100
AcDb2dVertex
 10
-16.60449896918402
 20
-5.922377522786457
 30
0.0
  0
VERTEX
  5
41A
330
415
100
AcDbEntity
  8
0
 62
     7
100
AcDbVertex
100
AcDb2dVertex
 10
-18.30861545138889
 20
-5.922377522786457
 30
0.0
  0
VERTEX
  5
41B
330
415
100
AcDbEntity
  8
0
 62
     7
100
AcDbVertex
100
AcDb2dVertex
 10
-18.30861545138889
 20
-10.46680297851562
 30
0.0
  0
VERTEX
  5
41C
330
415
100
AcDbEntity
  8
0
 62
     7
100
AcDbVertex
100
AcDb2dVertex
 10
-18.30861545138889
 20
-6.206425645616318
 30
0.0
  0
SEQEND
  5
41D
330
415
100
AcDbEntity
  8
0
 62
     7
  0
POLYLINE
  5
41E
330
405
100
AcDbEntity
  8
0
 62
     7
100
AcDb2dPolyline
 66
     1
 10
0.0
 20
0.0
 30
0.0
  0
VERTEX
  5
41F
330
41E
100
AcDbEntity
  8
0
 62
     7
100
AcDbVertex
100
AcDb2dVertex
 10
16.62379150390625
 20
-5.827637396918402
 30
0.0
  0
VERTEX
  5
420
330
41E
100
AcDbEntity
  8
0
 62
     7
100
AcDbVertex
100
AcDb2dVertex
 10
18.23592393663194
 20
-5.827637396918402
 30
0.0
  0
VERTEX
  5
421
330
41E
100
AcDbEntity
  8
0
 62
     7
100
AcDbVertex
100
AcDb2dVertex
 10
18.23592393663194
 20
-10.46852552625868
 30
0.0
  0
VERTEX
  5
422
330
41E
100
AcDbEntity
  8
0
 62
     7
100
AcDbVertex
100
AcDb2dVertex
 10
18.23592393663194
 20
-10.27749498155382
 30
0.0
  0
SEQEND
  5
423
330
41E
100
AcDbEntity
  8
0
 62
     7
  0
LINE
  5
424
330
405
100
AcDbEntity
  8
0
 62
     7
100
AcDbLine
 10
18.23592393663194
 20
-10.49022962782118
 30
0.0
 11
19.37314995659722
 21
-10.49022962782118
 31
0.0
  0
LINE
  5
425
330
405
100
AcDbEntity
  8
0
 62
     7
100
AcDbLine
 10
-18.30861545138889
 20
-10.49022962782118
 30
0.0
 11
-19.3726331922743
 21
-10.49022962782118
 31
0.0
  0
ENDBLK
  5
426
330
405
100
AcDbEntity
  8
0
100
AcDbBlockEnd
  0
BLOCK
  5
428
330
427
100
AcDbEntity
  8
0
 62
     3
100
AcDbBlockBegin
  2
*D4
 70
     1
 10
0.0
 20
0.0
 30
0.0
  3
*D4
  1

  0
LINE
  5
429
330
427
100
AcDbEntity
  8
ADPDIM
  6
Continuous
 62
     0
370
    -2
100
AcDbLine
 10
-6.815857488723541
 20
9.663165128006763
 30
0.0
 11
-6.815857488723541
 21
9.052972670816487
 31
0.0
  0
LINE
  5
42A
330
427
100
AcDbEntity
  8
ADPDIM
  6
Continuous
 62
     0
370
    -2
100
AcDbLine
 10
-5.315857488723541
 20
9.663165128006763
 30
0.0
 11
-5.315857488723541
 21
9.052972670816487
 31
0.0
  0
LINE
  5
42B
330
427
100
AcDbEntity
  8
ADPDIM
  6
Continuous
 62
     0
370
    -2
100
AcDbLine
 10
-6.635857488723541
 20
9.232972670816486
 30
0.0
 11
-6.355857488723541
 21
9.232972670816486
 31
0.0
  0
LINE
  5
42C
330
427
100
AcDbEntity
  8
ADPDIM
  6
Continuous
 62
     0
370
    -2
100
AcDbLine
 10
-5.49585748872354
 20
9.232972670816486
 30
0.0
 11
-5.77585748872354
 21
9.232972670816486
 31
0.0
  0
SOLID
  5
42D
330
427
100
AcDbEntity
  8
ADPDIM
  6
Continuous
 62
     0
100
AcDbTrace
 10
-6.635857488723541
 20
9.262972670816486
 30
0.0
 11
-6.635857488723541
 21
9.202972670816487
 31
0.0
 12
-6.815857488723541
 22
9.232972670816486
 32
0.0
 13
-6.815857488723541
 23
9.232972670816486
 33
0.0
  0
SOLID
  5
42E
330
427
100
AcDbEntity
  8
ADPDIM
  6
Continuous
 62
     0
100
AcDbTrace
 10
-5.49585748872354
 20
9.262972670816486
 30
0.0
 11
-5.49585748872354
 21
9.202972670816487
 31
0.0
 12
-5.315857488723541
 22
9.232972670816486
 32
0.0
 13
-5.315857488723541
 23
9.232972670816486
 33
0.0
  0
MTEXT
  5
42F
330
427
100
AcDbEntity
  8
ADPDIM
  6
Continuous
 62
     0
100
AcDbMText
 10
-6.065857488723541
 20
9.232972670816486
 30
0.0
 40
0.1
 41
0.0
 71
     5
 72
     1
  1
\A1;1 1/2
 73
     1
 44
1.0
1001
ACAD
1000
MTEXTBEGIN
1070
    73
1070
     1
1070
    44
1040
1.0
1070
    74
1070
     0
1000
MTEXTEND
  0
POINT
  5
430
330
427
100
AcDbEntity
  8
DEFPOINTS
  6
Continuous
 62
     0
100
AcDbPoint
 10
-6.815857488723541
 20
9.725665128006763
 30
0.0
  0
POINT
  5
431
330
427
100
AcDbEntity
  8
DEFPOINTS
  6
Continuous
 62
     0
100
AcDbPoint
 10
-5.315857488723541
 20
9.725665128006763
 30
0.0
  0
POINT
  5
432
330
427
100
AcDbEntity
  8
DEFPOINTS
  6
Continuous
 62
     0
100
AcDbPoint
 10
-5.315857488723541
 20
9.232972670816486
 30
0.0
  0
ENDBLK
  5
433
330
427
100
AcDbEntity
  8
0
 62
     3
100
AcDbBlockEnd
  0
BLOCK
  5
435
330
434
100
AcDbEntity
  8
0
 62
     3
100
AcDbBlockBegin
  2
*D5
 70
     1
 10
0.0
 20
0.0
 30
0.0
  3
*D5
  1

  0
LINE
  5
436
330
434
100
AcDbEntity
  8
ADPDIM
  6
Continuous
 62
     0
370
    -2
100
AcDbLine
 10
-7.206530247931873
 20
10.1619318116097
 30
0.0
 11
-7.206530247931873
 21
11.18836446174936
 31
0.0
  0
LINE
  5
437
330
434
100
AcDbEntity
  8
ADPDIM
  6
Continuous
 62
     0
370
    -2
100
AcDbLine
 10
-4.956530247931873
 20
10.1619318116097
 30
0.0
 11
-4.956530247931873
 21
11.18836446174936
 31
0.0
  0
LINE
  5
438
330
434
100
AcDbEntity
  8
ADPDIM
  6
Continuous
 62
     0
370
    -2
100
AcDbLine
 10
-7.026530247931873
 20
11.00836446174936
 30
0.0
 11
-6.388196914598539
 21
11.00836446174936
 31
0.0
  0
LINE
  5
439
330
434
100
AcDbEntity
  8
ADPDIM
  6
Continuous
 62
     0
370
    -2
100
AcDbLine
 10
-5.136530247931872
 20
11.00836446174936
 30
0.0
 11
-5.774863581265206
 21
11.00836446174936
 31
0.0
  0
SOLID
  5
43A
330
434
100
AcDbEntity
  8
ADPDIM
  6
Continuous
 62
     0
100
AcDbTrace
 10
-7.026530247931873
 20
11.03836446174936
 30
0.0
 11
-7.026530247931873
 21
10.97836446174936
 31
0.0
 12
-7.206530247931873
 22
11.00836446174936
 32
0.0
 13
-7.206530247931873
 23
11.00836446174936
 33
0.0
  0
SOLID
  5
43B
330
434
100
AcDbEntity
  8
ADPDIM
  6
Continuous
 62
     0
100
AcDbTrace
 10
-5.136530247931872
 20
11.03836446174936
 30
0.0
 11
-5.136530247931872
 21
10.97836446174936
 31
0.0
 12
-4.956530247931873
 22
11.00836446174936
 32
0.0
 13
-4.956530247931873
 23
11.00836446174936
 33
0.0
  0
MTEXT
  5
43C
330
434
100
AcDbEntity
  8
ADPDIM
  6
Continuous
 62
     0
100
AcDbMText
 10
-6.081530247931873
 20
11.00836446174936
 30
0.0
 40
0.1
 41
0.0
 71
     5
 72
     1
  1
\A1;2 1/4
 73
     1
 44
1.0
1001
ACAD
1000
MTEXTBEGIN
1070
    73
1070
     1
1070
    44
1040
1.0
1070
    74
1070
     0
1000
MTEXTEND
  0
POINT
  5
43D
330
434
100
AcDbEntity
  8
DEFPOINTS
  6
Continuous
 62
     0
100
AcDbPoint
 10
-7.206530247931873
 20
10.0994318116097
 30
0.0
  0
POINT
  5
43E
330
434
100
AcDbEntity
  8
DEFPOINTS
  6
Continuous
 62
     0
100
AcDbPoint
 10
-4.956530247931873
 20
10.0994318116097
 30
0.0
  0
POINT
  5
43F
330
434
100
AcDbEntity
  8
DEFPOINTS
  6
Continuous
 62
     0
100
AcDbPoint
 10
-4.956530247931873
 20
11.00836446174936
 30
0.0
  0
ENDBLK
  5
440
330
434
100
AcDbEntity
  8
0
 62
     3
100
AcDbBlockEnd
  0
BLOCK
  5
442
330
441
100
AcDbEntity
  8
0
 62
     3
100
AcDbBlockBegin
  2
*D6
 70
     1
 10
0.0
 20
0.0
 30
0.0
  3
*D6
  1

  0
LINE
  5
443
330
441
100
AcDbEntity
  8
ADPDIM
  6
Continuous
 62
     0
370
    -2
100
AcDbLine
 10
-6.739421521772719
 20
9.841553773781463
 30
0.0
 11
-6.739421521772719
 21
9.452223457106029
 31
0.0
  0
LINE
  5
444
330
441
100
AcDbEntity
  8
ADPDIM
  6
Continuous
 62
     0
370
    -2
100
AcDbLine
 10
-5.426921521772719
 20
9.841553773781463
 30
0.0
 11
-5.426921521772719
 21
9.452223457106029
 31
0.0
  0
LINE
  5
445
330
441
100
AcDbEntity
  8
ADPDIM
  6
Continuous
 62
     0
370
    -2
100
AcDbLine
 10
-6.559421521772719
 20
9.632223457106029
 30
0.0
 11
-6.423171521772719
 21
9.632223457106029
 31
0.0
  0
LINE
  5
446
330
441
100
AcDbEntity
  8
ADPDIM
  6
Continuous
 62
     0
370
    -2
100
AcDbLine
 10
-5.606921521772719
 20
9.632223457106029
 30
0.0
 11
-5.743171521772719
 21
9.632223457106029
 31
0.0
  0
SOLID
  5
447
330
441
100
AcDbEntity
  8
ADPDIM
  6
Continuous
 62
     0
100
AcDbTrace
 10
-6.559421521772719
 20
9.662223457106028
 30
0.0
 11
-6.559421521772719
 21
9.602223457106029
 31
0.0
 12
-6.739421521772719
 22
9.632223457106029
 32
0.0
 13
-6.739421521772719
 23
9.632223457106029
 33
0.0
  0
SOLID
  5
448
330
441
100
AcDbEntity
  8
ADPDIM
  6
Continuous
 62
     0
100
AcDbTrace
 10
-5.606921521772719
 20
9.662223457106028
 30
0.0
 11
-5.606921521772719
 21
9.602223457106029
 31
0.0
 12
-5.426921521772719
 22
9.632223457106029
 32
0.0
 13
-5.426921521772719
 23
9.632223457106029
 33
0.0
  0
MTEXT
  5
449
330
441
100
AcDbEntity
  8
ADPDIM
  6
Continuous
 62
     0
100
AcDbMText
 10
-6.083171521772719
 20
9.632223457106029
 30
0.0
 40
0.1
 41
0.0
 71
     5
 72
     1
  1
\A1;1 5/16
 73
     1
 44
1.0
1001
ACAD
1000
MTEXTBEGIN
1070
    73
1070
     1
1070
    44
1040
1.0
1070
    74
1070
     0
1000
MTEXTEND
  0
POINT
  5
44A
330
441
100
AcDbEntity
  8
DEFPOINTS
  6
Continuous
 62
     0
100
AcDbPoint
 10
-6.739421521772719
 20
9.904053773781463
 30
0.0
  0
POINT
  5
44B
330
441
100
AcDbEntity
  8
DEFPOINTS
  6
Continuous
 62
     0
100
AcDbPoint
 10
-5.426921521772719
 20
9.904053773781463
 30
0.0
  0
POINT
  5
44C
330
441
100
AcDbEntity
  8
DEFPOINTS
  6
Continuous
 62
     0
100
AcDbPoint
 10
-5.426921521772719
 20
9.632223457106029
 30
0.0
  0
ENDBLK
  5
44D
330
441
100
AcDbEntity
  8
0
 62
     3
100
AcDbBlockEnd
  0
BLOCK
  5
467
330
45C
100
AcDbEntity
  8
0
100
AcDbBlockBegin
  2
*D8
 70
     1
 10
0.0
 20
0.0
 30
0.0
  3
*D8
  1

  0
LINE
  5
483
330
45C
100
AcDbEntity
  8
ADPDIM
  6
Continuous
 62
     0
370
    -2
100
AcDbLine
 10
-6.419830552151076
 20
9.474084505685375
 30
0.0
 11
-6.419830552151076
 21
8.863892048495099
 31
0.0
  0
LINE
  5
484
330
45C
100
AcDbEntity
  8
ADPDIM
  6
Continuous
 62
     0
370
    -2
100
AcDbLine
 10
-4.919830552151076
 20
9.474084505685375
 30
0.0
 11
-4.919830552151076
 21
8.863892048495099
 31
0.0
  0
LINE
  5
485
330
45C
100
AcDbEntity
  8
ADPDIM
  6
Continuous
 62
     0
370
    -2
100
AcDbLine
 10
-6.239830552151076
 20
9.043892048495099
 30
0.0
 11
-5.959830552151076
 21
9.043892048495099
 31
0.0
  0
LINE
  5
486
330
45C
100
AcDbEntity
  8
ADPDIM
  6
Continuous
 62
     0
370
    -2
100
AcDbLine
 10
-5.099830552151075
 20
9.043892048495099
 30
0.0
 11
-5.379830552151076
 21
9.043892048495099
 31
0.0
  0
SOLID
  5
487
330
45C
100
AcDbEntity
  8
ADPDIM
  6
Continuous
 62
     0
100
AcDbTrace
 10
-6.239830552151076
 20
9.073892048495098
 30
0.0
 11
-6.239830552151076
 21
9.013892048495099
 31
0.0
 12
-6.419830552151076
 22
9.043892048495099
 32
0.0
 13
-6.419830552151076
 23
9.043892048495099
 33
0.0
  0
SOLID
  5
488
330
45C
100
AcDbEntity
  8
ADPDIM
  6
Continuous
 62
     0
100
AcDbTrace
 10
-5.099830552151075
 20
9.073892048495098
 30
0.0
 11
-5.099830552151075
 21
9.013892048495099
 31
0.0
 12
-4.919830552151076
 22
9.043892048495099
 32
0.0
 13
-4.919830552151076
 23
9.043892048495099
 33
0.0
  0
MTEXT
  5
489
330
45C
100
AcDbEntity
  8
ADPDIM
  6
Continuous
 62
     0
100
AcDbMText
 10
-5.669830552151076
 20
9.043892048495099
 30
0.0
 40
0.1
 41
0.0
 71
     5
 72
     1
  1
\A1;1 1/2
 73
     1
 44
1.0
1001
ACAD
1000
MTEXTBEGIN
1070
    73
1070
     1
1070
    44
1040
1.0
1070
    74
1070
     0
1000
MTEXTEND
  0
POINT
  5
48A
330
45C
100
AcDbEntity
  8
DEFPOINTS
  6
Continuous
 62
     0
100
AcDbPoint
 10
-6.419830552151076
 20
9.536584505685375
 30
0.0
  0
POINT
  5
48B
330
45C
100
AcDbEntity
  8
DEFPOINTS
  6
Continuous
 62
     0
100
AcDbPoint
 10
-4.919830552151076
 20
9.536584505685375
 30
0.0
  0
POINT
  5
48C
330
45C
100
AcDbEntity
  8
DEFPOINTS
  6
Continuous
 62
     0
100
AcDbPoint
 10
-4.919830552151076
 20
9.043892048495099
 30
0.0
  0
ENDBLK
  5
468
330
45C
100
AcDbEntity
  8
0
100
AcDbBlockEnd
  0
BLOCK
  5
474
330
469
100
AcDbEntity
  8
0
100
AcDbBlockBegin
  2
*D9
 70
     1
 10
0.0
 20
0.0
 30
0.0
  3
*D9
  1

  0
LINE
  5
48D
330
469
100
AcDbEntity
  8
ADPDIM
  6
Continuous
 62
     0
370
    -2
100
AcDbLine
 10
-6.810503311359408
 20
9.972851189288309
 30
0.0
 11
-6.810503311359408
 21
10.99928383942797
 31
0.0
  0
LINE
  5
48E
330
469
100
AcDbEntity
  8
ADPDIM
  6
Continuous
 62
     0
370
    -2
100
AcDbLine
 10
-4.560503311359408
 20
9.972851189288309
 30
0.0
 11
-4.560503311359408
 21
10.99928383942797
 31
0.0
  0
LINE
  5
48F
330
469
100
AcDbEntity
  8
ADPDIM
  6
Continuous
 62
     0
370
    -2
100
AcDbLine
 10
-6.630503311359408
 20
10.81928383942797
 30
0.0
 11
-5.992169978026074
 21
10.81928383942797
 31
0.0
  0
LINE
  5
490
330
469
100
AcDbEntity
  8
ADPDIM
  6
Continuous
 62
     0
370
    -2
100
AcDbLine
 10
-4.740503311359407
 20
10.81928383942797
 30
0.0
 11
-5.378836644692741
 21
10.81928383942797
 31
0.0
  0
SOLID
  5
491
330
469
100
AcDbEntity
  8
ADPDIM
  6
Continuous
 62
     0
100
AcDbTrace
 10
-6.630503311359408
 20
10.84928383942797
 30
0.0
 11
-6.630503311359408
 21
10.78928383942797
 31
0.0
 12
-6.810503311359408
 22
10.81928383942797
 32
0.0
 13
-6.810503311359408
 23
10.81928383942797
 33
0.0
  0
SOLID
  5
492
330
469
100
AcDbEntity
  8
ADPDIM
  6
Continuous
 62
     0
100
AcDbTrace
 10
-4.740503311359407
 20
10.84928383942797
 30
0.0
 11
-4.740503311359407
 21
10.78928383942797
 31
0.0
 12
-4.560503311359408
 22
10.81928383942797
 32
0.0
 13
-4.560503311359408
 23
10.81928383942797
 33
0.0
  0
MTEXT
  5
493
330
469
100
AcDbEntity
  8
ADPDIM
  6
Continuous
 62
     0
100
AcDbMText
 10
-5.685503311359408
 20
10.81928383942797
 30
0.0
 40
0.1
 41
0.0
 71
     5
 72
     1
  1
\A1;2 1/4
 73
     1
 44
1.0
1001
ACAD
1000
MTEXTBEGIN
1070
    73
1070
     1
1070
    44
1040
1.0
1070
    74
1070
     0
1000
MTEXTEND
  0
POINT
  5
494
330
469
100
AcDbEntity
  8
DEFPOINTS
  6
Continuous
 62
     0
100
AcDbPoint
 10
-6.810503311359408
 20
9.910351189288309
 30
0.0
  0
POINT
  5
495
330
469
100
AcDbEntity
  8
DEFPOINTS
  6
Continuous
 62
     0
100
AcDbPoint
 10
-4.560503311359408
 20
9.910351189288309
 30
0.0
  0
POINT
  5
496
330
469
100
AcDbEntity
  8
DEFPOINTS
  6
Continuous
 62
     0
100
AcDbPoint
 10
-4.560503311359408
 20
10.81928383942797
 30
0.0
  0
ENDBLK
  5
475
330
469
100
AcDbEntity
  8
0
100
AcDbBlockEnd
  0
BLOCK
  5
481
330
476
100
AcDbEntity
  8
0
100
AcDbBlockBegin
  2
*D10
 70
     1
 10
0.0
 20
0.0
 30
0.0
  3
*D10
  1

  0
LINE
  5
497
330
476
100
AcDbEntity
  8
ADPDIM
  6
Continuous
 62
     0
370
    -2
100
AcDbLine
 10
-6.343394585200254
 20
9.652473151460075
 30
0.0
 11
-6.343394585200254
 21
9.263142834784641
 31
0.0
  0
LINE
  5
498
330
476
100
AcDbEntity
  8
ADPDIM
  6
Continuous
 62
     0
370
    -2
100
AcDbLine
 10
-5.030894585200254
 20
9.652473151460075
 30
0.0
 11
-5.030894585200254
 21
9.263142834784641
 31
0.0
  0
LINE
  5
499
330
476
100
AcDbEntity
  8
ADPDIM
  6
Continuous
 62
     0
370
    -2
100
AcDbLine
 10
-6.163394585200254
 20
9.443142834784641
 30
0.0
 11
-6.027144585200254
 21
9.443142834784641
 31
0.0
  0
LINE
  5
49A
330
476
100
AcDbEntity
  8
ADPDIM
  6
Continuous
 62
     0
370
    -2
100
AcDbLine
 10
-5.210894585200254
 20
9.443142834784641
 30
0.0
 11
-5.347144585200254
 21
9.443142834784641
 31
0.0
  0
SOLID
  5
49B
330
476
100
AcDbEntity
  8
ADPDIM
  6
Continuous
 62
     0
100
AcDbTrace
 10
-6.163394585200254
 20
9.47314283478464
 30
0.0
 11
-6.163394585200254
 21
9.413142834784641
 31
0.0
 12
-6.343394585200254
 22
9.443142834784641
 32
0.0
 13
-6.343394585200254
 23
9.443142834784641
 33
0.0
  0
SOLID
  5
49C
330
476
100
AcDbEntity
  8
ADPDIM
  6
Continuous
 62
     0
100
AcDbTrace
 10
-5.210894585200254
 20
9.47314283478464
 30
0.0
 11
-5.210894585200254
 21
9.413142834784641
 31
0.0
 12
-5.030894585200254
 22
9.443142834784641
 32
0.0
 13
-5.030894585200254
 23
9.443142834784641
 33
0.0
  0
MTEXT
  5
49D
330
476
100
AcDbEntity
  8
ADPDIM
  6
Continuous
 62
     0
100
AcDbMText
 10
-5.687144585200254
 20
9.443142834784641
 30
0.0
 40
0.1
 41
0.0
 71
     5
 72
     1
  1
\A1;1 5/16
 73
     1
 44
1.0
1001
ACAD
1000
MTEXTBEGIN
1070
    73
1070
     1
1070
    44
1040
1.0
1070
    74
1070
     0
1000
MTEXTEND
  0
POINT
  5
49E
330
476
100
AcDbEntity
  8
DEFPOINTS
  6
Continuous
 62
     0
100
AcDbPoint
 10
-6.343394585200254
 20
9.714973151460075
 30
0.0
  0
POINT
  5
49F
330
476
100
AcDbEntity
  8
DEFPOINTS
  6
Continuous
 62
     0
100
AcDbPoint
 10
-5.030894585200254
 20
9.714973151460075
 30
0.0
  0
POINT
  5
4A0
330
476
100
AcDbEntity
  8
DEFPOINTS
  6
Continuous
 62
     0
100
AcDbPoint
 10
-5.030894585200254
 20
9.443142834784641
 30
0.0
  0
ENDBLK
  5
482
330
476
100
AcDbEntity
  8
0
100
AcDbBlockEnd
  0
ENDSEC
  0
SECTION
  2
ENTITIES
  0
LINE
  5
102
330
18
100
AcDbEntity
  8
ADP1DETAIL
100
AcDbLine
 10
-3.712563781664179
 20
13.37142930348707
 30
0.0
 11
-0.0875637816641799
 21
13.37142930348707
 31
0.0
  0
LINE
  5
103
330
18
100
AcDbEntity
  8
ADP1DETAIL
100
AcDbLine
 10
-0.0875637816641799
 20
13.37142930348707
 30
0.0
 11
-0.0875637816641799
 21
11.12142930348707
 31
0.0
  0
LINE
  5
104
330
18
100
AcDbEntity
  8
ADP1DETAIL
100
AcDbLine
 10
-0.0875637816641799
 20
11.12142930348707
 30
0.0
 11
-3.712563781664179
 21
11.12142930348707
 31
0.0
  0
LINE
  5
105
330
18
100
AcDbEntity
  8
ADP1DETAIL
100
AcDbLine
 10
-3.712563781664179
 20
11.12142930348707
 30
0.0
 11
-3.712563781664179
 21
13.37142930348707
 31
0.0
  0
LINE
  5
107
330
18
100
AcDbEntity
  8
ADP2DETAIL
  6
HIDDEN2
100
AcDbLine
 10
-3.712563781664179
 20
11.71826890531392
 30
0.0
 11
-0.5875637816641799
 21
11.71826890531392
 31
0.0
  0
LINE
  5
108
330
18
100
AcDbEntity
  8
ADP1DETAIL
100
AcDbLine
 10
-0.198057429816096
 20
11.2381872520281
 30
0.0
 11
-3.712563781664179
 21
11.2381872520281
 31
0.0
  0
LINE
  5
109
330
18
100
AcDbEntity
  8
ADP2DETAIL
  6
HIDDEN2
100
AcDbLine
 10
-3.712563781664179
 20
11.60091560991323
 30
0.0
 11
-0.4770701335122621
 21
11.60091560991323
 31
0.0
  0
LINE
  5
10A
330
18
100
AcDbEntity
  8
ADP2DETAIL
  6
HIDDEN2
100
AcDbLine
 10
-3.712563781664179
 20
12.77458970166022
 30
0.0
 11
-0.5875637816641799
 21
12.77458970166023
 31
0.0
  0
LINE
  5
10C
330
18
100
AcDbEntity
  8
ADP1DETAIL
100
AcDbLine
 10
-0.198057429816096
 20
13.25467135494605
 30
0.0
 11
-3.712563781664179
 21
13.25467135494605
 31
0.0
  0
LINE
  5
10D
330
18
100
AcDbEntity
  8
ADP2DETAIL
  6
HIDDEN2
100
AcDbLine
 10
-3.712563781664179
 20
12.89194299706092
 30
0.0
 11
-0.4770701335122638
 21
12.89194299706092
 31
0.0
  0
LINE
  5
10E
330
18
100
AcDbEntity
  8
ADP2DETAIL
  6
HIDDEN2
100
AcDbLine
 10
-3.712563781664179
 20
11.49042196176131
 30
0.0
 11
-0.3665764853603459
 21
11.49042196176131
 31
0.0
  0
LINE
  5
10F
330
18
100
AcDbEntity
  8
ADP2DETAIL
  6
HIDDEN2
100
AcDbLine
 10
-3.712563781664179
 20
13.00243664521284
 30
0.0
 11
-0.3665764853603477
 21
13.00243664521284
 31
0.0
  0
LINE
  5
114
330
18
100
AcDbEntity
  8
ADP1DETAIL
100
AcDbLine
 10
-0.198057429816096
 20
13.25467135494605
 30
0.0
 11
-0.198057429816096
 21
11.2381872520281
 31
0.0
  0
LINE
  5
118
330
18
100
AcDbEntity
  8
ADP1DETAIL
  6
Continuous
100
AcDbLine
 10
-0.198057429816096
 20
13.25467135494605
 30
0.0
 11
-0.9416483275516327
 21
12.411822272844
 31
0.0
  0
LINE
  5
119
330
18
100
AcDbEntity
  8
ADP1DETAIL
  6
Continuous
100
AcDbLine
 10
-0.9416483275516327
 20
12.08103633413015
 30
0.0
 11
-0.198057429816096
 21
11.2381872520281
 31
0.0
  0
ARC
  5
11A
330
18
100
AcDbEntity
  8
ADP1DETAIL
  6
Continuous
100
AcDbCircle
 10
-0.7541778880490302
 20
12.24642930348708
 30
0.0
 40
0.25
100
AcDbArc
 50
138.5801364436408
 51
221.4198635563592
  0
LINE
  5
124
330
18
100
AcDbEntity
  8
ADP1DETAIL
  6
Continuous
100
AcDbLine
 10
-3.712563781664179
 20
9.497850779012926
 30
0.0
 11
-3.712563781664179
 21
10.34560218005013
 31
0.0
  0
LINE
  5
125
330
18
100
AcDbEntity
  8
ADP1DETAIL
  6
Continuous
100
AcDbLine
 10
-3.712563781664179
 20
10.34560218005013
 30
0.0
 11
-1.000991407460276
 21
10.34560218005013
 31
0.0
  0
LINE
  5
127
330
18
100
AcDbEntity
  8
ADP1DETAIL
  6
Continuous
100
AcDbLine
 10
-0.3665764853603464
 20
9.497850779012926
 30
0.0
 11
-3.712563781664179
 21
9.497850779012926
 31
0.0
  0
LINE
  5
129
330
18
100
AcDbEntity
  8
ADP1DETAIL
  6
Continuous
100
AcDbLine
 10
-3.712563781664179
 20
10.04085493832167
 30
0.0
 11
-0.2008552830214256
 21
10.04085493832167
 31
0.0
  0
LINE
  5
12A
330
18
100
AcDbEntity
  8
ADP1DETAIL
  6
Continuous
100
AcDbLine
 10
-3.712563781664179
 20
9.985446350103963
 30
0.0
 11
-0.2008552830214256
 21
9.985446350103963
 31
0.0
  0
LINE
  5
12B
330
18
100
AcDbEntity
  8
ADP2DETAIL
  6
HIDDEN2
100
AcDbLine
 10
-3.712563781664179
 20
9.885710896536911
 30
0.0
 11
-0.5875637816641799
 21
9.885710896536911
 31
0.0
  0
LINE
  5
12C
330
18
100
AcDbEntity
  8
ADP2DETAIL
  6
HIDDEN2
100
AcDbLine
 10
-0.5875637816641799
 20
9.697321686147029
 30
0.0
 11
-0.4770701335122627
 21
9.697321686147029
 31
0.0
  0
LINE
  5
132
330
18
100
AcDbEntity
  8
ADP1DETAIL
  6
Continuous
100
AcDbLine
 10
-0.2008552830214256
 20
10.04085493832167
 30
0.0
 11
-0.2008552830214256
 21
9.985446350103963
 31
0.0
  0
ARC
  5
133
330
18
100
AcDbEntity
  8
ADP1DETAIL
  6
Continuous
100
AcDbCircle
 10
-0.2370655718770998
 20
11.14856369848024
 30
0.0
 40
1.108300447690537
100
AcDbArc
 50
226.4271079102233
 51
271.8722955631408
  0
ARC
  5
137
330
18
100
AcDbEntity
  8
ADP1DETAIL
100
AcDbCircle
 10
-0.1980558087428523
 20
9.886798316190143
 30
0.0
 40
0.1089999999999999
100
AcDbArc
 50
257.2931962956907
 51
90.0
  0
LINE
  5
13D
330
18
100
AcDbEntity
  8
ADP2DETAIL
  6
HIDDEN2
100
AcDbLine
 10
-0.5875637816641799
 20
9.885710896536911
 30
0.0
 11
-0.5875637816641799
 21
9.697321686147029
 31
0.0
  0
LINE
  5
13E
330
18
100
AcDbEntity
  8
ADP2DETAIL
  6
HIDDEN2
100
AcDbLine
 10
-0.4770701335122627
 20
9.697321686147029
 30
0.0
 11
-0.4770701335122624
 21
9.497850779012926
 31
0.0
  0
ARC
  5
13F
330
18
100
AcDbEntity
  8
ADP1DETAIL
  6
Continuous
100
AcDbCircle
 10
0.1126626093130743
 20
9.431015809987991
 30
0.0
 40
0.4838770742119985
100
AcDbArc
 50
133.7642572673514
 51
172.0607034032509
  0
DIMENSION
  5
15C
330
18
100
AcDbEntity
  8
ADPDIM
  6
Continuous
100
AcDbDimension
  2
*D0
 10
-0.089725259800062
 20
9.319454906945784
 30
0.0
 11
-1.90114452073212
 21
9.319454906945784
 31
0.0
 70
    32
 71
     5
 42
-1.0
  3
STANDARD
100
AcDbAlignedDimension
 13
-3.712563781664179
 23
9.497850779012926
 33
0.0
 14
-0.0897252598000619
 24
9.874736302852657
 34
0.0
100
AcDbRotatedDimension
1001
ACAD
1000
DSTYLE
1002
{
1070
   270
1070
     7
1070
   270
1070
     7
1070
   270
1070
     7
1070
   270
1070
     7
1070
   270
1070
     7
1070
    41
1040
0.125
1070
    73
1070
     0
1070
    74
1070
     0
1070
    78
1070
     2
1070
   140
1040
0.125
1070
   141
1040
0.1875
1070
   142
1040
0.125
1070
   147
1040
0.125
1070
   171
1070
     1
1070
   271
1070
     2
1070
   276
1070
     2
1070
   277
1070
     5
1002
}
  0
TEXT
  5
183
330
18
100
AcDbEntity
  8
ADPDIM
100
AcDbText
 10
-10.41410070185517
 20
8.379642085251164
 30
0.0
 40
0.125
  1
J U L I U S  B L U M  &  C O . ,  I N C .      ( 8 0 0 )  5 2 6 - 6 2 9 3        W W W . J U L I U S B L U M . C O M        P A R T  N o .  4 5 3 0 - N
 41
1.25
  7
ARIAL_WIDE
 72
     1
 11
-3.712563781664179
 21
8.504642085251164
 31
0.0
100
AcDbText
 73
     3
  0
INSERT
  5
458
330
18
100
AcDbEntity
  8
0
 62
     7
100
AcDbBlockReference
  2
AI9-BLK1
 10
-5.683921937099159
 20
9.941706951226255
 30
0.0
 41
0.039815269400223
 42
0.0398152694002239
 43
0.0398152694002312
  0
DIMENSION
  5
459
330
18
100
AcDbEntity
  8
ADPDIM
  6
Continuous
 62
     3
100
AcDbDimension
  2
*D8
 10
-4.919830552151076
 20
9.043892048495099
 30
0.0
 11
-5.669830552151076
 21
9.043892048495099
 31
0.0
 70
    32
 71
     5
 42
1.5
  3
STANDARD
100
AcDbAlignedDimension
 13
-6.419830552151076
 23
9.536584505685375
 33
0.0
 14
-4.919830552151076
 24
9.536584505685375
 34
0.0
100
AcDbRotatedDimension
1001
ACAD
1000
DSTYLE
1002
{
1070
   140
1040
0.1
1070
   276
1070
     2
1070
   277
1070
     5
1070
   289
1070
     3
1002
}
  0
DIMENSION
  5
45A
330
18
100
AcDbEntity
  8
ADPDIM
  6
Continuous
 62
     3
100
AcDbDimension
  2
*D9
 10
-4.560503311359408
 20
10.81928383942797
 30
0.0
 11
-5.685503311359408
 21
10.81928383942797
 31
0.0
 70
    32
 71
     5
 42
2.25
  3
STANDARD
100
AcDbAlignedDimension
 13
-6.810503311359408
 23
9.910351189288309
 33
0.0
 14
-4.560503311359408
 24
9.910351189288309
 34
0.0
100
AcDbRotatedDimension
1001
ACAD
1000
DSTYLE
1002
{
1070
   140
1040
0.1
1070
   276
1070
     2
1070
   277
1070
     5
1070
   289
1070
     3
1002
}
  0
DIMENSION
  5
45B
330
18
100
AcDbEntity
  8
ADPDIM
  6
Continuous
 62
     3
100
AcDbDimension
  2
*D10
 10
-5.030894585200254
 20
9.443142834784641
 30
0.0
 11
-5.687144585200254
 21
9.443142834784641
 31
0.0
 70
    32
 71
     5
 42
1.3125
  3
STANDARD
100
AcDbAlignedDimension
 13
-6.343394585200254
 23
9.714973151460075
 33
0.0
 14
-5.030894585200254
 24
9.714973151460075
 34
0.0
100
AcDbRotatedDimension
1001
ACAD
1000
DSTYLE
1002
{
1070
   140
1040
0.1
1070
   276
1070
     2
1070
   277
1070
     5
1070
   289
1070
     3
1002
}
  0
ENDSEC
  0
SECTION
  2
OBJECTS
  0
DICTIONARY
  5
C
330
0
100
AcDbDictionary
281
     1
  3
ACAD_COLOR
350
3FF
  3
ACAD_GROUP
350
D
  3
ACAD_LAYOUT
350
17C
  3
ACAD_MATERIAL
350
3EA
  3
ACAD_MLINESTYLE
350
E
  3
ACAD_PLOTSETTINGS
350
17D
  3
ACAD_PLOTSTYLENAME
350
17A
  3
ACAD_TABLESTYLE
350
400
  3
ACAD_VISUALSTYLE
350
3EE
  3
AcDbVariableDictionary
350
21B
  3
ASE_INDEX_DICTIONARY
350
4A2
  3
DWGPROPS
350
4C3
  0
DICTIONARY
  5
1F7
330
18
100
AcDbDictionary
280
     1
281
     1
  3
ACAD_LAYOUTSELFREF
360
3C6
  0
DICTIONARY
  5
1F5
330
15
100
AcDbDictionary
280
     1
281
     1
  3
ACAD_LAYOUTSELFREF
360
3C5
  0
DICTIONARY
  5
3FF
102
{ACAD_REACTORS
330
C
102
}
330
C
100
AcDbDictionary
281
     1
  0
DICTIONARY
  5
D
102
{ACAD_REACTORS
330
C
102
}
330
C
100
AcDbDictionary
281
     1
  0
DICTIONARY
  5
17C
102
{ACAD_REACTORS
330
C
102
}
330
C
100
AcDbDictionary
281
     1
  3
Layout1
350
17F
  3
Model
350
17E
  0
DICTIONARY
  5
3EA
102
{ACAD_REACTORS
330
C
102
}
330
C
100
AcDbDictionary
281
     1
  3
ByBlock
350
3EC
  3
ByLayer
350
3EB
  3
Global
350
3ED
  0
DICTIONARY
  5
E
102
{ACAD_REACTORS
330
C
102
}
330
C
100
AcDbDictionary
281
     1
  3
STANDARD
350
1B
  0
DICTIONARY
  5
17D
102
{ACAD_REACTORS
330
C
102
}
330
C
100
AcDbDictionary
281
     1
  0
ACDBDICTIONARYWDFLT
  5
17A
102
{ACAD_REACTORS
330
C
102
}
330
C
100
AcDbDictionary
281
     1
  3
Normal
350
17B
100
AcDbDictionaryWithDefault
340
17B
  0
DICTIONARY
  5
400
102
{ACAD_REACTORS
330
C
102
}
330
C
100
AcDbDictionary
281
     1
  3
Standard
350
401
  0
DICTIONARY
  5
3EE
102
{ACAD_REACTORS
330
C
102
}
330
C
100
AcDbDictionary
281
     1
  3
2dWireframe
350
3F4
  3
3D Hidden
350
3F6
  3
3dWireframe
350
3F5
  3
Basic
350
3F3
  3
Brighten
350
3FA
  3
ColorChange
350
3FE
  3
Conceptual
350
3F7
  3
Dim
350
3F9
  3
Facepattern
350
3FD
  3
Flat
350
3EF
  3
FlatWithEdges
350
3F0
  3
Gouraud
350
3F1
  3
GouraudWithEdges
350
3F2
  3
Linepattern
350
3FC
  3
Realistic
350
3F8
  3
Thicken
350
3FB
  0
DICTIONARY
  5
21B
102
{ACAD_REACTORS
330
C
102
}
330
C
100
AcDbDictionary
281
     1
  3
CTABLESTYLE
350
4C0
  3
DIMASSOC
350
21C
  3
INDEXCTL
350
4C2
  3
SORTENTS
350
4C1
  0
DICTIONARY
  5
4A2
102
{ACAD_REACTORS
330
C
102
}
330
C
100
AcDbDictionary
281
     1
  3
ASEBlockHierarchyIndexRecord
350
4A3
1001
DCO15
1040
1569086801.466
  0
XRECORD
  5
4C3
102
{ACAD_REACTORS
330
C
102
}
330
C
100
AcDbXrecord
280
     1
  1
DWGPROPS COOKIE
  2

  3

  4

  6

  7

  8
Yu Hu
  9

300
=
301
=
302
=
303
=
304
=
305
=
306
=
307
=
308
=
309
=
 40
0.0701295138888889
 41
2450406.632464503
 42
2453963.938720672
  1

 90
        0
  0
XRECORD
  5
3C6
102
{ACAD_REACTORS
330
1F7
102
}
330
1F7
100
AcDbXrecord
280
     1
340
18
  0
XRECORD
  5
3C5
102
{ACAD_REACTORS
330
1F5
102
}
330
1F5
100
AcDbXrecord
280
     1
340
15
  0
LAYOUT
  5
17F
102
{ACAD_XDICTIONARY
360
4C6
102
}
102
{ACAD_REACTORS
330
17C
102
}
330
17C
100
AcDbPlotSettings
  1

  2
Fax
  4

  6

 40
0.0
 41
0.0
 42
0.0
 43
0.0
 44
0.0
 45
0.0
 46
0.0
 47
0.0
 48
0.0
 49
0.0
140
0.0
141
0.0
142
1.0
143
1.0
 70
   688
 72
     0
 73
     0
 74
     5
  7
Default R14 pen assignments.ctb
 75
    16
147
1.0
148
0.0
149
0.0
100
AcDbLayout
  1
Layout1
 70
     1
 71
     1
 10
0.0
 20
0.0
 11
12.0
 21
9.0
 12
0.0008545028977096
 22
1.250283272183907
 32
0.0
 14
1.000000000000000E+20
 24
1.000000000000000E+20
 34
1.000000000000000E+20
 15
-1.000000000000000E+20
 25
-1.000000000000000E+20
 35
-1.000000000000000E+20
146
0.0
 13
0.0
 23
0.0
 33
0.0
 16
1.0
 26
0.0
 36
0.0
 17
0.0
 27
1.0
 37
0.0
 76
     0
330
15
  0
LAYOUT
  5
17E
102
{ACAD_XDICTIONARY
360
4C4
102
}
102
{ACAD_REACTORS
330
17C
102
}
330
17C
100
AcDbPlotSettings
  1

  2
Fax
  4

  6

 40
0.0
 41
0.0
 42
0.0
 43
0.0
 44
0.0
 45
0.0
 46
0.0
 47
0.0
 48
0.0
 49
0.0
140
0.0
141
0.0
142
1.0
143
1.0
 70
  1712
 72
     0
 73
     0
 74
     0
  7
Default R14 pen assignments.ctb
 75
     0
147
1.0
148
0.0
149
0.0
100
AcDbLayout
  1
Model
 70
     1
 71
     0
 10
0.0
 20
0.0
 11
12.0
 21
9.0
 12
0.0
 22
0.0
 32
0.0
 14
0.0
 24
0.0
 34
0.0
 15
0.0
 25
0.0
 35
0.0
146
0.0
 13
0.0
 23
0.0
 33
0.0
 16
1.0
 26
0.0
 36
0.0
 17
0.0
 27
1.0
 37
0.0
 76
     0
330
18
331
39F
  0
MATERIAL
  5
3EC
102
{ACAD_XDICTIONARY
360
4CA
102
}
102
{ACAD_REACTORS
330
3EA
102
}
330
3EA
100
AcDbMaterial
  1
ByBlock
  0
MATERIAL
  5
3EB
102
{ACAD_XDICTIONARY
360
4C8
102
}
102
{ACAD_REACTORS
330
3EA
102
}
330
3EA
100
AcDbMaterial
  1
ByLayer
  0
MATERIAL
  5
3ED
102
{ACAD_XDICTIONARY
360
4CC
102
}
102
{ACAD_REACTORS
330
3EA
102
}
330
3EA
100
AcDbMaterial
  1
Global
  0
MLINESTYLE
  5
1B
102
{ACAD_REACTORS
330
E
102
}
330
E
100
AcDbMlineStyle
  2
STANDARD
 70
     0
  3

 62
     0
 51
90.0
 52
90.0
 71
     2
 49
0.5
 62
   256
  6
BYLAYER
 49
-0.5
 62
   256
  6
BYLAYER
  0
ACDBPLACEHOLDER
  5
17B
102
{ACAD_REACTORS
330
17A
102
}
330
17A
  0
TABLESTYLE
  5
401
102
{ACAD_XDICTIONARY
360
4CE
102
}
102
{ACAD_REACTORS
330
400
102
}
330
400
100
AcDbTableStyle
  3
Standard
 70
     0
 71
     0
 40
0.06
 41
0.06
280
     0
281
     0
  7
STANDARD
140
0.18
170
     2
 62
     0
 63
     7
283
     0
274
    -2
284
     1
 64
     0
275
    -2
285
     1
 65
     0
276
    -2
286
     1
 66
     0
277
    -2
287
     1
 67
     0
278
    -2
288
     1
 68
     0
279
    -2
289
     1
 69
     0
  7
STANDARD
140
0.25
170
     5
 62
     0
 63
     7
283
     0
274
    -2
284
     1
 64
     0
275
    -2
285
     1
 65
     0
276
    -2
286
     1
 66
     0
277
    -2
287
     1
 67
     0
278
    -2
288
     1
 68
     0
279
    -2
289
     1
 69
     0
  7
STANDARD
140
0.18
170
     5
 62
     0
 63
     7
283
     0
274
    -2
284
     1
 64
     0
275
    -2
285
     1
 65
     0
276
    -2
286
     1
 66
     0
277
    -2
287
     1
 67
     0
278
    -2
288
     1
 68
     0
279
    -2
289
     1
 69
     0
  0
VISUALSTYLE
  5
3F4
102
{ACAD_REACTORS
330
3EE
102
}
330
3EE
100
AcDbVisualStyle
  2
2dWireframe
 70
     4
 71
     0
 72
     2
 73
     0
 90
        0
 40
-0.6
 41
-30.0
 62
     5
 63
     7
 74
     1
 91
        4
 64
     7
 65
   257
 75
     1
175
     1
 42
1.0
 92
        0
 66
   257
 43
1.0
 76
     1
 77
     6
 78
     2
 67
     7
 79
     5
170
     0
171
     0
290
     0
174
     0
 93
        1
 44
0.0
173
     0
291
     0
 45
0.0
1001
ACAD
1000
AcDbSavedByObjectVersion
1070
     0
  0
VISUALSTYLE
  5
3F6
102
{ACAD_REACTORS
330
3EE
102
}
330
3EE
100
AcDbVisualStyle
  2
3D Hidden
 70
     6
 71
     1
 72
     2
 73
     2
 90
        0
 40
-0.6
 41
-30.0
 62
     5
 63
     7
 74
     2
 91
        2
 64
     7
 65
   257
 75
     2
175
     1
 42
40.0
 92
        0
 66
   257
 43
1.0
 76
     1
 77
     6
 78
     2
 67
     7
 79
     3
170
     0
171
     0
290
     0
174
     0
 93
        1
 44
0.0
173
     0
291
     0
 45
0.0
1001
ACAD
1000
AcDbSavedByObjectVersion
1070
     0
  0
VISUALSTYLE
  5
3F5
102
{ACAD_REACTORS
330
3EE
102
}
330
3EE
100
AcDbVisualStyle
  2
3dWireframe
 70
     5
 71
     0
 72
     2
 73
     0
 90
        0
 40
-0.6
 41
-30.0
 62
     5
 63
     7
 74
     1
 91
        4
 64
     7
 65
   257
 75
     1
175
     1
 42
1.0
 92
        0
 66
   257
 43
1.0
 76
     1
 77
     6
 78
     2
 67
     7
 79
     5
170
     0
171
     0
290
     0
174
     0
 93
        1
 44
0.0
173
     0
291
     0
 45
0.0
1001
ACAD
1000
AcDbSavedByObjectVersion
1070
     0
  0
VISUALSTYLE
  5
3F3
102
{ACAD_REACTORS
330
3EE
102
}
330
3EE
100
AcDbVisualStyle
  2
Basic
 70
     7
 71
     1
 72
     0
 73
     1
 90
        0
 40
-0.6
 41
-30.0
 62
     5
 63
     7
 74
     0
 91
        4
 64
     7
 65
   257
 75
     1
175
     1
 42
1.0
 92
        8
 66
     7
 43
1.0
 76
     1
 77
     6
 78
     2
 67
     7
 79
     5
170
     0
171
     0
290
     0
174
     0
 93
        1
 44
0.0
173
     0
291
     1
 45
0.0
1001
ACAD
1000
AcDbSavedByObjectVersion
1070
     0
  0
VISUALSTYLE
  5
3FA
102
{ACAD_REACTORS
330
3EE
102
}
330
3EE
100
AcDbVisualStyle
  2
Brighten
 70
    12
 71
     2
 72
     2
 73
     0
 90
        0
 40
-0.6
 41
-30.0
 62
     5
 63
     7
 74
     1
 91
        4
 64
     7
 65
   257
 75
     1
175
     1
 42
1.0
 92
        8
 66
     7
 43
1.0
 76
     1
 77
     6
 78
     2
 67
     7
 79
     5
170
     0
171
     0
290
     0
174
     0
 93
        1
 44
50.0
173
     0
291
     1
 45
0.0
1001
ACAD
1000
AcDbSavedByObjectVersion
1070
     0
  0
VISUALSTYLE
  5
3FE
102
{ACAD_REACTORS
330
3EE
102
}
330
3EE
100
AcDbVisualStyle
  2
ColorChange
 70
    16
 71
     2
 72
     2
 73
     3
 90
        0
 40
-0.6
 41
-30.0
 62
     5
 63
     8
 74
     1
 91
        4
 64
     7
 65
   257
 75
     1
175
     1
 42
1.0
 92
        8
 66
     8
 43
1.0
 76
     1
 77
     6
 78
     2
 67
     7
 79
     5
170
     0
171
     0
290
     0
174
     0
 93
        1
 44
0.0
173
     0
291
     1
 45
0.0
1001
ACAD
1000
AcDbSavedByObjectVersion
1070
     0
  0
VISUALSTYLE
  5
3F7
102
{ACAD_REACTORS
330
3EE
102
}
330
3EE
100
AcDbVisualStyle
  2
Conceptual
 70
     9
 71
     3
 72
     2
 73
     0
 90
        0
 40
-0.6
 41
-30.0
 62
     5
 63
     7
 74
     2
 91
        2
 64
     7
 65
   257
 75
     1
175
     1
 42
40.0
 92
        8
 66
     7
 43
1.0
 76
     1
 77
     6
 78
     2
 67
     7
 79
     3
170
     0
171
     0
290
     0
174
     0
 93
        1
 44
0.0
173
     0
291
     0
 45
0.0
1001
ACAD
1000
AcDbSavedByObjectVersion
1070
     0
  0
VISUALSTYLE
  5
3F9
102
{ACAD_REACTORS
330
3EE
102
}
330
3EE
100
AcDbVisualStyle
  2
Dim
 70
    11
 71
     2
 72
     2
 73
     0
 90
        0
 40
-0.6
 41
-30.0
 62
     5
 63
     7
 74
     1
 91
        4
 64
     7
 65
   257
 75
     1
175
     1
 42
1.0
 92
        8
 66
     7
 43
1.0
 76
     1
 77
     6
 78
     2
 67
     7
 79
     5
170
     0
171
     0
290
     0
174
     0
 93
        1
 44
-50.0
173
     0
291
     1
 45
0.0
1001
ACAD
1000
AcDbSavedByObjectVersion
1070
     0
  0
VISUALSTYLE
  5
3FD
102
{ACAD_REACTORS
330
3EE
102
}
330
3EE
100
AcDbVisualStyle
  2
Facepattern
 70
    15
 71
     2
 72
     2
 73
     0
 90
        0
 40
-0.6
 41
-30.0
 62
     5
 63
     7
 74
     1
 91
        4
 64
     7
 65
   257
 75
     1
175
     1
 42
1.0
 92
        8
 66
     7
 43
1.0
 76
     1
 77
     6
 78
     2
 67
     7
 79
     5
170
     0
171
     0
290
     0
174
     0
 93
        1
 44
0.0
173
     0
291
     1
 45
0.0
1001
ACAD
1000
AcDbSavedByObjectVersion
1070
     0
  0
VISUALSTYLE
  5
3EF
102
{ACAD_REACTORS
330
3EE
102
}
330
3EE
100
AcDbVisualStyle
  2
Flat
 70
     0
 71
     2
 72
     1
 73
     1
 90
        2
 40
-0.6
 41
30.0
 62
     5
 63
     7
 74
     0
 91
        4
 64
     7
 65
   257
 75
     1
175
     1
 42
1.0
 92
        8
 66
     7
 43
1.0
 76
     1
 77
     6
 78
     2
 67
     7
 79
     5
170
     0
171
     0
290
     0
174
     0
 93
       13
 44
0.0
173
     0
291
     1
 45
0.0
1001
ACAD
1000
AcDbSavedByObjectVersion
1070
     0
  0
VISUALSTYLE
  5
3F0
102
{ACAD_REACTORS
330
3EE
102
}
330
3EE
100
AcDbVisualStyle
  2
FlatWithEdges
 70
     1
 71
     2
 72
     1
 73
     1
 90
        2
 40
-0.6
 41
30.0
 62
     5
 63
     7
 74
     1
 91
        4
 64
     7
 65
   257
 75
     1
175
     1
 42
1.0
 92
        0
 66
   257
 43
1.0
 76
     1
 77
     6
 78
     2
 67
     7
 79
     5
170
     0
171
     0
290
     0
174
     0
 93
       13
 44
0.0
173
     0
291
     1
 45
0.0
1001
ACAD
1000
AcDbSavedByObjectVersion
1070
     0
  0
VISUALSTYLE
  5
3F1
102
{ACAD_REACTORS
330
3EE
102
}
330
3EE
100
AcDbVisualStyle
  2
Gouraud
 70
     2
 71
     2
 72
     2
 73
     1
 90
        2
 40
-0.6
 41
30.0
 62
     5
 63
     7
 74
     0
 91
        4
 64
     7
 65
   257
 75
     1
175
     1
 42
1.0
 92
        0
 66
     7
 43
1.0
 76
     1
 77
     6
 78
     2
 67
     7
 79
     5
170
     0
171
     0
290
     0
174
     0
 93
       13
 44
0.0
173
     0
291
     1
 45
0.0
1001
ACAD
1000
AcDbSavedByObjectVersion
1070
     0
  0
VISUALSTYLE
  5
3F2
102
{ACAD_REACTORS
330
3EE
102
}
330
3EE
100
AcDbVisualStyle
  2
GouraudWithEdges
 70
     3
 71
     2
 72
     2
 73
     1
 90
        2
 40
-0.6
 41
30.0
 62
     5
 63
     7
 74
     1
 91
        4
 64
     7
 65
   257
 75
     1
175
     1
 42
1.0
 92
        0
 66
   257
 43
1.0
 76
     1
 77
     6
 78
     2
 67
     7
 79
     5
170
     0
171
     0
290
     0
174
     0
 93
       13
 44
0.0
173
     0
291
     1
 45
0.0
1001
ACAD
1000
AcDbSavedByObjectVersion
1070
     0
  0
VISUALSTYLE
  5
3FC
102
{ACAD_REACTORS
330
3EE
102
}
330
3EE
100
AcDbVisualStyle
  2
Linepattern
 70
    14
 71
     2
 72
     2
 73
     0
 90
        0
 40
-0.6
 41
-30.0
 62
     5
 63
     7
 74
     1
 91
        4
 64
     7
 65
   257
 75
     7
175
     7
 42
1.0
 92
        8
 66
     7
 43
1.0
 76
     1
 77
     6
 78
     2
 67
     7
 79
     5
170
     0
171
     0
290
     0
174
     0
 93
        1
 44
0.0
173
     0
291
     1
 45
0.0
1001
ACAD
1000
AcDbSavedByObjectVersion
1070
     0
  0
VISUALSTYLE
  5
3F8
102
{ACAD_REACTORS
330
3EE
102
}
330
3EE
100
AcDbVisualStyle
  2
Realistic
 70
     8
 71
     2
 72
     2
 73
     0
 90
        0
 40
-0.6
 41
-30.0
 62
     5
 63
     7
 74
     1
 91
        0
 64
     7
 65
   257
 75
     1
175
     1
 42
1.0
 92
        8
 66
     8
 43
1.0
 76
     1
 77
     6
 78
     2
 67
     7
 79
     5
170
     0
171
     0
290
     0
174
     0
 93
       13
 44
0.0
173
     0
291
     0
 45
0.0
1001
ACAD
1000
AcDbSavedByObjectVersion
1070
     0
  0
VISUALSTYLE
  5
3FB
102
{ACAD_REACTORS
330
3EE
102
}
330
3EE
100
AcDbVisualStyle
  2
Thicken
 70
    13
 71
     2
 72
     2
 73
     0
 90
        0
 40
-0.6
 41
-30.0
 62
     5
 63
     7
 74
     1
 91
        4
 64
     7
 65
   257
 75
     1
175
     1
 42
1.0
 92
       12
 66
     7
 43
1.0
 76
     1
 77
     6
 78
     2
 67
     7
 79
     5
170
     0
171
     0
290
     0
174
     0
 93
        1
 44
0.0
173
     0
291
     1
 45
0.0
1001
ACAD
1000
AcDbSavedByObjectVersion
1070
     0
  0
DICTIONARYVAR
  5
4C0
102
{ACAD_REACTORS
330
21B
102
}
330
21B
100
DictionaryVariables
280
     0
  1
STANDARD
  0
DICTIONARYVAR
  5
21C
102
{ACAD_REACTORS
330
21B
102
}
330
21B
100
DictionaryVariables
280
     0
  1
1
  0
DICTIONARYVAR
  5
4C2
102
{ACAD_REACTORS
330
21B
102
}
330
21B
100
DictionaryVariables
280
     0
  1
0
  0
DICTIONARYVAR
  5
4C1
102
{ACAD_REACTORS
330
21B
102
}
330
21B
100
DictionaryVariables
280
     0
  1
127
  0
XRECORD
  5
4A3
102
{ACAD_REACTORS
330
4A2
102
}
330
4A2
100
AcDbXrecord
280
     1
330
458
  0
DICTIONARY
  5
4C6
330
17F
100
AcDbDictionary
280
     1
281
     1
  3
ACAD_XREC_ROUNDTRIP
360
4C7
  0
DICTIONARY
  5
4C4
330
17E
100
AcDbDictionary
280
     1
281
     1
  3
ACAD_XREC_ROUNDTRIP
360
4C5
  0
DICTIONARY
  5
4CA
330
3EC
100
AcDbDictionary
280
     1
281
     1
  3
ACAD_XREC_ROUNDTRIP
360
4CB
  0
DICTIONARY
  5
4C8
330
3EB
100
AcDbDictionary
280
     1
281
     1
  3
ACAD_XREC_ROUNDTRIP
360
4C9
  0
DICTIONARY
  5
4CC
330
3ED
100
AcDbDictionary
280
     1
281
     1
  3
ACAD_XREC_ROUNDTRIP
360
4CD
  0
DICTIONARY
  5
4CE
330
401
100
AcDbDictionary
280
     1
281
     1
  3
ACAD_XREC_ROUNDTRIP
360
4CF
  0
XRECORD
  5
4C7
102
{ACAD_REACTORS
330
4C6
102
}
330
4C6
100
AcDbXrecord
280
     1
102
SHADEPLOT
 70
     0
102
SHADEPLOTRESLEVEL
 70
     2
102
SHADEPLOTCUSTOMDPI
 70
   300
  0
XRECORD
  5
4C5
102
{ACAD_REACTORS
330
4C4
102
}
330
4C4
100
AcDbXrecord
280
     1
102
SHADEPLOT
 70
     0
102
SHADEPLOTRESLEVEL
 70
     2
102
SHADEPLOTCUSTOMDPI
 70
   300
  0
XRECORD
  5
4CB
102
{ACAD_REACTORS
330
4CA
102
}
330
4CA
100
AcDbXrecord
280
     1
102
MATERIAL
148
0.0
149
0.0
149
0.0
 93
        0
 94
       63
282
     0
 72
     1
 77
     1
171
     1
175
     1
179
     1
273
     0
  0
XRECORD
  5
4C9
102
{ACAD_REACTORS
330
4C8
102
}
330
4C8
100
AcDbXrecord
280
     1
102
MATERIAL
148
0.0
149
0.0
149
0.0
 93
        0
 94
       63
282
     0
 72
     1
 77
     1
171
     1
175
     1
179
     1
273
     0
  0
XRECORD
  5
4CD
102
{ACAD_REACTORS
330
4CC
102
}
330
4CC
100
AcDbXrecord
280
     1
102
MATERIAL
148
0.0
149
0.0
149
0.0
 93
        0
 94
       63
282
     0
 72
     1
 77
     1
171
     1
175
     1
179
     1
273
     0
  0
XRECORD
  5
4CF
102
{ACAD_REACTORS
330
4CE
102
}
330
4CE
100
AcDbXrecord
280
     1
102
ACAD_ROUNDTRIP_PRE2007_TABLESTYLE
 90
      512
 91
        0
  1

 92
      512
 93
        0
  2

 94
      512
 95
        0
  3

  0
ENDSEC
  0
EOF
