  0
SECTION
  2
HEADER
  9
$ACADVER
  1
AC1015
  9
$ACADMAINTVER
 70
    20
  9
$DWGCODEPAGE
  3
ANSI_1252
  9
$INSBASE
 10
27.4106234031305
 20
11.62827529705721
 30
0.0
  9
$EXTMIN
 10
13.84881961062085
 20
1.646850671673718
 30
-0.0015258207003583
  9
$EXTMAX
 10
40.58596496465248
 20
17.34082037459689
 30
0.0000000349246037
  9
$LIMMIN
 10
0.0
 20
0.0
  9
$LIMMAX
 10
36.0
 20
36.0
  9
$ORTHOMODE
 70
     1
  9
$REGENMODE
 70
     1
  9
$FILLMODE
 70
     1
  9
$QTEXTMODE
 70
     0
  9
$MIRRTEXT
 70
     1
  9
$LTSCALE
 40
1.0
  9
$ATTMODE
 70
     1
  9
$TEXTSIZE
 40
0.2
  9
$TRACEWID
 40
0.05
  9
$TEXTSTYLE
  7
STANDARD
  9
$CLAYER
  8
ADP1DETAIL
  9
$CELTYPE
  6
ByLayer
  9
$CECOLOR
 62
   256
  9
$CELTSCALE
 40
1.0
  9
$DISPSILH
 70
     0
  9
$DIMSCALE
 40
1.0
  9
$DIMASZ
 40
0.125
  9
$DIMEXO
 40
0.0625
  9
$DIMDLI
 40
0.38
  9
$DIMRND
 40
0.0
  9
$DIMDLE
 40
0.0
  9
$DIMEXE
 40
0.18
  9
$DIMTP
 40
0.0
  9
$DIMTM
 40
0.0
  9
$DIMTXT
 40
0.125
  9
$DIMCEN
 40
0.1875
  9
$DIMTSZ
 40
0.125
  9
$DIMTOL
 70
     0
  9
$DIMLIM
 70
     0
  9
$DIMTIH
 70
     0
  9
$DIMTOH
 70
     0
  9
$DIMSE1
 70
     0
  9
$DIMSE2
 70
     0
  9
$DIMTAD
 70
     0
  9
$DIMZIN
 70
     3
  9
$DIMBLK
  1

  9
$DIMASO
 70
     1
  9
$DIMSHO
 70
     1
  9
$DIMPOST
  1

  9
$DIMAPOST
  1

  9
$DIMALT
 70
     0
  9
$DIMALTD
 70
     1
  9
$DIMALTF
 40
25.4
  9
$DIMLFAC
 40
1.0
  9
$DIMTOFL
 70
     0
  9
$DIMTVP
 40
0.0
  9
$DIMTIX
 70
     0
  9
$DIMSOXD
 70
     0
  9
$DIMSAH
 70
     0
  9
$DIMBLK1
  1

  9
$DIMBLK2
  1

  9
$DIMSTYLE
  2
Standard
  9
$DIMCLRD
 70
     0
  9
$DIMCLRE
 70
     0
  9
$DIMCLRT
 70
     0
  9
$DIMTFAC
 40
1.0
  9
$DIMGAP
 40
0.125
  9
$DIMJUST
 70
     0
  9
$DIMSD1
 70
     0
  9
$DIMSD2
 70
     0
  9
$DIMTOLJ
 70
     1
  9
$DIMTZIN
 70
     3
  9
$DIMALTZ
 70
     3
  9
$DIMALTTZ
 70
     3
  9
$DIMUPT
 70
     0
  9
$DIMDEC
 70
     4
  9
$DIMTDEC
 70
     4
  9
$DIMALTU
 70
     5
  9
$DIMALTTD
 70
     1
  9
$DIMTXSTY
  7
STANDARD
  9
$DIMAUNIT
 70
     0
  9
$DIMADEC
 70
     0
  9
$DIMALTRND
 40
0.0
  9
$DIMAZIN
 70
     0
  9
$DIMDSEP
 70
    46
  9
$DIMATFIT
 70
     3
  9
$DIMFRAC
 70
     0
  9
$DIMLDRBLK
  1

  9
$DIMLUNIT
 70
     5
  9
$DIMLWD
 70
    -2
  9
$DIMLWE
 70
    -2
  9
$DIMTMOVE
 70
     2
  9
$LUNITS
 70
     5
  9
$LUPREC
 70
     4
  9
$SKETCHINC
 40
0.1
  9
$FILLETRAD
 40
0.062
  9
$AUNITS
 70
     0
  9
$AUPREC
 70
     0
  9
$MENU
  1
acad
  9
$ELEVATION
 40
0.0
  9
$PELEVATION
 40
0.0
  9
$THICKNESS
 40
0.0
  9
$LIMCHECK
 70
     0
  9
$CHAMFERA
 40
0.0
  9
$CHAMFERB
 40
0.0
  9
$CHAMFERC
 40
0.0
  9
$CHAMFERD
 40
0.0
  9
$SKPOLY
 70
     0
  9
$TDCREATE
 40
2450406.633340463
  9
$TDUCREATE
 40
2450406.800007129
  9
$TDUPDATE
 40
2453963.936944445
  9
$TDUUPDATE
 40
2453964.103611111
  9
$TDINDWG
 40
0.0390969213
  9
$TDUSRTIMER
 40
0.0390969213
  9
$USRTIMER
 70
     1
  9
$ANGBASE
 50
0.0
  9
$ANGDIR
 70
     0
  9
$PDMODE
 70
     0
  9
$PDSIZE
 40
0.0
  9
$PLINEWID
 40
0.0
  9
$SPLFRAME
 70
     0
  9
$SPLINETYPE
 70
     6
  9
$SPLINESEGS
 70
     8
  9
$HANDSEED
  5
3BB
  9
$SURFTAB1
 70
     6
  9
$SURFTAB2
 70
     6
  9
$SURFTYPE
 70
     6
  9
$SURFU
 70
     6
  9
$SURFV
 70
     6
  9
$UCSBASE
  2

  9
$UCSNAME
  2

  9
$UCSORG
 10
0.0
 20
0.0
 30
0.0
  9
$UCSXDIR
 10
1.0
 20
0.0
 30
0.0
  9
$UCSYDIR
 10
0.0
 20
1.0
 30
0.0
  9
$UCSORTHOREF
  2

  9
$UCSORTHOVIEW
 70
     0
  9
$UCSORGTOP
 10
0.0
 20
0.0
 30
0.0
  9
$UCSORGBOTTOM
 10
0.0
 20
0.0
 30
0.0
  9
$UCSORGLEFT
 10
0.0
 20
0.0
 30
0.0
  9
$UCSORGRIGHT
 10
0.0
 20
0.0
 30
0.0
  9
$UCSORGFRONT
 10
0.0
 20
0.0
 30
0.0
  9
$UCSORGBACK
 10
0.0
 20
0.0
 30
0.0
  9
$PUCSBASE
  2

  9
$PUCSNAME
  2

  9
$PUCSORG
 10
0.0
 20
0.0
 30
0.0
  9
$PUCSXDIR
 10
1.0
 20
0.0
 30
0.0
  9
$PUCSYDIR
 10
0.0
 20
1.0
 30
0.0
  9
$PUCSORTHOREF
  2

  9
$PUCSORTHOVIEW
 70
     0
  9
$PUCSORGTOP
 10
0.0
 20
0.0
 30
0.0
  9
$PUCSORGBOTTOM
 10
0.0
 20
0.0
 30
0.0
  9
$PUCSORGLEFT
 10
0.0
 20
0.0
 30
0.0
  9
$PUCSORGRIGHT
 10
0.0
 20
0.0
 30
0.0
  9
$PUCSORGFRONT
 10
0.0
 20
0.0
 30
0.0
  9
$PUCSORGBACK
 10
0.0
 20
0.0
 30
0.0
  9
$USERI1
 70
     0
  9
$USERI2
 70
     0
  9
$USERI3
 70
     0
  9
$USERI4
 70
     0
  9
$USERI5
 70
     0
  9
$USERR1
 40
0.0
  9
$USERR2
 40
0.0
  9
$USERR3
 40
0.0
  9
$USERR4
 40
0.0
  9
$USERR5
 40
0.0
  9
$WORLDVIEW
 70
     1
  9
$SHADEDGE
 70
     3
  9
$SHADEDIF
 70
    70
  9
$TILEMODE
 70
     1
  9
$MAXACTVP
 70
    15
  9
$PINSBASE
 10
0.0008545028977096
 20
1.250283272183907
 30
0.0
  9
$PLIMCHECK
 70
     0
  9
$PEXTMIN
 10
1.000000000000000E+20
 20
1.000000000000000E+20
 30
1.000000000000000E+20
  9
$PEXTMAX
 10
-1.000000000000000E+20
 20
-1.000000000000000E+20
 30
-1.000000000000000E+20
  9
$PLIMMIN
 10
0.0
 20
0.0
  9
$PLIMMAX
 10
12.0
 20
9.0
  9
$UNITMODE
 70
     0
  9
$VISRETAIN
 70
     0
  9
$PLINEGEN
 70
     0
  9
$PSLTSCALE
 70
     1
  9
$TREEDEPTH
 70
  3020
  9
$CMLSTYLE
  2
Standard
  9
$CMLJUST
 70
     0
  9
$CMLSCALE
 40
1.0
  9
$PROXYGRAPHICS
 70
     1
  9
$MEASUREMENT
 70
     0
  9
$CELWEIGHT
370
    -1
  9
$ENDCAPS
280
     0
  9
$JOINSTYLE
280
     0
  9
$LWDISPLAY
290
     0
  9
$INSUNITS
 70
     0
  9
$HYPERLINKBASE
  1

  9
$STYLESHEET
  1

  9
$XEDIT
290
     1
  9
$CEPSNTYPE
380
     0
  9
$PSTYLEMODE
290
     1
  9
$FINGERPRINTGUID
  2
{53E534AC-A229-4946-AAE9-BB0D30263095}
  9
$VERSIONGUID
  2
{A23FB4D7-B62C-4C44-AADB-55BD5897B09E}
  9
$EXTNAMES
290
     1
  9
$PSVPSCALE
 40
0.0
  9
$OLESTARTUP
290
     0
  0
ENDSEC
  0
SECTION
  2
CLASSES
  0
CLASS
  1
ACDBDICTIONARYWDFLT
  2
AcDbDictionaryWithDefault
  3
ObjectDBX Classes
 90
        0
280
     0
281
     0
  0
CLASS
  1
ACDBPLACEHOLDER
  2
AcDbPlaceHolder
  3
ObjectDBX Classes
 90
        0
280
     0
281
     0
  0
CLASS
  1
LAYOUT
  2
AcDbLayout
  3
ObjectDBX Classes
 90
        0
280
     0
281
     0
  0
CLASS
  1
DICTIONARYVAR
  2
AcDbDictionaryVar
  3
ObjectDBX Classes
 90
        0
280
     0
281
     0
  0
CLASS
  1
MATERIAL
  2
AcDbMaterial
  3
ObjectDBX Classes
 90
     1024
280
     0
281
     0
  0
CLASS
  1
VISUALSTYLE
  2
AcDbVisualStyle
  3
ObjectDBX Classes
 90
     4095
280
     0
281
     0
  0
CLASS
  1
TABLESTYLE
  2
AcDbTableStyle
  3
ObjectDBX Classes
 90
     4095
280
     0
281
     0
  0
ENDSEC
  0
SECTION
  2
TABLES
  0
TABLE
  2
VPORT
  5
8
330
0
100
AcDbSymbolTable
 70
     1
  0
VPORT
  5
2A6
330
8
100
AcDbSymbolTableRecord
100
AcDbViewportTableRecord
  2
*Active
 70
     0
 10
0.0
 20
0.0
 11
1.0
 21
1.0
 12
25.78144883320245
 22
10.63908794727958
 13
0.0
 23
0.0
 14
0.5740882589684922
 24
0.5740882589684922
 15
0.5
 25
0.5
 16
0.0
 26
0.0
 36
1.0
 17
0.0
 27
0.0
 37
0.0
 40
7.853458084191935
 41
1.726930320150659
 42
50.0
 43
0.0
 44
0.0
 50
0.0
 51
0.0
 71
     0
 72
   100
 73
     1
 74
     0
 75
     0
 76
     0
 77
     0
 78
     0
281
     0
 65
     1
110
0.0
120
0.0
130
0.0
111
1.0
121
0.0
131
0.0
112
0.0
122
1.0
132
0.0
 79
     0
146
0.0
  0
ENDTAB
  0
TABLE
  2
LTYPE
  5
5
330
0
100
AcDbSymbolTable
 70
     1
  0
LTYPE
  5
13
330
5
100
AcDbSymbolTableRecord
100
AcDbLinetypeTableRecord
  2
ByBlock
 70
     0
  3

 72
    65
 73
     0
 40
0.0
  0
LTYPE
  5
14
330
5
100
AcDbSymbolTableRecord
100
AcDbLinetypeTableRecord
  2
ByLayer
 70
     0
  3

 72
    65
 73
     0
 40
0.0
  0
LTYPE
  5
15
330
5
100
AcDbSymbolTableRecord
100
AcDbLinetypeTableRecord
  2
CONTINUOUS
 70
     0
  3
Solid line
 72
    65
 73
     0
 40
0.0
  0
ENDTAB
  0
TABLE
  2
LAYER
  5
2
330
0
100
AcDbSymbolTable
 70
     4
  0
LAYER
  5
10
330
2
100
AcDbSymbolTableRecord
100
AcDbLayerTableRecord
  2
0
 70
     0
 62
     7
  6
CONTINUOUS
370
    -3
390
F
  0
LAYER
  5
7E
330
2
100
AcDbSymbolTableRecord
100
AcDbLayerTableRecord
  2
ADP1DETAIL
 70
     0
 62
     7
  6
CONTINUOUS
370
    -3
390
F
  0
LAYER
  5
80
330
2
100
AcDbSymbolTableRecord
100
AcDbLayerTableRecord
  2
DEFPOINTS
 70
     0
 62
     7
  6
CONTINUOUS
290
     0
370
    -3
390
F
  0
LAYER
  5
81
330
2
100
AcDbSymbolTableRecord
100
AcDbLayerTableRecord
  2
ADPDIM
 70
     0
 62
     3
  6
CONTINUOUS
370
    -3
390
F
  0
ENDTAB
  0
TABLE
  2
STYLE
  5
3
330
0
100
AcDbSymbolTable
 70
     2
  0
STYLE
  5
11
330
3
100
AcDbSymbolTableRecord
100
AcDbTextStyleTableRecord
  2
STANDARD
 70
     0
 40
0.0
 41
1.0
 50
0.0
 71
     0
 42
0.2
  3
txt
  4

  0
STYLE
  5
14D
330
3
100
AcDbSymbolTableRecord
100
AcDbTextStyleTableRecord
  2
ARIAL_WIDE
 70
     0
 40
0.0
 41
1.25
 50
0.0
 71
     0
 42
0.2
  3
ARIAL.TTF
  4

1001
ACAD
1000
Arial
1071
       34
  0
ENDTAB
  0
TABLE
  2
VIEW
  5
6
330
0
100
AcDbSymbolTable
 70
     0
  0
ENDTAB
  0
TABLE
  2
UCS
  5
7
330
0
100
AcDbSymbolTable
 70
     0
  0
ENDTAB
  0
TABLE
  2
APPID
  5
9
330
0
100
AcDbSymbolTable
 70
     2
  0
APPID
  5
12
330
9
100
AcDbSymbolTableRecord
100
AcDbRegAppTableRecord
  2
ACAD
 70
     0
  0
APPID
  5
334
330
9
100
AcDbSymbolTableRecord
100
AcDbRegAppTableRecord
  2
DCO15
 70
     0
  0
ENDTAB
  0
TABLE
  2
DIMSTYLE
  5
A
330
0
100
AcDbSymbolTable
 70
     1
100
AcDbDimStyleTable
 71
     0
  0
DIMSTYLE
105
14B
102
{ACAD_REACTORS
330
35E
330
35F
102
}
330
A
100
AcDbSymbolTableRecord
100
AcDbDimStyleTableRecord
  2
Standard
 70
     0
340
11
  0
ENDTAB
  0
TABLE
  2
BLOCK_RECORD
  5
1
330
0
100
AcDbSymbolTable
 70
    12
  0
BLOCK_RECORD
  5
1E
102
{ACAD_XDICTIONARY
360
18A
102
}
330
1
100
AcDbSymbolTableRecord
100
AcDbBlockTableRecord
  2
*Model_Space
340
21
  0
BLOCK_RECORD
  5
1A
102
{ACAD_XDICTIONARY
360
18C
102
}
330
1
100
AcDbSymbolTableRecord
100
AcDbBlockTableRecord
  2
*Paper_Space
340
1D
  0
BLOCK_RECORD
  5
75
330
1
100
AcDbSymbolTableRecord
100
AcDbBlockTableRecord
  2
*D0
340
0
  0
BLOCK_RECORD
  5
76
330
1
100
AcDbSymbolTableRecord
100
AcDbBlockTableRecord
  2
*D1
340
0
  0
BLOCK_RECORD
  5
77
330
1
100
AcDbSymbolTableRecord
100
AcDbBlockTableRecord
  2
*D2
340
0
  0
BLOCK_RECORD
  5
78
330
1
100
AcDbSymbolTableRecord
100
AcDbBlockTableRecord
  2
*D3
340
0
  0
BLOCK_RECORD
  5
79
330
1
100
AcDbSymbolTableRecord
100
AcDbBlockTableRecord
  2
*D4
340
0
  0
BLOCK_RECORD
  5
7A
330
1
100
AcDbSymbolTableRecord
100
AcDbBlockTableRecord
  2
*D5
340
0
  0
BLOCK_RECORD
  5
2F8
330
1
100
AcDbSymbolTableRecord
100
AcDbBlockTableRecord
  2
AI9-BLK1
340
0
102
{BLKREFS
331
346
331
35D
102
}
  0
BLOCK_RECORD
  5
31A
330
1
100
AcDbSymbolTableRecord
100
AcDbBlockTableRecord
  2
*D7
340
0
  0
BLOCK_RECORD
  5
327
330
1
100
AcDbSymbolTableRecord
100
AcDbBlockTableRecord
  2
*D8
340
0
  0
BLOCK_RECORD
  5
360
330
1
100
AcDbSymbolTableRecord
100
AcDbBlockTableRecord
  2
*D10
340
0
  0
BLOCK_RECORD
  5
36D
330
1
100
AcDbSymbolTableRecord
100
AcDbBlockTableRecord
  2
*D11
340
0
  0
ENDTAB
  0
ENDSEC
  0
SECTION
  2
BLOCKS
  0
BLOCK
  5
84
330
1E
100
AcDbEntity
  8
0
100
AcDbBlockBegin
  2
*Model_Space
 70
     0
 10
0.0
 20
0.0
 30
0.0
  3
*Model_Space
  1

  0
ENDBLK
  5
85
330
1E
100
AcDbEntity
  8
0
100
AcDbBlockEnd
  0
BLOCK
  5
82
330
1A
100
AcDbEntity
 67
     1
  8
0
100
AcDbBlockBegin
  2
*Paper_Space
 70
     0
 10
0.0
 20
0.0
 30
0.0
  3
*Paper_Space
  1

  0
ENDBLK
  5
83
330
1A
100
AcDbEntity
 67
     1
  8
0
100
AcDbBlockEnd
  0
BLOCK
  5
87
330
75
100
AcDbEntity
  8
0
100
AcDbBlockBegin
  2
*D0
 70
     1
 10
0.0
 20
0.0
 30
0.0
  3
*D0
  1

  0
LINE
  5
88
330
75
100
AcDbEntity
  8
0
  6
ByBlock
 62
     0
100
AcDbLine
 10
24.8793734031305
 20
3.48566499603643
 30
0.0
 11
24.8793734031305
 21
2.550609324345646
 31
0.0
  0
LINE
  5
89
330
75
100
AcDbEntity
  8
0
  6
ByBlock
 62
     0
100
AcDbLine
 10
27.6918734031305
 20
3.48566499603643
 30
0.0
 11
27.6918734031305
 21
2.550609324345646
 31
0.0
  0
LINE
  5
8A
330
75
100
AcDbEntity
  8
0
  6
ByBlock
 62
     0
100
AcDbLine
 10
24.8793734031305
 20
2.730609324345646
 30
0.0
 11
25.7856234031305
 21
2.730609324345646
 31
0.0
  0
LINE
  5
8B
330
75
100
AcDbEntity
  8
0
  6
ByBlock
 62
     0
100
AcDbLine
 10
27.6918734031305
 20
2.730609324345646
 30
0.0
 11
26.7856234031305
 21
2.730609324345646
 31
0.0
  0
LINE
  5
8C
330
75
100
AcDbEntity
  8
0
  6
ByBlock
 62
     0
100
AcDbLine
 10
24.7543734031305
 20
2.605609324345646
 30
0.0
 11
25.0043734031305
 21
2.855609324345646
 31
0.0
  0
LINE
  5
8D
330
75
100
AcDbEntity
  8
0
  6
ByBlock
 62
     0
100
AcDbLine
 10
27.5668734031305
 20
2.605609324345646
 30
0.0
 11
27.8168734031305
 21
2.855609324345646
 31
0.0
  0
TEXT
  5
8E
330
75
100
AcDbEntity
  8
0
  6
ByBlock
 62
     0
100
AcDbText
 10
25.9106234031305
 20
2.668109324345646
 30
0.0
 40
0.125
  1
2 13/16
 72
     1
 11
26.2856234031305
 21
2.730609324345646
 31
0.0
100
AcDbText
 73
     2
  0
POINT
  5
90
330
75
100
AcDbEntity
  8
DEFPOINTS
  6
ByBlock
 62
     0
100
AcDbPoint
 10
24.8793734031305
 20
3.54816499603643
 30
0.0
  0
POINT
  5
91
330
75
100
AcDbEntity
  8
DEFPOINTS
  6
ByBlock
 62
     0
100
AcDbPoint
 10
27.6918734031305
 20
3.54816499603643
 30
0.0
  0
POINT
  5
92
330
75
100
AcDbEntity
  8
DEFPOINTS
  6
ByBlock
 62
     0
100
AcDbPoint
 10
27.6918734031305
 20
2.730609324345646
 30
0.0
  0
ENDBLK
  5
93
330
75
100
AcDbEntity
  8
0
100
AcDbBlockEnd
  0
BLOCK
  5
94
330
76
100
AcDbEntity
  8
0
100
AcDbBlockBegin
  2
*D1
 70
     1
 10
0.0
 20
0.0
 30
0.0
  3
*D1
  1

  0
LINE
  5
95
330
76
100
AcDbEntity
  8
0
  6
ByBlock
 62
     0
100
AcDbLine
 10
25.16062340313049
 20
11.62827529705721
 30
0.0
 11
25.16062340313049
 21
10.90210288354242
 31
0.0
  0
LINE
  5
96
330
76
100
AcDbEntity
  8
0
  6
ByBlock
 62
     0
100
AcDbLine
 10
27.4106234031305
 20
11.62827529705721
 30
0.0
 11
27.4106234031305
 21
10.90210288354242
 31
0.0
  0
LINE
  5
97
330
76
100
AcDbEntity
  8
0
  6
ByBlock
 62
     0
100
AcDbLine
 10
25.16062340313049
 20
11.08210288354242
 30
0.0
 11
25.88979006979716
 21
11.08210288354242
 31
0.0
  0
LINE
  5
98
330
76
100
AcDbEntity
  8
0
  6
ByBlock
 62
     0
100
AcDbLine
 10
27.4106234031305
 20
11.08210288354242
 30
0.0
 11
26.68145673646383
 21
11.08210288354242
 31
0.0
  0
LINE
  5
99
330
76
100
AcDbEntity
  8
0
  6
ByBlock
 62
     0
100
AcDbLine
 10
25.03562340313049
 20
10.95710288354242
 30
0.0
 11
25.2856234031305
 21
11.20710288354242
 31
0.0
  0
LINE
  5
9A
330
76
100
AcDbEntity
  8
0
  6
ByBlock
 62
     0
100
AcDbLine
 10
27.28562340313049
 20
10.95710288354242
 30
0.0
 11
27.53562340313049
 21
11.20710288354242
 31
0.0
  0
TEXT
  5
9B
330
76
100
AcDbEntity
  8
0
  6
ByBlock
 62
     0
100
AcDbText
 10
26.01479006979716
 20
11.01960288354242
 30
0.0
 40
0.125
  1
2 1/4
 72
     1
 11
26.28562340313049
 21
11.08210288354242
 31
0.0
100
AcDbText
 73
     2
  0
POINT
  5
9C
330
76
100
AcDbEntity
  8
DEFPOINTS
  6
ByBlock
 62
     0
100
AcDbPoint
 10
25.16062340313049
 20
11.6907752970572
 30
0.0
  0
POINT
  5
9D
330
76
100
AcDbEntity
  8
DEFPOINTS
  6
ByBlock
 62
     0
100
AcDbPoint
 10
27.4106234031305
 20
11.6907752970572
 30
0.0
  0
POINT
  5
9E
330
76
100
AcDbEntity
  8
DEFPOINTS
  6
ByBlock
 62
     0
100
AcDbPoint
 10
27.4106234031305
 20
11.08210288354242
 30
0.0
  0
ENDBLK
  5
9F
330
76
100
AcDbEntity
  8
0
100
AcDbBlockEnd
  0
BLOCK
  5
A0
330
77
100
AcDbEntity
  8
0
100
AcDbBlockBegin
  2
*D2
 70
     1
 10
0.0
 20
0.0
 30
0.0
  3
*D2
  1

  0
LINE
  5
A1
330
77
100
AcDbEntity
  8
0
  6
ByBlock
 62
     0
100
AcDbLine
 10
24.53562340313049
 20
16.75327529705721
 30
0.0
 11
24.53562340313049
 21
17.33114645343219
 31
0.0
  0
LINE
  5
A2
330
77
100
AcDbEntity
  8
0
  6
ByBlock
 62
     0
100
AcDbLine
 10
28.0356234031305
 20
16.75327529705721
 30
0.0
 11
28.0356234031305
 21
17.33114645343219
 31
0.0
  0
LINE
  5
A3
330
77
100
AcDbEntity
  8
0
  6
ByBlock
 62
     0
100
AcDbLine
 10
24.53562340313049
 20
17.15114645343219
 30
0.0
 11
25.88979006979716
 21
17.15114645343219
 31
0.0
  0
LINE
  5
A4
330
77
100
AcDbEntity
  8
0
  6
ByBlock
 62
     0
100
AcDbLine
 10
28.0356234031305
 20
17.15114645343219
 30
0.0
 11
26.68145673646383
 21
17.15114645343219
 31
0.0
  0
LINE
  5
A5
330
77
100
AcDbEntity
  8
0
  6
ByBlock
 62
     0
100
AcDbLine
 10
24.41062340313049
 20
17.02614645343219
 30
0.0
 11
24.6606234031305
 21
17.27614645343219
 31
0.0
  0
LINE
  5
A6
330
77
100
AcDbEntity
  8
0
  6
ByBlock
 62
     0
100
AcDbLine
 10
27.91062340313049
 20
17.02614645343219
 30
0.0
 11
28.16062340313049
 21
17.27614645343219
 31
0.0
  0
TEXT
  5
A7
330
77
100
AcDbEntity
  8
0
  6
ByBlock
 62
     0
100
AcDbText
 10
26.01479006979716
 20
17.08864645343219
 30
0.0
 40
0.125
  1
3 1/2
 72
     1
 11
26.28562340313049
 21
17.15114645343219
 31
0.0
100
AcDbText
 73
     2
  0
POINT
  5
A8
330
77
100
AcDbEntity
  8
DEFPOINTS
  6
ByBlock
 62
     0
100
AcDbPoint
 10
24.53562340313049
 20
16.6907752970572
 30
0.0
  0
POINT
  5
A9
330
77
100
AcDbEntity
  8
DEFPOINTS
  6
ByBlock
 62
     0
100
AcDbPoint
 10
28.0356234031305
 20
16.6907752970572
 30
0.0
  0
POINT
  5
AA
330
77
100
AcDbEntity
  8
DEFPOINTS
  6
ByBlock
 62
     0
100
AcDbPoint
 10
28.0356234031305
 20
17.15114645343219
 30
0.0
  0
ENDBLK
  5
AB
330
77
100
AcDbEntity
  8
0
100
AcDbBlockEnd
  0
BLOCK
  5
AC
330
78
100
AcDbEntity
  8
0
100
AcDbBlockBegin
  2
*D3
 70
     1
 10
0.0
 20
0.0
 30
0.0
  3
*D3
  1

  0
LINE
  5
AD
330
78
100
AcDbEntity
  8
0
  6
ByBlock
 62
     0
100
AcDbLine
 10
25.63340421010508
 20
9.636212215218598
 30
0.0
 11
25.63340421010508
 21
9.328208433345114
 31
0.0
  0
LINE
  5
AE
330
78
100
AcDbEntity
  8
0
  6
ByBlock
 62
     0
100
AcDbLine
 10
26.9378425961559
 20
9.660212215218596
 30
0.0
 11
26.9378425961559
 21
9.328208433345114
 31
0.0
  0
LINE
  5
AF
330
78
100
AcDbEntity
  8
0
  6
ByBlock
 62
     0
100
AcDbLine
 10
25.63340421010508
 20
9.508208433345114
 30
0.0
 11
25.38340421010508
 21
9.508208433345114
 31
0.0
  0
LINE
  5
B0
330
78
100
AcDbEntity
  8
0
  6
ByBlock
 62
     0
100
AcDbLine
 10
26.9378425961559
 20
9.508208433345114
 30
0.0
 11
27.1878425961559
 21
9.508208433345114
 31
0.0
  0
LINE
  5
B1
330
78
100
AcDbEntity
  8
0
  6
ByBlock
 62
     0
100
AcDbLine
 10
25.50840421010508
 20
9.383208433345114
 30
0.0
 11
25.75840421010508
 21
9.633208433345114
 31
0.0
  0
LINE
  5
B2
330
78
100
AcDbEntity
  8
0
  6
ByBlock
 62
     0
100
AcDbLine
 10
26.8128425961559
 20
9.383208433345114
 30
0.0
 11
27.0628425961559
 21
9.633208433345114
 31
0.0
  0
TEXT
  5
B3
330
78
100
AcDbEntity
  8
0
  6
ByBlock
 62
     0
100
AcDbText
 10
27.3128425961559
 20
9.445708433345114
 30
0.0
 40
0.125
  1
1 5/16
 72
     1
 11
27.6253425961559
 21
9.508208433345114
 31
0.0
100
AcDbText
 73
     2
  0
POINT
  5
B4
330
78
100
AcDbEntity
  8
DEFPOINTS
  6
ByBlock
 62
     0
100
AcDbPoint
 10
25.63340421010508
 20
9.698712215218598
 30
0.0
  0
POINT
  5
B5
330
78
100
AcDbEntity
  8
DEFPOINTS
  6
ByBlock
 62
     0
100
AcDbPoint
 10
26.9378425961559
 20
9.722712215218596
 30
0.0
  0
POINT
  5
B6
330
78
100
AcDbEntity
  8
DEFPOINTS
  6
ByBlock
 62
     0
100
AcDbPoint
 10
26.9378425961559
 20
9.508208433345114
 30
0.0
  0
ENDBLK
  5
B7
330
78
100
AcDbEntity
  8
0
100
AcDbBlockEnd
  0
BLOCK
  5
B8
330
79
100
AcDbEntity
  8
0
100
AcDbBlockBegin
  2
*D4
 70
     1
 10
0.0
 20
0.0
 30
0.0
  3
*D4
  1

  0
LINE
  5
B9
330
79
100
AcDbEntity
  8
0
  6
ByBlock
 62
     0
100
AcDbLine
 10
27.47457123121739
 20
11.69533031831754
 30
0.0
 11
28.71368005853805
 21
11.69533031831754
 31
0.0
  0
LINE
  5
BA
330
79
100
AcDbEntity
  8
0
  6
ByBlock
 62
     0
100
AcDbLine
 10
28.0981234031305
 20
13.19077529705721
 30
0.0
 11
28.71368005853805
 21
13.19077529705721
 31
0.0
  0
LINE
  5
BB
330
79
100
AcDbEntity
  8
0
  6
ByBlock
 62
     0
100
AcDbLine
 10
28.53368005853805
 20
11.69533031831754
 30
0.0
 11
28.53368005853805
 21
12.06805280768737
 31
0.0
  0
LINE
  5
BC
330
79
100
AcDbEntity
  8
0
  6
ByBlock
 62
     0
100
AcDbLine
 10
28.53368005853805
 20
13.19077529705721
 30
0.0
 11
28.53368005853805
 21
12.81805280768737
 31
0.0
  0
LINE
  5
BD
330
79
100
AcDbEntity
  8
0
  6
ByBlock
 62
     0
100
AcDbLine
 10
28.65868005853805
 20
11.57033031831754
 30
0.0
 11
28.40868005853805
 21
11.82033031831754
 31
0.0
  0
LINE
  5
BE
330
79
100
AcDbEntity
  8
0
  6
ByBlock
 62
     0
100
AcDbLine
 10
28.65868005853805
 20
13.06577529705721
 30
0.0
 11
28.40868005853805
 21
13.31577529705721
 31
0.0
  0
TEXT
  5
BF
330
79
100
AcDbEntity
  8
0
  6
ByBlock
 62
     0
100
AcDbText
 10
28.59618005853805
 20
12.19305280768737
 30
0.0
 40
0.125
  1
1 1/2
 50
90.0
 72
     1
 11
28.53368005853805
 21
12.44305280768737
 31
0.0
100
AcDbText
 73
     2
  0
POINT
  5
C0
330
79
100
AcDbEntity
  8
DEFPOINTS
  6
ByBlock
 62
     0
100
AcDbPoint
 10
27.4120712312174
 20
11.69533031831754
 30
0.0
  0
POINT
  5
C1
330
79
100
AcDbEntity
  8
DEFPOINTS
  6
ByBlock
 62
     0
100
AcDbPoint
 10
28.0356234031305
 20
13.19077529705721
 30
0.0
  0
POINT
  5
C2
330
79
100
AcDbEntity
  8
DEFPOINTS
  6
ByBlock
 62
     0
100
AcDbPoint
 10
28.53368005853805
 20
13.19077529705721
 30
0.0
  0
ENDBLK
  5
C3
330
79
100
AcDbEntity
  8
0
100
AcDbBlockEnd
  0
BLOCK
  5
C4
330
7A
100
AcDbEntity
  8
0
100
AcDbBlockBegin
  2
*D5
 70
     1
 10
0.0
 20
0.0
 30
0.0
  3
*D5
  1

  0
LINE
  5
C5
330
7A
100
AcDbEntity
  8
0
  6
ByBlock
 62
     0
100
AcDbLine
 10
28.0356234031305
 20
16.75327529705721
 30
0.0
 11
28.0356234031305
 21
17.33965917217156
 31
0.0
  0
LINE
  5
C6
330
7A
100
AcDbEntity
  8
0
  6
ByBlock
 62
     0
100
AcDbLine
 10
29.53562340313049
 20
16.12827529705721
 30
0.0
 11
29.53562340313049
 21
17.33965917217156
 31
0.0
  0
LINE
  5
C7
330
7A
100
AcDbEntity
  8
0
  6
ByBlock
 62
     0
100
AcDbLine
 10
28.0356234031305
 20
17.15965917217156
 30
0.0
 11
28.4106234031305
 21
17.15965917217156
 31
0.0
  0
LINE
  5
C8
330
7A
100
AcDbEntity
  8
0
  6
ByBlock
 62
     0
100
AcDbLine
 10
29.53562340313049
 20
17.15965917217156
 30
0.0
 11
29.16062340313049
 21
17.15965917217156
 31
0.0
  0
LINE
  5
C9
330
7A
100
AcDbEntity
  8
0
  6
ByBlock
 62
     0
100
AcDbLine
 10
27.91062340313049
 20
17.03465917217156
 30
0.0
 11
28.16062340313049
 21
17.28465917217156
 31
0.0
  0
LINE
  5
CA
330
7A
100
AcDbEntity
  8
0
  6
ByBlock
 62
     0
100
AcDbLine
 10
29.41062340313049
 20
17.03465917217156
 30
0.0
 11
29.66062340313049
 21
17.28465917217156
 31
0.0
  0
TEXT
  5
CB
330
7A
100
AcDbEntity
  8
0
  6
ByBlock
 62
     0
100
AcDbText
 10
28.53562340313049
 20
17.09715917217156
 30
0.0
 40
0.125
  1
1 1/2
 72
     1
 11
28.78562340313049
 21
17.15965917217156
 31
0.0
100
AcDbText
 73
     2
  0
POINT
  5
CC
330
7A
100
AcDbEntity
  8
DEFPOINTS
  6
ByBlock
 62
     0
100
AcDbPoint
 10
28.0356234031305
 20
16.6907752970572
 30
0.0
  0
POINT
  5
CD
330
7A
100
AcDbEntity
  8
DEFPOINTS
  6
ByBlock
 62
     0
100
AcDbPoint
 10
29.53562340313049
 20
16.0657752970572
 30
0.0
  0
POINT
  5
CE
330
7A
100
AcDbEntity
  8
DEFPOINTS
  6
ByBlock
 62
     0
100
AcDbPoint
 10
29.53562340313049
 20
17.15965917217156
 30
0.0
  0
ENDBLK
  5
CF
330
7A
100
AcDbEntity
  8
0
100
AcDbBlockEnd
  0
BLOCK
  5
2F9
330
2F8
100
AcDbEntity
  8
0
 62
     7
100
AcDbBlockBegin
  2
AI9-BLK1
 70
     0
 10
0.0
 20
0.0
 30
0.0
  3
AI9-BLK1
  1

  0
SPLINE
  5
2FA
330
2F8
100
AcDbEntity
  8
0
 62
     7
100
AcDbSpline
210
0.0
220
0.0
230
1.0
 70
     8
 71
     3
 72
     8
 73
     4
 74
     0
 42
0.0000000001
 43
0.0000000001
 40
0.0
 40
0.0
 40
0.0
 40
0.0
 40
1.0
 40
1.0
 40
1.0
 40
1.0
 10
23.44887017144097
 20
3.050718180338541
 30
0.0
 10
20.03719211154514
 20
2.53257581922743
 30
0.0
 10
16.54972195095486
 20
3.14029066297743
 30
0.0
 10
13.51442057291666
 20
4.781706407335068
 30
0.0
  0
SPLINE
  5
2FB
330
2F8
100
AcDbEntity
  8
0
 62
     7
100
AcDbSpline
210
0.0
220
0.0
230
1.0
 70
     8
 71
     3
 72
     8
 73
     4
 74
     0
 42
0.0000000001
 43
0.0000000001
 40
0.0
 40
0.0
 40
0.0
 40
0.0
 40
1.0
 40
1.0
 40
1.0
 40
1.0
 10
-13.51373155381944
 20
4.781706407335068
 30
0.0
 10
-9.951847330729163
 20
8.412320285373262
 30
0.0
 10
-5.085822211371527
 20
10.46783650716146
 30
0.0
 10
0.0003445095486111
 20
10.49022962782118
 30
0.0
  0
SPLINE
  5
2FC
330
2F8
100
AcDbEntity
  8
0
 62
     7
100
AcDbSpline
210
0.0
220
0.0
230
1.0
 70
     8
 71
     3
 72
    14
 73
    10
 74
     0
 42
0.0000000001
 43
0.0000000001
 40
0.0
 40
0.0
 40
0.0
 40
0.0
 40
1.0
 40
1.0
 40
1.0
 40
2.0
 40
2.0
 40
2.0
 40
3.0
 40
3.0
 40
3.0
 40
3.0
 10
-25.13696695963542
 20
-3.539404975043401
 30
0.0
 10
-26.62852105034722
 20
-3.875818549262151
 30
0.0
 10
-28.11042887369791
 20
-2.939269341362845
 30
0.0
 10
-28.44667019314236
 20
-1.44771525065104
 30
0.0
 10
-28.78308376736111
 20
0.0440110948350694
 30
0.0
 10
-27.8465345594618
 20
1.525746663411458
 30
0.0
 10
-26.35498046875
 20
1.862160237630208
 30
0.0
 10
-26.15499267578125
 20
1.907118733723958
 30
0.0
 10
-25.95087076822917
 20
1.929856363932291
 30
0.0
 10
-25.74588758680555
 20
1.929856363932291
 30
0.0
  0
SPLINE
  5
2FD
330
2F8
100
AcDbEntity
  8
0
 62
     7
100
AcDbSpline
210
0.0
220
0.0
230
1.0
 70
     8
 71
     3
 72
     8
 73
     4
 74
     0
 42
0.0000000001
 43
0.0000000001
 40
0.0
 40
0.0
 40
0.0
 40
0.0
 40
1.0
 40
1.0
 40
1.0
 40
1.0
 10
-25.13696695963542
 20
-3.539404975043401
 30
0.0
 10
-22.00330810546875
 20
-4.179331461588541
 30
0.0
 10
-19.75279947916666
 20
-6.936096869574653
 30
0.0
 10
-19.75279947916666
 20
-10.1343512641059
 30
0.0
  0
SPLINE
  5
2FE
330
2F8
100
AcDbEntity
  8
0
 62
     7
100
AcDbSpline
210
0.0
220
0.0
230
1.0
 70
     8
 71
     3
 72
     8
 73
     4
 74
     0
 42
0.0000000001
 43
0.0000000001
 40
0.0
 40
0.0
 40
0.0
 40
0.0
 40
1.0
 40
1.0
 40
1.0
 40
1.0
 10
-19.3726331922743
 20
-10.49022962782118
 30
0.0
 10
-19.57331000434027
 20
-10.49022962782118
 30
0.0
 10
-19.73953586154513
 20
-10.33468356662326
 30
0.0
 10
-19.75279947916666
 20
-10.1343512641059
 30
0.0
  0
SPLINE
  5
2FF
330
2F8
100
AcDbEntity
  8
0
 62
     7
100
AcDbSpline
210
0.0
220
0.0
230
1.0
 70
     8
 71
     3
 72
     8
 73
     4
 74
     0
 42
0.0000000001
 43
0.0000000001
 40
0.0
 40
0.0
 40
0.0
 40
0.0
 40
1.0
 40
1.0
 40
1.0
 40
1.0
 10
-13.51373155381944
 20
4.781706407335068
 30
0.0
 10
-16.54920518663194
 20
3.14029066297743
 30
0.0
 10
-20.03667534722222
 20
2.53257581922743
 30
0.0
 10
-23.44818115234375
 20
3.050718180338541
 30
0.0
  0
LINE
  5
300
330
2F8
100
AcDbEntity
  8
0
 62
     7
100
AcDbLine
 10
-25.74588758680555
 20
1.929856363932291
 30
0.0
 11
-25.75915120442708
 21
3.02866956922743
 31
0.0
  0
LINE
  5
301
330
2F8
100
AcDbEntity
  8
0
 62
     7
100
AcDbLine
 10
-25.74588758680555
 20
3.050718180338541
 30
0.0
 11
-23.533447265625
 21
3.059158664279513
 31
0.0
  0
SPLINE
  5
302
330
2F8
100
AcDbEntity
  8
0
 62
     7
100
AcDbSpline
210
0.0
220
0.0
230
1.0
 70
     8
 71
     3
 72
     8
 73
     4
 74
     0
 42
0.0000000001
 43
0.0000000001
 40
0.0
 40
0.0
 40
0.0
 40
0.0
 40
1.0
 40
1.0
 40
1.0
 40
1.0
 10
0.0003445095486111
 20
10.49022962782118
 30
0.0
 10
5.086338975694443
 20
10.46783650716146
 30
0.0
 10
9.952364095052082
 20
8.412320285373262
 30
0.0
 10
13.51442057291666
 20
4.781706407335068
 30
0.0
  0
SPLINE
  5
303
330
2F8
100
AcDbEntity
  8
0
 62
     7
100
AcDbSpline
210
0.0
220
0.0
230
1.0
 70
     8
 71
     3
 72
    14
 73
    10
 74
     0
 42
0.0000000001
 43
0.0000000001
 40
0.0
 40
0.0
 40
0.0
 40
0.0
 40
1.0
 40
1.0
 40
1.0
 40
2.0
 40
2.0
 40
2.0
 40
3.0
 40
3.0
 40
3.0
 40
3.0
 10
25.74657660590278
 20
1.929856363932291
 30
0.0
 10
27.27550998263889
 20
1.929856363932291
 30
0.0
 10
28.51505533854167
 20
0.690311008029514
 30
0.0
 10
28.51505533854167
 20
-0.8386223687065971
 30
0.0
 10
28.51505533854167
 20
-2.367728000217013
 30
0.0
 10
27.27550998263889
 20
-3.607273356119791
 30
0.0
 10
25.74657660590278
 20
-3.607273356119791
 30
0.0
 10
25.54159342447916
 20
-3.607273356119791
 30
0.0
 10
25.33729926215278
 20
-3.584535725911456
 30
0.0
 10
25.13748372395833
 20
-3.539404975043401
 30
0.0
  0
SPLINE
  5
304
330
2F8
100
AcDbEntity
  8
0
 62
     7
100
AcDbSpline
210
0.0
220
0.0
230
1.0
 70
     8
 71
     3
 72
     8
 73
     4
 74
     0
 42
0.0000000001
 43
0.0000000001
 40
0.0
 40
0.0
 40
0.0
 40
0.0
 40
1.0
 40
1.0
 40
1.0
 40
1.0
 10
19.75331624348958
 20
-10.1343512641059
 30
0.0
 10
19.75331624348958
 20
-6.936096869574653
 30
0.0
 10
22.00399712456597
 20
-4.179331461588541
 30
0.0
 10
25.13748372395833
 20
-3.539404975043401
 30
0.0
  0
SPLINE
  5
305
330
2F8
100
AcDbEntity
  8
0
 62
     7
100
AcDbSpline
210
0.0
220
0.0
230
1.0
 70
     8
 71
     3
 72
     8
 73
     4
 74
     0
 42
0.0000000001
 43
0.0000000001
 40
0.0
 40
0.0
 40
0.0
 40
0.0
 40
1.0
 40
1.0
 40
1.0
 40
1.0
 10
19.75331624348958
 20
-10.1343512641059
 30
0.0
 10
19.74022488064236
 20
-10.33468356662326
 30
0.0
 10
19.57382676866319
 20
-10.49022962782118
 30
0.0
 10
19.37314995659722
 20
-10.49022962782118
 30
0.0
  0
LINE
  5
306
330
2F8
100
AcDbEntity
  8
0
 62
     7
100
AcDbLine
 10
25.74657660590278
 20
1.929856363932291
 30
0.0
 11
25.75984022352431
 21
3.02866956922743
 31
0.0
  0
LINE
  5
307
330
2F8
100
AcDbEntity
  8
0
 62
     7
100
AcDbLine
 10
25.74657660590278
 20
3.050718180338541
 30
0.0
 11
23.53413628472222
 21
3.059158664279513
 31
0.0
  0
POLYLINE
  5
308
330
2F8
100
AcDbEntity
  8
0
 62
     7
100
AcDb2dPolyline
 66
     1
 10
0.0
 20
0.0
 30
0.0
  0
VERTEX
  5
309
330
308
100
AcDbEntity
  8
0
 62
     7
100
AcDbVertex
100
AcDb2dVertex
 10
16.61638454861111
 20
-5.801626925998261
 30
0.0
  0
VERTEX
  5
30A
330
308
100
AcDbEntity
  8
0
 62
     7
100
AcDbVertex
100
AcDb2dVertex
 10
16.56815321180555
 20
-0.9993360731336803
 30
0.0
  0
VERTEX
  5
30B
330
308
100
AcDbEntity
  8
0
 62
     7
100
AcDbVertex
100
AcDb2dVertex
 10
-16.58882378472222
 20
-0.9993360731336803
 30
0.0
  0
VERTEX
  5
30C
330
308
100
AcDbEntity
  8
0
 62
     7
100
AcDbVertex
100
AcDb2dVertex
 10
-16.60449896918402
 20
-5.922377522786457
 30
0.0
  0
VERTEX
  5
30D
330
308
100
AcDbEntity
  8
0
 62
     7
100
AcDbVertex
100
AcDb2dVertex
 10
-18.30861545138889
 20
-5.922377522786457
 30
0.0
  0
VERTEX
  5
30E
330
308
100
AcDbEntity
  8
0
 62
     7
100
AcDbVertex
100
AcDb2dVertex
 10
-18.30861545138889
 20
-10.46680297851562
 30
0.0
  0
VERTEX
  5
30F
330
308
100
AcDbEntity
  8
0
 62
     7
100
AcDbVertex
100
AcDb2dVertex
 10
-18.30861545138889
 20
-6.206425645616317
 30
0.0
  0
SEQEND
  5
310
330
308
100
AcDbEntity
  8
0
 62
     7
  0
POLYLINE
  5
311
330
2F8
100
AcDbEntity
  8
0
 62
     7
100
AcDb2dPolyline
 66
     1
 10
0.0
 20
0.0
 30
0.0
  0
VERTEX
  5
312
330
311
100
AcDbEntity
  8
0
 62
     7
100
AcDbVertex
100
AcDb2dVertex
 10
16.62379150390625
 20
-5.827637396918403
 30
0.0
  0
VERTEX
  5
313
330
311
100
AcDbEntity
  8
0
 62
     7
100
AcDbVertex
100
AcDb2dVertex
 10
18.23592393663194
 20
-5.827637396918403
 30
0.0
  0
VERTEX
  5
314
330
311
100
AcDbEntity
  8
0
 62
     7
100
AcDbVertex
100
AcDb2dVertex
 10
18.23592393663194
 20
-10.46852552625868
 30
0.0
  0
VERTEX
  5
315
330
311
100
AcDbEntity
  8
0
 62
     7
100
AcDbVertex
100
AcDb2dVertex
 10
18.23592393663194
 20
-10.27749498155382
 30
0.0
  0
SEQEND
  5
316
330
311
100
AcDbEntity
  8
0
 62
     7
  0
LINE
  5
317
330
2F8
100
AcDbEntity
  8
0
 62
     7
100
AcDbLine
 10
18.23592393663194
 20
-10.49022962782118
 30
0.0
 11
19.37314995659722
 21
-10.49022962782118
 31
0.0
  0
LINE
  5
318
330
2F8
100
AcDbEntity
  8
0
 62
     7
100
AcDbLine
 10
-18.30861545138889
 20
-10.49022962782118
 30
0.0
 11
-19.3726331922743
 21
-10.49022962782118
 31
0.0
  0
ENDBLK
  5
319
330
2F8
100
AcDbEntity
  8
0
100
AcDbBlockEnd
  0
BLOCK
  5
31B
330
31A
100
AcDbEntity
  8
0
100
AcDbBlockBegin
  2
*D7
 70
     1
 10
0.0
 20
0.0
 30
0.0
  3
*D7
  1

  0
LINE
  5
31C
330
31A
100
AcDbEntity
  8
ADPDIM
  6
Continuous
 62
     0
370
    -2
100
AcDbLine
 10
1.952618210026719
 20
9.550465552291614
 30
0.0
 11
1.952618210026719
 21
8.940273095101336
 31
0.0
  0
LINE
  5
31D
330
31A
100
AcDbEntity
  8
ADPDIM
  6
Continuous
 62
     0
370
    -2
100
AcDbLine
 10
3.45261821002672
 20
9.550465552291614
 30
0.0
 11
3.45261821002672
 21
8.940273095101336
 31
0.0
  0
LINE
  5
31E
330
31A
100
AcDbEntity
  8
ADPDIM
  6
Continuous
 62
     0
370
    -2
100
AcDbLine
 10
2.132618210026719
 20
9.120273095101335
 30
0.0
 11
2.41261821002672
 21
9.120273095101335
 31
0.0
  0
LINE
  5
31F
330
31A
100
AcDbEntity
  8
ADPDIM
  6
Continuous
 62
     0
370
    -2
100
AcDbLine
 10
3.27261821002672
 20
9.120273095101335
 30
0.0
 11
2.99261821002672
 21
9.120273095101335
 31
0.0
  0
SOLID
  5
320
330
31A
100
AcDbEntity
  8
ADPDIM
  6
Continuous
 62
     0
100
AcDbTrace
 10
2.132618210026719
 20
9.150273095101336
 30
0.0
 11
2.132618210026719
 21
9.090273095101336
 31
0.0
 12
1.952618210026719
 22
9.120273095101335
 32
0.0
 13
1.952618210026719
 23
9.120273095101335
 33
0.0
  0
SOLID
  5
321
330
31A
100
AcDbEntity
  8
ADPDIM
  6
Continuous
 62
     0
100
AcDbTrace
 10
3.27261821002672
 20
9.150273095101336
 30
0.0
 11
3.27261821002672
 21
9.090273095101336
 31
0.0
 12
3.45261821002672
 22
9.120273095101335
 32
0.0
 13
3.45261821002672
 23
9.120273095101335
 33
0.0
  0
MTEXT
  5
322
330
31A
100
AcDbEntity
  8
ADPDIM
  6
Continuous
 62
     0
100
AcDbMText
 10
2.70261821002672
 20
9.120273095101335
 30
0.0
 40
0.1
 41
0.0
 71
     5
 72
     1
  1
\A1;1 1/2
 73
     1
 44
1.0
1001
ACAD
1000
MTEXTBEGIN
1070
    73
1070
     1
1070
    44
1040
1.0
1070
    74
1070
     0
1000
MTEXTEND
  0
POINT
  5
323
330
31A
100
AcDbEntity
  8
DEFPOINTS
  6
Continuous
 62
     0
100
AcDbPoint
 10
1.952618210026719
 20
9.612965552291614
 30
0.0
  0
POINT
  5
324
330
31A
100
AcDbEntity
  8
DEFPOINTS
  6
Continuous
 62
     0
100
AcDbPoint
 10
3.45261821002672
 20
9.612965552291614
 30
0.0
  0
POINT
  5
325
330
31A
100
AcDbEntity
  8
DEFPOINTS
  6
Continuous
 62
     0
100
AcDbPoint
 10
3.45261821002672
 20
9.120273095101335
 30
0.0
  0
ENDBLK
  5
326
330
31A
100
AcDbEntity
  8
0
100
AcDbBlockEnd
  0
BLOCK
  5
328
330
327
100
AcDbEntity
  8
0
100
AcDbBlockBegin
  2
*D8
 70
     1
 10
0.0
 20
0.0
 30
0.0
  3
*D8
  1

  0
LINE
  5
329
330
327
100
AcDbEntity
  8
ADPDIM
  6
Continuous
 62
     0
370
    -2
100
AcDbLine
 10
2.029054176977541
 20
9.728854198066311
 30
0.0
 11
2.029054176977541
 21
9.339523881390876
 31
0.0
  0
LINE
  5
32A
330
327
100
AcDbEntity
  8
ADPDIM
  6
Continuous
 62
     0
370
    -2
100
AcDbLine
 10
3.341554176977541
 20
9.728854198066311
 30
0.0
 11
3.341554176977541
 21
9.339523881390876
 31
0.0
  0
LINE
  5
32B
330
327
100
AcDbEntity
  8
ADPDIM
  6
Continuous
 62
     0
370
    -2
100
AcDbLine
 10
2.209054176977542
 20
9.519523881390876
 30
0.0
 11
2.345304176977542
 21
9.519523881390876
 31
0.0
  0
LINE
  5
32C
330
327
100
AcDbEntity
  8
ADPDIM
  6
Continuous
 62
     0
370
    -2
100
AcDbLine
 10
3.161554176977542
 20
9.519523881390876
 30
0.0
 11
3.025304176977542
 21
9.519523881390876
 31
0.0
  0
SOLID
  5
32D
330
327
100
AcDbEntity
  8
ADPDIM
  6
Continuous
 62
     0
100
AcDbTrace
 10
2.209054176977542
 20
9.549523881390877
 30
0.0
 11
2.209054176977542
 21
9.489523881390876
 31
0.0
 12
2.029054176977541
 22
9.519523881390876
 32
0.0
 13
2.029054176977541
 23
9.519523881390876
 33
0.0
  0
SOLID
  5
32E
330
327
100
AcDbEntity
  8
ADPDIM
  6
Continuous
 62
     0
100
AcDbTrace
 10
3.161554176977542
 20
9.549523881390877
 30
0.0
 11
3.161554176977542
 21
9.489523881390876
 31
0.0
 12
3.341554176977541
 22
9.519523881390876
 32
0.0
 13
3.341554176977541
 23
9.519523881390876
 33
0.0
  0
MTEXT
  5
32F
330
327
100
AcDbEntity
  8
ADPDIM
  6
Continuous
 62
     0
100
AcDbMText
 10
2.685304176977541
 20
9.519523881390876
 30
0.0
 40
0.1
 41
0.0
 71
     5
 72
     1
  1
\A1;1 5/16
 73
     1
 44
1.0
1001
ACAD
1000
MTEXTBEGIN
1070
    73
1070
     1
1070
    44
1040
1.0
1070
    74
1070
     0
1000
MTEXTEND
  0
POINT
  5
330
330
327
100
AcDbEntity
  8
DEFPOINTS
  6
Continuous
 62
     0
100
AcDbPoint
 10
2.029054176977541
 20
9.791354198066311
 30
0.0
  0
POINT
  5
331
330
327
100
AcDbEntity
  8
DEFPOINTS
  6
Continuous
 62
     0
100
AcDbPoint
 10
3.341554176977541
 20
9.791354198066311
 30
0.0
  0
POINT
  5
332
330
327
100
AcDbEntity
  8
DEFPOINTS
  6
Continuous
 62
     0
100
AcDbPoint
 10
3.341554176977541
 20
9.519523881390876
 30
0.0
  0
ENDBLK
  5
333
330
327
100
AcDbEntity
  8
0
100
AcDbBlockEnd
  0
BLOCK
  5
36B
330
360
100
AcDbEntity
  8
0
100
AcDbBlockBegin
  2
*D10
 70
     1
 10
0.0
 20
0.0
 30
0.0
  3
*D10
  1

  0
LINE
  5
37A
330
360
100
AcDbEntity
  8
ADPDIM
  6
Continuous
 62
     0
370
    -2
100
AcDbLine
 10
25.49152437324917
 20
9.443159526548141
 30
0.0
 11
25.49152437324917
 21
8.832967069357863
 31
0.0
  0
LINE
  5
37B
330
360
100
AcDbEntity
  8
ADPDIM
  6
Continuous
 62
     0
370
    -2
100
AcDbLine
 10
26.99152437324917
 20
9.443159526548141
 30
0.0
 11
26.99152437324917
 21
8.832967069357863
 31
0.0
  0
LINE
  5
37C
330
360
100
AcDbEntity
  8
ADPDIM
  6
Continuous
 62
     0
370
    -2
100
AcDbLine
 10
25.67152437324917
 20
9.012967069357863
 30
0.0
 11
25.95152437324917
 21
9.012967069357863
 31
0.0
  0
LINE
  5
37D
330
360
100
AcDbEntity
  8
ADPDIM
  6
Continuous
 62
     0
370
    -2
100
AcDbLine
 10
26.81152437324917
 20
9.012967069357863
 30
0.0
 11
26.53152437324917
 21
9.012967069357863
 31
0.0
  0
SOLID
  5
37E
330
360
100
AcDbEntity
  8
ADPDIM
  6
Continuous
 62
     0
100
AcDbTrace
 10
25.67152437324917
 20
9.042967069357862
 30
0.0
 11
25.67152437324917
 21
8.982967069357863
 31
0.0
 12
25.49152437324917
 22
9.012967069357863
 32
0.0
 13
25.49152437324917
 23
9.012967069357863
 33
0.0
  0
SOLID
  5
37F
330
360
100
AcDbEntity
  8
ADPDIM
  6
Continuous
 62
     0
100
AcDbTrace
 10
26.81152437324917
 20
9.042967069357862
 30
0.0
 11
26.81152437324917
 21
8.982967069357863
 31
0.0
 12
26.99152437324917
 22
9.012967069357863
 32
0.0
 13
26.99152437324917
 23
9.012967069357863
 33
0.0
  0
MTEXT
  5
380
330
360
100
AcDbEntity
  8
ADPDIM
  6
Continuous
 62
     0
100
AcDbMText
 10
26.24152437324917
 20
9.012967069357863
 30
0.0
 40
0.1
 41
0.0
 71
     5
 72
     1
  1
\A1;1 1/2
 73
     1
 44
1.0
1001
ACAD
1000
MTEXTBEGIN
1070
    73
1070
     1
1070
    44
1040
1.0
1070
    74
1070
     0
1000
MTEXTEND
  0
POINT
  5
381
330
360
100
AcDbEntity
  8
DEFPOINTS
  6
Continuous
 62
     0
100
AcDbPoint
 10
25.49152437324917
 20
9.505659526548141
 30
0.0
  0
POINT
  5
382
330
360
100
AcDbEntity
  8
DEFPOINTS
  6
Continuous
 62
     0
100
AcDbPoint
 10
26.99152437324917
 20
9.505659526548141
 30
0.0
  0
POINT
  5
383
330
360
100
AcDbEntity
  8
DEFPOINTS
  6
Continuous
 62
     0
100
AcDbPoint
 10
26.99152437324917
 20
9.012967069357863
 30
0.0
  0
ENDBLK
  5
36C
330
360
100
AcDbEntity
  8
0
100
AcDbBlockEnd
  0
BLOCK
  5
378
330
36D
100
AcDbEntity
  8
0
100
AcDbBlockBegin
  2
*D11
 70
     1
 10
0.0
 20
0.0
 30
0.0
  3
*D11
  1

  0
LINE
  5
384
330
36D
100
AcDbEntity
  8
ADPDIM
  6
Continuous
 62
     0
370
    -2
100
AcDbLine
 10
25.56796034019999
 20
9.621548172322839
 30
0.0
 11
25.56796034019999
 21
9.232217855647403
 31
0.0
  0
LINE
  5
385
330
36D
100
AcDbEntity
  8
ADPDIM
  6
Continuous
 62
     0
370
    -2
100
AcDbLine
 10
26.88046034019999
 20
9.621548172322839
 30
0.0
 11
26.88046034019999
 21
9.232217855647403
 31
0.0
  0
LINE
  5
386
330
36D
100
AcDbEntity
  8
ADPDIM
  6
Continuous
 62
     0
370
    -2
100
AcDbLine
 10
25.74796034019999
 20
9.412217855647403
 30
0.0
 11
25.8842103402
 21
9.412217855647403
 31
0.0
  0
LINE
  5
387
330
36D
100
AcDbEntity
  8
ADPDIM
  6
Continuous
 62
     0
370
    -2
100
AcDbLine
 10
26.70046034019999
 20
9.412217855647403
 30
0.0
 11
26.56421034019999
 21
9.412217855647403
 31
0.0
  0
SOLID
  5
388
330
36D
100
AcDbEntity
  8
ADPDIM
  6
Continuous
 62
     0
100
AcDbTrace
 10
25.74796034019999
 20
9.442217855647403
 30
0.0
 11
25.74796034019999
 21
9.382217855647404
 31
0.0
 12
25.56796034019999
 22
9.412217855647403
 32
0.0
 13
25.56796034019999
 23
9.412217855647403
 33
0.0
  0
SOLID
  5
389
330
36D
100
AcDbEntity
  8
ADPDIM
  6
Continuous
 62
     0
100
AcDbTrace
 10
26.70046034019999
 20
9.442217855647403
 30
0.0
 11
26.70046034019999
 21
9.382217855647404
 31
0.0
 12
26.88046034019999
 22
9.412217855647403
 32
0.0
 13
26.88046034019999
 23
9.412217855647403
 33
0.0
  0
MTEXT
  5
38A
330
36D
100
AcDbEntity
  8
ADPDIM
  6
Continuous
 62
     0
100
AcDbMText
 10
26.22421034019999
 20
9.412217855647403
 30
0.0
 40
0.1
 41
0.0
 71
     5
 72
     1
  1
\A1;1 5/16
 73
     1
 44
1.0
1001
ACAD
1000
MTEXTBEGIN
1070
    73
1070
     1
1070
    44
1040
1.0
1070
    74
1070
     0
1000
MTEXTEND
  0
POINT
  5
38B
330
36D
100
AcDbEntity
  8
DEFPOINTS
  6
Continuous
 62
     0
100
AcDbPoint
 10
25.56796034019999
 20
9.684048172322839
 30
0.0
  0
POINT
  5
38C
330
36D
100
AcDbEntity
  8
DEFPOINTS
  6
Continuous
 62
     0
100
AcDbPoint
 10
26.88046034019999
 20
9.684048172322839
 30
0.0
  0
POINT
  5
38D
330
36D
100
AcDbEntity
  8
DEFPOINTS
  6
Continuous
 62
     0
100
AcDbPoint
 10
26.88046034019999
 20
9.412217855647403
 30
0.0
  0
ENDBLK
  5
379
330
36D
100
AcDbEntity
  8
0
100
AcDbBlockEnd
  0
ENDSEC
  0
SECTION
  2
ENTITIES
  0
DIMENSION
  5
D1
330
1E
100
AcDbEntity
  8
ADPDIM
100
AcDbDimension
  2
*D0
 10
27.6918734031305
 20
2.730609324345646
 30
0.0
 11
26.2856234031305
 21
2.730609324345646
 31
0.0
 71
     5
 42
-1.0
100
AcDbAlignedDimension
 13
24.8793734031305
 23
3.54816499603643
 33
0.0
 14
27.6918734031305
 24
3.54816499603643
 34
0.0
100
AcDbRotatedDimension
  0
LINE
  5
D6
330
1E
100
AcDbEntity
  8
ADP1DETAIL
100
AcDbLine
 10
27.6918734031305
 20
3.54816499603643
 30
0.0
 11
24.8793734031305
 21
3.54816499603643
 31
0.0
  0
LINE
  5
D7
330
1E
100
AcDbEntity
  8
ADP1DETAIL
100
AcDbLine
 10
24.53562340313049
 20
3.199060156812976
 30
0.0
 11
28.0356234031305
 21
3.199060156812976
 31
0.0
  0
LINE
  5
D8
330
1E
100
AcDbEntity
  8
ADP1DETAIL
100
AcDbLine
 10
24.8793734031305
 20
6.36066499603643
 30
0.0
 11
27.6918734031305
 21
6.36066499603643
 31
0.0
  0
LINE
  5
D9
330
1E
100
AcDbEntity
  8
ADP1DETAIL
100
AcDbLine
 10
27.4106234031305
 20
8.199060156812976
 30
0.0
 11
25.16062340313049
 21
8.199060156812976
 31
0.0
  0
LINE
  5
DA
330
1E
100
AcDbEntity
  8
ADP1DETAIL
100
AcDbLine
 10
25.76155216995908
 20
8.199060156812976
 30
0.0
 11
25.76155216995908
 21
6.36066499603643
 31
0.0
  0
LINE
  5
DB
330
1E
100
AcDbEntity
  8
ADP1DETAIL
100
AcDbLine
 10
25.63655216995908
 20
8.199060156812976
 30
0.0
 11
25.63655216995908
 21
6.36066499603643
 31
0.0
  0
LINE
  5
DC
330
1E
100
AcDbEntity
  8
ADP1DETAIL
100
AcDbLine
 10
25.51155216995908
 20
8.199060156812976
 30
0.0
 11
25.51155216995908
 21
6.360664996036431
 31
0.0
  0
LINE
  5
DD
330
1E
100
AcDbEntity
  8
ADP1DETAIL
100
AcDbLine
 10
25.16062340313049
 20
8.199060156812976
 30
0.0
 11
25.16062340313049
 21
6.699060156812976
 31
0.0
  0
LINE
  5
DE
330
1E
100
AcDbEntity
  8
ADP1DETAIL
100
AcDbLine
 10
25.0043734031305
 20
3.87426225121576
 30
0.0
 11
25.0043734031305
 21
6.034567740857099
 31
0.0
  0
LINE
  5
DF
330
1E
100
AcDbEntity
  8
ADP1DETAIL
100
AcDbLine
 10
24.8793734031305
 20
3.54816499603643
 30
0.0
 11
24.8793734031305
 21
6.36066499603643
 31
0.0
  0
LINE
  5
E0
330
1E
100
AcDbEntity
  8
ADP1DETAIL
100
AcDbLine
 10
24.53562340313049
 20
6.699060156812976
 30
0.0
 11
24.53562340313049
 21
3.199060156812976
 31
0.0
  0
LINE
  5
E1
330
1E
100
AcDbEntity
  8
ADP1DETAIL
100
AcDbLine
 10
25.1918734031305
 20
3.87426225121576
 30
0.0
 11
25.1918734031305
 21
3.56176225121576
 31
0.0
  0
LINE
  5
E2
330
1E
100
AcDbEntity
  8
ADP1DETAIL
100
AcDbLine
 10
25.0043734031305
 20
3.87426225121576
 30
0.0
 11
25.1918734031305
 21
3.87426225121576
 31
0.0
  0
LINE
  5
E3
330
1E
100
AcDbEntity
  8
ADP1DETAIL
100
AcDbLine
 10
25.1606234031305
 20
6.699060156812976
 30
0.0
 11
24.53562340313049
 21
6.699060156812976
 31
0.0
  0
LINE
  5
E4
330
1E
100
AcDbEntity
  8
ADP1DETAIL
100
AcDbLine
 10
25.1918734031305
 20
6.034567740857099
 30
0.0
 11
25.0043734031305
 21
6.034567740857099
 31
0.0
  0
LINE
  5
E5
330
1E
100
AcDbEntity
  8
ADP1DETAIL
100
AcDbLine
 10
25.1918734031305
 20
6.347067740857099
 30
0.0
 11
25.1918734031305
 21
6.034567740857099
 31
0.0
  0
LINE
  5
FA
330
1E
100
AcDbEntity
  8
ADP1DETAIL
100
AcDbLine
 10
27.05804345843514
 20
6.36066499603643
 30
0.0
 11
27.05804345843514
 21
8.199060156812976
 31
0.0
  0
LINE
  5
FB
330
1E
100
AcDbEntity
  8
ADP1DETAIL
100
AcDbLine
 10
27.4106234031305
 20
6.699060156812979
 30
0.0
 11
27.4106234031305
 21
8.199060156812976
 31
0.0
  0
LINE
  5
FC
330
1E
100
AcDbEntity
  8
ADP1DETAIL
100
AcDbLine
 10
26.93304345843514
 20
6.36066499603643
 30
0.0
 11
26.93304345843514
 21
8.199060156812976
 31
0.0
  0
LINE
  5
FD
330
1E
100
AcDbEntity
  8
ADP1DETAIL
100
AcDbLine
 10
26.80804345843514
 20
6.36066499603643
 30
0.0
 11
26.80804345843514
 21
8.199060156812976
 31
0.0
  0
LINE
  5
FE
330
1E
100
AcDbEntity
  8
ADP1DETAIL
100
AcDbLine
 10
27.69722824235395
 20
4.301640101508329
 30
0.0
 11
29.5356234031305
 21
4.301640101508329
 31
0.0
  0
LINE
  5
FF
330
1E
100
AcDbEntity
  8
ADP1DETAIL
100
AcDbLine
 10
27.69722824235395
 20
4.426640101508329
 30
0.0
 11
29.5356234031305
 21
4.426640101508329
 31
0.0
  0
LINE
  5
100
330
1E
100
AcDbEntity
  8
ADP1DETAIL
100
AcDbLine
 10
27.69722824235395
 20
4.176640101508329
 30
0.0
 11
29.5356234031305
 21
4.176640101508329
 31
0.0
  0
LINE
  5
101
330
1E
100
AcDbEntity
  8
ADP1DETAIL
100
AcDbLine
 10
29.5356234031305
 20
6.074060156812976
 30
0.0
 11
28.0356234031305
 21
6.074060156812976
 31
0.0
  0
LINE
  5
102
330
1E
100
AcDbEntity
  8
ADP1DETAIL
100
AcDbLine
 10
29.5356234031305
 20
5.473131389984391
 30
0.0
 11
27.69722824235395
 21
5.473131389984391
 31
0.0
  0
LINE
  5
103
330
1E
100
AcDbEntity
  8
ADP1DETAIL
100
AcDbLine
 10
29.5356234031305
 20
5.598131389984391
 30
0.0
 11
27.69722824235395
 21
5.598131389984391
 31
0.0
  0
LINE
  5
104
330
1E
100
AcDbEntity
  8
ADP1DETAIL
100
AcDbLine
 10
29.5356234031305
 20
5.723131389984391
 30
0.0
 11
27.69722824235395
 21
5.723131389984391
 31
0.0
  0
LINE
  5
105
330
1E
100
AcDbEntity
  8
ADP1DETAIL
100
AcDbLine
 10
28.0356234031305
 20
3.824060156812976
 30
0.0
 11
29.5356234031305
 21
3.824060156812976
 31
0.0
  0
LINE
  5
106
330
1E
100
AcDbEntity
  8
ADP1DETAIL
100
AcDbLine
 10
27.6918734031305
 20
6.36066499603643
 30
0.0
 11
27.6918734031305
 21
3.54816499603643
 31
0.0
  0
LINE
  5
107
330
1E
100
AcDbEntity
  8
ADP1DETAIL
100
AcDbLine
 10
27.5668734031305
 20
3.87426225121576
 30
0.0
 11
27.5668734031305
 21
6.034567740857099
 31
0.0
  0
LINE
  5
108
330
1E
100
AcDbEntity
  8
ADP1DETAIL
100
AcDbLine
 10
28.0356234031305
 20
3.199060156812976
 30
0.0
 11
28.0356234031305
 21
3.824060156812976
 31
0.0
  0
LINE
  5
109
330
1E
100
AcDbEntity
  8
ADP1DETAIL
100
AcDbLine
 10
27.3793734031305
 20
3.87426225121576
 30
0.0
 11
27.3793734031305
 21
3.56176225121576
 31
0.0
  0
LINE
  5
10A
330
1E
100
AcDbEntity
  8
ADP1DETAIL
100
AcDbLine
 10
27.5668734031305
 20
3.87426225121576
 30
0.0
 11
27.3793734031305
 21
3.87426225121576
 31
0.0
  0
LINE
  5
10B
330
1E
100
AcDbEntity
  8
ADP1DETAIL
100
AcDbLine
 10
28.0356234031305
 20
6.699060156812976
 30
0.0
 11
27.4106234031305
 21
6.699060156812976
 31
0.0
  0
LINE
  5
10C
330
1E
100
AcDbEntity
  8
ADP1DETAIL
100
AcDbLine
 10
27.3793734031305
 20
6.034567740857099
 30
0.0
 11
27.5668734031305
 21
6.034567740857099
 31
0.0
  0
LINE
  5
10D
330
1E
100
AcDbEntity
  8
ADP1DETAIL
100
AcDbLine
 10
27.3793734031305
 20
6.347067740857099
 30
0.0
 11
27.3793734031305
 21
6.034567740857099
 31
0.0
  0
LINE
  5
10E
330
1E
100
AcDbEntity
  8
ADP1DETAIL
100
AcDbLine
 10
28.0356234031305
 20
6.074060156812972
 30
0.0
 11
28.0356234031305
 21
6.699060156812976
 31
0.0
  0
LINE
  5
10F
330
1E
100
AcDbEntity
  8
ADP1DETAIL
100
AcDbLine
 10
29.5356234031305
 20
3.824060156812976
 30
0.0
 11
29.5356234031305
 21
6.074060156812976
 31
0.0
  0
DIMENSION
  5
125
330
1E
100
AcDbEntity
  8
ADPDIM
100
AcDbDimension
  2
*D2
 10
28.0356234031305
 20
17.15114645343219
 30
0.0
 11
26.28562340313049
 21
17.15114645343219
 31
0.0
 71
     5
 42
-1.0
100
AcDbAlignedDimension
 13
24.53562340313049
 23
16.6907752970572
 33
0.0
 14
28.0356234031305
 24
16.6907752970572
 34
0.0
100
AcDbRotatedDimension
  0
DIMENSION
  5
126
330
1E
100
AcDbEntity
  8
ADPDIM
100
AcDbDimension
  2
*D1
 10
27.4106234031305
 20
11.08210288354242
 30
0.0
 11
26.28562340313049
 21
11.08210288354242
 31
0.0
 71
     5
 42
-1.0
100
AcDbAlignedDimension
 13
25.16062340313049
 23
11.6907752970572
 33
0.0
 14
27.4106234031305
 24
11.6907752970572
 34
0.0
100
AcDbRotatedDimension
  0
LINE
  5
127
330
1E
100
AcDbEntity
  8
ADP1DETAIL
100
AcDbLine
 10
27.28562340313049
 20
13.94077529705721
 30
0.0
 11
25.2856234031305
 21
13.94077529705721
 31
0.0
  0
LINE
  5
128
330
1E
100
AcDbEntity
  8
ADP1DETAIL
100
AcDbLine
 10
25.2856234031305
 20
15.94077529705721
 30
0.0
 11
27.28562340313049
 21
15.94077529705721
 31
0.0
  0
LINE
  5
129
330
1E
100
AcDbEntity
  8
ADP1DETAIL
100
AcDbLine
 10
24.6606234031305
 20
16.56577529705721
 30
0.0
 11
27.91062340313049
 21
16.56577529705721
 31
0.0
  0
LINE
  5
12A
330
1E
100
AcDbEntity
  8
ADP1DETAIL
100
AcDbLine
 10
27.4106234031305
 20
11.6907752970572
 30
0.0
 11
25.16062340313049
 21
11.6907752970572
 31
0.0
  0
LINE
  5
12B
330
1E
100
AcDbEntity
  8
ADP1DETAIL
100
AcDbLine
 10
24.53562340313049
 20
16.6907752970572
 30
0.0
 11
28.0356234031305
 21
16.6907752970572
 31
0.0
  0
LINE
  5
12C
330
1E
100
AcDbEntity
  8
ADP1DETAIL
100
AcDbLine
 10
25.2856234031305
 20
13.94077529705721
 30
0.0
 11
25.2856234031305
 21
15.94077529705721
 31
0.0
  0
LINE
  5
12D
330
1E
100
AcDbEntity
  8
ADP1DETAIL
100
AcDbLine
 10
24.53562340313049
 20
13.19077529705721
 30
0.0
 11
24.53562340313049
 21
16.6907752970572
 31
0.0
  0
LINE
  5
12E
330
1E
100
AcDbEntity
  8
ADP1DETAIL
100
AcDbLine
 10
24.6606234031305
 20
13.31577529705721
 30
0.0
 11
24.6606234031305
 21
16.56577529705721
 31
0.0
  0
LINE
  5
12F
330
1E
100
AcDbEntity
  8
ADP1DETAIL
100
AcDbLine
 10
25.27654240883377
 20
11.6907752970572
 30
0.0
 11
25.27654240883377
 21
13.31577529705721
 31
0.0
  0
LINE
  5
130
330
1E
100
AcDbEntity
  8
ADP1DETAIL
100
AcDbLine
 10
25.16062340313049
 20
11.6907752970572
 30
0.0
 11
25.16062340313049
 21
13.19077529705721
 31
0.0
  0
LINE
  5
131
330
1E
100
AcDbEntity
  8
ADP1DETAIL
100
AcDbLine
 10
24.53562340313049
 20
13.19077529705721
 30
0.0
 11
25.2856234031305
 21
13.94077529705721
 31
0.0
  0
LINE
  5
132
330
1E
100
AcDbEntity
  8
ADP1DETAIL
100
AcDbLine
 10
25.1606234031305
 20
13.19077529705721
 30
0.0
 11
24.53562340313049
 21
13.19077529705721
 31
0.0
  0
LINE
  5
133
330
1E
100
AcDbEntity
  8
ADP1DETAIL
100
AcDbLine
 10
25.27654240883377
 20
13.31577529705721
 30
0.0
 11
24.6606234031305
 21
13.31577529705721
 31
0.0
  0
LINE
  5
134
330
1E
100
AcDbEntity
  8
ADP1DETAIL
100
AcDbLine
 10
25.16062340313049
 20
13.19077529705721
 30
0.0
 11
25.9106234031305
 21
13.94077529705721
 31
0.0
  0
LINE
  5
135
330
1E
100
AcDbEntity
  8
ADP1DETAIL
100
AcDbLine
 10
25.2856234031305
 20
15.94077529705721
 30
0.0
 11
24.53562340313049
 21
16.6907752970572
 31
0.0
  0
LINE
  5
136
330
1E
100
AcDbEntity
  8
ADP1DETAIL
100
AcDbLine
 10
29.53562340313049
 20
16.0657752970572
 30
0.0
 11
29.53562340313049
 21
13.81577529705721
 31
0.0
  0
LINE
  5
137
330
1E
100
AcDbEntity
  8
ADP1DETAIL
100
AcDbLine
 10
27.28562340313049
 20
15.94077529705721
 30
0.0
 11
27.28562340313049
 21
13.94077529705721
 31
0.0
  0
DIMENSION
  5
138
330
1E
100
AcDbEntity
  8
ADPDIM
100
AcDbDimension
  2
*D4
 10
28.53368005853805
 20
13.19077529705721
 30
0.0
 11
28.53368005853805
 21
12.44305280768737
 31
0.0
 71
     5
 42
-1.0
100
AcDbAlignedDimension
 13
27.4120712312174
 23
11.69533031831754
 33
0.0
 14
28.0356234031305
 24
13.19077529705721
 34
0.0
 50
90.0
100
AcDbRotatedDimension
  0
LINE
  5
139
330
1E
100
AcDbEntity
  8
ADP1DETAIL
100
AcDbLine
 10
29.53562340313049
 20
13.81577529705721
 30
0.0
 11
28.03562340313049
 21
13.81577529705721
 31
0.0
  0
LINE
  5
13A
330
1E
100
AcDbEntity
  8
ADP1DETAIL
100
AcDbLine
 10
29.53562340313049
 20
13.93169430276049
 30
0.0
 11
27.91062340313049
 21
13.93169430276049
 31
0.0
  0
LINE
  5
13B
330
1E
100
AcDbEntity
  8
ADP1DETAIL
100
AcDbLine
 10
27.29470439742721
 20
13.31577529705721
 30
0.0
 11
27.29470439742721
 21
11.6907752970572
 31
0.0
  0
LINE
  5
13C
330
1E
100
AcDbEntity
  8
ADP1DETAIL
100
AcDbLine
 10
27.4106234031305
 20
13.1907752970572
 30
0.0
 11
27.4106234031305
 21
11.6907752970572
 31
0.0
  0
LINE
  5
13D
330
1E
100
AcDbEntity
  8
ADP1DETAIL
100
AcDbLine
 10
27.4106234031305
 20
13.1907752970572
 30
0.0
 11
26.66062340313049
 21
13.9407752970572
 31
0.0
  0
LINE
  5
13E
330
1E
100
AcDbEntity
  8
ADP1DETAIL
100
AcDbLine
 10
28.03562340313049
 20
13.81577529705721
 30
0.0
 11
28.03562340313049
 21
13.19077529705721
 31
0.0
  0
LINE
  5
13F
330
1E
100
AcDbEntity
  8
ADP1DETAIL
100
AcDbLine
 10
28.0356234031305
 20
13.19077529705721
 30
0.0
 11
27.28562340313049
 21
13.94077529705721
 31
0.0
  0
LINE
  5
140
330
1E
100
AcDbEntity
  8
ADP1DETAIL
100
AcDbLine
 10
27.91062340313049
 20
13.93169430276049
 30
0.0
 11
27.91062340313049
 21
13.31577529705721
 31
0.0
  0
LINE
  5
141
330
1E
100
AcDbEntity
  8
ADP1DETAIL
100
AcDbLine
 10
28.0356234031305
 20
13.19077529705721
 30
0.0
 11
27.4106234031305
 21
13.19077529705721
 31
0.0
  0
LINE
  5
142
330
1E
100
AcDbEntity
  8
ADP1DETAIL
100
AcDbLine
 10
27.91062340313049
 20
13.31577529705721
 30
0.0
 11
27.29470439742721
 21
13.31577529705721
 31
0.0
  0
LINE
  5
143
330
1E
100
AcDbEntity
  8
ADP1DETAIL
100
AcDbLine
 10
28.03562340313049
 20
13.81577529705721
 30
0.0
 11
27.28562340313049
 21
14.56577529705721
 31
0.0
  0
DIMENSION
  5
144
330
1E
100
AcDbEntity
  8
ADPDIM
100
AcDbDimension
  2
*D5
 10
29.53562340313049
 20
17.15965917217156
 30
0.0
 11
28.78562340313049
 21
17.15965917217156
 31
0.0
 71
     5
 42
-1.0
100
AcDbAlignedDimension
 13
28.0356234031305
 23
16.6907752970572
 33
0.0
 14
29.53562340313049
 24
16.0657752970572
 34
0.0
100
AcDbRotatedDimension
  0
LINE
  5
145
330
1E
100
AcDbEntity
  8
ADP1DETAIL
100
AcDbLine
 10
28.0356234031305
 20
16.0657752970572
 30
0.0
 11
29.53562340313049
 21
16.0657752970572
 31
0.0
  0
LINE
  5
146
330
1E
100
AcDbEntity
  8
ADP1DETAIL
100
AcDbLine
 10
27.91062340313049
 20
15.94985629135393
 30
0.0
 11
29.53562340313049
 21
15.94985629135393
 31
0.0
  0
LINE
  5
147
330
1E
100
AcDbEntity
  8
ADP1DETAIL
100
AcDbLine
 10
28.03562340313049
 20
16.6907752970572
 30
0.0
 11
28.03562340313049
 21
16.0657752970572
 31
0.0
  0
LINE
  5
148
330
1E
100
AcDbEntity
  8
ADP1DETAIL
100
AcDbLine
 10
27.28562340313049
 20
15.94077529705721
 30
0.0
 11
28.0356234031305
 21
16.6907752970572
 31
0.0
  0
LINE
  5
149
330
1E
100
AcDbEntity
  8
ADP1DETAIL
100
AcDbLine
 10
28.0356234031305
 20
16.0657752970572
 30
0.0
 11
27.28562340313049
 21
15.3157752970572
 31
0.0
  0
LINE
  5
14A
330
1E
100
AcDbEntity
  8
ADP1DETAIL
100
AcDbLine
 10
27.91062340313049
 20
16.56577529705721
 30
0.0
 11
27.91062340313049
 21
15.94985629135393
 31
0.0
  0
TEXT
  5
14E
330
1E
100
AcDbEntity
  8
ADPDIM
100
AcDbText
 10
13.85105476734873
 20
1.721325406726404
 30
0.0
 40
0.25
  1
J U L I U S  B L U M  &  C O . ,  I N C .      ( 8 0 0 )  5 2 6 - 6 2 9 3        W W W . J U L I U S B L U M . C O M        P A R T  N o .  4 5 3 0 - L
 41
1.25
  7
ARIAL_WIDE
 72
     1
 11
27.21789054497492
 21
1.971325406726404
 31
0.0
100
AcDbText
 73
     3
  0
LINE
  5
34D
330
1E
100
AcDbEntity
  8
ADP1DETAIL
100
AcDbLine
 10
24.83452538990224
 20
9.499877528826907
 30
0.0
 11
27.61857800236534
 21
9.499877528826907
 31
0.0
  0
LINE
  5
34E
330
1E
100
AcDbEntity
  8
ADP1DETAIL
100
AcDbLine
 10
27.22716158412327
 20
10.32588395406677
 30
0.0
 11
25.22716158412327
 21
10.32588395406679
 31
0.0
  0
ARC
  5
34F
330
1E
100
AcDbEntity
  8
ADP1DETAIL
100
AcDbCircle
 10
24.63082011737828
 20
10.78290757526627
 30
0.0
 40
0.7513279811732399
100
AcDbArc
 50
266.4904592099829
 51
322.534199801749
  0
LINE
  5
350
330
1E
100
AcDbEntity
  8
ADP1DETAIL
100
AcDbLine
 10
25.30856126059019
 20
10.03231178341463
 30
0.0
 11
24.58308431050067
 21
10.03212004493112
 31
0.0
  0
LINE
  5
351
330
1E
100
AcDbEntity
  8
ADP1DETAIL
100
AcDbLine
 10
25.21352932723248
 20
9.989028806381247
 30
0.0
 11
24.58360798964617
 21
9.988862322577757
 31
0.0
  0
ARC
  5
352
330
1E
100
AcDbEntity
  8
ADP1DETAIL
100
AcDbCircle
 10
24.55455784654946
 20
9.513891300667344
 30
0.0
 40
0.2649999999999998
100
AcDbArc
 50
0.0
 51
78.45730220113797
  0
ARC
  5
353
330
1E
100
AcDbEntity
  8
ADP1DETAIL
100
AcDbCircle
 10
24.83452538990224
 20
9.514877528826907
 30
0.0
 40
0.015
100
AcDbArc
 50
183.7698334967862
 51
270.0
  0
ARC
  5
354
330
1E
100
AcDbEntity
  8
ADP1DETAIL
100
AcDbCircle
 10
24.58360798964617
 20
9.879862322577753
 30
0.0
 40
0.1089999999999999
100
AcDbArc
 50
90.0
 51
282.7068037043093
  0
LINE
  5
355
330
1E
100
AcDbEntity
  8
ADP1DETAIL
100
AcDbLine
 10
24.58360798964617
 20
9.988862322577757
 30
0.0
 11
24.58308431050067
 21
10.03212004493112
 31
0.0
  0
LINE
  5
356
330
1E
100
AcDbEntity
  8
ADP1DETAIL
100
AcDbLine
 10
27.86949540262142
 20
10.03298862039575
 30
0.0
 11
27.1490701316237
 21
10.03279821703569
 31
0.0
  0
ARC
  5
357
330
1E
100
AcDbEntity
  8
ADP1DETAIL
100
AcDbCircle
 10
27.89854554571812
 20
9.513891300667344
 30
0.0
 40
0.2649999999999998
100
AcDbArc
 50
101.5426977988618
 51
180.0
  0
ARC
  5
358
330
1E
100
AcDbEntity
  8
ADP1DETAIL
100
AcDbCircle
 10
27.61857800236534
 20
9.514877528826907
 30
0.0
 40
0.015
100
AcDbArc
 50
270.0
 51
356.2301665032136
  0
ARC
  5
359
330
1E
100
AcDbEntity
  8
ADP1DETAIL
100
AcDbCircle
 10
27.82350305086826
 20
10.78290757526626
 30
0.0
 40
0.7513279811732399
100
AcDbArc
 50
217.4658001982511
 51
273.5095407900173
  0
LINE
  5
35A
330
1E
100
AcDbEntity
  8
ADP1DETAIL
100
AcDbLine
 10
27.87001908176692
 20
9.989730898042386
 30
0.0
 11
27.24080032734506
 21
9.989564599926707
 31
0.0
  0
ARC
  5
35B
330
1E
100
AcDbEntity
  8
ADP1DETAIL
100
AcDbCircle
 10
27.86949540262142
 20
9.879862322577753
 30
0.0
 40
0.1089999999999999
100
AcDbArc
 50
257.2931962956907
 51
90.0
  0
LINE
  5
35C
330
1E
100
AcDbEntity
  8
ADP1DETAIL
100
AcDbLine
 10
27.86949540262142
 20
9.988862322577757
 30
0.0
 11
27.87001908176692
 21
10.03212004493112
 31
0.0
  0
INSERT
  5
35D
330
1E
100
AcDbEntity
  8
0
 62
     7
100
AcDbBlockReference
  2
AI9-BLK1
 10
26.22743298830109
 20
9.910781972089017
 30
0.0
 41
0.0398152694002221
 42
0.0398152694002239
 43
0.0398152694002312
  0
DIMENSION
  5
35E
330
1E
100
AcDbEntity
  8
ADPDIM
  6
Continuous
 62
     3
100
AcDbDimension
  2
*D10
 10
26.99152437324917
 20
9.012967069357863
 30
0.0
 11
26.24152437324917
 21
9.012967069357863
 31
0.0
 70
    32
 71
     5
 42
1.5
  3
Standard
100
AcDbAlignedDimension
 13
25.49152437324917
 23
9.505659526548141
 33
0.0
 14
26.99152437324917
 24
9.505659526548141
 34
0.0
100
AcDbRotatedDimension
1001
ACAD
1000
DSTYLE
1002
{
1070
   140
1040
0.1
1070
   276
1070
     2
1070
   277
1070
     5
1070
   289
1070
     3
1002
}
  0
DIMENSION
  5
35F
330
1E
100
AcDbEntity
  8
ADPDIM
  6
Continuous
 62
     3
100
AcDbDimension
  2
*D11
 10
26.88046034019999
 20
9.412217855647403
 30
0.0
 11
26.22421034019999
 21
9.412217855647403
 31
0.0
 70
    32
 71
     5
 42
1.3125
  3
Standard
100
AcDbAlignedDimension
 13
25.56796034019999
 23
9.684048172322839
 33
0.0
 14
26.88046034019999
 24
9.684048172322839
 34
0.0
100
AcDbRotatedDimension
1001
ACAD
1000
DSTYLE
1002
{
1070
   140
1040
0.1
1070
   276
1070
     2
1070
   277
1070
     5
1070
   289
1070
     3
1002
}
  0
ENDSEC
  0
SECTION
  2
OBJECTS
  0
DICTIONARY
  5
C
330
0
100
AcDbDictionary
281
     1
  3
ACAD_COLOR
350
2F2
  3
ACAD_GROUP
350
D
  3
ACAD_LAYOUT
350
19
  3
ACAD_MATERIAL
350
2DD
  3
ACAD_MLINESTYLE
350
16
  3
ACAD_PLOTSETTINGS
350
18
  3
ACAD_PLOTSTYLENAME
350
E
  3
ACAD_TABLESTYLE
350
2F3
  3
ACAD_VISUALSTYLE
350
2E1
  3
AcDbVariableDictionary
350
1BF
  3
ASE_INDEX_DICTIONARY
350
38F
  3
DWGPROPS
350
3AE
  0
DICTIONARY
  5
18A
330
1E
100
AcDbDictionary
280
     1
281
     1
  3
ACAD_LAYOUTSELFREF
360
2D9
  0
DICTIONARY
  5
18C
330
1A
100
AcDbDictionary
280
     1
281
     1
  3
ACAD_LAYOUTSELFREF
360
2D8
  0
DICTIONARY
  5
2F2
102
{ACAD_REACTORS
330
C
102
}
330
C
100
AcDbDictionary
281
     1
  0
DICTIONARY
  5
D
102
{ACAD_REACTORS
330
C
102
}
330
C
100
AcDbDictionary
281
     1
  0
DICTIONARY
  5
19
102
{ACAD_REACTORS
330
C
102
}
330
C
100
AcDbDictionary
281
     1
  3
Layout1
350
1D
  3
Model
350
21
  0
DICTIONARY
  5
2DD
102
{ACAD_REACTORS
330
C
102
}
330
C
100
AcDbDictionary
281
     1
  3
ByBlock
350
2DF
  3
ByLayer
350
2DE
  3
Global
350
2E0
  0
DICTIONARY
  5
16
102
{ACAD_REACTORS
330
C
102
}
330
C
100
AcDbDictionary
281
     1
  3
Standard
350
17
  0
DICTIONARY
  5
18
102
{ACAD_REACTORS
330
C
102
}
330
C
100
AcDbDictionary
281
     1
  0
ACDBDICTIONARYWDFLT
  5
E
102
{ACAD_REACTORS
330
C
102
}
330
C
100
AcDbDictionary
281
     1
  3
Normal
350
F
100
AcDbDictionaryWithDefault
340
F
  0
DICTIONARY
  5
2F3
102
{ACAD_REACTORS
330
C
102
}
330
C
100
AcDbDictionary
281
     1
  3
Standard
350
2F4
  0
DICTIONARY
  5
2E1
102
{ACAD_REACTORS
330
C
102
}
330
C
100
AcDbDictionary
281
     1
  3
2dWireframe
350
2E7
  3
3D Hidden
350
2E9
  3
3dWireframe
350
2E8
  3
Basic
350
2E6
  3
Brighten
350
2ED
  3
ColorChange
350
2F1
  3
Conceptual
350
2EA
  3
Dim
350
2EC
  3
Facepattern
350
2F0
  3
Flat
350
2E2
  3
FlatWithEdges
350
2E3
  3
Gouraud
350
2E4
  3
GouraudWithEdges
350
2E5
  3
Linepattern
350
2EF
  3
Realistic
350
2EB
  3
Thicken
350
2EE
  0
DICTIONARY
  5
1BF
102
{ACAD_REACTORS
330
C
102
}
330
C
100
AcDbDictionary
281
     1
  3
CTABLESTYLE
350
3AB
  3
DIMASSOC
350
1C1
  3
HIDETEXT
350
1C0
  3
INDEXCTL
350
3AD
  3
SORTENTS
350
3AC
  0
DICTIONARY
  5
38F
102
{ACAD_REACTORS
330
C
102
}
330
C
100
AcDbDictionary
281
     1
  3
ASEBlockHierarchyIndexRecord
350
390
1001
DCO15
1040
1569086648.0
  0
XRECORD
  5
3AE
102
{ACAD_REACTORS
330
C
102
}
330
C
100
AcDbXrecord
280
     1
  1
DWGPROPS COOKIE
  2

  3

  4

  6

  7

  8
Yu Hu
  9

300
=
301
=
302
=
303
=
304
=
305
=
306
=
307
=
308
=
309
=
 40
0.0390968055555556
 41
2450406.633340463
 42
2453963.936944445
  1

 90
        0
  0
XRECORD
  5
2D9
102
{ACAD_REACTORS
330
18A
102
}
330
18A
100
AcDbXrecord
280
     1
340
1E
  0
XRECORD
  5
2D8
102
{ACAD_REACTORS
330
18C
102
}
330
18C
100
AcDbXrecord
280
     1
340
1A
  0
LAYOUT
  5
1D
102
{ACAD_XDICTIONARY
360
3AF
102
}
102
{ACAD_REACTORS
330
19
102
}
330
19
100
AcDbPlotSettings
  1

  2
Fax
  4

  6

 40
0.0
 41
0.0
 42
0.0
 43
0.0
 44
0.0
 45
0.0
 46
0.0
 47
0.0
 48
0.0
 49
0.0
140
0.0
141
0.0
142
1.0
143
1.0
 70
   688
 72
     0
 73
     0
 74
     5
  7
Default R14 pen assignments.ctb
 75
    16
147
1.0
148
0.0
149
0.0
100
AcDbLayout
  1
Layout1
 70
     1
 71
     1
 10
0.0
 20
0.0
 11
12.0
 21
9.0
 12
0.0008545028977096
 22
1.250283272183907
 32
0.0
 14
1.000000000000000E+20
 24
1.000000000000000E+20
 34
1.000000000000000E+20
 15
-1.000000000000000E+20
 25
-1.000000000000000E+20
 35
-1.000000000000000E+20
146
0.0
 13
0.0
 23
0.0
 33
0.0
 16
1.0
 26
0.0
 36
0.0
 17
0.0
 27
1.0
 37
0.0
 76
     0
330
1A
  0
LAYOUT
  5
21
102
{ACAD_XDICTIONARY
360
3B1
102
}
102
{ACAD_REACTORS
330
19
102
}
330
19
100
AcDbPlotSettings
  1

  2
Fax
  4

  6

 40
0.0
 41
0.0
 42
0.0
 43
0.0
 44
0.0
 45
0.0
 46
0.0
 47
0.0
 48
0.0
 49
0.0
140
0.0
141
0.0
142
1.0
143
1.0
 70
  1712
 72
     0
 73
     0
 74
     0
  7
Default R14 pen assignments.ctb
 75
     0
147
1.0
148
0.0
149
0.0
100
AcDbLayout
  1
Model
 70
     1
 71
     0
 10
0.0
 20
0.0
 11
12.0
 21
9.0
 12
0.0
 22
0.0
 32
0.0
 14
0.0
 24
0.0
 34
0.0
 15
0.0
 25
0.0
 35
0.0
146
0.0
 13
0.0
 23
0.0
 33
0.0
 16
1.0
 26
0.0
 36
0.0
 17
0.0
 27
1.0
 37
0.0
 76
     0
330
1E
331
2A6
  0
MATERIAL
  5
2DF
102
{ACAD_XDICTIONARY
360
3B5
102
}
102
{ACAD_REACTORS
330
2DD
102
}
330
2DD
100
AcDbMaterial
  1
ByBlock
  0
MATERIAL
  5
2DE
102
{ACAD_XDICTIONARY
360
3B3
102
}
102
{ACAD_REACTORS
330
2DD
102
}
330
2DD
100
AcDbMaterial
  1
ByLayer
  0
MATERIAL
  5
2E0
102
{ACAD_XDICTIONARY
360
3B7
102
}
102
{ACAD_REACTORS
330
2DD
102
}
330
2DD
100
AcDbMaterial
  1
Global
  0
MLINESTYLE
  5
17
102
{ACAD_REACTORS
330
16
102
}
330
16
100
AcDbMlineStyle
  2
STANDARD
 70
     0
  3

 62
   256
 51
90.0
 52
90.0
 71
     2
 49
0.5
 62
   256
  6
BYLAYER
 49
-0.5
 62
   256
  6
BYLAYER
  0
ACDBPLACEHOLDER
  5
F
102
{ACAD_REACTORS
330
E
102
}
330
E
  0
TABLESTYLE
  5
2F4
102
{ACAD_XDICTIONARY
360
3B9
102
}
102
{ACAD_REACTORS
330
2F3
102
}
330
2F3
100
AcDbTableStyle
  3
Standard
 70
     0
 71
     0
 40
0.06
 41
0.06
280
     0
281
     0
  7
STANDARD
140
0.18
170
     2
 62
     0
 63
     7
283
     0
274
    -2
284
     1
 64
     0
275
    -2
285
     1
 65
     0
276
    -2
286
     1
 66
     0
277
    -2
287
     1
 67
     0
278
    -2
288
     1
 68
     0
279
    -2
289
     1
 69
     0
  7
STANDARD
140
0.25
170
     5
 62
     0
 63
     7
283
     0
274
    -2
284
     1
 64
     0
275
    -2
285
     1
 65
     0
276
    -2
286
     1
 66
     0
277
    -2
287
     1
 67
     0
278
    -2
288
     1
 68
     0
279
    -2
289
     1
 69
     0
  7
STANDARD
140
0.18
170
     5
 62
     0
 63
     7
283
     0
274
    -2
284
     1
 64
     0
275
    -2
285
     1
 65
     0
276
    -2
286
     1
 66
     0
277
    -2
287
     1
 67
     0
278
    -2
288
     1
 68
     0
279
    -2
289
     1
 69
     0
  0
VISUALSTYLE
  5
2E7
102
{ACAD_REACTORS
330
2E1
102
}
330
2E1
100
AcDbVisualStyle
  2
2dWireframe
 70
     4
 71
     0
 72
     2
 73
     0
 90
        0
 40
-0.6
 41
-30.0
 62
     5
 63
     7
 74
     1
 91
        4
 64
     7
 65
   257
 75
     1
175
     1
 42
1.0
 92
        0
 66
   257
 43
1.0
 76
     1
 77
     6
 78
     2
 67
     7
 79
     5
170
     0
171
     0
290
     0
174
     0
 93
        1
 44
0.0
173
     0
291
     0
 45
0.0
1001
ACAD
1000
AcDbSavedByObjectVersion
1070
     0
  0
VISUALSTYLE
  5
2E9
102
{ACAD_REACTORS
330
2E1
102
}
330
2E1
100
AcDbVisualStyle
  2
3D Hidden
 70
     6
 71
     1
 72
     2
 73
     2
 90
        0
 40
-0.6
 41
-30.0
 62
     5
 63
     7
 74
     2
 91
        2
 64
     7
 65
   257
 75
     2
175
     1
 42
40.0
 92
        0
 66
   257
 43
1.0
 76
     1
 77
     6
 78
     2
 67
     7
 79
     3
170
     0
171
     0
290
     0
174
     0
 93
        1
 44
0.0
173
     0
291
     0
 45
0.0
1001
ACAD
1000
AcDbSavedByObjectVersion
1070
     0
  0
VISUALSTYLE
  5
2E8
102
{ACAD_REACTORS
330
2E1
102
}
330
2E1
100
AcDbVisualStyle
  2
3dWireframe
 70
     5
 71
     0
 72
     2
 73
     0
 90
        0
 40
-0.6
 41
-30.0
 62
     5
 63
     7
 74
     1
 91
        4
 64
     7
 65
   257
 75
     1
175
     1
 42
1.0
 92
        0
 66
   257
 43
1.0
 76
     1
 77
     6
 78
     2
 67
     7
 79
     5
170
     0
171
     0
290
     0
174
     0
 93
        1
 44
0.0
173
     0
291
     0
 45
0.0
1001
ACAD
1000
AcDbSavedByObjectVersion
1070
     0
  0
VISUALSTYLE
  5
2E6
102
{ACAD_REACTORS
330
2E1
102
}
330
2E1
100
AcDbVisualStyle
  2
Basic
 70
     7
 71
     1
 72
     0
 73
     1
 90
        0
 40
-0.6
 41
-30.0
 62
     5
 63
     7
 74
     0
 91
        4
 64
     7
 65
   257
 75
     1
175
     1
 42
1.0
 92
        8
 66
     7
 43
1.0
 76
     1
 77
     6
 78
     2
 67
     7
 79
     5
170
     0
171
     0
290
     0
174
     0
 93
        1
 44
0.0
173
     0
291
     1
 45
0.0
1001
ACAD
1000
AcDbSavedByObjectVersion
1070
     0
  0
VISUALSTYLE
  5
2ED
102
{ACAD_REACTORS
330
2E1
102
}
330
2E1
100
AcDbVisualStyle
  2
Brighten
 70
    12
 71
     2
 72
     2
 73
     0
 90
        0
 40
-0.6
 41
-30.0
 62
     5
 63
     7
 74
     1
 91
        4
 64
     7
 65
   257
 75
     1
175
     1
 42
1.0
 92
        8
 66
     7
 43
1.0
 76
     1
 77
     6
 78
     2
 67
     7
 79
     5
170
     0
171
     0
290
     0
174
     0
 93
        1
 44
50.0
173
     0
291
     1
 45
0.0
1001
ACAD
1000
AcDbSavedByObjectVersion
1070
     0
  0
VISUALSTYLE
  5
2F1
102
{ACAD_REACTORS
330
2E1
102
}
330
2E1
100
AcDbVisualStyle
  2
ColorChange
 70
    16
 71
     2
 72
     2
 73
     3
 90
        0
 40
-0.6
 41
-30.0
 62
     5
 63
     8
 74
     1
 91
        4
 64
     7
 65
   257
 75
     1
175
     1
 42
1.0
 92
        8
 66
     8
 43
1.0
 76
     1
 77
     6
 78
     2
 67
     7
 79
     5
170
     0
171
     0
290
     0
174
     0
 93
        1
 44
0.0
173
     0
291
     1
 45
0.0
1001
ACAD
1000
AcDbSavedByObjectVersion
1070
     0
  0
VISUALSTYLE
  5
2EA
102
{ACAD_REACTORS
330
2E1
102
}
330
2E1
100
AcDbVisualStyle
  2
Conceptual
 70
     9
 71
     3
 72
     2
 73
     0
 90
        0
 40
-0.6
 41
-30.0
 62
     5
 63
     7
 74
     2
 91
        2
 64
     7
 65
   257
 75
     1
175
     1
 42
40.0
 92
        8
 66
     7
 43
1.0
 76
     1
 77
     6
 78
     2
 67
     7
 79
     3
170
     0
171
     0
290
     0
174
     0
 93
        1
 44
0.0
173
     0
291
     0
 45
0.0
1001
ACAD
1000
AcDbSavedByObjectVersion
1070
     0
  0
VISUALSTYLE
  5
2EC
102
{ACAD_REACTORS
330
2E1
102
}
330
2E1
100
AcDbVisualStyle
  2
Dim
 70
    11
 71
     2
 72
     2
 73
     0
 90
        0
 40
-0.6
 41
-30.0
 62
     5
 63
     7
 74
     1
 91
        4
 64
     7
 65
   257
 75
     1
175
     1
 42
1.0
 92
        8
 66
     7
 43
1.0
 76
     1
 77
     6
 78
     2
 67
     7
 79
     5
170
     0
171
     0
290
     0
174
     0
 93
        1
 44
-50.0
173
     0
291
     1
 45
0.0
1001
ACAD
1000
AcDbSavedByObjectVersion
1070
     0
  0
VISUALSTYLE
  5
2F0
102
{ACAD_REACTORS
330
2E1
102
}
330
2E1
100
AcDbVisualStyle
  2
Facepattern
 70
    15
 71
     2
 72
     2
 73
     0
 90
        0
 40
-0.6
 41
-30.0
 62
     5
 63
     7
 74
     1
 91
        4
 64
     7
 65
   257
 75
     1
175
     1
 42
1.0
 92
        8
 66
     7
 43
1.0
 76
     1
 77
     6
 78
     2
 67
     7
 79
     5
170
     0
171
     0
290
     0
174
     0
 93
        1
 44
0.0
173
     0
291
     1
 45
0.0
1001
ACAD
1000
AcDbSavedByObjectVersion
1070
     0
  0
VISUALSTYLE
  5
2E2
102
{ACAD_REACTORS
330
2E1
102
}
330
2E1
100
AcDbVisualStyle
  2
Flat
 70
     0
 71
     2
 72
     1
 73
     1
 90
        2
 40
-0.6
 41
30.0
 62
     5
 63
     7
 74
     0
 91
        4
 64
     7
 65
   257
 75
     1
175
     1
 42
1.0
 92
        8
 66
     7
 43
1.0
 76
     1
 77
     6
 78
     2
 67
     7
 79
     5
170
     0
171
     0
290
     0
174
     0
 93
       13
 44
0.0
173
     0
291
     1
 45
0.0
1001
ACAD
1000
AcDbSavedByObjectVersion
1070
     0
  0
VISUALSTYLE
  5
2E3
102
{ACAD_REACTORS
330
2E1
102
}
330
2E1
100
AcDbVisualStyle
  2
FlatWithEdges
 70
     1
 71
     2
 72
     1
 73
     1
 90
        2
 40
-0.6
 41
30.0
 62
     5
 63
     7
 74
     1
 91
        4
 64
     7
 65
   257
 75
     1
175
     1
 42
1.0
 92
        0
 66
   257
 43
1.0
 76
     1
 77
     6
 78
     2
 67
     7
 79
     5
170
     0
171
     0
290
     0
174
     0
 93
       13
 44
0.0
173
     0
291
     1
 45
0.0
1001
ACAD
1000
AcDbSavedByObjectVersion
1070
     0
  0
VISUALSTYLE
  5
2E4
102
{ACAD_REACTORS
330
2E1
102
}
330
2E1
100
AcDbVisualStyle
  2
Gouraud
 70
     2
 71
     2
 72
     2
 73
     1
 90
        2
 40
-0.6
 41
30.0
 62
     5
 63
     7
 74
     0
 91
        4
 64
     7
 65
   257
 75
     1
175
     1
 42
1.0
 92
        0
 66
     7
 43
1.0
 76
     1
 77
     6
 78
     2
 67
     7
 79
     5
170
     0
171
     0
290
     0
174
     0
 93
       13
 44
0.0
173
     0
291
     1
 45
0.0
1001
ACAD
1000
AcDbSavedByObjectVersion
1070
     0
  0
VISUALSTYLE
  5
2E5
102
{ACAD_REACTORS
330
2E1
102
}
330
2E1
100
AcDbVisualStyle
  2
GouraudWithEdges
 70
     3
 71
     2
 72
     2
 73
     1
 90
        2
 40
-0.6
 41
30.0
 62
     5
 63
     7
 74
     1
 91
        4
 64
     7
 65
   257
 75
     1
175
     1
 42
1.0
 92
        0
 66
   257
 43
1.0
 76
     1
 77
     6
 78
     2
 67
     7
 79
     5
170
     0
171
     0
290
     0
174
     0
 93
       13
 44
0.0
173
     0
291
     1
 45
0.0
1001
ACAD
1000
AcDbSavedByObjectVersion
1070
     0
  0
VISUALSTYLE
  5
2EF
102
{ACAD_REACTORS
330
2E1
102
}
330
2E1
100
AcDbVisualStyle
  2
Linepattern
 70
    14
 71
     2
 72
     2
 73
     0
 90
        0
 40
-0.6
 41
-30.0
 62
     5
 63
     7
 74
     1
 91
        4
 64
     7
 65
   257
 75
     7
175
     7
 42
1.0
 92
        8
 66
     7
 43
1.0
 76
     1
 77
     6
 78
     2
 67
     7
 79
     5
170
     0
171
     0
290
     0
174
     0
 93
        1
 44
0.0
173
     0
291
     1
 45
0.0
1001
ACAD
1000
AcDbSavedByObjectVersion
1070
     0
  0
VISUALSTYLE
  5
2EB
102
{ACAD_REACTORS
330
2E1
102
}
330
2E1
100
AcDbVisualStyle
  2
Realistic
 70
     8
 71
     2
 72
     2
 73
     0
 90
        0
 40
-0.6
 41
-30.0
 62
     5
 63
     7
 74
     1
 91
        0
 64
     7
 65
   257
 75
     1
175
     1
 42
1.0
 92
        8
 66
     8
 43
1.0
 76
     1
 77
     6
 78
     2
 67
     7
 79
     5
170
     0
171
     0
290
     0
174
     0
 93
       13
 44
0.0
173
     0
291
     0
 45
0.0
1001
ACAD
1000
AcDbSavedByObjectVersion
1070
     0
  0
VISUALSTYLE
  5
2EE
102
{ACAD_REACTORS
330
2E1
102
}
330
2E1
100
AcDbVisualStyle
  2
Thicken
 70
    13
 71
     2
 72
     2
 73
     0
 90
        0
 40
-0.6
 41
-30.0
 62
     5
 63
     7
 74
     1
 91
        4
 64
     7
 65
   257
 75
     1
175
     1
 42
1.0
 92
       12
 66
     7
 43
1.0
 76
     1
 77
     6
 78
     2
 67
     7
 79
     5
170
     0
171
     0
290
     0
174
     0
 93
        1
 44
0.0
173
     0
291
     1
 45
0.0
1001
ACAD
1000
AcDbSavedByObjectVersion
1070
     0
  0
DICTIONARYVAR
  5
3AB
102
{ACAD_REACTORS
330
1BF
102
}
330
1BF
100
DictionaryVariables
280
     0
  1
STANDARD
  0
DICTIONARYVAR
  5
1C1
102
{ACAD_REACTORS
330
1BF
102
}
330
1BF
100
DictionaryVariables
280
     0
  1
2
  0
DICTIONARYVAR
  5
1C0
102
{ACAD_REACTORS
330
1BF
102
}
330
1BF
100
DictionaryVariables
280
     0
  1
1
  0
DICTIONARYVAR
  5
3AD
102
{ACAD_REACTORS
330
1BF
102
}
330
1BF
100
DictionaryVariables
280
     0
  1
0
  0
DICTIONARYVAR
  5
3AC
102
{ACAD_REACTORS
330
1BF
102
}
330
1BF
100
DictionaryVariables
280
     0
  1
127
  0
XRECORD
  5
390
102
{ACAD_REACTORS
330
38F
102
}
330
38F
100
AcDbXrecord
280
     1
330
35D
  0
DICTIONARY
  5
3AF
330
1D
100
AcDbDictionary
280
     1
281
     1
  3
ACAD_XREC_ROUNDTRIP
360
3B0
  0
DICTIONARY
  5
3B1
330
21
100
AcDbDictionary
280
     1
281
     1
  3
ACAD_XREC_ROUNDTRIP
360
3B2
  0
DICTIONARY
  5
3B5
330
2DF
100
AcDbDictionary
280
     1
281
     1
  3
ACAD_XREC_ROUNDTRIP
360
3B6
  0
DICTIONARY
  5
3B3
330
2DE
100
AcDbDictionary
280
     1
281
     1
  3
ACAD_XREC_ROUNDTRIP
360
3B4
  0
DICTIONARY
  5
3B7
330
2E0
100
AcDbDictionary
280
     1
281
     1
  3
ACAD_XREC_ROUNDTRIP
360
3B8
  0
DICTIONARY
  5
3B9
330
2F4
100
AcDbDictionary
280
     1
281
     1
  3
ACAD_XREC_ROUNDTRIP
360
3BA
  0
XRECORD
  5
3B0
102
{ACAD_REACTORS
330
3AF
102
}
330
3AF
100
AcDbXrecord
280
     1
102
SHADEPLOT
 70
     0
102
SHADEPLOTRESLEVEL
 70
     2
102
SHADEPLOTCUSTOMDPI
 70
   300
  0
XRECORD
  5
3B2
102
{ACAD_REACTORS
330
3B1
102
}
330
3B1
100
AcDbXrecord
280
     1
102
SHADEPLOT
 70
     0
102
SHADEPLOTRESLEVEL
 70
     2
102
SHADEPLOTCUSTOMDPI
 70
   300
  0
XRECORD
  5
3B6
102
{ACAD_REACTORS
330
3B5
102
}
330
3B5
100
AcDbXrecord
280
     1
102
MATERIAL
148
0.0
149
0.0
149
0.0
 93
        0
 94
       63
282
     0
 72
     1
 77
     1
171
     1
175
     1
179
     1
273
     0
  0
XRECORD
  5
3B4
102
{ACAD_REACTORS
330
3B3
102
}
330
3B3
100
AcDbXrecord
280
     1
102
MATERIAL
148
0.0
149
0.0
149
0.0
 93
        0
 94
       63
282
     0
 72
     1
 77
     1
171
     1
175
     1
179
     1
273
     0
  0
XRECORD
  5
3B8
102
{ACAD_REACTORS
330
3B7
102
}
330
3B7
100
AcDbXrecord
280
     1
102
MATERIAL
148
0.0
149
0.0
149
0.0
 93
        0
 94
       63
282
     0
 72
     1
 77
     1
171
     1
175
     1
179
     1
273
     0
  0
XRECORD
  5
3BA
102
{ACAD_REACTORS
330
3B9
102
}
330
3B9
100
AcDbXrecord
280
     1
102
ACAD_ROUNDTRIP_PRE2007_TABLESTYLE
 90
      512
 91
        0
  1

 92
      512
 93
        0
  2

 94
      512
 95
        0
  3

  0
ENDSEC
  0
EOF
