  0
SECTION
  2
HEADER
  9
$ACADVER
  1
AC1014
  9
$ACADMAINTVER
 70
     9
  9
$DWGCODEPAGE
  3
ANSI_1252
  9
$INSBASE
 10
23.81912655418451
 20
-6.169145408484089
 30
0.0
  9
$EXTMIN
 10
18.49441901666746
 20
-7.106227549036935
 30
0.0
  9
$EXTMAX
 10
31.36383409170157
 20
-1.839367499487225
 30
0.0
  9
$LIMMIN
 10
0.0
 20
0.0
  9
$LIMMAX
 10
36.0
 20
36.0
  9
$ORTHOMODE
 70
     1
  9
$REGENMODE
 70
     1
  9
$FILLMODE
 70
     1
  9
$QTEXTMODE
 70
     0
  9
$MIRRTEXT
 70
     1
  9
$DRAGMODE
 70
     0
  9
$LTSCALE
 40
1.0
  9
$OSMODE
 70
    37
  9
$ATTMODE
 70
     1
  9
$TEXTSIZE
 40
0.2
  9
$TRACEWID
 40
0.05
  9
$TEXTSTYLE
  7
STANDARD
  9
$CLAYER
  8
ADPDIM
  9
$CELTYPE
  6
BYLAYER
  9
$CECOLOR
 62
   256
  9
$CELTSCALE
 40
1.0
  9
$DELOBJ
 70
     1
  9
$DISPSILH
 70
     0
  9
$DIMSCALE
 40
1.0
  9
$DIMASZ
 40
0.125
  9
$DIMEXO
 40
0.0625
  9
$DIMDLI
 40
0.38
  9
$DIMRND
 40
0.0
  9
$DIMDLE
 40
0.0
  9
$DIMEXE
 40
0.18
  9
$DIMTP
 40
0.0
  9
$DIMTM
 40
0.0
  9
$DIMTXT
 40
0.125
  9
$DIMCEN
 40
0.1875
  9
$DIMTSZ
 40
0.125
  9
$DIMTOL
 70
     0
  9
$DIMLIM
 70
     0
  9
$DIMTIH
 70
     0
  9
$DIMTOH
 70
     0
  9
$DIMSE1
 70
     0
  9
$DIMSE2
 70
     0
  9
$DIMTAD
 70
     0
  9
$DIMZIN
 70
     3
  9
$DIMBLK
  1

  9
$DIMASO
 70
     1
  9
$DIMSHO
 70
     1
  9
$DIMPOST
  1

  9
$DIMAPOST
  1

  9
$DIMALT
 70
     0
  9
$DIMALTD
 70
     1
  9
$DIMALTF
 40
25.4
  9
$DIMLFAC
 40
1.0
  9
$DIMTOFL
 70
     0
  9
$DIMTVP
 40
0.0
  9
$DIMTIX
 70
     0
  9
$DIMSOXD
 70
     0
  9
$DIMSAH
 70
     0
  9
$DIMBLK1
  1

  9
$DIMBLK2
  1

  9
$DIMSTYLE
  2
STANDARD
  9
$DIMCLRD
 70
     0
  9
$DIMCLRE
 70
     0
  9
$DIMCLRT
 70
     0
  9
$DIMTFAC
 40
1.0
  9
$DIMGAP
 40
0.125
  9
$DIMJUST
 70
     0
  9
$DIMSD1
 70
     0
  9
$DIMSD2
 70
     0
  9
$DIMTOLJ
 70
     1
  9
$DIMTZIN
 70
     0
  9
$DIMALTZ
 70
     0
  9
$DIMALTTZ
 70
     0
  9
$DIMFIT
 70
     3
  9
$DIMUPT
 70
     0
  9
$DIMUNIT
 70
     2
  9
$DIMDEC
 70
     4
  9
$DIMTDEC
 70
     4
  9
$DIMALTU
 70
     2
  9
$DIMALTTD
 70
     2
  9
$DIMTXSTY
  7
STANDARD
  9
$DIMAUNIT
 70
     0
  9
$LUNITS
 70
     5
  9
$LUPREC
 70
     5
  9
$SKETCHINC
 40
0.1
  9
$FILLETRAD
 40
0.015
  9
$AUNITS
 70
     0
  9
$AUPREC
 70
     0
  9
$MENU
  1
acad
  9
$ELEVATION
 40
0.0
  9
$PELEVATION
 40
0.0
  9
$THICKNESS
 40
0.0
  9
$LIMCHECK
 70
     0
  9
$BLIPMODE
 70
     0
  9
$CHAMFERA
 40
0.0
  9
$CHAMFERB
 40
0.0
  9
$CHAMFERC
 40
0.0
  9
$CHAMFERD
 40
0.0
  9
$SKPOLY
 70
     0
  9
$TDCREATE
 40
2450218.579202350
  9
$TDUPDATE
 40
2452297.071044016
  9
$TDINDWG
 40
0.0246204630
  9
$TDUSRTIMER
 40
0.0246204630
  9
$USRTIMER
 70
     1
  9
$ANGBASE
 50
0.0
  9
$ANGDIR
 70
     0
  9
$PDMODE
 70
     0
  9
$PDSIZE
 40
0.0
  9
$PLINEWID
 40
0.0
  9
$COORDS
 70
     2
  9
$SPLFRAME
 70
     0
  9
$SPLINETYPE
 70
     6
  9
$SPLINESEGS
 70
     8
  9
$ATTDIA
 70
     0
  9
$ATTREQ
 70
     1
  9
$HANDLING
 70
 22529
  9
$HANDSEED
  5
210
  9
$SURFTAB1
 70
     6
  9
$SURFTAB2
 70
     6
  9
$SURFTYPE
 70
     6
  9
$SURFU
 70
     6
  9
$SURFV
 70
     6
  9
$UCSNAME
  2

  9
$UCSORG
 10
0.0
 20
0.0
 30
0.0
  9
$UCSXDIR
 10
1.0
 20
0.0
 30
0.0
  9
$UCSYDIR
 10
0.0
 20
1.0
 30
0.0
  9
$PUCSNAME
  2

  9
$PUCSORG
 10
0.0
 20
0.0
 30
0.0
  9
$PUCSXDIR
 10
1.0
 20
0.0
 30
0.0
  9
$PUCSYDIR
 10
0.0
 20
1.0
 30
0.0
  9
$USERI1
 70
     0
  9
$USERI2
 70
     0
  9
$USERI3
 70
     0
  9
$USERI4
 70
     0
  9
$USERI5
 70
     0
  9
$USERR1
 40
0.0
  9
$USERR2
 40
0.0
  9
$USERR3
 40
0.0
  9
$USERR4
 40
0.0
  9
$USERR5
 40
0.0
  9
$WORLDVIEW
 70
     1
  9
$SHADEDGE
 70
     3
  9
$SHADEDIF
 70
    70
  9
$TILEMODE
 70
     1
  9
$MAXACTVP
 70
    15
  9
$PINSBASE
 10
0.0004882947541773
 20
0.7501380653138911
 30
0.0
  9
$PLIMCHECK
 70
     0
  9
$PEXTMIN
 10
1.000000000000000E+20
 20
1.000000000000000E+20
 30
1.000000000000000E+20
  9
$PEXTMAX
 10
-1.000000000000000E+20
 20
-1.000000000000000E+20
 30
-1.000000000000000E+20
  9
$PLIMMIN
 10
0.0
 20
0.0
  9
$PLIMMAX
 10
12.0
 20
9.0
  9
$UNITMODE
 70
     0
  9
$VISRETAIN
 70
     0
  9
$PLINEGEN
 70
     0
  9
$PSLTSCALE
 70
     1
  9
$TREEDEPTH
 70
  3020
  9
$PICKSTYLE
 70
     1
  9
$CMLSTYLE
  2
STANDARD
  9
$CMLJUST
 70
     0
  9
$CMLSCALE
 40
1.0
  9
$PROXYGRAPHICS
 70
     1
  9
$MEASUREMENT
 70
     0
  0
ENDSEC
  0
SECTION
  2
CLASSES
  0
CLASS
  1
ACDBDICTIONARYWDFLT
  2
AcDbDictionaryWithDefault
  3
AutoCAD 2000
 90
        0
280
     0
281
     0
  0
CLASS
  1
ACDBPLACEHOLDER
  2
AcDbPlaceHolder
  3
AutoCAD 2000
 90
        0
280
     0
281
     0
  0
CLASS
  1
LAYOUT
  2
AcDbLayout
  3
AutoCAD 2000
 90
        0
280
     0
281
     0
  0
CLASS
  1
DICTIONARYVAR
  2
AcDbDictionaryVar
  3
AutoCAD 2000
 90
        0
280
     0
281
     0
  0
CLASS
  1
LONG_TRANSACTION
  2
AcDbLongTransaction
  3
AutoCAD 2000
 90
        0
280
     0
281
     0
  0
CLASS
  1
LWPOLYLINE
  2
AcDbPolyline
  3
AutoCAD 2000
 90
        0
280
     0
281
     1
  0
CLASS
  1
HATCH
  2
AcDbHatch
  3
AutoCAD 2000
 90
        0
280
     0
281
     1
  0
CLASS
  1
XRECORD
  2
AcDbXrecord
  3
AutoCAD 2000
 90
        0
280
     0
281
     0
  0
CLASS
  1
LONG_TRANSACTION
  2
AcDbLongTransaction
  3
AutoCAD 2000
 90
        0
280
     0
281
     0
  0
CLASS
  1
LWPOLYLINE
  2
AcDbPolyline
  3
AutoCAD 2000
 90
        0
280
     0
281
     1
  0
CLASS
  1
HATCH
  2
AcDbHatch
  3
AutoCAD 2000
 90
        0
280
     0
281
     1
  0
CLASS
  1
XRECORD
  2
AcDbXrecord
  3
AutoCAD 2000
 90
        0
280
     0
281
     0
  0
CLASS
  1
LONG_TRANSACTION
  2
AcDbLongTransaction
  3
AutoCAD 2000
 90
        0
280
     0
281
     0
  0
CLASS
  1
LWPOLYLINE
  2
AcDbPolyline
  3
AutoCAD 2000
 90
        0
280
     0
281
     1
  0
CLASS
  1
HATCH
  2
AcDbHatch
  3
AutoCAD 2000
 90
        0
280
     0
281
     1
  0
CLASS
  1
XRECORD
  2
AcDbXrecord
  3
AutoCAD 2000
 90
        0
280
     0
281
     0
  0
CLASS
  1
LONG_TRANSACTION
  2
AcDbLongTransaction
  3
AutoCAD 2000
 90
        0
280
     0
281
     0
  0
CLASS
  1
LWPOLYLINE
  2
AcDbPolyline
  3
AutoCAD 2000
 90
        0
280
     0
281
     1
  0
CLASS
  1
HATCH
  2
AcDbHatch
  3
AutoCAD 2000
 90
        0
280
     0
281
     1
  0
CLASS
  1
XRECORD
  2
AcDbXrecord
  3
AutoCAD 2000
 90
        0
280
     0
281
     0
  0
CLASS
  1
LONG_TRANSACTION
  2
AcDbLongTransaction
  3
AutoCAD 2000
 90
        0
280
     0
281
     0
  0
CLASS
  1
LWPOLYLINE
  2
AcDbPolyline
  3
AutoCAD 2000
 90
        0
280
     0
281
     1
  0
CLASS
  1
HATCH
  2
AcDbHatch
  3
AutoCAD 2000
 90
        0
280
     0
281
     1
  0
CLASS
  1
XRECORD
  2
AcDbXrecord
  3
AutoCAD 2000
 90
        0
280
     0
281
     0
  0
ENDSEC
  0
SECTION
  2
TABLES
  0
TABLE
  2
VPORT
  5
8
330
0
100
AcDbSymbolTable
 70
     2
  0
VPORT
  5
1ED
330
8
100
AcDbSymbolTableRecord
100
AcDbViewportTableRecord
  2
*ACTIVE
 70
     0
 10
0.0
 20
0.0
 11
1.0
 21
1.0
 12
24.94001405213293
 22
-4.472544381102961
 13
0.0
 23
0.0
 14
0.5740882589684922
 24
0.5740882589684922
 15
0.5
 25
0.5
 16
0.0
 26
0.0
 36
1.0
 17
0.0
 27
0.0
 37
0.0
 40
8.247671349982962
 41
1.570528967254408
 42
50.0
 43
0.0
 44
0.0
 50
0.0
 51
0.0
 71
     0
 72
   100
 73
     1
 74
     0
 75
     0
 76
     0
 77
     0
 78
     0
  0
ENDTAB
  0
TABLE
  2
LTYPE
  5
5
330
0
100
AcDbSymbolTable
 70
     2
  0
LTYPE
  5
12
330
5
100
AcDbSymbolTableRecord
100
AcDbLinetypeTableRecord
  2
BYBLOCK
 70
     0
  3

 72
    65
 73
     0
 40
0.0
  0
LTYPE
  5
13
330
5
100
AcDbSymbolTableRecord
100
AcDbLinetypeTableRecord
  2
BYLAYER
 70
     0
  3

 72
    65
 73
     0
 40
0.0
  0
LTYPE
  5
14
330
5
100
AcDbSymbolTableRecord
100
AcDbLinetypeTableRecord
  2
CONTINUOUS
 70
     0
  3
Solid line
 72
    65
 73
     0
 40
0.0
  0
LTYPE
  5
32
330
5
100
AcDbSymbolTableRecord
100
AcDbLinetypeTableRecord
  2
HIDDEN2
 70
     0
  3
_ _ _ _ _ _ _ _ _ _ _ _ _ _ _ _ _ _ _ _ _ _ _ _
 72
    65
 73
     2
 40
0.1875
 49
0.125
 74
     0
 49
-0.0625
 74
     0
  0
ENDTAB
  0
TABLE
  2
LAYER
  5
2
330
0
100
AcDbSymbolTable
 70
     5
  0
LAYER
  5
F
330
2
100
AcDbSymbolTableRecord
100
AcDbLayerTableRecord
  2
0
 70
     0
 62
     7
  6
CONTINUOUS
  0
LAYER
  5
33
330
2
100
AcDbSymbolTableRecord
100
AcDbLayerTableRecord
  2
ADPDIM
 70
     0
 62
     3
  6
CONTINUOUS
  0
LAYER
  5
34
330
2
100
AcDbSymbolTableRecord
100
AcDbLayerTableRecord
  2
ADP1DETAIL
 70
     0
 62
     7
  6
CONTINUOUS
  0
LAYER
  5
35
330
2
100
AcDbSymbolTableRecord
100
AcDbLayerTableRecord
  2
DEFPOINTS
 70
     0
 62
     7
  6
CONTINUOUS
  0
LAYER
  5
36
330
2
100
AcDbSymbolTableRecord
100
AcDbLayerTableRecord
  2
ADP2DETAIL
 70
     0
 62
     5
  6
CONTINUOUS
  0
ENDTAB
  0
TABLE
  2
STYLE
  5
3
330
0
100
AcDbSymbolTable
 70
     2
  0
STYLE
  5
10
330
3
100
AcDbSymbolTableRecord
100
AcDbTextStyleTableRecord
  2
STANDARD
 70
     0
 40
0.0
 41
1.0
 50
0.0
 71
     0
 42
0.2
  3
txt
  4

  0
STYLE
  5
A9
330
3
100
AcDbSymbolTableRecord
100
AcDbTextStyleTableRecord
  2
ARIAL_WIDE
 70
     0
 40
0.0
 41
1.25
 50
0.0
 71
     0
 42
0.2
  3
ARIAL.TTF
  4

1001
ACAD
1000
Arial
1071
       34
  0
ENDTAB
  0
TABLE
  2
VIEW
  5
6
330
0
100
AcDbSymbolTable
 70
     0
  0
ENDTAB
  0
TABLE
  2
UCS
  5
7
330
0
100
AcDbSymbolTable
 70
     0
  0
ENDTAB
  0
TABLE
  2
APPID
  5
9
330
0
100
AcDbSymbolTable
 70
     1
  0
APPID
  5
11
330
9
100
AcDbSymbolTableRecord
100
AcDbRegAppTableRecord
  2
ACAD
 70
     0
  0
ENDTAB
  0
TABLE
  2
DIMSTYLE
  5
A
330
0
100
AcDbSymbolTable
 70
     1
  0
DIMSTYLE
105
9D
330
A
100
AcDbSymbolTableRecord
100
AcDbDimStyleTableRecord
  2
STANDARD
 70
     0
  3

  4

  5

  6

  7

 40
1.0
 41
0.18
 42
0.0625
 43
0.38
 44
0.18
 45
0.0
 46
0.0
 47
0.0
 48
0.0
140
0.18
141
0.09
142
0.0
143
25.4
144
1.0
145
0.0
146
1.0
147
0.09
 71
     0
 72
     0
 73
     1
 74
     1
 75
     0
 76
     0
 77
     0
 78
     0
170
     0
171
     2
172
     0
173
     0
174
     0
175
     0
176
     0
177
     0
178
     0
270
     2
271
     4
272
     4
273
     2
274
     2
340
10
275
     0
280
     0
281
     0
282
     0
283
     1
284
     0
285
     0
286
     0
287
     3
288
     0
  0
ENDTAB
  0
TABLE
  2
BLOCK_RECORD
  5
1
330
0
100
AcDbSymbolTable
 70
     4
  0
BLOCK_RECORD
  5
18
102
{ACAD_XDICTIONARY
360
FE
102
}
330
1
100
AcDbSymbolTableRecord
100
AcDbBlockTableRecord
  2
*MODEL_SPACE
  0
BLOCK_RECORD
  5
15
102
{ACAD_XDICTIONARY
360
FC
102
}
330
1
100
AcDbSymbolTableRecord
100
AcDbBlockTableRecord
  2
*PAPER_SPACE
  0
BLOCK_RECORD
  5
2D
330
1
100
AcDbSymbolTableRecord
100
AcDbBlockTableRecord
  2
*D0
  0
BLOCK_RECORD
  5
2F
330
1
100
AcDbSymbolTableRecord
100
AcDbBlockTableRecord
  2
*D1
  0
BLOCK_RECORD
  5
30
330
1
100
AcDbSymbolTableRecord
100
AcDbBlockTableRecord
  2
*D2
  0
BLOCK_RECORD
  5
31
330
1
100
AcDbSymbolTableRecord
100
AcDbBlockTableRecord
  2
*D3
  0
ENDTAB
  0
ENDSEC
  0
SECTION
  2
BLOCKS
  0
BLOCK
  5
39
330
18
100
AcDbEntity
  8
0
100
AcDbBlockBegin
  2
*MODEL_SPACE
 70
     0
 10
0.0
 20
0.0
 30
0.0
  3
*MODEL_SPACE
  1

  0
ENDBLK
  5
3A
330
18
100
AcDbEntity
  8
0
100
AcDbBlockEnd
  0
BLOCK
  5
37
330
15
100
AcDbEntity
 67
     1
  8
0
100
AcDbBlockBegin
  2
*PAPER_SPACE
 70
     0
 10
0.0
 20
0.0
 30
0.0
  3
*PAPER_SPACE
  1

  0
ENDBLK
  5
38
330
15
100
AcDbEntity
 67
     1
  8
0
100
AcDbBlockEnd
  0
BLOCK
  5
3C
330
2D
100
AcDbEntity
  8
0
100
AcDbBlockBegin
  2
*D0
 70
     1
 10
0.0
 20
0.0
 30
0.0
  3
*D0
  1

  0
LINE
  5
3D
330
2D
100
AcDbEntity
  8
0
  6
BYBLOCK
 62
     0
100
AcDbLine
 10
23.80412655418451
 20
-4.022492503867573
 30
0.0
 11
23.80412655418451
 21
-4.470225877630157
 31
0.0
  0
LINE
  5
3E
330
2D
100
AcDbEntity
  8
0
  6
BYBLOCK
 62
     0
100
AcDbLine
 10
26.05412655418451
 20
-4.022492503867573
 30
0.0
 11
26.05412655418451
 21
-4.470225877630157
 31
0.0
  0
LINE
  5
3F
330
2D
100
AcDbEntity
  8
0
  6
BYBLOCK
 62
     0
100
AcDbLine
 10
23.80412655418451
 20
-4.290225877630157
 30
0.0
 11
24.53329322085118
 21
-4.290225877630157
 31
0.0
  0
LINE
  5
40
330
2D
100
AcDbEntity
  8
0
  6
BYBLOCK
 62
     0
100
AcDbLine
 10
26.05412655418451
 20
-4.290225877630157
 30
0.0
 11
25.32495988751784
 21
-4.290225877630157
 31
0.0
  0
LINE
  5
41
330
2D
100
AcDbEntity
  8
0
  6
BYBLOCK
 62
     0
100
AcDbLine
 10
23.67912655418451
 20
-4.415225877630157
 30
0.0
 11
23.92912655418451
 21
-4.165225877630157
 31
0.0
  0
LINE
  5
42
330
2D
100
AcDbEntity
  8
0
  6
BYBLOCK
 62
     0
100
AcDbLine
 10
25.92912655418451
 20
-4.415225877630157
 30
0.0
 11
26.17912655418451
 21
-4.165225877630157
 31
0.0
  0
TEXT
  5
43
330
2D
100
AcDbEntity
  8
0
  6
BYBLOCK
 62
     0
100
AcDbText
 10
24.65829322085118
 20
-4.352725877630157
 30
0.0
 40
0.125
  1
2 1/4
 72
     1
 11
24.92912655418451
 21
-4.290225877630157
 31
0.0
100
AcDbText
 73
     2
  0
POINT
  5
44
330
2D
100
AcDbEntity
  8
DEFPOINTS
  6
BYBLOCK
 62
     0
100
AcDbPoint
 10
23.80412655418451
 20
-3.959992503867573
 30
0.0
  0
POINT
  5
45
330
2D
100
AcDbEntity
  8
DEFPOINTS
  6
BYBLOCK
 62
     0
100
AcDbPoint
 10
26.05412655418451
 20
-3.959992503867573
 30
0.0
  0
POINT
  5
46
330
2D
100
AcDbEntity
  8
DEFPOINTS
  6
BYBLOCK
 62
     0
100
AcDbPoint
 10
26.05412655418451
 20
-4.290225877630157
 30
0.0
  0
ENDBLK
  5
47
330
2D
100
AcDbEntity
  8
0
100
AcDbBlockEnd
  0
BLOCK
  5
48
330
2F
100
AcDbEntity
  8
0
100
AcDbBlockBegin
  2
*D1
 70
     1
 10
0.0
 20
0.0
 30
0.0
  3
*D1
  1

  0
LINE
  5
49
330
2F
100
AcDbEntity
  8
0
  6
BYBLOCK
 62
     0
100
AcDbLine
 10
26.09050494851745
 20
-3.989740748477943
 30
0.0
 11
26.46561827729445
 21
-3.989740748477943
 31
0.0
  0
LINE
  5
4A
330
2F
100
AcDbEntity
  8
0
  6
BYBLOCK
 62
     0
100
AcDbLine
 10
26.09043142817342
 20
-2.881034166153891
 30
0.0
 11
26.46561827729445
 21
-2.881034166153891
 31
0.0
  0
LINE
  5
4B
330
2F
100
AcDbEntity
  8
0
  6
BYBLOCK
 62
     0
100
AcDbLine
 10
26.28561827729445
 20
-3.989740748477943
 30
0.0
 11
26.28561827729445
 21
-4.239740748477943
 31
0.0
  0
LINE
  5
4C
330
2F
100
AcDbEntity
  8
0
  6
BYBLOCK
 62
     0
100
AcDbLine
 10
26.28561827729445
 20
-2.881034166153891
 30
0.0
 11
26.28561827729445
 21
-2.631034166153891
 31
0.0
  0
LINE
  5
4D
330
2F
100
AcDbEntity
  8
0
  6
BYBLOCK
 62
     0
100
AcDbLine
 10
26.41061827729445
 20
-4.114740748477943
 30
0.0
 11
26.16061827729445
 21
-3.864740748477943
 31
0.0
  0
LINE
  5
4E
330
2F
100
AcDbEntity
  8
0
  6
BYBLOCK
 62
     0
100
AcDbLine
 10
26.41061827729445
 20
-3.006034166153891
 30
0.0
 11
26.16061827729445
 21
-2.756034166153891
 31
0.0
  0
TEXT
  5
4F
330
2F
100
AcDbEntity
  8
0
  6
BYBLOCK
 62
     0
100
AcDbText
 10
26.34811827729445
 20
-2.506034166153891
 30
0.0
 40
0.125
  1
1 3/32
 50
90.0
 72
     1
 11
26.28561827729445
 21
-2.172700832820558
 31
0.0
100
AcDbText
 73
     2
  0
POINT
  5
50
330
2F
100
AcDbEntity
  8
DEFPOINTS
  6
BYBLOCK
 62
     0
100
AcDbPoint
 10
26.02800494851745
 20
-3.989740748477943
 30
0.0
  0
POINT
  5
51
330
2F
100
AcDbEntity
  8
DEFPOINTS
  6
BYBLOCK
 62
     0
100
AcDbPoint
 10
26.02793142817342
 20
-2.881034166153891
 30
0.0
  0
POINT
  5
52
330
2F
100
AcDbEntity
  8
DEFPOINTS
  6
BYBLOCK
 62
     0
100
AcDbPoint
 10
26.28561827729445
 20
-2.881034166153891
 30
0.0
  0
ENDBLK
  5
53
330
2F
100
AcDbEntity
  8
0
100
AcDbBlockEnd
  0
BLOCK
  5
54
330
30
100
AcDbEntity
  8
0
100
AcDbBlockBegin
  2
*D2
 70
     1
 10
0.0
 20
0.0
 30
0.0
  3
*D2
  1

  0
LINE
  5
55
330
30
100
AcDbEntity
  8
0
  6
BYBLOCK
 62
     0
100
AcDbLine
 10
23.75662655418451
 20
-6.169145408484089
 30
0.0
 11
23.44679334907207
 21
-6.169145408484089
 31
0.0
  0
LINE
  5
56
330
30
100
AcDbEntity
  8
0
  6
BYBLOCK
 62
     0
100
AcDbLine
 10
24.58562655418451
 20
-4.91914540848409
 30
0.0
 11
23.44679334907207
 21
-4.91914540848409
 31
0.0
  0
LINE
  5
57
330
30
100
AcDbEntity
  8
0
  6
BYBLOCK
 62
     0
100
AcDbLine
 10
23.62679334907207
 20
-6.169145408484089
 30
0.0
 11
23.62679334907207
 21
-6.419145408484089
 31
0.0
  0
LINE
  5
58
330
30
100
AcDbEntity
  8
0
  6
BYBLOCK
 62
     0
100
AcDbLine
 10
23.62679334907207
 20
-4.91914540848409
 30
0.0
 11
23.62679334907207
 21
-4.66914540848409
 31
0.0
  0
LINE
  5
59
330
30
100
AcDbEntity
  8
0
  6
BYBLOCK
 62
     0
100
AcDbLine
 10
23.75179334907207
 20
-6.294145408484089
 30
0.0
 11
23.50179334907207
 21
-6.044145408484089
 31
0.0
  0
LINE
  5
5A
330
30
100
AcDbEntity
  8
0
  6
BYBLOCK
 62
     0
100
AcDbLine
 10
23.75179334907207
 20
-5.04414540848409
 30
0.0
 11
23.50179334907207
 21
-4.79414540848409
 31
0.0
  0
TEXT
  5
5B
330
30
100
AcDbEntity
  8
0
  6
BYBLOCK
 62
     0
100
AcDbText
 10
23.68929334907207
 20
-4.54414540848409
 30
0.0
 40
0.125
  1
1 1/4
 50
90.0
 72
     1
 11
23.62679334907207
 21
-4.29414540848409
 31
0.0
100
AcDbText
 73
     2
  0
POINT
  5
5C
330
30
100
AcDbEntity
  8
DEFPOINTS
  6
BYBLOCK
 62
     0
100
AcDbPoint
 10
23.81912655418451
 20
-6.169145408484089
 30
0.0
  0
POINT
  5
5D
330
30
100
AcDbEntity
  8
DEFPOINTS
  6
BYBLOCK
 62
     0
100
AcDbPoint
 10
24.64812655418451
 20
-4.91914540848409
 30
0.0
  0
POINT
  5
5E
330
30
100
AcDbEntity
  8
DEFPOINTS
  6
BYBLOCK
 62
     0
100
AcDbPoint
 10
23.62679334907207
 20
-4.91914540848409
 30
0.0
  0
ENDBLK
  5
5F
330
30
100
AcDbEntity
  8
0
100
AcDbBlockEnd
  0
BLOCK
  5
60
330
31
100
AcDbEntity
  8
0
100
AcDbBlockBegin
  2
*D3
 70
     1
 10
0.0
 20
0.0
 30
0.0
  3
*D3
  1

  0
LINE
  5
61
330
31
100
AcDbEntity
  8
0
  6
BYBLOCK
 62
     0
100
AcDbLine
 10
26.10162655418451
 20
-6.169145408484089
 30
0.0
 11
26.40940630013483
 21
-6.169145408484089
 31
0.0
  0
LINE
  5
62
330
31
100
AcDbEntity
  8
0
  6
BYBLOCK
 62
     0
100
AcDbLine
 10
26.10162655418451
 20
-6.044145408484089
 30
0.0
 11
26.40940630013483
 21
-6.044145408484089
 31
0.0
  0
LINE
  5
63
330
31
100
AcDbEntity
  8
0
  6
BYBLOCK
 62
     0
100
AcDbLine
 10
26.22940630013482
 20
-6.169145408484089
 30
0.0
 11
26.22940630013482
 21
-6.419145408484089
 31
0.0
  0
LINE
  5
64
330
31
100
AcDbEntity
  8
0
  6
BYBLOCK
 62
     0
100
AcDbLine
 10
26.22940630013482
 20
-6.044145408484089
 30
0.0
 11
26.22940630013482
 21
-5.794145408484089
 31
0.0
  0
LINE
  5
65
330
31
100
AcDbEntity
  8
0
  6
BYBLOCK
 62
     0
100
AcDbLine
 10
26.35440630013483
 20
-6.294145408484089
 30
0.0
 11
26.10440630013483
 21
-6.044145408484089
 31
0.0
  0
LINE
  5
66
330
31
100
AcDbEntity
  8
0
  6
BYBLOCK
 62
     0
100
AcDbLine
 10
26.35440630013483
 20
-6.169145408484089
 30
0.0
 11
26.10440630013483
 21
-5.919145408484089
 31
0.0
  0
TEXT
  5
67
330
31
100
AcDbEntity
  8
0
  6
BYBLOCK
 62
     0
100
AcDbText
 10
26.29190630013483
 20
-5.669145408484089
 30
0.0
 40
0.125
  1
1/8
 50
90.0
 72
     1
 11
26.22940630013482
 21
-5.523312075150756
 31
0.0
100
AcDbText
 73
     2
  0
POINT
  5
68
330
31
100
AcDbEntity
  8
DEFPOINTS
  6
BYBLOCK
 62
     0
100
AcDbPoint
 10
26.03912655418451
 20
-6.169145408484089
 30
0.0
  0
POINT
  5
69
330
31
100
AcDbEntity
  8
DEFPOINTS
  6
BYBLOCK
 62
     0
100
AcDbPoint
 10
26.03912655418451
 20
-6.044145408484089
 30
0.0
  0
POINT
  5
6A
330
31
100
AcDbEntity
  8
DEFPOINTS
  6
BYBLOCK
 62
     0
100
AcDbPoint
 10
26.22940630013482
 20
-6.044145408484089
 30
0.0
  0
ENDBLK
  5
6B
330
31
100
AcDbEntity
  8
0
100
AcDbBlockEnd
  0
ENDSEC
  0
SECTION
  2
ENTITIES
  0
DIMENSION
  5
6C
330
18
100
AcDbEntity
  8
ADPDIM
100
AcDbDimension
  2
*D2
 10
23.62679334907207
 20
-4.91914540848409
 30
0.0
 11
23.62679334907207
 21
-4.29414540848409
 31
0.0
100
AcDbAlignedDimension
 13
23.81912655418451
 23
-6.169145408484089
 33
0.0
 14
24.64812655418451
 24
-4.91914540848409
 34
0.0
 50
90.0
100
AcDbRotatedDimension
  0
LINE
  5
6D
330
18
100
AcDbEntity
  8
ADP1DETAIL
100
AcDbLine
 10
23.87312655418452
 20
-6.029145408484088
 30
0.0
 11
25.98412655418451
 21
-6.02914540848409
 31
0.0
  0
LINE
  5
6E
330
18
100
AcDbEntity
  8
ADP1DETAIL
100
AcDbLine
 10
26.03912655418451
 20
-6.044145408484089
 30
0.0
 11
23.81912655418451
 21
-6.044145408484089
 31
0.0
  0
LINE
  5
6F
330
18
100
AcDbEntity
  8
ADP1DETAIL
100
AcDbLine
 10
23.81912655418451
 20
-6.169145408484089
 30
0.0
 11
26.03912655418451
 21
-6.169145408484089
 31
0.0
  0
ARC
  5
70
330
18
100
AcDbEntity
  8
ADP1DETAIL
100
AcDbCircle
 10
23.81912655418451
 20
-6.05914540848409
 30
0.0
 40
0.015
100
AcDbArc
 50
90.00000000000003
 51
180.0
  0
ARC
  5
71
330
18
100
AcDbEntity
  8
ADP1DETAIL
100
AcDbCircle
 10
23.81912655418451
 20
-6.15414540848409
 30
0.0
 40
0.015
100
AcDbArc
 50
180.0
 51
270.0
  0
ARC
  5
72
330
18
100
AcDbEntity
  8
ADP1DETAIL
100
AcDbCircle
 10
23.87312655418452
 20
-6.036145408484088
 30
0.0
 40
0.007
100
AcDbArc
 50
90.00000000000003
 51
180.0
  0
LINE
  5
73
330
18
100
AcDbEntity
  8
ADP1DETAIL
100
AcDbLine
 10
23.86612655418451
 20
-6.036145408484088
 30
0.0
 11
23.86612655418451
 21
-6.044145408484089
 31
0.0
  0
LINE
  5
74
330
18
100
AcDbEntity
  8
ADP1DETAIL
100
AcDbLine
 10
23.80412655418451
 20
-6.05914540848409
 30
0.0
 11
23.80412655418451
 21
-6.15414540848409
 31
0.0
  0
LINE
  5
75
330
18
100
AcDbEntity
  8
ADP1DETAIL
100
AcDbLine
 10
24.61712655418451
 20
-6.02914540848409
 30
0.0
 11
24.61712655418451
 21
-4.95014540848409
 31
0.0
  0
LINE
  5
76
330
18
100
AcDbEntity
  8
ADP1DETAIL
100
AcDbLine
 10
24.74212655418451
 20
-4.950145408484088
 30
0.0
 11
24.74212655418451
 21
-6.02914540848409
 31
0.0
  0
LINE
  5
77
330
18
100
AcDbEntity
  8
ADP1DETAIL
100
AcDbLine
 10
24.64812655418451
 20
-4.919145408484089
 30
0.0
 11
24.71112655418451
 21
-4.919145408484089
 31
0.0
  0
ARC
  5
78
330
18
100
AcDbEntity
  8
ADP1DETAIL
100
AcDbCircle
 10
24.64812655418451
 20
-4.95014540848409
 30
0.0
 40
0.031
100
AcDbArc
 50
90.00000000000003
 51
180.0
  0
ARC
  5
79
330
18
100
AcDbEntity
  8
ADP1DETAIL
100
AcDbCircle
 10
24.71112655418451
 20
-4.950145408484088
 30
0.0
 40
0.031
100
AcDbArc
 50
0.0
 51
90.00000000000003
  0
LINE
  5
7A
330
18
100
AcDbEntity
  8
ADP2DETAIL
  6
HIDDEN2
100
AcDbLine
 10
25.11485913037235
 20
-6.169145408484089
 30
0.0
 11
25.1862718083402
 21
-6.104845740115285
 31
0.0
  0
LINE
  5
7B
330
18
100
AcDbEntity
  8
ADP2DETAIL
  6
HIDDEN2
100
AcDbLine
 10
25.29663670548082
 20
-6.104845740115285
 30
0.0
 11
25.36804938344867
 21
-6.169145408484089
 31
0.0
  0
LINE
  5
7C
330
18
100
AcDbEntity
  8
ADP2DETAIL
  6
HIDDEN2
100
AcDbLine
 10
25.29663670548082
 20
-6.02914540848409
 30
0.0
 11
25.29663670548082
 21
-6.104845740115285
 31
0.0
  0
LINE
  5
7D
330
18
100
AcDbEntity
  8
ADP2DETAIL
  6
HIDDEN2
100
AcDbLine
 10
25.1862718083402
 20
-6.02914540848409
 30
0.0
 11
25.1862718083402
 21
-6.104845740115285
 31
0.0
  0
DIMENSION
  5
7E
330
18
100
AcDbEntity
  8
ADPDIM
100
AcDbDimension
  2
*D3
 10
26.22940630013482
 20
-6.044145408484089
 30
0.0
 11
26.22940630013482
 21
-5.523312075150756
 31
0.0
100
AcDbAlignedDimension
 13
26.03912655418451
 23
-6.169145408484089
 33
0.0
 14
26.03912655418451
 24
-6.044145408484089
 34
0.0
 50
90.0
100
AcDbRotatedDimension
  0
LINE
  5
7F
330
18
100
AcDbEntity
  8
ADP1DETAIL
100
AcDbLine
 10
25.74212655418451
 20
-6.02914540848409
 30
0.0
 11
25.74212655418451
 21
-4.950145408484088
 31
0.0
  0
LINE
  5
80
330
18
100
AcDbEntity
  8
ADP1DETAIL
100
AcDbLine
 10
25.86712655418451
 20
-4.95014540848409
 30
0.0
 11
25.86712655418451
 21
-6.02914540848409
 31
0.0
  0
ARC
  5
81
330
18
100
AcDbEntity
  8
ADP1DETAIL
100
AcDbCircle
 10
26.03912655418451
 20
-6.15414540848409
 30
0.0
 40
0.015
100
AcDbArc
 50
270.0
 51
0.0
  0
ARC
  5
82
330
18
100
AcDbEntity
  8
ADP1DETAIL
100
AcDbCircle
 10
26.03912655418451
 20
-6.05914540848409
 30
0.0
 40
0.015
100
AcDbArc
 50
0.0
 51
90.00000000000003
  0
LINE
  5
83
330
18
100
AcDbEntity
  8
ADP1DETAIL
100
AcDbLine
 10
26.05412655418451
 20
-6.15414540848409
 30
0.0
 11
26.05412655418451
 21
-6.05914540848409
 31
0.0
  0
ARC
  5
84
330
18
100
AcDbEntity
  8
ADP1DETAIL
100
AcDbCircle
 10
25.98412655418451
 20
-6.03614540848409
 30
0.0
 40
0.007
100
AcDbArc
 50
0.0
 51
90.00000000000003
  0
LINE
  5
85
330
18
100
AcDbEntity
  8
ADP1DETAIL
100
AcDbLine
 10
25.99112655418451
 20
-6.03614540848409
 30
0.0
 11
25.99112655418451
 21
-6.044145408484089
 31
0.0
  0
ARC
  5
86
330
18
100
AcDbEntity
  8
ADP1DETAIL
100
AcDbCircle
 10
25.77312655418451
 20
-4.950145408484088
 30
0.0
 40
0.031
100
AcDbArc
 50
90.00000000000003
 51
180.0000000000001
  0
ARC
  5
87
330
18
100
AcDbEntity
  8
ADP1DETAIL
100
AcDbCircle
 10
25.83612655418451
 20
-4.95014540848409
 30
0.0
 40
0.031
100
AcDbArc
 50
0.0000000000002176
 51
90.00000000000003
  0
LINE
  5
88
330
18
100
AcDbEntity
  8
ADP1DETAIL
100
AcDbLine
 10
25.77312655418451
 20
-4.919145408484089
 30
0.0
 11
25.83612655418451
 21
-4.919145408484089
 31
0.0
  0
DIMENSION
  5
89
330
18
100
AcDbEntity
  8
ADPDIM
100
AcDbDimension
  2
*D1
 10
26.28561827729445
 20
-2.881034166153891
 30
0.0
 11
26.28561827729445
 21
-2.172700832820558
 31
0.0
100
AcDbAlignedDimension
 13
26.02800494851745
 23
-3.989740748477943
 33
0.0
 14
26.02793142817342
 24
-2.881034166153891
 34
0.0
 50
90.0
100
AcDbRotatedDimension
  0
ARC
  5
8A
330
18
100
AcDbEntity
  8
ADP1DETAIL
100
AcDbCircle
 10
24.92912655418451
 20
4.438928557792664
 30
0.0
 40
8.5
100
AcDbArc
 50
262.5720226519545
 51
277.4279773480454
  0
ARC
  5
8B
330
18
100
AcDbEntity
  8
ADP1DETAIL
100
AcDbCircle
 10
24.92912655418451
 20
-11.4747345006229
 30
0.0
 40
8.663663058415568
100
AcDbArc
 50
82.71360180540709
 51
97.28639819459299
  0
DIMENSION
  5
8C
330
18
100
AcDbEntity
  8
ADPDIM
100
AcDbDimension
  2
*D0
 10
26.05412655418451
 20
-4.290225877630157
 30
0.0
 11
24.92912655418451
 21
-4.290225877630157
 31
0.0
100
AcDbAlignedDimension
 13
23.80412655418451
 23
-3.959992503867573
 33
0.0
 14
26.05412655418451
 24
-3.959992503867573
 34
0.0
100
AcDbRotatedDimension
  0
LINE
  5
8D
330
18
100
AcDbEntity
  8
ADP1DETAIL
100
AcDbLine
 10
23.80412655418451
 20
-2.910791903533072
 30
0.0
 11
23.80412655418451
 21
-3.959992503867573
 31
0.0
  0
ARC
  5
8E
330
18
100
AcDbEntity
  8
ADP1DETAIL
100
AcDbCircle
 10
23.83412655418451
 20
-3.959992503867575
 30
0.0
 40
0.03
100
AcDbArc
 50
180.0
 51
262.5720226519587
  0
ARC
  5
8F
330
18
100
AcDbEntity
  8
ADP1DETAIL
100
AcDbCircle
 10
23.83412655418451
 20
-2.910791903533074
 30
0.0
 40
0.03
100
AcDbArc
 50
97.28639819460362
 51
180.0
  0
LINE
  5
90
330
18
100
AcDbEntity
  8
ADP1DETAIL
100
AcDbLine
 10
24.60912655418451
 20
-3.802892203700321
 30
0.0
 11
24.60912655418451
 21
-3.052892203700322
 31
0.0
  0
LINE
  5
91
330
18
100
AcDbEntity
  8
ADP1DETAIL
100
AcDbLine
 10
24.74612655418451
 20
-3.802892203700321
 30
0.0
 11
24.74612655418451
 21
-3.052892203700322
 31
0.0
  0
LINE
  5
92
330
18
100
AcDbEntity
  8
ADP1DETAIL
100
AcDbLine
 10
24.74612655418451
 20
-3.802892203700321
 30
0.0
 11
24.60912655418451
 21
-3.802892203700321
 31
0.0
  0
LINE
  5
93
330
18
100
AcDbEntity
  8
ADP1DETAIL
100
AcDbLine
 10
24.74612655418451
 20
-3.052892203700322
 30
0.0
 11
24.60912655418451
 21
-3.052892203700322
 31
0.0
  0
CIRCLE
  5
94
330
18
100
AcDbEntity
  8
ADP2DETAIL
  6
HIDDEN2
100
AcDbCircle
 10
25.24162655418451
 20
-3.427965492413772
 30
0.0
 40
0.125
  0
CIRCLE
  5
95
330
18
100
AcDbEntity
  8
ADP1DETAIL
100
AcDbCircle
 10
25.24162655418451
 20
-3.427965492413772
 30
0.0
 40
0.062
  0
LINE
  5
96
330
18
100
AcDbEntity
  8
ADP1DETAIL
100
AcDbLine
 10
25.73712655418451
 20
-3.052892203700323
 30
0.0
 11
25.73712655418451
 21
-3.802892203700323
 31
0.0
  0
LINE
  5
97
330
18
100
AcDbEntity
  8
ADP1DETAIL
100
AcDbLine
 10
25.87412655418451
 20
-3.052892203700323
 30
0.0
 11
25.87412655418451
 21
-3.802892203700323
 31
0.0
  0
LINE
  5
98
330
18
100
AcDbEntity
  8
ADP1DETAIL
100
AcDbLine
 10
26.05412655418451
 20
-3.959992503867573
 30
0.0
 11
26.05412655418451
 21
-2.910791903533072
 31
0.0
  0
LINE
  5
99
330
18
100
AcDbEntity
  8
ADP1DETAIL
100
AcDbLine
 10
25.87412655418451
 20
-3.802892203700323
 30
0.0
 11
25.73712655418451
 21
-3.802892203700323
 31
0.0
  0
ARC
  5
9A
330
18
100
AcDbEntity
  8
ADP1DETAIL
100
AcDbCircle
 10
26.02412655418451
 20
-3.959992503867574
 30
0.0
 40
0.03
100
AcDbArc
 50
277.4279773480506
 51
0.000000000000007
  0
LINE
  5
9B
330
18
100
AcDbEntity
  8
ADP1DETAIL
100
AcDbLine
 10
25.87412655418451
 20
-3.052892203700324
 30
0.0
 11
25.73712655418451
 21
-3.052892203700324
 31
0.0
  0
ARC
  5
9C
330
18
100
AcDbEntity
  8
ADP1DETAIL
100
AcDbCircle
 10
26.02412655418451
 20
-2.910791903533073
 30
0.0
 40
0.03
100
AcDbArc
 50
0.000000000000007
 51
82.71360180540686
  0
TEXT
  5
AA
330
18
100
AcDbEntity
  8
ADPDIM
100
AcDbText
 10
18.49441901666746
 20
-7.069222092011014
 30
0.0
 40
0.125
  1
J U L I U S  B L U M  &  C O . ,  I N C .      ( 8 0 0 )  5 2 6 - 6 2 9 3        W W W . J U L I U S B L U M . C O M        P A R T  N o .  4 5 3
 41
1.25
  7
ARIAL_WIDE
 72
     1
 11
24.92912655418451
 21
-6.944222092011014
 31
0.0
100
AcDbText
 73
     3
  0
ENDSEC
  0
SECTION
  2
OBJECTS
  0
DICTIONARY
  5
C
330
0
100
AcDbDictionary
  3
ACAD_GROUP
350
D
  3
ACAD_LAYOUT
350
A3
  3
ACAD_MLINESTYLE
350
E
  3
ACAD_PLOTSETTINGS
350
A4
  3
ACAD_PLOTSTYLENAME
350
A1
  3
ACDBHEADERROUNDTRIPXREC
350
1EE
  3
ACDBVARIABLEDICTIONARY
350
104
  0
DICTIONARY
  5
FE
330
18
100
AcDbDictionary
280
     1
  3
ACAD_LAYOUTSELFREF
360
20F
  0
DICTIONARY
  5
FC
330
15
100
AcDbDictionary
280
     1
  3
ACAD_LAYOUTSELFREF
360
20E
  0
DICTIONARY
  5
D
102
{ACAD_REACTORS
330
C
102
}
330
C
100
AcDbDictionary
  0
DICTIONARY
  5
A3
102
{ACAD_REACTORS
330
C
102
}
330
C
100
AcDbDictionary
  0
DICTIONARY
  5
E
102
{ACAD_REACTORS
330
C
102
}
330
C
100
AcDbDictionary
  3
STANDARD
350
1B
  0
DICTIONARY
  5
A4
102
{ACAD_REACTORS
330
C
102
}
330
C
100
AcDbDictionary
  0
ACDBDICTIONARYWDFLT
  5
A1
102
{ACAD_REACTORS
330
C
102
}
330
C
100
AcDbDictionary
281
     1
  3
Normal
350
A2
100
AcDbDictionaryWithDefault
340
A2
  0
DICTIONARY
  5
1EE
102
{ACAD_REACTORS
330
C
102
}
330
C
100
AcDbDictionary
  3
CEPSNTYPE
350
1F8
  3
FINGERPRINTGUID
350
1F9
  3
HYPERLINKBASE
350
1F1
  3
INSUNITS
350
1F7
  3
LAYOUTDICT
350
1F3
  3
LWETCUNION
350
1F6
  3
PLOTSETDICT
350
1F4
  3
PLOTSTYLNAMDICT
350
1F5
  3
PSVPSCALE
350
1FB
  3
PUCSBASE
350
1FE
  3
PUCSORGBACK
350
204
  3
PUCSORGBOTTOM
350
200
  3
PUCSORGFRONT
350
203
  3
PUCSORGLEFT
350
201
  3
PUCSORGRIGHT
350
202
  3
PUCSORGTOP
350
1FF
  3
PUCSORTHOREF
350
1FC
  3
PUCSORTHOVIEW
350
1FD
  3
STYLESHEET
350
1F2
  3
TSTACKALIGN
350
1EF
  3
TSTACKSIZE
350
1F0
  3
UCSBASE
350
207
  3
UCSORGBACK
350
20D
  3
UCSORGBOTTOM
350
209
  3
UCSORGFRONT
350
20C
  3
UCSORGLEFT
350
20A
  3
UCSORGRIGHT
350
20B
  3
UCSORGTOP
350
208
  3
UCSORTHOREF
350
205
  3
UCSORTHOVIEW
350
206
  3
VERSIONGUID
350
1FA
  0
DICTIONARY
  5
104
102
{ACAD_REACTORS
330
C
102
}
330
C
100
AcDbDictionary
  3
DIMASSOC
350
105
  0
XRECORD
  5
20F
102
{ACAD_REACTORS
330
FE
102
}
330
FE
100
AcDbXrecord
340
18
  0
XRECORD
  5
20E
102
{ACAD_REACTORS
330
FC
102
}
330
FC
100
AcDbXrecord
340
15
  0
MLINESTYLE
  5
1B
102
{ACAD_REACTORS
330
E
102
}
330
E
100
AcDbMlineStyle
  2
STANDARD
 70
     0
  3

 62
     0
 51
90.0
 52
90.0
 71
     2
 49
0.5
 62
   256
  6
BYLAYER
 49
-0.5
 62
   256
  6
BYLAYER
  0
ACDBPLACEHOLDER
  5
A2
102
{ACAD_REACTORS
330
A1
102
}
330
A1
100
AcDbPlaceHolder
280
     0
  0
XRECORD
  5
1F8
102
{ACAD_REACTORS
330
1EE
102
}
330
1EE
100
AcDbXrecord
 90
        0
  0
XRECORD
  5
1F9
102
{ACAD_REACTORS
330
1EE
102
}
330
1EE
100
AcDbXrecord
  1
{01960529-DF38-4B59-B434-75CDEEE535CA}
  0
XRECORD
  5
1F1
102
{ACAD_REACTORS
330
1EE
102
}
330
1EE
100
AcDbXrecord
  1

  0
XRECORD
  5
1F7
102
{ACAD_REACTORS
330
1EE
102
}
330
1EE
100
AcDbXrecord
 90
        0
  0
XRECORD
  5
1F3
102
{ACAD_REACTORS
330
1EE
102
}
330
1EE
100
AcDbXrecord
340
A3
  0
XRECORD
  5
1F6
102
{ACAD_REACTORS
330
1EE
102
}
330
1EE
100
AcDbXrecord
 90
    14877
  0
XRECORD
  5
1F4
102
{ACAD_REACTORS
330
1EE
102
}
330
1EE
100
AcDbXrecord
340
A4
  0
XRECORD
  5
1F5
102
{ACAD_REACTORS
330
1EE
102
}
330
1EE
100
AcDbXrecord
340
A1
  0
XRECORD
  5
1FB
102
{ACAD_REACTORS
330
1EE
102
}
330
1EE
100
AcDbXrecord
 40
0.0
  0
XRECORD
  5
1FE
102
{ACAD_REACTORS
330
1EE
102
}
330
1EE
100
AcDbXrecord
340
0
  0
XRECORD
  5
204
102
{ACAD_REACTORS
330
1EE
102
}
330
1EE
100
AcDbXrecord
 10
0.0
 20
0.0
 30
0.0
  0
XRECORD
  5
200
102
{ACAD_REACTORS
330
1EE
102
}
330
1EE
100
AcDbXrecord
 10
0.0
 20
0.0
 30
0.0
  0
XRECORD
  5
203
102
{ACAD_REACTORS
330
1EE
102
}
330
1EE
100
AcDbXrecord
 10
0.0
 20
0.0
 30
0.0
  0
XRECORD
  5
201
102
{ACAD_REACTORS
330
1EE
102
}
330
1EE
100
AcDbXrecord
 10
0.0
 20
0.0
 30
0.0
  0
XRECORD
  5
202
102
{ACAD_REACTORS
330
1EE
102
}
330
1EE
100
AcDbXrecord
 10
0.0
 20
0.0
 30
0.0
  0
XRECORD
  5
1FF
102
{ACAD_REACTORS
330
1EE
102
}
330
1EE
100
AcDbXrecord
 10
0.0
 20
0.0
 30
0.0
  0
XRECORD
  5
1FC
102
{ACAD_REACTORS
330
1EE
102
}
330
1EE
100
AcDbXrecord
340
0
  0
XRECORD
  5
1FD
102
{ACAD_REACTORS
330
1EE
102
}
330
1EE
100
AcDbXrecord
 70
     0
  0
XRECORD
  5
1F2
102
{ACAD_REACTORS
330
1EE
102
}
330
1EE
100
AcDbXrecord
  1

  0
XRECORD
  5
1EF
102
{ACAD_REACTORS
330
1EE
102
}
330
1EE
100
AcDbXrecord
 90
        1
  0
XRECORD
  5
1F0
102
{ACAD_REACTORS
330
1EE
102
}
330
1EE
100
AcDbXrecord
 90
       70
  0
XRECORD
  5
207
102
{ACAD_REACTORS
330
1EE
102
}
330
1EE
100
AcDbXrecord
340
0
  0
XRECORD
  5
20D
102
{ACAD_REACTORS
330
1EE
102
}
330
1EE
100
AcDbXrecord
 10
0.0
 20
0.0
 30
0.0
  0
XRECORD
  5
209
102
{ACAD_REACTORS
330
1EE
102
}
330
1EE
100
AcDbXrecord
 10
0.0
 20
0.0
 30
0.0
  0
XRECORD
  5
20C
102
{ACAD_REACTORS
330
1EE
102
}
330
1EE
100
AcDbXrecord
 10
0.0
 20
0.0
 30
0.0
  0
XRECORD
  5
20A
102
{ACAD_REACTORS
330
1EE
102
}
330
1EE
100
AcDbXrecord
 10
0.0
 20
0.0
 30
0.0
  0
XRECORD
  5
20B
102
{ACAD_REACTORS
330
1EE
102
}
330
1EE
100
AcDbXrecord
 10
0.0
 20
0.0
 30
0.0
  0
XRECORD
  5
208
102
{ACAD_REACTORS
330
1EE
102
}
330
1EE
100
AcDbXrecord
 10
0.0
 20
0.0
 30
0.0
  0
XRECORD
  5
205
102
{ACAD_REACTORS
330
1EE
102
}
330
1EE
100
AcDbXrecord
340
0
  0
XRECORD
  5
206
102
{ACAD_REACTORS
330
1EE
102
}
330
1EE
100
AcDbXrecord
 70
     0
  0
XRECORD
  5
1FA
102
{ACAD_REACTORS
330
1EE
102
}
330
1EE
100
AcDbXrecord
  1
{1CD7BDE1-E166-4BF7-B123-C2C1A2F96045}
  0
DICTIONARYVAR
  5
105
102
{ACAD_REACTORS
330
104
102
}
330
104
100
DictionaryVariables
280
     0
  1
1
  0
ENDSEC
  0
EOF
