  0
SECTION
  2
HEADER
  9
$ACADVER
  1
AC1015
  9
$ACADMAINTVER
 70
    18
  9
$DWGCODEPAGE
  3
ANSI_1252
  9
$INSBASE
 10
42.39774330245938
 20
6.158263822588867
 30
0.0
  9
$EXTMIN
 10
1.000000000000000E+20
 20
1.000000000000000E+20
 30
1.000000000000000E+20
  9
$EXTMAX
 10
0.0
 20
0.0
 30
0.0
  9
$LIMMIN
 10
0.0
 20
0.0
  9
$LIMMAX
 10
36.0
 20
36.0
  9
$ORTHOMODE
 70
     1
  9
$REGENMODE
 70
     1
  9
$FILLMODE
 70
     1
  9
$QTEXTMODE
 70
     0
  9
$MIRRTEXT
 70
     1
  9
$LTSCALE
 40
1.0
  9
$ATTMODE
 70
     1
  9
$TEXTSIZE
 40
0.2
  9
$TRACEWID
 40
0.05
  9
$TEXTSTYLE
  7
STANDARD
  9
$CLAYER
  8
ADP1DETAIL
  9
$CELTYPE
  6
ByLayer
  9
$CECOLOR
 62
   256
  9
$CELTSCALE
 40
1.0
  9
$DISPSILH
 70
     0
  9
$DIMSCALE
 40
1.0
  9
$DIMASZ
 40
0.125
  9
$DIMEXO
 40
0.0625
  9
$DIMDLI
 40
0.38
  9
$DIMRND
 40
0.0
  9
$DIMDLE
 40
0.0
  9
$DIMEXE
 40
0.18
  9
$DIMTP
 40
0.0
  9
$DIMTM
 40
0.0
  9
$DIMTXT
 40
0.125
  9
$DIMCEN
 40
0.1875
  9
$DIMTSZ
 40
0.125
  9
$DIMTOL
 70
     0
  9
$DIMLIM
 70
     0
  9
$DIMTIH
 70
     0
  9
$DIMTOH
 70
     0
  9
$DIMSE1
 70
     0
  9
$DIMSE2
 70
     0
  9
$DIMTAD
 70
     0
  9
$DIMZIN
 70
     3
  9
$DIMBLK
  1

  9
$DIMASO
 70
     1
  9
$DIMSHO
 70
     1
  9
$DIMPOST
  1

  9
$DIMAPOST
  1

  9
$DIMALT
 70
     0
  9
$DIMALTD
 70
     1
  9
$DIMALTF
 40
25.4
  9
$DIMLFAC
 40
1.0
  9
$DIMTOFL
 70
     0
  9
$DIMTVP
 40
0.0
  9
$DIMTIX
 70
     0
  9
$DIMSOXD
 70
     0
  9
$DIMSAH
 70
     0
  9
$DIMBLK1
  1

  9
$DIMBLK2
  1

  9
$DIMSTYLE
  2
Standard
  9
$DIMCLRD
 70
     0
  9
$DIMCLRE
 70
     0
  9
$DIMCLRT
 70
     0
  9
$DIMTFAC
 40
1.0
  9
$DIMGAP
 40
0.125
  9
$DIMJUST
 70
     0
  9
$DIMSD1
 70
     0
  9
$DIMSD2
 70
     0
  9
$DIMTOLJ
 70
     1
  9
$DIMTZIN
 70
     3
  9
$DIMALTZ
 70
     3
  9
$DIMALTTZ
 70
     3
  9
$DIMUPT
 70
     0
  9
$DIMDEC
 70
     4
  9
$DIMTDEC
 70
     4
  9
$DIMALTU
 70
     5
  9
$DIMALTTD
 70
     1
  9
$DIMTXSTY
  7
STANDARD
  9
$DIMAUNIT
 70
     0
  9
$DIMADEC
 70
     0
  9
$DIMALTRND
 40
0.0
  9
$DIMAZIN
 70
     0
  9
$DIMDSEP
 70
    46
  9
$DIMATFIT
 70
     3
  9
$DIMFRAC
 70
     0
  9
$DIMLDRBLK
  1

  9
$DIMLUNIT
 70
     5
  9
$DIMLWD
 70
    -2
  9
$DIMLWE
 70
    -2
  9
$DIMTMOVE
 70
     2
  9
$LUNITS
 70
     5
  9
$LUPREC
 70
     4
  9
$SKETCHINC
 40
0.1
  9
$FILLETRAD
 40
0.0
  9
$AUNITS
 70
     0
  9
$AUPREC
 70
     0
  9
$MENU
  1
acad
  9
$ELEVATION
 40
0.0
  9
$PELEVATION
 40
0.0
  9
$THICKNESS
 40
0.0
  9
$LIMCHECK
 70
     0
  9
$CHAMFERA
 40
0.0
  9
$CHAMFERB
 40
0.0
  9
$CHAMFERC
 40
0.0
  9
$CHAMFERD
 40
0.0
  9
$SKPOLY
 70
     0
  9
$TDCREATE
 40
2450399.632585452
  9
$TDUCREATE
 40
2450399.799252118
  9
$TDUPDATE
 40
2454263.498029144
  9
$TDUUPDATE
 40
2454263.664695810
  9
$TDINDWG
 40
0.0496176736
  9
$TDUSRTIMER
 40
0.0496176736
  9
$USRTIMER
 70
     1
  9
$ANGBASE
 50
0.0
  9
$ANGDIR
 70
     0
  9
$PDMODE
 70
     0
  9
$PDSIZE
 40
0.0
  9
$PLINEWID
 40
0.0
  9
$SPLFRAME
 70
     0
  9
$SPLINETYPE
 70
     6
  9
$SPLINESEGS
 70
     8
  9
$HANDSEED
  5
79
  9
$SURFTAB1
 70
     6
  9
$SURFTAB2
 70
     6
  9
$SURFTYPE
 70
     6
  9
$SURFU
 70
     6
  9
$SURFV
 70
     6
  9
$UCSBASE
  2

  9
$UCSNAME
  2

  9
$UCSORG
 10
0.0
 20
0.0
 30
0.0
  9
$UCSXDIR
 10
1.0
 20
0.0
 30
0.0
  9
$UCSYDIR
 10
0.0
 20
1.0
 30
0.0
  9
$UCSORTHOREF
  2

  9
$UCSORTHOVIEW
 70
     0
  9
$UCSORGTOP
 10
0.0
 20
0.0
 30
0.0
  9
$UCSORGBOTTOM
 10
0.0
 20
0.0
 30
0.0
  9
$UCSORGLEFT
 10
0.0
 20
0.0
 30
0.0
  9
$UCSORGRIGHT
 10
0.0
 20
0.0
 30
0.0
  9
$UCSORGFRONT
 10
0.0
 20
0.0
 30
0.0
  9
$UCSORGBACK
 10
0.0
 20
0.0
 30
0.0
  9
$PUCSBASE
  2

  9
$PUCSNAME
  2

  9
$PUCSORG
 10
0.0
 20
0.0
 30
0.0
  9
$PUCSXDIR
 10
1.0
 20
0.0
 30
0.0
  9
$PUCSYDIR
 10
0.0
 20
1.0
 30
0.0
  9
$PUCSORTHOREF
  2

  9
$PUCSORTHOVIEW
 70
     0
  9
$PUCSORGTOP
 10
0.0
 20
0.0
 30
0.0
  9
$PUCSORGBOTTOM
 10
0.0
 20
0.0
 30
0.0
  9
$PUCSORGLEFT
 10
0.0
 20
0.0
 30
0.0
  9
$PUCSORGRIGHT
 10
0.0
 20
0.0
 30
0.0
  9
$PUCSORGFRONT
 10
0.0
 20
0.0
 30
0.0
  9
$PUCSORGBACK
 10
0.0
 20
0.0
 30
0.0
  9
$USERI1
 70
     0
  9
$USERI2
 70
     0
  9
$USERI3
 70
     0
  9
$USERI4
 70
     0
  9
$USERI5
 70
     0
  9
$USERR1
 40
0.0
  9
$USERR2
 40
0.0
  9
$USERR3
 40
0.0
  9
$USERR4
 40
0.0
  9
$USERR5
 40
0.0
  9
$WORLDVIEW
 70
     1
  9
$SHADEDGE
 70
     3
  9
$SHADEDIF
 70
    70
  9
$TILEMODE
 70
     1
  9
$MAXACTVP
 70
    15
  9
$PINSBASE
 10
0.0004882914945483
 20
0.7501408034022604
 30
0.0
  9
$PLIMCHECK
 70
     0
  9
$PEXTMIN
 10
1.000000000000000E+20
 20
1.000000000000000E+20
 30
1.000000000000000E+20
  9
$PEXTMAX
 10
-1.000000000000000E+20
 20
-1.000000000000000E+20
 30
-1.000000000000000E+20
  9
$PLIMMIN
 10
0.0
 20
0.0
  9
$PLIMMAX
 10
12.0
 20
9.0
  9
$UNITMODE
 70
     0
  9
$VISRETAIN
 70
     0
  9
$PLINEGEN
 70
     0
  9
$PSLTSCALE
 70
     1
  9
$TREEDEPTH
 70
  3020
  9
$CMLSTYLE
  2
Standard
  9
$CMLJUST
 70
     0
  9
$CMLSCALE
 40
1.0
  9
$PROXYGRAPHICS
 70
     1
  9
$MEASUREMENT
 70
     0
  9
$CELWEIGHT
370
    -1
  9
$ENDCAPS
280
     0
  9
$JOINSTYLE
280
     0
  9
$LWDISPLAY
290
     0
  9
$INSUNITS
 70
     0
  9
$HYPERLINKBASE
  1

  9
$STYLESHEET
  1

  9
$XEDIT
290
     1
  9
$CEPSNTYPE
380
     0
  9
$PSTYLEMODE
290
     1
  9
$FINGERPRINTGUID
  2
{607D83B4-19EE-4D45-985F-327C3FAA6811}
  9
$VERSIONGUID
  2
{737614A3-3938-4E99-AACB-CC3963E809FF}
  9
$EXTNAMES
290
     1
  9
$PSVPSCALE
 40
0.0
  9
$OLESTARTUP
290
     0
  0
ENDSEC
  0
SECTION
  2
CLASSES
  0
CLASS
  1
ACDBDICTIONARYWDFLT
  2
AcDbDictionaryWithDefault
  3
ObjectDBX Classes
 90
        0
280
     0
281
     0
  0
CLASS
  1
ACDBPLACEHOLDER
  2
AcDbPlaceHolder
  3
ObjectDBX Classes
 90
        0
280
     0
281
     0
  0
CLASS
  1
LAYOUT
  2
AcDbLayout
  3
ObjectDBX Classes
 90
        0
280
     0
281
     0
  0
CLASS
  1
DICTIONARYVAR
  2
AcDbDictionaryVar
  3
ObjectDBX Classes
 90
        0
280
     0
281
     0
  0
ENDSEC
  0
SECTION
  2
TABLES
  0
TABLE
  2
VPORT
  5
62
330
0
100
AcDbSymbolTable
 70
     1
  0
VPORT
  5
63
330
62
100
AcDbSymbolTableRecord
100
AcDbViewportTableRecord
  2
*Active
 70
     0
 10
0.0
 20
0.0
 11
1.0
 21
1.0
 12
41.83414015029494
 22
6.489243575998905
 13
0.0
 23
0.0
 14
0.5740882589684922
 24
0.5740882589684922
 15
0.5
 25
0.5
 16
0.0
 26
0.0
 36
1.0
 17
0.0
 27
0.0
 37
0.0
 40
5.585410696164217
 41
1.974155069582504
 42
50.0
 43
0.0
 44
0.0
 50
0.0
 51
0.0
 71
     0
 72
   100
 73
     1
 74
     0
 75
     0
 76
     0
 77
     0
 78
     0
281
     0
 65
     1
110
0.0
120
0.0
130
0.0
111
1.0
121
0.0
131
0.0
112
0.0
122
1.0
132
0.0
 79
     0
146
0.0
  0
ENDTAB
  0
TABLE
  2
LTYPE
  5
5D
330
0
100
AcDbSymbolTable
 70
     1
  0
LTYPE
  5
5E
330
5D
100
AcDbSymbolTableRecord
100
AcDbLinetypeTableRecord
  2
ByBlock
 70
     0
  3

 72
    65
 73
     0
 40
0.0
  0
LTYPE
  5
5F
330
5D
100
AcDbSymbolTableRecord
100
AcDbLinetypeTableRecord
  2
ByLayer
 70
     0
  3

 72
    65
 73
     0
 40
0.0
  0
LTYPE
  5
A
330
5D
100
AcDbSymbolTableRecord
100
AcDbLinetypeTableRecord
  2
CONTINUOUS
 70
     0
  3
Solid line
 72
    65
 73
     0
 40
0.0
  0
ENDTAB
  0
TABLE
  2
LAYER
  5
5A
330
0
100
AcDbSymbolTable
 70
     4
  0
LAYER
  5
6
330
5A
100
AcDbSymbolTableRecord
100
AcDbLayerTableRecord
  2
0
 70
     0
 62
     7
  6
CONTINUOUS
370
    -3
390
7
  0
LAYER
  5
C
330
5A
100
AcDbSymbolTableRecord
100
AcDbLayerTableRecord
  2
ADP1DETAIL
 70
     0
 62
     7
  6
CONTINUOUS
370
    -3
390
7
  0
LAYER
  5
23
330
5A
100
AcDbSymbolTableRecord
100
AcDbLayerTableRecord
  2
DEFPOINTS
 70
     0
 62
     7
  6
CONTINUOUS
290
     0
370
    -3
390
7
  0
LAYER
  5
17
330
5A
100
AcDbSymbolTableRecord
100
AcDbLayerTableRecord
  2
ADPDIM
 70
     0
 62
     3
  6
CONTINUOUS
370
    -3
390
7
  0
ENDTAB
  0
TABLE
  2
STYLE
  5
5B
330
0
100
AcDbSymbolTable
 70
     2
  0
STYLE
  5
18
330
5B
100
AcDbSymbolTableRecord
100
AcDbTextStyleTableRecord
  2
STANDARD
 70
     0
 40
0.0
 41
1.0
 50
0.0
 71
     0
 42
0.2
  3
txt
  4

  0
STYLE
  5
43
330
5B
100
AcDbSymbolTableRecord
100
AcDbTextStyleTableRecord
  2
ARIAL_WIDE
 70
     0
 40
0.0
 41
1.25
 50
0.0
 71
     0
 42
0.2
  3
ARIAL.TTF
  4

1001
ACAD
1000
Arial
1071
       34
  0
ENDTAB
  0
TABLE
  2
VIEW
  5
60
330
0
100
AcDbSymbolTable
 70
     0
  0
ENDTAB
  0
TABLE
  2
UCS
  5
61
330
0
100
AcDbSymbolTable
 70
     0
  0
ENDTAB
  0
TABLE
  2
APPID
  5
64
330
0
100
AcDbSymbolTable
 70
     1
  0
APPID
  5
27
330
64
100
AcDbSymbolTableRecord
100
AcDbRegAppTableRecord
  2
ACAD
 70
     0
  0
ENDTAB
  0
TABLE
  2
DIMSTYLE
  5
65
330
0
100
AcDbSymbolTable
 70
     1
100
AcDbDimStyleTable
 71
     1
340
19
  0
DIMSTYLE
105
19
102
{ACAD_REACTORS
330
16
330
44
330
28
102
}
330
65
100
AcDbSymbolTableRecord
100
AcDbDimStyleTableRecord
  2
Standard
 70
     0
340
18
  0
ENDTAB
  0
TABLE
  2
BLOCK_RECORD
  5
1
330
0
100
AcDbSymbolTable
 70
     3
  0
BLOCK_RECORD
  5
2
102
{ACAD_XDICTIONARY
360
3
102
}
330
1
100
AcDbSymbolTableRecord
100
AcDbBlockTableRecord
  2
*Model_Space
340
52
  0
BLOCK_RECORD
  5
54
102
{ACAD_XDICTIONARY
360
55
102
}
330
1
100
AcDbSymbolTableRecord
100
AcDbBlockTableRecord
  2
*Paper_Space
340
59
  0
BLOCK_RECORD
  5
1A
330
1
100
AcDbSymbolTableRecord
100
AcDbBlockTableRecord
  2
*D0
340
0
  0
BLOCK_RECORD
  5
45
330
1
100
AcDbSymbolTableRecord
100
AcDbBlockTableRecord
  2
*D1
340
0
  0
BLOCK_RECORD
  5
29
330
1
100
AcDbSymbolTableRecord
100
AcDbBlockTableRecord
  2
*D2
340
0
  0
ENDTAB
  0
ENDSEC
  0
SECTION
  2
BLOCKS
  0
BLOCK
  5
5
330
2
100
AcDbEntity
  8
0
100
AcDbBlockBegin
  2
*Model_Space
 70
     0
 10
0.0
 20
0.0
 30
0.0
  3
*Model_Space
  1

  0
ENDBLK
  5
51
330
2
100
AcDbEntity
  8
0
100
AcDbBlockEnd
  0
BLOCK
  5
57
330
54
100
AcDbEntity
 67
     1
  8
0
100
AcDbBlockBegin
  2
*Paper_Space
 70
     0
 10
0.0
 20
0.0
 30
0.0
  3
*Paper_Space
  1

  0
ENDBLK
  5
58
330
54
100
AcDbEntity
 67
     1
  8
0
100
AcDbBlockEnd
  0
BLOCK
  5
1B
330
1A
100
AcDbEntity
  8
0
100
AcDbBlockBegin
  2
*D0
 70
     1
 10
0.0
 20
0.0
 30
0.0
  3
*D0
  1

  0
LINE
  5
1C
330
1A
100
AcDbEntity
  8
ADPDIM
 62
     0
370
    -2
100
AcDbLine
 10
41.60757416124502
 20
6.482663394441233
 30
0.0
 11
41.60757416124502
 21
6.01513387864149
 31
0.0
  0
LINE
  5
1D
330
1A
100
AcDbEntity
  8
ADPDIM
 62
     0
370
    -2
100
AcDbLine
 10
42.39142480603011
 20
6.50581897174206
 30
0.0
 11
42.39142480603011
 21
6.01513387864149
 31
0.0
  0
LINE
  5
1E
330
1A
100
AcDbEntity
  8
ADPDIM
 62
     0
370
    -2
100
AcDbLine
 10
41.60757416124502
 20
6.19513387864149
 30
0.0
 11
42.39142480603011
 21
6.19513387864149
 31
0.0
  0
MTEXT
  5
1F
330
1A
100
AcDbEntity
  8
ADPDIM
 62
     3
100
AcDbMText
 10
41.99949948363756
 20
5.929594286198142
 30
0.0
 40
0.125
 41
0.0
 71
     5
 72
     1
  1
\A1;13/16"
 73
     1
 44
1.0
1001
ACAD
1000
MTEXTBEGIN
1070
    73
1070
     1
1070
    44
1040
1.0
1070
    74
1070
     0
1000
MTEXTEND
  0
LINE
  5
20
330
1A
100
AcDbEntity
  8
ADPDIM
 62
     0
370
    -2
100
AcDbLine
 10
42.26642480603011
 20
6.07013387864149
 30
0.0
 11
42.51642480603011
 21
6.32013387864149
 31
0.0
  0
LINE
  5
21
330
1A
100
AcDbEntity
  8
ADPDIM
 62
     0
370
    -2
100
AcDbLine
 10
41.48257416124502
 20
6.07013387864149
 30
0.0
 11
41.73257416124502
 21
6.32013387864149
 31
0.0
  0
POINT
  5
22
330
1A
100
AcDbEntity
  8
DEFPOINTS
 62
     0
100
AcDbPoint
 10
41.60757416124502
 20
6.545163394441233
 30
0.0
  0
POINT
  5
24
330
1A
100
AcDbEntity
  8
DEFPOINTS
 62
     0
100
AcDbPoint
 10
42.39142480603011
 20
6.56831897174206
 30
0.0
  0
POINT
  5
25
330
1A
100
AcDbEntity
  8
DEFPOINTS
 62
     0
100
AcDbPoint
 10
42.39142480603011
 20
6.19513387864149
 30
0.0
  0
ENDBLK
  5
26
330
1A
100
AcDbEntity
  8
0
100
AcDbBlockEnd
  0
BLOCK
  5
46
330
45
100
AcDbEntity
  8
0
100
AcDbBlockBegin
  2
*D1
 70
     1
 10
0.0
 20
0.0
 30
0.0
  3
*D1
  1

  0
LINE
  5
47
330
45
100
AcDbEntity
  8
ADPDIM
 62
     0
370
    -2
100
AcDbLine
 10
42.0931767324659
 20
7.099390887530681
 30
0.0
 11
43.38178249567476
 21
7.099390887530681
 31
0.0
  0
LINE
  5
48
330
45
100
AcDbEntity
  8
ADPDIM
 62
     0
370
    -2
100
AcDbLine
 10
42.66571730566806
 20
6.475412676048584
 30
0.0
 11
43.38178249567476
 21
6.475412676048584
 31
0.0
  0
LINE
  5
49
330
45
100
AcDbEntity
  8
ADPDIM
 62
     0
370
    -2
100
AcDbLine
 10
43.20178249567477
 20
7.099390887530681
 30
0.0
 11
43.20178249567477
 21
6.475412676048584
 31
0.0
  0
MTEXT
  5
4A
330
45
100
AcDbEntity
  8
ADPDIM
 62
     3
100
AcDbMText
 10
43.53691947585594
 20
6.78740178178964
 30
0.0
 40
0.125
 41
0.0
 71
     5
 72
     1
  1
\A1;5/8"
 11
0.0000000000000001
 21
1.0
 31
0.0
 73
     1
 44
1.0
1001
ACAD
1000
MTEXTBEGIN
1070
    73
1070
     1
1070
    44
1040
1.0
1070
    74
1070
     0
1000
MTEXTEND
  0
LINE
  5
4B
330
45
100
AcDbEntity
  8
ADPDIM
 62
     0
370
    -2
100
AcDbLine
 10
43.32678249567477
 20
6.350412676048584
 30
0.0
 11
43.07678249567477
 21
6.600412676048584
 31
0.0
  0
LINE
  5
4C
330
45
100
AcDbEntity
  8
ADPDIM
 62
     0
370
    -2
100
AcDbLine
 10
43.32678249567477
 20
6.974390887530681
 30
0.0
 11
43.07678249567477
 21
7.224390887530681
 31
0.0
  0
POINT
  5
4D
330
45
100
AcDbEntity
  8
DEFPOINTS
 62
     0
100
AcDbPoint
 10
42.03067673246589
 20
7.099390887530681
 30
0.0
  0
POINT
  5
4E
330
45
100
AcDbEntity
  8
DEFPOINTS
 62
     0
100
AcDbPoint
 10
42.60321730566806
 20
6.475412676048584
 30
0.0
  0
POINT
  5
4F
330
45
100
AcDbEntity
  8
DEFPOINTS
 62
     0
100
AcDbPoint
 10
43.20178249567477
 20
6.475412676048584
 30
0.0
  0
ENDBLK
  5
50
330
45
100
AcDbEntity
  8
0
100
AcDbBlockEnd
  0
BLOCK
  5
2A
330
29
100
AcDbEntity
  8
0
100
AcDbBlockBegin
  2
*D2
 70
     1
 10
0.0
 20
0.0
 30
0.0
  3
*D2
  1

  0
LINE
  5
2B
330
29
100
AcDbEntity
  8
ADPDIM
 62
     0
370
    -2
100
AcDbLine
 10
42.73372549142796
 20
6.956767275615269
 30
0.0
 11
42.73372549142796
 21
7.760836730295711
 31
0.0
  0
LINE
  5
2C
330
29
100
AcDbEntity
  8
ADPDIM
 62
     0
370
    -2
100
AcDbLine
 10
41.25966352477326
 20
6.956767275615265
 30
0.0
 11
41.25966352477326
 21
7.760836730295711
 31
0.0
  0
LINE
  5
2D
330
29
100
AcDbEntity
  8
ADPDIM
 62
     0
370
    -2
100
AcDbLine
 10
42.73372549142796
 20
7.580836730295711
 30
0.0
 11
42.41336117476727
 21
7.580836730295711
 31
0.0
  0
LINE
  5
2E
330
29
100
AcDbEntity
  8
ADPDIM
 62
     0
370
    -2
100
AcDbLine
 10
41.25966352477326
 20
7.580836730295711
 30
0.0
 11
41.58002784143394
 21
7.580836730295711
 31
0.0
  0
LINE
  5
2F
330
29
100
AcDbEntity
  8
ADPDIM
 62
     0
370
    -2
100
AcDbLine
 10
41.13466352477326
 20
7.455836730295711
 30
0.0
 11
41.38466352477325
 21
7.705836730295711
 31
0.0
  0
LINE
  5
30
330
29
100
AcDbEntity
  8
ADPDIM
 62
     0
370
    -2
100
AcDbLine
 10
42.60872549142796
 20
7.455836730295711
 30
0.0
 11
42.85872549142796
 21
7.705836730295711
 31
0.0
  0
MTEXT
  5
31
330
29
100
AcDbEntity
  8
ADPDIM
 62
     0
100
AcDbMText
 10
41.99669450810061
 20
7.580836730295711
 30
0.0
 40
0.125
 41
0.0
 71
     5
 72
     1
  1
\A1;1 1/2"
 73
     1
 44
1.0
1001
ACAD
1000
MTEXTBEGIN
1070
    73
1070
     1
1070
    44
1040
1.0
1070
    74
1070
     0
1000
MTEXTEND
  0
POINT
  5
32
330
29
100
AcDbEntity
  8
DEFPOINTS
 62
     0
100
AcDbPoint
 10
42.73372549142796
 20
6.894267275615269
 30
0.0
  0
POINT
  5
33
330
29
100
AcDbEntity
  8
DEFPOINTS
 62
     0
100
AcDbPoint
 10
41.25966352477326
 20
6.894267275615265
 30
0.0
  0
POINT
  5
34
330
29
100
AcDbEntity
  8
DEFPOINTS
 62
     0
100
AcDbPoint
 10
41.25966352477326
 20
7.580836730295711
 30
0.0
  0
ENDBLK
  5
35
330
29
100
AcDbEntity
  8
0
100
AcDbBlockEnd
  0
ENDSEC
  0
SECTION
  2
ENTITIES
  0
ARC
  5
B
330
2
100
AcDbEntity
  8
ADP1DETAIL
100
AcDbCircle
 10
41.99669450810061
 20
8.384486936006318
 30
0.0
 40
2.0
100
AcDbArc
 50
250.8963068687777
 51
252.8306671720057
  0
ARC
  5
D
330
2
100
AcDbEntity
  8
ADP1DETAIL
100
AcDbCircle
 10
41.99614571374183
 20
5.102486936006317
 30
0.0
 40
2.0
100
AcDbArc
 50
89.98427819951345
 51
109.0849019675257
  0
ARC
  5
E
330
2
100
AcDbEntity
  8
ADP1DETAIL
100
AcDbCircle
 10
42.19762156711172
 20
6.743486936006319
 30
0.0
 40
0.95
100
AcDbArc
 50
170.8676153396335
 51
189.1182350401342
  0
ARC
  5
F
330
2
100
AcDbEntity
  8
ADP1DETAIL
100
AcDbCircle
 10
41.38304674468613
 20
6.612747276108055
 30
0.0
 40
0.125
100
AcDbArc
 50
189.1182350401342
 51
250.8963068687772
  0
ARC
  5
10
330
2
100
AcDbEntity
  8
ADP1DETAIL
100
AcDbCircle
 10
41.3830790566599
 20
6.874427757245668
 30
0.0
 40
0.125
100
AcDbArc
 50
109.0849019675253
 51
170.8676153396335
  0
ARC
  5
11
330
2
100
AcDbEntity
  8
ADP1DETAIL
100
AcDbCircle
 10
41.99669450810061
 20
8.384486936006318
 30
0.0
 40
2.0
100
AcDbArc
 50
287.1216401512229
 51
289.1036931312223
  0
ARC
  5
12
330
2
100
AcDbEntity
  8
ADP1DETAIL
100
AcDbCircle
 10
41.99724330245937
 20
5.102486936006317
 30
0.0
 40
2.0
100
AcDbArc
 50
70.91509803247429
 51
90.01572180048654
  0
ARC
  5
13
330
2
100
AcDbEntity
  8
ADP1DETAIL
100
AcDbCircle
 10
41.79576744908949
 20
6.743486936006319
 30
0.0
 40
0.95
100
AcDbArc
 50
350.8817649598658
 51
9.13238466036644
  0
ARC
  5
14
330
2
100
AcDbEntity
  8
ADP1DETAIL
100
AcDbCircle
 10
42.61034227151507
 20
6.612747276108055
 30
0.0
 40
0.125
100
AcDbArc
 50
289.1036931312228
 51
350.8817649598658
  0
ARC
  5
15
330
2
100
AcDbEntity
  8
ADP1DETAIL
100
AcDbCircle
 10
42.61030995954132
 20
6.874427757245668
 30
0.0
 40
0.125
100
AcDbArc
 50
9.13238466036649
 51
70.91509803247467
  0
DIMENSION
  5
16
330
2
100
AcDbEntity
  8
ADPDIM
100
AcDbDimension
  2
*D0
 10
42.39142480603011
 20
6.19513387864149
 30
0.0
 11
41.99949948363756
 21
5.929594286198142
 31
0.0
 70
   128
 71
     5
 42
0.7838506447850975
  3
Standard
100
AcDbAlignedDimension
 13
41.60757416124502
 23
6.545163394441233
 33
0.0
 14
42.39142480603011
 24
6.56831897174206
 34
0.0
100
AcDbRotatedDimension
1001
ACAD
1000
DSTYLE
1002
{
1070
     3
1000
"
1070
   276
1070
     2
1070
   178
1070
     3
1070
    41
1040
0.125
1070
    73
1070
     0
1070
    74
1070
     0
1070
    78
1070
     3
1070
   140
1040
0.125
1070
   141
1040
0.1875
1070
   142
1040
0.125
1070
   147
1040
0.125
1070
   171
1070
     1
1070
   273
1070
     5
1070
   274
1070
     1
1070
   277
1070
     5
1070
   279
1070
     2
1070
   284
1070
     3
1070
   285
1070
     3
1070
   286
1070
     3
1002
}
  0
DIMENSION
  5
28
330
2
100
AcDbEntity
  8
ADPDIM
100
AcDbDimension
  2
*D2
 10
41.25966352477326
 20
7.580836730295711
 30
0.0
 11
41.99669450810061
 21
7.580836730295711
 31
0.0
 71
     5
 42
1.474061966654701
  3
Standard
100
AcDbAlignedDimension
 13
42.73372549142796
 23
6.894267275615269
 33
0.0
 14
41.25966352477326
 24
6.894267275615265
 34
0.0
100
AcDbRotatedDimension
1001
ACAD
1000
DSTYLE
1002
{
1070
     3
1000
"
1070
   276
1070
     2
1070
    41
1040
0.125
1070
    73
1070
     0
1070
    74
1070
     0
1070
    78
1070
     3
1070
   140
1040
0.125
1070
   141
1040
0.1875
1070
   142
1040
0.125
1070
   147
1040
0.125
1070
   171
1070
     1
1070
   273
1070
     5
1070
   274
1070
     1
1070
   277
1070
     5
1070
   279
1070
     2
1070
   284
1070
     3
1070
   285
1070
     3
1070
   286
1070
     3
1002
}
  0
LINE
  5
36
330
2
100
AcDbEntity
  8
0
 62
   250
100
AcDbLine
 10
43.29376584786494
 20
0.6076873654483399
 30
0.0
 11
43.29376584786494
 21
0.6143256793710715
 31
0.0
  0
LINE
  5
37
330
2
100
AcDbEntity
  8
0
 62
   250
100
AcDbLine
 10
43.29376584786494
 20
0.6143256793710715
 30
0.0
 11
43.26721259217402
 21
0.627602307216535
 31
0.0
  0
LINE
  5
38
330
2
100
AcDbEntity
  8
0
 62
   250
100
AcDbLine
 10
43.26721259217402
 20
0.627602307216535
 30
0.0
 11
43.25393596432856
 21
0.6607938768301937
 31
0.0
  0
LINE
  5
39
330
2
100
AcDbEntity
  8
0
 62
   250
100
AcDbLine
 10
43.25393596432856
 20
0.6607938768301937
 30
0.0
 11
43.25393596432856
 21
0.6607938768301937
 31
0.0
  0
LINE
  5
3A
330
2
100
AcDbEntity
  8
ADP1DETAIL
100
AcDbLine
 10
42.56205281425928
 20
6.475592810538656
 30
0.0
 11
42.41718448718926
 21
6.556386244285215
 31
0.0
  0
LINE
  5
3B
330
2
100
AcDbEntity
  8
ADP1DETAIL
100
AcDbLine
 10
42.40257223329192
 20
6.560185442083004
 30
0.0
 11
41.99547763731557
 21
6.560185442083004
 31
0.0
  0
LINE
  5
3C
330
2
100
AcDbEntity
  8
ADP1DETAIL
100
AcDbLine
 10
41.42976925997232
 20
6.476076226876142
 30
0.0
 11
41.57377078744189
 21
6.556386244285215
 31
0.0
  0
LINE
  5
3D
330
2
100
AcDbEntity
  8
ADP1DETAIL
100
AcDbLine
 10
41.58838304133924
 20
6.560185442083004
 30
0.0
 11
41.99547763731558
 21
6.560185442083004
 31
0.0
  0
ARC
  5
3E
330
2
100
AcDbEntity
  8
ADP1DETAIL
100
AcDbCircle
 10
42.57666506815663
 20
6.50179361274087
 30
0.0
 40
0.03
100
AcDbArc
 50
240.8514810399573
 51
287.1216401512203
  0
ARC
  5
3F
330
2
100
AcDbEntity
  8
ADP1DETAIL
100
AcDbCircle
 10
42.40257223329192
 20
6.530185442083004
 30
0.0
 40
0.03
100
AcDbArc
 50
60.85148103996391
 51
90.0
  0
ARC
  5
40
330
2
100
AcDbEntity
  8
ADP1DETAIL
100
AcDbCircle
 10
41.58838304133924
 20
6.530185442083004
 30
0.0
 40
0.03
100
AcDbArc
 50
90.0
 51
119.1485189600351
  0
ARC
  5
41
330
2
100
AcDbEntity
  8
ADP1DETAIL
100
AcDbCircle
 10
41.41515700607498
 20
6.502277029078353
 30
0.0
 40
0.03
100
AcDbArc
 50
252.830667172007
 51
299.1485189600342
  0
TEXT
  5
42
330
2
100
AcDbEntity
  8
ADPDIM
100
AcDbText
 10
37.10118086889812
 20
5.34016863587679
 30
0.0
 40
0.09375
  1
J U L I U S  B L U M  &  C O . ,  I N C .      ( 8 0 0 )  5 2 6 - 6 2 9 3        W W W . J U L I U S B L U M . C O M        P A R T  N o .  4 5 0 3
 41
1.25
  7
ARIAL_WIDE
 72
     1
 11
41.99547763731557
 21
5.43391863587679
 31
0.0
100
AcDbText
 73
     3
  0
DIMENSION
  5
44
330
2
100
AcDbEntity
  8
ADPDIM
 62
     3
100
AcDbDimension
  2
*D1
 10
43.20178249567477
 20
6.475412676048584
 30
0.0
 11
43.53691947585594
 21
6.78740178178964
 31
0.0
 70
   128
 71
     5
 42
0.6239782114820969
  3
Standard
100
AcDbAlignedDimension
 13
42.03067673246589
 23
7.099390887530681
 33
0.0
 14
42.60321730566806
 24
6.475412676048584
 34
0.0
 50
90.0
100
AcDbRotatedDimension
1001
ACAD
1000
DSTYLE
1002
{
1070
     3
1000
"
1070
   276
1070
     2
1070
   178
1070
     3
1070
    41
1040
0.125
1070
    73
1070
     0
1070
    74
1070
     0
1070
    78
1070
     3
1070
   140
1040
0.125
1070
   141
1040
0.1875
1070
   142
1040
0.125
1070
   147
1040
0.125
1070
   171
1070
     1
1070
   273
1070
     5
1070
   274
1070
     1
1070
   277
1070
     5
1070
   279
1070
     2
1070
   284
1070
     3
1070
   285
1070
     3
1070
   286
1070
     3
1002
}
  0
ENDSEC
  0
SECTION
  2
OBJECTS
  0
DICTIONARY
  5
9
330
0
100
AcDbDictionary
281
     1
  3
ACAD_COLOR
350
6B
  3
ACAD_GROUP
350
67
  3
ACAD_LAYOUT
350
53
  3
ACAD_MATERIAL
350
6A
  3
ACAD_MLINESTYLE
350
68
  3
ACAD_PLOTSETTINGS
350
69
  3
ACAD_PLOTSTYLENAME
350
8
  3
ACDBHEADERROUNDTRIPXREC
350
71
  3
AcDbVariableDictionary
350
6D
  0
DICTIONARY
  5
3
330
2
100
AcDbDictionary
280
     1
281
     1
  3
ACAD_LAYOUTSELFREF
360
4
  0
DICTIONARY
  5
55
330
54
100
AcDbDictionary
280
     1
281
     1
  3
ACAD_LAYOUTSELFREF
360
56
  0
DICTIONARY
  5
6B
102
{ACAD_REACTORS
330
9
102
}
330
9
100
AcDbDictionary
281
     1
  0
DICTIONARY
  5
67
102
{ACAD_REACTORS
330
9
102
}
330
9
100
AcDbDictionary
281
     1
  0
DICTIONARY
  5
53
102
{ACAD_REACTORS
330
9
102
}
330
9
100
AcDbDictionary
281
     1
  3
Layout1
350
59
  3
Model
350
52
  0
DICTIONARY
  5
6A
102
{ACAD_REACTORS
330
9
102
}
330
9
100
AcDbDictionary
281
     1
  0
DICTIONARY
  5
68
102
{ACAD_REACTORS
330
9
102
}
330
9
100
AcDbDictionary
281
     1
  3
Standard
350
6C
  0
DICTIONARY
  5
69
102
{ACAD_REACTORS
330
9
102
}
330
9
100
AcDbDictionary
281
     1
  0
ACDBDICTIONARYWDFLT
  5
8
102
{ACAD_REACTORS
330
9
102
}
330
9
100
AcDbDictionary
281
     1
  3
Normal
350
7
100
AcDbDictionaryWithDefault
340
7
  0
DICTIONARY
  5
71
102
{ACAD_REACTORS
330
9
102
}
330
9
100
AcDbDictionary
281
     1
  3
COLORDICT
350
73
  3
MATERIALDICT
350
72
  0
DICTIONARY
  5
6D
102
{ACAD_REACTORS
330
9
102
}
330
9
100
AcDbDictionary
281
     1
  3
DIMASSOC
350
6F
  3
HIDETEXT
350
6E
  3
PROJECTNAME
350
70
  0
XRECORD
  5
4
102
{ACAD_REACTORS
330
3
102
}
330
3
100
AcDbXrecord
280
     1
340
2
  0
XRECORD
  5
56
102
{ACAD_REACTORS
330
55
102
}
330
55
100
AcDbXrecord
280
     1
340
54
  0
LAYOUT
  5
59
102
{ACAD_XDICTIONARY
360
77
102
}
102
{ACAD_REACTORS
330
53
102
}
330
53
100
AcDbPlotSettings
  1

  2
Fax
  4

  6

 40
0.0
 41
0.0
 42
0.0
 43
0.0
 44
0.0
 45
0.0
 46
0.0
 47
0.0
 48
0.0
 49
0.0
140
0.0
141
0.0
142
1.0
143
1.0
 70
   688
 72
     0
 73
     0
 74
     5
  7
Default R14 pen assignments.ctb
 75
    16
147
1.0
148
0.0
149
0.0
100
AcDbLayout
  1
Layout1
 70
     1
 71
     1
 10
0.0
 20
0.0
 11
12.0
 21
9.0
 12
0.0004882914945483
 22
0.7501408034022604
 32
0.0
 14
1.000000000000000E+20
 24
1.000000000000000E+20
 34
1.000000000000000E+20
 15
-1.000000000000000E+20
 25
-1.000000000000000E+20
 35
-1.000000000000000E+20
146
0.0
 13
0.0
 23
0.0
 33
0.0
 16
1.0
 26
0.0
 36
0.0
 17
0.0
 27
1.0
 37
0.0
 76
     0
330
54
  0
LAYOUT
  5
52
102
{ACAD_XDICTIONARY
360
75
102
}
102
{ACAD_REACTORS
330
53
102
}
330
53
100
AcDbPlotSettings
  1

  2
Fax
  4

  6

 40
0.0
 41
0.0
 42
0.0
 43
0.0
 44
0.0
 45
0.0
 46
0.0
 47
0.0
 48
0.0
 49
0.0
140
0.0
141
0.0
142
1.0
143
1.0
 70
  1712
 72
     0
 73
     0
 74
     0
  7
Default R14 pen assignments.ctb
 75
     0
147
1.0
148
0.0
149
0.0
100
AcDbLayout
  1
Model
 70
     1
 71
     0
 10
0.0
 20
0.0
 11
12.0
 21
9.0
 12
0.0
 22
0.0
 32
0.0
 14
0.0
 24
0.0
 34
0.0
 15
0.0
 25
0.0
 35
0.0
146
0.0
 13
0.0
 23
0.0
 33
0.0
 16
1.0
 26
0.0
 36
0.0
 17
0.0
 27
1.0
 37
0.0
 76
     0
330
2
  0
MLINESTYLE
  5
6C
102
{ACAD_REACTORS
330
68
102
}
330
68
100
AcDbMlineStyle
  2
STANDARD
 70
     0
  3

 62
   256
 51
90.0
 52
90.0
 71
     2
 49
0.5
 62
   256
  6
BYLAYER
 49
-0.5
 62
   256
  6
BYLAYER
  0
ACDBPLACEHOLDER
  5
7
102
{ACAD_REACTORS
330
8
102
}
330
8
  0
XRECORD
  5
73
102
{ACAD_REACTORS
330
71
102
}
330
71
100
AcDbXrecord
280
     1
340
6B
  0
XRECORD
  5
72
102
{ACAD_REACTORS
330
71
102
}
330
71
100
AcDbXrecord
280
     1
340
6A
  0
DICTIONARYVAR
  5
6F
102
{ACAD_REACTORS
330
6D
102
}
330
6D
100
DictionaryVariables
280
     0
  1
2
  0
DICTIONARYVAR
  5
6E
102
{ACAD_REACTORS
330
6D
102
}
330
6D
100
DictionaryVariables
280
     0
  1
1
  0
DICTIONARYVAR
  5
70
102
{ACAD_REACTORS
330
6D
102
}
330
6D
100
DictionaryVariables
280
     0
  1

  0
DICTIONARY
  5
77
330
59
100
AcDbDictionary
280
     1
281
     1
  3
ACAD_XREC_ROUNDTRIP
360
78
  0
DICTIONARY
  5
75
330
52
100
AcDbDictionary
280
     1
281
     1
  3
ACAD_XREC_ROUNDTRIP
360
76
  0
XRECORD
  5
78
102
{ACAD_REACTORS
330
77
102
}
330
77
100
AcDbXrecord
280
     1
102
SHADEPLOT
 70
     0
102
SHADEPLOTRESLEVEL
 70
     2
102
SHADEPLOTCUSTOMDPI
 70
   300
  0
XRECORD
  5
76
102
{ACAD_REACTORS
330
75
102
}
330
75
100
AcDbXrecord
280
     1
102
SHADEPLOT
 70
     0
102
SHADEPLOTRESLEVEL
 70
     2
102
SHADEPLOTCUSTOMDPI
 70
   300
  0
ENDSEC
  0
EOF
