  0
SECTION
  2
HEADER
  9
$ACADVER
  1
AC1014
  9
$ACADMAINTVER
 70
     9
  9
$DWGCODEPAGE
  3
ANSI_1252
  9
$INSBASE
 10
10.66443960591096
 20
2.522878239641804
 30
0.0
  9
$EXTMIN
 10
5.058986231117138
 20
-0.383977004852232
 30
0.0
  9
$EXTMAX
 10
18.4500162447597
 20
3.713498721516505
 30
0.0
  9
$LIMMIN
 10
0.0
 20
0.0
  9
$LIMMAX
 10
36.0
 20
36.0
  9
$ORTHOMODE
 70
     1
  9
$REGENMODE
 70
     1
  9
$FILLMODE
 70
     1
  9
$QTEXTMODE
 70
     0
  9
$MIRRTEXT
 70
     1
  9
$DRAGMODE
 70
     0
  9
$LTSCALE
 40
1.0
  9
$OSMODE
 70
    37
  9
$ATTMODE
 70
     1
  9
$TEXTSIZE
 40
0.2
  9
$TRACEWID
 40
0.05
  9
$TEXTSTYLE
  7
STANDARD
  9
$CLAYER
  8
ADPDIM
  9
$CELTYPE
  6
BYLAYER
  9
$CECOLOR
 62
   256
  9
$CELTSCALE
 40
1.0
  9
$DELOBJ
 70
     1
  9
$DISPSILH
 70
     0
  9
$DIMSCALE
 40
1.0
  9
$DIMASZ
 40
0.125
  9
$DIMEXO
 40
0.0625
  9
$DIMDLI
 40
0.38
  9
$DIMRND
 40
0.0
  9
$DIMDLE
 40
0.0
  9
$DIMEXE
 40
0.18
  9
$DIMTP
 40
0.0
  9
$DIMTM
 40
0.0
  9
$DIMTXT
 40
0.125
  9
$DIMCEN
 40
0.1875
  9
$DIMTSZ
 40
0.125
  9
$DIMTOL
 70
     0
  9
$DIMLIM
 70
     0
  9
$DIMTIH
 70
     0
  9
$DIMTOH
 70
     0
  9
$DIMSE1
 70
     0
  9
$DIMSE2
 70
     0
  9
$DIMTAD
 70
     0
  9
$DIMZIN
 70
     3
  9
$DIMBLK
  1

  9
$DIMASO
 70
     1
  9
$DIMSHO
 70
     1
  9
$DIMPOST
  1

  9
$DIMAPOST
  1

  9
$DIMALT
 70
     0
  9
$DIMALTD
 70
     1
  9
$DIMALTF
 40
25.4
  9
$DIMLFAC
 40
1.0
  9
$DIMTOFL
 70
     0
  9
$DIMTVP
 40
0.0
  9
$DIMTIX
 70
     0
  9
$DIMSOXD
 70
     0
  9
$DIMSAH
 70
     0
  9
$DIMBLK1
  1

  9
$DIMBLK2
  1

  9
$DIMSTYLE
  2
STANDARD
  9
$DIMCLRD
 70
     0
  9
$DIMCLRE
 70
     0
  9
$DIMCLRT
 70
     0
  9
$DIMTFAC
 40
1.0
  9
$DIMGAP
 40
0.125
  9
$DIMJUST
 70
     0
  9
$DIMSD1
 70
     0
  9
$DIMSD2
 70
     0
  9
$DIMTOLJ
 70
     1
  9
$DIMTZIN
 70
     3
  9
$DIMALTZ
 70
     3
  9
$DIMALTTZ
 70
     3
  9
$DIMFIT
 70
     5
  9
$DIMUPT
 70
     0
  9
$DIMUNIT
 70
     5
  9
$DIMDEC
 70
     4
  9
$DIMTDEC
 70
     4
  9
$DIMALTU
 70
     5
  9
$DIMALTTD
 70
     1
  9
$DIMTXSTY
  7
STANDARD
  9
$DIMAUNIT
 70
     0
  9
$LUNITS
 70
     5
  9
$LUPREC
 70
     4
  9
$SKETCHINC
 40
0.1
  9
$FILLETRAD
 40
0.062
  9
$AUNITS
 70
     0
  9
$AUPREC
 70
     0
  9
$MENU
  1
acad
  9
$ELEVATION
 40
0.0
  9
$PELEVATION
 40
0.0
  9
$THICKNESS
 40
0.0
  9
$LIMCHECK
 70
     0
  9
$BLIPMODE
 70
     0
  9
$CHAMFERA
 40
0.0
  9
$CHAMFERB
 40
0.0
  9
$CHAMFERC
 40
0.0
  9
$CHAMFERD
 40
0.0
  9
$SKPOLY
 70
     0
  9
$TDCREATE
 40
2450353.004106667
  9
$TDUPDATE
 40
2452297.086301169
  9
$TDINDWG
 40
0.0790008218
  9
$TDUSRTIMER
 40
0.0790008218
  9
$USRTIMER
 70
     1
  9
$ANGBASE
 50
0.0
  9
$ANGDIR
 70
     0
  9
$PDMODE
 70
     0
  9
$PDSIZE
 40
0.0
  9
$PLINEWID
 40
0.0
  9
$COORDS
 70
     2
  9
$SPLFRAME
 70
     0
  9
$SPLINETYPE
 70
     6
  9
$SPLINESEGS
 70
     8
  9
$ATTDIA
 70
     0
  9
$ATTREQ
 70
     1
  9
$HANDLING
 70
 22529
  9
$HANDSEED
  5
282
  9
$SURFTAB1
 70
     6
  9
$SURFTAB2
 70
     6
  9
$SURFTYPE
 70
     6
  9
$SURFU
 70
     6
  9
$SURFV
 70
     6
  9
$UCSNAME
  2

  9
$UCSORG
 10
0.0
 20
0.0
 30
0.0
  9
$UCSXDIR
 10
1.0
 20
0.0
 30
0.0
  9
$UCSYDIR
 10
0.0
 20
1.0
 30
0.0
  9
$PUCSNAME
  2

  9
$PUCSORG
 10
0.0
 20
0.0
 30
0.0
  9
$PUCSXDIR
 10
1.0
 20
0.0
 30
0.0
  9
$PUCSYDIR
 10
0.0
 20
1.0
 30
0.0
  9
$USERI1
 70
     0
  9
$USERI2
 70
     0
  9
$USERI3
 70
     0
  9
$USERI4
 70
     0
  9
$USERI5
 70
     0
  9
$USERR1
 40
0.0
  9
$USERR2
 40
0.0
  9
$USERR3
 40
0.0
  9
$USERR4
 40
0.0
  9
$USERR5
 40
0.0
  9
$WORLDVIEW
 70
     1
  9
$SHADEDGE
 70
     3
  9
$SHADEDIF
 70
    70
  9
$TILEMODE
 70
     1
  9
$MAXACTVP
 70
    15
  9
$PINSBASE
 10
0.0
 20
0.0
 30
0.0
  9
$PLIMCHECK
 70
     0
  9
$PEXTMIN
 10
1.000000000000000E+20
 20
1.000000000000000E+20
 30
1.000000000000000E+20
  9
$PEXTMAX
 10
-1.000000000000000E+20
 20
-1.000000000000000E+20
 30
-1.000000000000000E+20
  9
$PLIMMIN
 10
0.0
 20
0.0
  9
$PLIMMAX
 10
12.0
 20
9.0
  9
$UNITMODE
 70
     0
  9
$VISRETAIN
 70
     0
  9
$PLINEGEN
 70
     0
  9
$PSLTSCALE
 70
     1
  9
$TREEDEPTH
 70
  3020
  9
$PICKSTYLE
 70
     1
  9
$CMLSTYLE
  2
STANDARD
  9
$CMLJUST
 70
     0
  9
$CMLSCALE
 40
1.0
  9
$PROXYGRAPHICS
 70
     1
  9
$MEASUREMENT
 70
     0
  0
ENDSEC
  0
SECTION
  2
CLASSES
  0
CLASS
  1
ACDBDICTIONARYWDFLT
  2
AcDbDictionaryWithDefault
  3
AutoCAD 2000
 90
        0
280
     0
281
     0
  0
CLASS
  1
ACDBPLACEHOLDER
  2
AcDbPlaceHolder
  3
AutoCAD 2000
 90
        0
280
     0
281
     0
  0
CLASS
  1
LAYOUT
  2
AcDbLayout
  3
AutoCAD 2000
 90
        0
280
     0
281
     0
  0
CLASS
  1
DICTIONARYVAR
  2
AcDbDictionaryVar
  3
AutoCAD 2000
 90
        0
280
     0
281
     0
  0
CLASS
  1
LONG_TRANSACTION
  2
AcDbLongTransaction
  3
AutoCAD 2000
 90
        0
280
     0
281
     0
  0
CLASS
  1
LWPOLYLINE
  2
AcDbPolyline
  3
AutoCAD 2000
 90
        0
280
     0
281
     1
  0
CLASS
  1
HATCH
  2
AcDbHatch
  3
AutoCAD 2000
 90
        0
280
     0
281
     1
  0
CLASS
  1
XRECORD
  2
AcDbXrecord
  3
AutoCAD 2000
 90
        0
280
     0
281
     0
  0
CLASS
  1
LONG_TRANSACTION
  2
AcDbLongTransaction
  3
AutoCAD 2000
 90
        0
280
     0
281
     0
  0
CLASS
  1
LWPOLYLINE
  2
AcDbPolyline
  3
AutoCAD 2000
 90
        0
280
     0
281
     1
  0
CLASS
  1
HATCH
  2
AcDbHatch
  3
AutoCAD 2000
 90
        0
280
     0
281
     1
  0
CLASS
  1
XRECORD
  2
AcDbXrecord
  3
AutoCAD 2000
 90
        0
280
     0
281
     0
  0
CLASS
  1
LONG_TRANSACTION
  2
AcDbLongTransaction
  3
AutoCAD 2000
 90
        0
280
     0
281
     0
  0
CLASS
  1
LWPOLYLINE
  2
AcDbPolyline
  3
AutoCAD 2000
 90
        0
280
     0
281
     1
  0
CLASS
  1
HATCH
  2
AcDbHatch
  3
AutoCAD 2000
 90
        0
280
     0
281
     1
  0
CLASS
  1
XRECORD
  2
AcDbXrecord
  3
AutoCAD 2000
 90
        0
280
     0
281
     0
  0
CLASS
  1
LONG_TRANSACTION
  2
AcDbLongTransaction
  3
AutoCAD 2000
 90
        0
280
     0
281
     0
  0
CLASS
  1
LWPOLYLINE
  2
AcDbPolyline
  3
AutoCAD 2000
 90
        0
280
     0
281
     1
  0
CLASS
  1
HATCH
  2
AcDbHatch
  3
AutoCAD 2000
 90
        0
280
     0
281
     1
  0
CLASS
  1
XRECORD
  2
AcDbXrecord
  3
AutoCAD 2000
 90
        0
280
     0
281
     0
  0
CLASS
  1
LONG_TRANSACTION
  2
AcDbLongTransaction
  3
AutoCAD 2000
 90
        0
280
     0
281
     0
  0
CLASS
  1
LWPOLYLINE
  2
AcDbPolyline
  3
AutoCAD 2000
 90
        0
280
     0
281
     1
  0
CLASS
  1
HATCH
  2
AcDbHatch
  3
AutoCAD 2000
 90
        0
280
     0
281
     1
  0
CLASS
  1
XRECORD
  2
AcDbXrecord
  3
AutoCAD 2000
 90
        0
280
     0
281
     0
  0
ENDSEC
  0
SECTION
  2
TABLES
  0
TABLE
  2
VPORT
  5
8
330
0
100
AcDbSymbolTable
 70
     2
  0
VPORT
  5
25E
330
8
100
AcDbSymbolTableRecord
100
AcDbViewportTableRecord
  2
*ACTIVE
 70
     0
 10
0.0
 20
0.0
 11
1.0
 21
1.0
 12
11.76508120747946
 22
1.664228656432289
 13
0.0
 23
0.0
 14
0.5740882589684922
 24
0.5740882589684922
 15
0.5
 25
0.5
 16
0.0
 26
0.0
 36
1.0
 17
0.0
 27
0.0
 37
0.0
 40
8.582083975164245
 41
1.570528967254408
 42
50.0
 43
0.0
 44
0.0
 50
0.0
 51
0.0
 71
     0
 72
   100
 73
     1
 74
     0
 75
     0
 76
     0
 77
     0
 78
     0
  0
ENDTAB
  0
TABLE
  2
LTYPE
  5
5
330
0
100
AcDbSymbolTable
 70
     1
  0
LTYPE
  5
13
330
5
100
AcDbSymbolTableRecord
100
AcDbLinetypeTableRecord
  2
BYBLOCK
 70
     0
  3

 72
    65
 73
     0
 40
0.0
  0
LTYPE
  5
14
330
5
100
AcDbSymbolTableRecord
100
AcDbLinetypeTableRecord
  2
BYLAYER
 70
     0
  3

 72
    65
 73
     0
 40
0.0
  0
LTYPE
  5
15
330
5
100
AcDbSymbolTableRecord
100
AcDbLinetypeTableRecord
  2
CONTINUOUS
 70
     0
  3
Solid line
 72
    65
 73
     0
 40
0.0
  0
ENDTAB
  0
TABLE
  2
LAYER
  5
2
330
0
100
AcDbSymbolTable
 70
     4
  0
LAYER
  5
10
330
2
100
AcDbSymbolTableRecord
100
AcDbLayerTableRecord
  2
0
 70
     0
 62
     7
  6
CONTINUOUS
  0
LAYER
  5
4B
330
2
100
AcDbSymbolTableRecord
100
AcDbLayerTableRecord
  2
ADPDIM
 70
     0
 62
     3
  6
CONTINUOUS
  0
LAYER
  5
4D
330
2
100
AcDbSymbolTableRecord
100
AcDbLayerTableRecord
  2
ADP1DETAIL
 70
     0
 62
     7
  6
CONTINUOUS
  0
LAYER
  5
4F
330
2
100
AcDbSymbolTableRecord
100
AcDbLayerTableRecord
  2
DEFPOINTS
 70
     0
 62
     7
  6
CONTINUOUS
  0
ENDTAB
  0
TABLE
  2
STYLE
  5
3
330
0
100
AcDbSymbolTable
 70
     2
  0
STYLE
  5
11
330
3
100
AcDbSymbolTableRecord
100
AcDbTextStyleTableRecord
  2
STANDARD
 70
     0
 40
0.0
 41
1.0
 50
0.0
 71
     0
 42
0.2
  3
txt
  4

  0
STYLE
  5
CB
330
3
100
AcDbSymbolTableRecord
100
AcDbTextStyleTableRecord
  2
ARIAL_WIDE
 70
     0
 40
0.0
 41
1.25
 50
0.0
 71
     0
 42
0.2
  3
ARIAL.TTF
  4

1001
ACAD
1000
Arial
1071
       34
  0
ENDTAB
  0
TABLE
  2
VIEW
  5
6
330
0
100
AcDbSymbolTable
 70
     0
  0
ENDTAB
  0
TABLE
  2
UCS
  5
7
330
0
100
AcDbSymbolTable
 70
     0
  0
ENDTAB
  0
TABLE
  2
APPID
  5
9
330
0
100
AcDbSymbolTable
 70
     1
  0
APPID
  5
12
330
9
100
AcDbSymbolTableRecord
100
AcDbRegAppTableRecord
  2
ACAD
 70
     0
  0
ENDTAB
  0
TABLE
  2
DIMSTYLE
  5
A
330
0
100
AcDbSymbolTable
 70
     1
  0
DIMSTYLE
105
C9
330
A
100
AcDbSymbolTableRecord
100
AcDbDimStyleTableRecord
  2
STANDARD
 70
     0
  3

  4

  5

  6

  7

 40
1.0
 41
0.18
 42
0.0625
 43
0.38
 44
0.18
 45
0.0
 46
0.0
 47
0.0
 48
0.0
140
0.18
141
0.09
142
0.0
143
25.4
144
1.0
145
0.0
146
1.0
147
0.09
 71
     0
 72
     0
 73
     1
 74
     1
 75
     0
 76
     0
 77
     0
 78
     0
170
     0
171
     2
172
     0
173
     0
174
     0
175
     0
176
     0
177
     0
178
     0
270
     2
271
     4
272
     4
273
     2
274
     2
340
11
275
     0
280
     0
281
     0
282
     0
283
     1
284
     0
285
     0
286
     0
287
     3
288
     0
  0
ENDTAB
  0
TABLE
  2
BLOCK_RECORD
  5
1
330
0
100
AcDbSymbolTable
 70
     5
  0
BLOCK_RECORD
  5
1E
102
{ACAD_XDICTIONARY
360
108
102
}
330
1
100
AcDbSymbolTableRecord
100
AcDbBlockTableRecord
  2
*MODEL_SPACE
  0
BLOCK_RECORD
  5
1A
102
{ACAD_XDICTIONARY
360
10A
102
}
330
1
100
AcDbSymbolTableRecord
100
AcDbBlockTableRecord
  2
*PAPER_SPACE
  0
BLOCK_RECORD
  5
44
330
1
100
AcDbSymbolTableRecord
100
AcDbBlockTableRecord
  2
*D0
  0
BLOCK_RECORD
  5
45
330
1
100
AcDbSymbolTableRecord
100
AcDbBlockTableRecord
  2
*D1
  0
BLOCK_RECORD
  5
47
330
1
100
AcDbSymbolTableRecord
100
AcDbBlockTableRecord
  2
4441VX
  0
BLOCK_RECORD
  5
48
330
1
100
AcDbSymbolTableRecord
100
AcDbBlockTableRecord
  2
*D3
  0
BLOCK_RECORD
  5
49
330
1
100
AcDbSymbolTableRecord
100
AcDbBlockTableRecord
  2
*D4
  0
ENDTAB
  0
ENDSEC
  0
SECTION
  2
BLOCKS
  0
BLOCK
  5
52
330
1E
100
AcDbEntity
  8
0
100
AcDbBlockBegin
  2
*MODEL_SPACE
 70
     0
 10
0.0
 20
0.0
 30
0.0
  3
*MODEL_SPACE
  1

  0
ENDBLK
  5
53
330
1E
100
AcDbEntity
  8
0
100
AcDbBlockEnd
  0
BLOCK
  5
50
330
1A
100
AcDbEntity
 67
     1
  8
0
100
AcDbBlockBegin
  2
*PAPER_SPACE
 70
     0
 10
0.0
 20
0.0
 30
0.0
  3
*PAPER_SPACE
  1

  0
ENDBLK
  5
51
330
1A
100
AcDbEntity
 67
     1
  8
0
100
AcDbBlockEnd
  0
BLOCK
  5
55
330
44
100
AcDbEntity
  8
0
100
AcDbBlockBegin
  2
*D0
 70
     1
 10
0.0
 20
0.0
 30
0.0
  3
*D0
  1
*U
  0
LINE
  5
56
330
44
100
AcDbEntity
  8
0
  6
BYBLOCK
 62
     0
100
AcDbLine
 10
0.0062054664510303
 20
0.9401146024678221
 30
0.0
 11
0.0062054664510303
 21
1.710184943219251
 31
0.0
  0
LINE
  5
57
330
44
100
AcDbEntity
  8
0
  6
BYBLOCK
 62
     0
100
AcDbLine
 10
2.256051679236778
 20
0.9401146024678221
 30
0.0
 11
2.256051679236778
 21
1.710184943219251
 31
0.0
  0
LINE
  5
58
330
44
100
AcDbEntity
  8
0
  6
BYBLOCK
 62
     0
100
AcDbLine
 10
0.0062054664510303
 20
1.530184943219251
 30
0.0
 11
0.735295239510571
 21
1.530184943219251
 31
0.0
  0
LINE
  5
59
330
44
100
AcDbEntity
  8
0
  6
BYBLOCK
 62
     0
100
AcDbLine
 10
2.256051679236778
 20
1.530184943219251
 30
0.0
 11
1.526961906177237
 21
1.530184943219251
 31
0.0
  0
LINE
  5
5A
330
44
100
AcDbEntity
  8
0
  6
BYBLOCK
 62
     0
100
AcDbLine
 10
-0.1187945335489697
 20
1.405184943219251
 30
0.0
 11
0.1312054664510303
 21
1.655184943219251
 31
0.0
  0
LINE
  5
5B
330
44
100
AcDbEntity
  8
0
  6
BYBLOCK
 62
     0
100
AcDbLine
 10
2.131051679236778
 20
1.405184943219251
 30
0.0
 11
2.381051679236778
 21
1.655184943219251
 31
0.0
  0
TEXT
  5
5C
330
44
100
AcDbEntity
  8
0
  6
BYBLOCK
 62
     0
100
AcDbText
 10
0.860295239510571
 20
1.467684943219251
 30
0.0
 40
0.125
  1
2 1/4
 72
     1
 11
1.131128572843904
 21
1.530184943219251
 31
0.0
100
AcDbText
 73
     2
  0
POINT
  5
5E
330
44
100
AcDbEntity
  8
DEFPOINTS
  6
BYBLOCK
 62
     0
100
AcDbPoint
 10
0.0062054664510303
 20
0.8776146024678221
 30
0.0
  0
POINT
  5
5F
330
44
100
AcDbEntity
  8
DEFPOINTS
  6
BYBLOCK
 62
     0
100
AcDbPoint
 10
2.256051679236778
 20
0.8776146024678221
 30
0.0
  0
POINT
  5
60
330
44
100
AcDbEntity
  8
DEFPOINTS
  6
BYBLOCK
 62
     0
100
AcDbPoint
 10
2.256051679236778
 20
1.530184943219251
 30
0.0
  0
ENDBLK
  5
61
330
44
100
AcDbEntity
  8
0
100
AcDbBlockEnd
  0
BLOCK
  5
62
330
45
100
AcDbEntity
  8
0
100
AcDbBlockBegin
  2
*D1
 70
     1
 10
0.0
 20
0.0
 30
0.0
  3
*D1
  1
*U
  0
LINE
  5
63
330
45
100
AcDbEntity
  8
0
  6
BYBLOCK
 62
     0
100
AcDbLine
 10
0.3716463658930973
 20
0.6660211440020545
 30
0.0
 11
0.3716463658930973
 21
0.1898878548191709
 31
0.0
  0
LINE
  5
64
330
45
100
AcDbEntity
  8
0
  6
BYBLOCK
 62
     0
100
AcDbLine
 10
1.890610779794711
 20
0.6660211440020545
 30
0.0
 11
1.890610779794711
 21
0.1898878548191709
 31
0.0
  0
LINE
  5
65
330
45
100
AcDbEntity
  8
0
  6
BYBLOCK
 62
     0
100
AcDbLine
 10
0.3716463658930973
 20
0.3698878548191709
 30
0.0
 11
0.7561285728439043
 21
0.3698878548191709
 31
0.0
  0
LINE
  5
66
330
45
100
AcDbEntity
  8
0
  6
BYBLOCK
 62
     0
100
AcDbLine
 10
1.890610779794711
 20
0.3698878548191709
 30
0.0
 11
1.506128572843904
 21
0.3698878548191709
 31
0.0
  0
LINE
  5
67
330
45
100
AcDbEntity
  8
0
  6
BYBLOCK
 62
     0
100
AcDbLine
 10
0.2466463658930973
 20
0.2448878548191709
 30
0.0
 11
0.4966463658930973
 21
0.4948878548191709
 31
0.0
  0
LINE
  5
68
330
45
100
AcDbEntity
  8
0
  6
BYBLOCK
 62
     0
100
AcDbLine
 10
1.765610779794711
 20
0.2448878548191709
 30
0.0
 11
2.015610779794711
 21
0.4948878548191709
 31
0.0
  0
TEXT
  5
69
330
45
100
AcDbEntity
  8
0
  6
BYBLOCK
 62
     0
100
AcDbText
 10
0.8811285728439042
 20
0.3073878548191709
 30
0.0
 40
0.125
  1
1 1/2
 72
     1
 11
1.131128572843904
 21
0.3698878548191709
 31
0.0
100
AcDbText
 73
     2
  0
POINT
  5
6A
330
45
100
AcDbEntity
  8
DEFPOINTS
  6
BYBLOCK
 62
     0
100
AcDbPoint
 10
0.3716463658930973
 20
0.7285211440020545
 30
0.0
  0
POINT
  5
6B
330
45
100
AcDbEntity
  8
DEFPOINTS
  6
BYBLOCK
 62
     0
100
AcDbPoint
 10
1.890610779794711
 20
0.7285211440020545
 30
0.0
  0
POINT
  5
6C
330
45
100
AcDbEntity
  8
DEFPOINTS
  6
BYBLOCK
 62
     0
100
AcDbPoint
 10
1.890610779794711
 20
0.3698878548191709
 30
0.0
  0
ENDBLK
  5
6D
330
45
100
AcDbEntity
  8
0
100
AcDbBlockEnd
  0
BLOCK
  5
6E
330
47
100
AcDbEntity
  8
0
100
AcDbBlockBegin
  2
4441VX
 70
     0
 10
0.0
 20
0.0
 30
0.0
  3
4441VX
  1

  0
ARC
  5
6F
330
47
100
AcDbEntity
  8
ADP1DETAIL
100
AcDbCircle
 10
1.253085751193489
 20
-0.2595296250938742
 30
0.0
 40
0.1496490038829597
100
AcDbArc
 50
27.14636574431139
 51
152.141470462668
  0
ARC
  5
70
330
47
100
AcDbEntity
  8
ADP1DETAIL
100
AcDbCircle
 10
1.302188338622571
 20
-0.2978798194699626
 30
0.0
 40
0.2101782019643341
100
AcDbArc
 50
146.4390519213901
 51
260.5144166102077
  0
LINE
  5
71
330
47
100
AcDbEntity
  8
ADP1DETAIL
100
AcDbLine
 10
1.257278358952303
 20
0.1099999999999998
 30
0.0
 11
0.0
 21
0.1099999999999999
 31
0.0
  0
LINE
  5
72
330
47
100
AcDbEntity
  8
ADP1DETAIL
100
AcDbLine
 10
1.257278358952303
 20
0.1700472034440016
 30
0.0
 11
0.0
 21
0.1700472034440017
 31
0.0
  0
LWPOLYLINE
  5
73
330
47
100
AcDbEntity
  8
ADP1DETAIL
100
AcDbPolyline
 90
        8
 70
     0
 43
0.0
 10
0.7549999999999999
 20
0.0
 10
1.232828479369175
 20
0.0
 42
-0.2077198848378289
 10
1.421249999999999
 20
-0.125
 42
0.4933693770361702
 10
1.05
 20
-0.129375
 42
0.5434151326153771
 10
1.251249999999999
 20
-0.5968750000000003
 42
0.5151842302334682
 10
1.67625
 20
-0.21625
 42
0.3652264839808959
 10
1.25875
 20
0.2031249999999998
 10
0.0
 20
0.2031249999999998
  0
ARC
  5
7D
330
47
100
AcDbEntity
  8
ADP1DETAIL
100
AcDbCircle
 10
1.265549102907697
 20
-0.3255605890860472
 30
0.0
 40
0.258650338934059
100
AcDbArc
 50
54.02189029463622
 51
136.7971310082117
  0
ARC
  5
7E
330
47
100
AcDbEntity
  8
ADP1DETAIL
100
AcDbCircle
 10
1.302188338622571
 20
-0.2978798194699626
 30
0.0
 40
0.2702254054083359
100
AcDbArc
 50
146.4390519213901
 51
260.5144166102077
  0
LWPOLYLINE
  5
7F
330
47
100
AcDbEntity
  8
ADP1DETAIL
100
AcDbPolyline
 90
       10
 70
     0
 43
0.0
 10
1.046249999999999
 20
-0.125
 42
0.2412146369779913
 10
0.958125
 20
-0.09375
 10
0.7549999999999999
 20
-0.09375
 10
0.7549999999999999
 20
0.0
 10
0.0
 20
0.0
 10
0.0
 20
0.2974999999999999
 10
1.169999999999999
 20
0.2962499999999999
 42
-0.4260109852051598
 10
1.78125
 20
-0.2337500000000001
 42
-0.8015776433328291
 10
0.905
 20
-0.4337499999999999
 42
-0.229610317422079
 10
0.9525000000000002
 20
-0.09375
 42
-3.289715807696925
  0
ARC
  5
8B
330
47
100
AcDbEntity
  8
ADP1DETAIL
100
AcDbCircle
 10
1.328069655602622
 20
-0.2550639216909418
 30
0.0
 40
0.2572120844511139
100
AcDbArc
 50
257.176665354937
 51
6.444621329075149
  0
ARC
  5
8C
330
47
100
AcDbEntity
  8
ADP1DETAIL
100
AcDbCircle
 10
1.328069655602622
 20
-0.2550639216909418
 30
0.0
 40
0.3172592878951157
100
AcDbArc
 50
257.176665354937
 51
6.444621329075149
  0
CIRCLE
  5
8D
330
47
100
AcDbEntity
  8
ADP1DETAIL
100
AcDbCircle
 10
1.305933116174776
 20
-0.2437681720521091
 30
0.0
 40
0.0996907270031027
  0
ARC
  5
8E
330
47
100
AcDbEntity
  8
ADP1DETAIL
100
AcDbCircle
 10
1.218726688508064
 20
-0.2542235612170094
 30
0.0
 40
0.3659714734236683
100
AcDbArc
 50
4.681429934072113
 51
84.80803544371548
  0
ARC
  5
8F
330
47
100
AcDbEntity
  8
ADP1DETAIL
100
AcDbCircle
 10
1.218726688508064
 20
-0.2542235612170094
 30
0.0
 40
0.4260186768676701
100
AcDbArc
 50
4.681429934072113
 51
84.80803544371548
  0
ENDBLK
  5
90
330
47
100
AcDbEntity
  8
0
100
AcDbBlockEnd
  0
BLOCK
  5
91
330
48
100
AcDbEntity
  8
0
100
AcDbBlockBegin
  2
*D3
 70
     1
 10
0.0
 20
0.0
 30
0.0
  3
*D3
  1

  0
LINE
  5
92
330
48
100
AcDbEntity
  8
0
  6
BYBLOCK
 62
     0
100
AcDbLine
 10
10.66443960591096
 20
2.460378239641804
 30
0.0
 11
10.66443960591096
 21
0.2392867549434907
 31
0.0
  0
LINE
  5
93
330
48
100
AcDbEntity
  8
0
  6
BYBLOCK
 62
     0
100
AcDbLine
 10
12.66990912355761
 20
2.211354706821443
 30
0.0
 11
12.66990912355761
 21
0.2392867549434907
 31
0.0
  0
LINE
  5
94
330
48
100
AcDbEntity
  8
0
  6
BYBLOCK
 62
     0
100
AcDbLine
 10
10.66443960591096
 20
0.4192867549434908
 30
0.0
 11
11.50050769806762
 21
0.4192867549434908
 31
0.0
  0
LINE
  5
95
330
48
100
AcDbEntity
  8
0
  6
BYBLOCK
 62
     0
100
AcDbLine
 10
12.66990912355761
 20
0.4192867549434908
 30
0.0
 11
11.83384103140095
 21
0.4192867549434908
 31
0.0
  0
LINE
  5
96
330
48
100
AcDbEntity
  8
0
  6
BYBLOCK
 62
     0
100
AcDbLine
 10
10.53943960591096
 20
0.2942867549434908
 30
0.0
 11
10.78943960591096
 21
0.5442867549434908
 31
0.0
  0
LINE
  5
97
330
48
100
AcDbEntity
  8
0
  6
BYBLOCK
 62
     0
100
AcDbLine
 10
12.54490912355761
 20
0.2942867549434908
 30
0.0
 11
12.79490912355761
 21
0.5442867549434908
 31
0.0
  0
TEXT
  5
98
330
48
100
AcDbEntity
  8
0
  6
BYBLOCK
 62
     0
100
AcDbText
 10
11.62550769806762
 20
0.3567867549434908
 30
0.0
 40
0.125
  1
2
 72
     1
 11
11.66717436473428
 21
0.4192867549434908
 31
0.0
100
AcDbText
 73
     2
  0
POINT
  5
99
330
48
100
AcDbEntity
  8
DEFPOINTS
  6
BYBLOCK
 62
     0
100
AcDbPoint
 10
10.66443960591096
 20
2.522878239641804
 30
0.0
  0
POINT
  5
9A
330
48
100
AcDbEntity
  8
DEFPOINTS
  6
BYBLOCK
 62
     0
100
AcDbPoint
 10
12.66990912355761
 20
2.273854706821443
 30
0.0
  0
POINT
  5
9B
330
48
100
AcDbEntity
  8
DEFPOINTS
  6
BYBLOCK
 62
     0
100
AcDbPoint
 10
12.66990912355761
 20
0.4192867549434908
 30
0.0
  0
ENDBLK
  5
9C
330
48
100
AcDbEntity
  8
0
100
AcDbBlockEnd
  0
BLOCK
  5
9D
330
49
100
AcDbEntity
  8
0
100
AcDbBlockBegin
  2
*D4
 70
     1
 10
0.0
 20
0.0
 30
0.0
  3
*D4
  1

  0
LINE
  5
9E
330
49
100
AcDbEntity
  8
0
  6
BYBLOCK
 62
     0
100
AcDbLine
 10
12.66990912355761
 20
2.211354706821443
 30
0.0
 11
12.66990912355761
 21
0.2392867549434907
 31
0.0
  0
LINE
  5
9F
330
49
100
AcDbEntity
  8
0
  6
BYBLOCK
 62
     0
100
AcDbLine
 10
14.13332577355839
 20
1.812868784776973
 30
0.0
 11
14.13332577355839
 21
0.2392867549434907
 31
0.0
  0
LINE
  5
A0
330
49
100
AcDbEntity
  8
0
  6
BYBLOCK
 62
     0
100
AcDbLine
 10
12.66990912355761
 20
0.4192867549434908
 30
0.0
 11
12.964117448558
 21
0.4192867549434908
 31
0.0
  0
LINE
  5
A1
330
49
100
AcDbEntity
  8
0
  6
BYBLOCK
 62
     0
100
AcDbLine
 10
14.13332577355839
 20
0.4192867549434908
 30
0.0
 11
13.839117448558
 21
0.4192867549434908
 31
0.0
  0
LINE
  5
A2
330
49
100
AcDbEntity
  8
0
  6
BYBLOCK
 62
     0
100
AcDbLine
 10
12.54490912355761
 20
0.2942867549434908
 30
0.0
 11
12.79490912355761
 21
0.5442867549434908
 31
0.0
  0
LINE
  5
A3
330
49
100
AcDbEntity
  8
0
  6
BYBLOCK
 62
     0
100
AcDbLine
 10
14.00832577355839
 20
0.2942867549434908
 30
0.0
 11
14.25832577355839
 21
0.5442867549434908
 31
0.0
  0
TEXT
  5
A4
330
49
100
AcDbEntity
  8
0
  6
BYBLOCK
 62
     0
100
AcDbText
 10
13.089117448558
 20
0.3567867549434908
 30
0.0
 40
0.125
  1
1 7/16
 72
     1
 11
13.401617448558
 21
0.4192867549434908
 31
0.0
100
AcDbText
 73
     2
  0
POINT
  5
A5
330
49
100
AcDbEntity
  8
DEFPOINTS
  6
BYBLOCK
 62
     0
100
AcDbPoint
 10
12.66990912355761
 20
2.273854706821443
 30
0.0
  0
POINT
  5
A6
330
49
100
AcDbEntity
  8
DEFPOINTS
  6
BYBLOCK
 62
     0
100
AcDbPoint
 10
14.13332577355839
 20
1.875368784776973
 30
0.0
  0
POINT
  5
A7
330
49
100
AcDbEntity
  8
DEFPOINTS
  6
BYBLOCK
 62
     0
100
AcDbPoint
 10
14.13332577355839
 20
0.4192867549434908
 30
0.0
  0
ENDBLK
  5
A8
330
49
100
AcDbEntity
  8
0
100
AcDbBlockEnd
  0
ENDSEC
  0
SECTION
  2
ENTITIES
  0
DIMENSION
  5
A9
330
1E
100
AcDbEntity
  8
ADPDIM
100
AcDbDimension
  2
*D3
 10
12.66990912355761
 20
0.4192867549434908
 30
0.0
 11
11.66717436473428
 21
0.4192867549434908
 31
0.0
100
AcDbAlignedDimension
 13
10.66443960591096
 23
2.522878239641804
 33
0.0
 14
12.66990912355761
 24
2.273854706821443
 34
0.0
100
AcDbRotatedDimension
  0
INSERT
  5
AA
330
1E
100
AcDbEntity
  8
ADPDIM
100
AcDbBlockReference
  2
4441VX
 10
10.66443960591096
 20
2.522878239641804
 30
0.0
 41
2.656251016750521
 42
2.656251016750521
 43
2.656251016750521
  0
LINE
  5
AB
330
1E
100
AcDbEntity
  8
ADPDIM
100
AcDbLine
 10
10.66443960591096
 20
2.522878239641804
 30
0.0
 11
12.66443960591097
 21
2.522878239641804
 31
0.0
  0
LINE
  5
AC
330
1E
100
AcDbEntity
  8
0
100
AcDbLine
 10
9.539516499518095
 20
2.907844605091669
 30
0.0
 11
8.393795404325953
 21
2.907844605091669
 31
0.0
  0
ARC
  5
AD
330
1E
100
AcDbEntity
  8
0
100
AcDbCircle
 10
9.017571521575018
 20
2.564044605091669
 30
0.0
 40
0.8125
100
AcDbArc
 50
52.28977333137304
 51
90.0
  0
DIMENSION
  5
AE
330
1E
100
AcDbEntity
  8
ADPDIM
100
AcDbDimension
  2
*D1
 10
9.777053728525824
 20
2.373201633116424
 30
0.0
 11
9.017571521575018
 21
2.373201633116424
 31
0.0
 12
7.886442948731113
 22
2.003313778297253
 32
0.0
100
AcDbAlignedDimension
 13
8.258089314624211
 23
2.731834922299308
 33
0.0
 14
9.777053728525824
 24
2.731834922299308
 34
0.0
100
AcDbRotatedDimension
  0
DIMENSION
  5
AF
330
1E
100
AcDbEntity
  8
ADPDIM
100
AcDbDimension
  2
*D0
 10
10.14249462796789
 20
3.533498721516505
 30
0.0
 11
9.017571521575018
 21
3.533498721516505
 31
0.0
 12
7.886442948731113
 22
2.003313778297253
 32
0.0
100
AcDbAlignedDimension
 13
7.892648415182144
 23
2.880928380765075
 33
0.0
 14
10.14249462796789
 24
2.880928380765075
 34
0.0
100
AcDbRotatedDimension
  0
LINE
  5
B0
330
1E
100
AcDbEntity
  8
0
100
AcDbLine
 10
8.017571521575018
 20
3.001544605091669
 30
0.0
 11
8.079408758666076
 21
3.001544605091669
 31
0.0
  0
ARC
  5
B1
330
1E
100
AcDbEntity
  8
0
100
AcDbCircle
 10
7.946840186312138
 20
2.566177301847558
 30
0.0
 40
0.1957429538942399
100
AcDbArc
 50
359.3757275120109
 51
74.0995487402812
  0
ARC
  5
B2
330
1E
100
AcDbEntity
  8
0
100
AcDbCircle
 10
8.017571521575018
 20
2.876544605091669
 30
0.0
 40
0.125
100
AcDbArc
 50
90.0
 51
265.9804262434344
  0
ARC
  5
B3
330
1E
100
AcDbEntity
  8
0
100
AcDbCircle
 10
9.017571521575018
 20
2.564044605091669
 30
0.0
 40
0.8125
100
AcDbArc
 50
90.0
 51
127.7102266686269
  0
LINE
  5
B4
330
1E
100
AcDbEntity
  8
0
100
AcDbLine
 10
8.079924592369987
 20
3.001544605091669
 30
0.0
 11
8.099410086847759
 21
3.067309004347955
 31
0.0
  0
ARC
  5
B5
330
1E
100
AcDbEntity
  8
0
100
AcDbCircle
 10
8.158212875109022
 20
3.595294605091669
 30
0.0
 40
0.53125
100
AcDbArc
 50
263.6450457150437
 51
313.0098162713345
  0
ARC
  5
B6
330
1E
100
AcDbEntity
  8
0
100
AcDbCircle
 10
8.393795404325953
 20
2.891844605091669
 30
0.0
 40
0.016
100
AcDbArc
 50
90.0
 51
174.0
  0
LINE
  5
B7
330
1E
100
AcDbEntity
  8
0
100
AcDbLine
 10
8.361321521575018
 20
2.735944605091669
 30
0.0
 11
8.268795404325953
 21
2.735944605091669
 31
0.0
  0
LINE
  5
B8
330
1E
100
AcDbEntity
  8
0
100
AcDbLine
 10
8.361321521575018
 20
2.735944605091669
 30
0.0
 11
8.37788305400006
 21
2.893517060503952
 31
0.0
  0
LINE
  5
B9
330
1E
100
AcDbEntity
  8
0
100
AcDbLine
 10
8.236321521575018
 20
2.564044605091669
 30
0.0
 11
8.142288803623911
 21
2.564044605091669
 31
0.0
  0
LINE
  5
BA
330
1E
100
AcDbEntity
  8
0
100
AcDbLine
 10
8.236321521575018
 20
2.564044605091669
 30
0.0
 11
8.25288305400006
 21
2.721617060503952
 31
0.0
  0
ARC
  5
BB
330
1E
100
AcDbEntity
  8
0
100
AcDbCircle
 10
8.268795404325953
 20
2.719944605091669
 30
0.0
 40
0.016
100
AcDbArc
 50
90.0
 51
174.0
  0
LINE
  5
BC
330
1E
100
AcDbEntity
  8
0
100
AcDbLine
 10
9.955218450780048
 20
3.001544605091669
 30
0.0
 11
9.935732956302276
 21
3.067309004347955
 31
0.0
  0
ARC
  5
BD
330
1E
100
AcDbEntity
  8
0
100
AcDbCircle
 10
9.876930168041013
 20
3.595294605091669
 30
0.0
 40
0.53125
100
AcDbArc
 50
226.9901837286654
 51
276.3549542849563
  0
LINE
  5
BE
330
1E
100
AcDbEntity
  8
0
100
AcDbLine
 10
9.798821521575018
 20
2.564044605091669
 30
0.0
 11
9.892854239526124
 21
2.564044605091669
 31
0.0
  0
ARC
  5
BF
330
1E
100
AcDbEntity
  8
0
100
AcDbCircle
 10
9.641347638824083
 20
2.891844605091669
 30
0.0
 40
0.016
100
AcDbArc
 50
5.99999999999999
 51
90.0
  0
LINE
  5
C0
330
1E
100
AcDbEntity
  8
0
100
AcDbLine
 10
9.539516499518095
 20
2.907844605091669
 30
0.0
 11
9.641347638824083
 21
2.907844605091669
 31
0.0
  0
LINE
  5
C1
330
1E
100
AcDbEntity
  8
0
100
AcDbLine
 10
9.673821521575018
 20
2.735944605091669
 30
0.0
 11
9.766347638824083
 21
2.735944605091669
 31
0.0
  0
ARC
  5
C2
330
1E
100
AcDbEntity
  8
0
100
AcDbCircle
 10
9.766347638824083
 20
2.719944605091669
 30
0.0
 40
0.016
100
AcDbArc
 50
5.99999999999999
 51
90.0
  0
LINE
  5
C3
330
1E
100
AcDbEntity
  8
0
100
AcDbLine
 10
9.798821521575018
 20
2.564044605091669
 30
0.0
 11
9.782259989149974
 21
2.721617060503952
 31
0.0
  0
LINE
  5
C4
330
1E
100
AcDbEntity
  8
0
100
AcDbLine
 10
9.673821521575018
 20
2.735944605091669
 30
0.0
 11
9.657259989149974
 21
2.893517060503952
 31
0.0
  0
LINE
  5
C5
330
1E
100
AcDbEntity
  8
0
100
AcDbLine
 10
10.01757152157501
 20
3.001544605091669
 30
0.0
 11
9.955734284483959
 21
3.001544605091669
 31
0.0
  0
ARC
  5
C6
330
1E
100
AcDbEntity
  8
0
100
AcDbCircle
 10
10.01757152157501
 20
2.876544605091669
 30
0.0
 40
0.125
100
AcDbArc
 50
274.0195737565656
 51
90.0
  0
ARC
  5
C7
330
1E
100
AcDbEntity
  8
0
100
AcDbCircle
 10
10.08830285683789
 20
2.566177301847558
 30
0.0
 40
0.1957429538942399
100
AcDbArc
 50
105.9004512597187
 51
180.624272487989
  0
DIMENSION
  5
C8
330
1E
100
AcDbEntity
  8
ADPDIM
100
AcDbDimension
  2
*D4
 10
14.13332577355839
 20
0.4192867549434908
 30
0.0
 11
13.401617448558
 21
0.4192867549434908
 31
0.0
100
AcDbAlignedDimension
 13
12.66990912355761
 23
2.273854706821443
 33
0.0
 14
14.13332577355839
 24
1.875368784776973
 34
0.0
100
AcDbRotatedDimension
  0
TEXT
  5
CC
330
1E
100
AcDbEntity
  8
ADPDIM
100
AcDbText
 10
5.058986231117138
 20
-0.3469715478263111
 30
0.0
 40
0.125
  1
J U L I U S  B L U M  &  C O . ,  I N C .      ( 8 0 0 )  5 2 6 - 6 2 9 3        W W W . J U L I U S B L U M . C O M        P A R T  N o .  4 4 4 1 - V
 41
1.25
  7
ARIAL_WIDE
 72
     1
 11
11.75450123793842
 21
-0.2219715478263111
 31
0.0
100
AcDbText
 73
     3
  0
ENDSEC
  0
SECTION
  2
OBJECTS
  0
DICTIONARY
  5
C
330
0
100
AcDbDictionary
  3
ACAD_GROUP
350
D
  3
ACAD_LAYOUT
350
19
  3
ACAD_MLINESTYLE
350
16
  3
ACAD_PLOTSETTINGS
350
18
  3
ACAD_PLOTSTYLENAME
350
E
  3
ACDBHEADERROUNDTRIPXREC
350
25F
  3
ACDBVARIABLEDICTIONARY
350
13D
  0
DICTIONARY
  5
108
330
1E
100
AcDbDictionary
280
     1
  3
ACAD_LAYOUTSELFREF
360
281
  0
DICTIONARY
  5
10A
330
1A
100
AcDbDictionary
280
     1
  3
ACAD_LAYOUTSELFREF
360
280
  0
DICTIONARY
  5
D
102
{ACAD_REACTORS
330
C
102
}
330
C
100
AcDbDictionary
  0
DICTIONARY
  5
19
102
{ACAD_REACTORS
330
C
102
}
330
C
100
AcDbDictionary
  0
DICTIONARY
  5
16
102
{ACAD_REACTORS
330
C
102
}
330
C
100
AcDbDictionary
  3
STANDARD
350
17
  0
DICTIONARY
  5
18
102
{ACAD_REACTORS
330
C
102
}
330
C
100
AcDbDictionary
  0
ACDBDICTIONARYWDFLT
  5
E
102
{ACAD_REACTORS
330
C
102
}
330
C
100
AcDbDictionary
281
     1
  3
Normal
350
F
100
AcDbDictionaryWithDefault
340
F
  0
DICTIONARY
  5
25F
102
{ACAD_REACTORS
330
C
102
}
330
C
100
AcDbDictionary
  3
CEPSNTYPE
350
269
  3
DIMSTYLEDATA
350
26D
  3
FINGERPRINTGUID
350
26A
  3
HYPERLINKBASE
350
262
  3
INSUNITS
350
268
  3
LAYOUTDICT
350
264
  3
LWETCUNION
350
267
  3
PLOTSETDICT
350
265
  3
PLOTSTYLNAMDICT
350
266
  3
PSVPSCALE
350
26C
  3
PUCSBASE
350
270
  3
PUCSORGBACK
350
276
  3
PUCSORGBOTTOM
350
272
  3
PUCSORGFRONT
350
275
  3
PUCSORGLEFT
350
273
  3
PUCSORGRIGHT
350
274
  3
PUCSORGTOP
350
271
  3
PUCSORTHOREF
350
26E
  3
PUCSORTHOVIEW
350
26F
  3
STYLESHEET
350
263
  3
TSTACKALIGN
350
260
  3
TSTACKSIZE
350
261
  3
UCSBASE
350
279
  3
UCSORGBACK
350
27F
  3
UCSORGBOTTOM
350
27B
  3
UCSORGFRONT
350
27E
  3
UCSORGLEFT
350
27C
  3
UCSORGRIGHT
350
27D
  3
UCSORGTOP
350
27A
  3
UCSORTHOREF
350
277
  3
UCSORTHOVIEW
350
278
  3
VERSIONGUID
350
26B
  0
DICTIONARY
  5
13D
102
{ACAD_REACTORS
330
C
102
}
330
C
100
AcDbDictionary
  3
DIMASSOC
350
13F
  3
HIDETEXT
350
13E
  0
XRECORD
  5
281
102
{ACAD_REACTORS
330
108
102
}
330
108
100
AcDbXrecord
340
1E
  0
XRECORD
  5
280
102
{ACAD_REACTORS
330
10A
102
}
330
10A
100
AcDbXrecord
340
1A
  0
MLINESTYLE
  5
17
102
{ACAD_REACTORS
330
16
102
}
330
16
100
AcDbMlineStyle
  2
STANDARD
 70
     0
  3

 62
   256
 51
90.0
 52
90.0
 71
     2
 49
0.5
 62
   256
  6
BYLAYER
 49
-0.5
 62
   256
  6
BYLAYER
  0
ACDBPLACEHOLDER
  5
F
102
{ACAD_REACTORS
330
E
102
}
330
E
100
AcDbPlaceHolder
280
     0
  0
XRECORD
  5
269
102
{ACAD_REACTORS
330
25F
102
}
330
25F
100
AcDbXrecord
 90
        0
  0
XRECORD
  5
26D
102
{ACAD_REACTORS
330
25F
102
}
330
25F
100
AcDbXrecord
1000
DSTYLE
1002
{
1070
   277
 70
     5
1070
   279
 70
     2
1002
}
  0
XRECORD
  5
26A
102
{ACAD_REACTORS
330
25F
102
}
330
25F
100
AcDbXrecord
  1
{59ED58B2-B67B-481A-A95E-9921858B5634}
  0
XRECORD
  5
262
102
{ACAD_REACTORS
330
25F
102
}
330
25F
100
AcDbXrecord
  1

  0
XRECORD
  5
268
102
{ACAD_REACTORS
330
25F
102
}
330
25F
100
AcDbXrecord
 90
        0
  0
XRECORD
  5
264
102
{ACAD_REACTORS
330
25F
102
}
330
25F
100
AcDbXrecord
340
19
  0
XRECORD
  5
267
102
{ACAD_REACTORS
330
25F
102
}
330
25F
100
AcDbXrecord
 90
    14877
  0
XRECORD
  5
265
102
{ACAD_REACTORS
330
25F
102
}
330
25F
100
AcDbXrecord
340
18
  0
XRECORD
  5
266
102
{ACAD_REACTORS
330
25F
102
}
330
25F
100
AcDbXrecord
340
E
  0
XRECORD
  5
26C
102
{ACAD_REACTORS
330
25F
102
}
330
25F
100
AcDbXrecord
 40
0.0
  0
XRECORD
  5
270
102
{ACAD_REACTORS
330
25F
102
}
330
25F
100
AcDbXrecord
340
0
  0
XRECORD
  5
276
102
{ACAD_REACTORS
330
25F
102
}
330
25F
100
AcDbXrecord
 10
0.0
 20
0.0
 30
0.0
  0
XRECORD
  5
272
102
{ACAD_REACTORS
330
25F
102
}
330
25F
100
AcDbXrecord
 10
0.0
 20
0.0
 30
0.0
  0
XRECORD
  5
275
102
{ACAD_REACTORS
330
25F
102
}
330
25F
100
AcDbXrecord
 10
0.0
 20
0.0
 30
0.0
  0
XRECORD
  5
273
102
{ACAD_REACTORS
330
25F
102
}
330
25F
100
AcDbXrecord
 10
0.0
 20
0.0
 30
0.0
  0
XRECORD
  5
274
102
{ACAD_REACTORS
330
25F
102
}
330
25F
100
AcDbXrecord
 10
0.0
 20
0.0
 30
0.0
  0
XRECORD
  5
271
102
{ACAD_REACTORS
330
25F
102
}
330
25F
100
AcDbXrecord
 10
0.0
 20
0.0
 30
0.0
  0
XRECORD
  5
26E
102
{ACAD_REACTORS
330
25F
102
}
330
25F
100
AcDbXrecord
340
0
  0
XRECORD
  5
26F
102
{ACAD_REACTORS
330
25F
102
}
330
25F
100
AcDbXrecord
 70
     0
  0
XRECORD
  5
263
102
{ACAD_REACTORS
330
25F
102
}
330
25F
100
AcDbXrecord
  1

  0
XRECORD
  5
260
102
{ACAD_REACTORS
330
25F
102
}
330
25F
100
AcDbXrecord
 90
        1
  0
XRECORD
  5
261
102
{ACAD_REACTORS
330
25F
102
}
330
25F
100
AcDbXrecord
 90
       70
  0
XRECORD
  5
279
102
{ACAD_REACTORS
330
25F
102
}
330
25F
100
AcDbXrecord
340
0
  0
XRECORD
  5
27F
102
{ACAD_REACTORS
330
25F
102
}
330
25F
100
AcDbXrecord
 10
0.0
 20
0.0
 30
0.0
  0
XRECORD
  5
27B
102
{ACAD_REACTORS
330
25F
102
}
330
25F
100
AcDbXrecord
 10
0.0
 20
0.0
 30
0.0
  0
XRECORD
  5
27E
102
{ACAD_REACTORS
330
25F
102
}
330
25F
100
AcDbXrecord
 10
0.0
 20
0.0
 30
0.0
  0
XRECORD
  5
27C
102
{ACAD_REACTORS
330
25F
102
}
330
25F
100
AcDbXrecord
 10
0.0
 20
0.0
 30
0.0
  0
XRECORD
  5
27D
102
{ACAD_REACTORS
330
25F
102
}
330
25F
100
AcDbXrecord
 10
0.0
 20
0.0
 30
0.0
  0
XRECORD
  5
27A
102
{ACAD_REACTORS
330
25F
102
}
330
25F
100
AcDbXrecord
 10
0.0
 20
0.0
 30
0.0
  0
XRECORD
  5
277
102
{ACAD_REACTORS
330
25F
102
}
330
25F
100
AcDbXrecord
340
0
  0
XRECORD
  5
278
102
{ACAD_REACTORS
330
25F
102
}
330
25F
100
AcDbXrecord
 70
     0
  0
XRECORD
  5
26B
102
{ACAD_REACTORS
330
25F
102
}
330
25F
100
AcDbXrecord
  1
{BD7BFA06-1B6A-4668-A1B7-2DC035F851D2}
  0
DICTIONARYVAR
  5
13F
102
{ACAD_REACTORS
330
13D
102
}
330
13D
100
DictionaryVariables
280
     0
  1
2
  0
DICTIONARYVAR
  5
13E
102
{ACAD_REACTORS
330
13D
102
}
330
13D
100
DictionaryVariables
280
     0
  1
1
  0
ENDSEC
  0
EOF
