  0
SECTION
  2
HEADER
  9
$ACADVER
  1
AC1015
  9
$ACADMAINTVER
 70
    20
  9
$DWGCODEPAGE
  3
ANSI_936
  9
$INSBASE
 10
2.870882718653812
 20
-7.691225298081536
 30
0.0
  9
$EXTMIN
 10
-5.343877118216795
 20
-9.933921430661087
 30
-0.0000000349181948
  9
$EXTMAX
 10
14.74832111272795
 20
-1.84933261121877
 30
0.0000000814935746
  9
$LIMMIN
 10
0.0
 20
0.0
  9
$LIMMAX
 10
36.0
 20
36.0
  9
$ORTHOMODE
 70
     1
  9
$REGENMODE
 70
     1
  9
$FILLMODE
 70
     1
  9
$QTEXTMODE
 70
     0
  9
$MIRRTEXT
 70
     1
  9
$LTSCALE
 40
1.0
  9
$ATTMODE
 70
     1
  9
$TEXTSIZE
 40
0.2
  9
$TRACEWID
 40
0.05
  9
$TEXTSTYLE
  7
STANDARD
  9
$CLAYER
  8
0
  9
$CELTYPE
  6
ByLayer
  9
$CECOLOR
 62
   256
  9
$CELTSCALE
 40
1.0
  9
$DISPSILH
 70
     0
  9
$DIMSCALE
 40
1.0
  9
$DIMASZ
 40
0.125
  9
$DIMEXO
 40
0.0625
  9
$DIMDLI
 40
0.38
  9
$DIMRND
 40
0.0
  9
$DIMDLE
 40
0.0
  9
$DIMEXE
 40
0.18
  9
$DIMTP
 40
0.0
  9
$DIMTM
 40
0.0
  9
$DIMTXT
 40
0.125
  9
$DIMCEN
 40
0.1875
  9
$DIMTSZ
 40
0.125
  9
$DIMTOL
 70
     0
  9
$DIMLIM
 70
     0
  9
$DIMTIH
 70
     0
  9
$DIMTOH
 70
     0
  9
$DIMSE1
 70
     0
  9
$DIMSE2
 70
     0
  9
$DIMTAD
 70
     0
  9
$DIMZIN
 70
     3
  9
$DIMBLK
  1

  9
$DIMASO
 70
     1
  9
$DIMSHO
 70
     1
  9
$DIMPOST
  1

  9
$DIMAPOST
  1

  9
$DIMALT
 70
     0
  9
$DIMALTD
 70
     1
  9
$DIMALTF
 40
25.4
  9
$DIMLFAC
 40
1.0
  9
$DIMTOFL
 70
     0
  9
$DIMTVP
 40
0.0
  9
$DIMTIX
 70
     0
  9
$DIMSOXD
 70
     0
  9
$DIMSAH
 70
     0
  9
$DIMBLK1
  1

  9
$DIMBLK2
  1

  9
$DIMSTYLE
  2
Standard
  9
$DIMCLRD
 70
     0
  9
$DIMCLRE
 70
     0
  9
$DIMCLRT
 70
     0
  9
$DIMTFAC
 40
1.0
  9
$DIMGAP
 40
0.125
  9
$DIMJUST
 70
     0
  9
$DIMSD1
 70
     0
  9
$DIMSD2
 70
     0
  9
$DIMTOLJ
 70
     1
  9
$DIMTZIN
 70
     3
  9
$DIMALTZ
 70
     3
  9
$DIMALTTZ
 70
     3
  9
$DIMUPT
 70
     0
  9
$DIMDEC
 70
     4
  9
$DIMTDEC
 70
     4
  9
$DIMALTU
 70
     5
  9
$DIMALTTD
 70
     1
  9
$DIMTXSTY
  7
STANDARD
  9
$DIMAUNIT
 70
     0
  9
$DIMADEC
 70
     0
  9
$DIMALTRND
 40
0.0
  9
$DIMAZIN
 70
     0
  9
$DIMDSEP
 70
    46
  9
$DIMATFIT
 70
     3
  9
$DIMFRAC
 70
     0
  9
$DIMLDRBLK
  1

  9
$DIMLUNIT
 70
     5
  9
$DIMLWD
 70
    -2
  9
$DIMLWE
 70
    -2
  9
$DIMTMOVE
 70
     2
  9
$LUNITS
 70
     5
  9
$LUPREC
 70
     4
  9
$SKETCHINC
 40
0.1
  9
$FILLETRAD
 40
0.187
  9
$AUNITS
 70
     0
  9
$AUPREC
 70
     0
  9
$MENU
  1
acad
  9
$ELEVATION
 40
0.0
  9
$PELEVATION
 40
0.0
  9
$THICKNESS
 40
0.0
  9
$LIMCHECK
 70
     0
  9
$CHAMFERA
 40
0.0
  9
$CHAMFERB
 40
0.0
  9
$CHAMFERC
 40
0.0
  9
$CHAMFERD
 40
0.0
  9
$SKPOLY
 70
     0
  9
$TDCREATE
 40
2450406.425246713
  9
$TDUCREATE
 40
2450406.633580046
  9
$TDUPDATE
 40
2455237.596468576
  9
$TDUUPDATE
 40
2455237.804801910
  9
$TDINDWG
 40
0.1612812963
  9
$TDUSRTIMER
 40
0.1612812963
  9
$USRTIMER
 70
     1
  9
$ANGBASE
 50
0.0
  9
$ANGDIR
 70
     0
  9
$PDMODE
 70
     0
  9
$PDSIZE
 40
0.0
  9
$PLINEWID
 40
0.0
  9
$SPLFRAME
 70
     0
  9
$SPLINETYPE
 70
     6
  9
$SPLINESEGS
 70
     8
  9
$HANDSEED
  5
424
  9
$SURFTAB1
 70
     6
  9
$SURFTAB2
 70
     6
  9
$SURFTYPE
 70
     6
  9
$SURFU
 70
     6
  9
$SURFV
 70
     6
  9
$UCSBASE
  2

  9
$UCSNAME
  2

  9
$UCSORG
 10
0.0
 20
0.0
 30
0.0
  9
$UCSXDIR
 10
1.0
 20
0.0
 30
0.0
  9
$UCSYDIR
 10
0.0
 20
1.0
 30
0.0
  9
$UCSORTHOREF
  2

  9
$UCSORTHOVIEW
 70
     0
  9
$UCSORGTOP
 10
0.0
 20
0.0
 30
0.0
  9
$UCSORGBOTTOM
 10
0.0
 20
0.0
 30
0.0
  9
$UCSORGLEFT
 10
0.0
 20
0.0
 30
0.0
  9
$UCSORGRIGHT
 10
0.0
 20
0.0
 30
0.0
  9
$UCSORGFRONT
 10
0.0
 20
0.0
 30
0.0
  9
$UCSORGBACK
 10
0.0
 20
0.0
 30
0.0
  9
$PUCSBASE
  2

  9
$PUCSNAME
  2

  9
$PUCSORG
 10
0.0
 20
0.0
 30
0.0
  9
$PUCSXDIR
 10
1.0
 20
0.0
 30
0.0
  9
$PUCSYDIR
 10
0.0
 20
1.0
 30
0.0
  9
$PUCSORTHOREF
  2

  9
$PUCSORTHOVIEW
 70
     0
  9
$PUCSORGTOP
 10
0.0
 20
0.0
 30
0.0
  9
$PUCSORGBOTTOM
 10
0.0
 20
0.0
 30
0.0
  9
$PUCSORGLEFT
 10
0.0
 20
0.0
 30
0.0
  9
$PUCSORGRIGHT
 10
0.0
 20
0.0
 30
0.0
  9
$PUCSORGFRONT
 10
0.0
 20
0.0
 30
0.0
  9
$PUCSORGBACK
 10
0.0
 20
0.0
 30
0.0
  9
$USERI1
 70
     0
  9
$USERI2
 70
     0
  9
$USERI3
 70
     0
  9
$USERI4
 70
     0
  9
$USERI5
 70
     0
  9
$USERR1
 40
0.0
  9
$USERR2
 40
0.0
  9
$USERR3
 40
0.0
  9
$USERR4
 40
0.0
  9
$USERR5
 40
0.0
  9
$WORLDVIEW
 70
     1
  9
$SHADEDGE
 70
     3
  9
$SHADEDIF
 70
    70
  9
$TILEMODE
 70
     1
  9
$MAXACTVP
 70
    15
  9
$PINSBASE
 10
0.0008545024320483
 20
1.750284242913068
 30
0.0
  9
$PLIMCHECK
 70
     0
  9
$PEXTMIN
 10
1.000000000000000E+20
 20
1.000000000000000E+20
 30
1.000000000000000E+20
  9
$PEXTMAX
 10
-1.000000000000000E+20
 20
-1.000000000000000E+20
 30
-1.000000000000000E+20
  9
$PLIMMIN
 10
0.0
 20
0.0
  9
$PLIMMAX
 10
12.0
 20
9.0
  9
$UNITMODE
 70
     0
  9
$VISRETAIN
 70
     0
  9
$PLINEGEN
 70
     0
  9
$PSLTSCALE
 70
     1
  9
$TREEDEPTH
 70
  3020
  9
$CMLSTYLE
  2
Standard
  9
$CMLJUST
 70
     0
  9
$CMLSCALE
 40
1.0
  9
$PROXYGRAPHICS
 70
     1
  9
$MEASUREMENT
 70
     0
  9
$CELWEIGHT
370
    -1
  9
$ENDCAPS
280
     0
  9
$JOINSTYLE
280
     0
  9
$LWDISPLAY
290
     0
  9
$INSUNITS
 70
     0
  9
$HYPERLINKBASE
  1

  9
$STYLESHEET
  1

  9
$XEDIT
290
     1
  9
$CEPSNTYPE
380
     0
  9
$PSTYLEMODE
290
     1
  9
$FINGERPRINTGUID
  2
{F02732EB-3FA3-4324-8EF6-51B2D1821909}
  9
$VERSIONGUID
  2
{484005F1-0CFD-4DB8-968A-1344B3D79A69}
  9
$EXTNAMES
290
     1
  9
$PSVPSCALE
 40
0.0
  9
$OLESTARTUP
290
     0
  0
ENDSEC
  0
SECTION
  2
CLASSES
  0
CLASS
  1
ACDBDICTIONARYWDFLT
  2
AcDbDictionaryWithDefault
  3
ObjectDBX Classes
 90
        0
280
     0
281
     0
  0
CLASS
  1
ACDBPLACEHOLDER
  2
AcDbPlaceHolder
  3
ObjectDBX Classes
 90
        0
280
     0
281
     0
  0
CLASS
  1
LAYOUT
  2
AcDbLayout
  3
ObjectDBX Classes
 90
        0
280
     0
281
     0
  0
CLASS
  1
DICTIONARYVAR
  2
AcDbDictionaryVar
  3
ObjectDBX Classes
 90
        0
280
     0
281
     0
  0
CLASS
  1
MATERIAL
  2
AcDbMaterial
  3
ObjectDBX Classes
 90
     1024
280
     0
281
     0
  0
CLASS
  1
VISUALSTYLE
  2
AcDbVisualStyle
  3
ObjectDBX Classes
 90
     4095
280
     0
281
     0
  0
CLASS
  1
TABLESTYLE
  2
AcDbTableStyle
  3
ObjectDBX Classes
 90
     4095
280
     0
281
     0
  0
CLASS
  1
DIMASSOC
  2
AcDbDimAssoc
  3
"AcDbDimAssoc|Product Desc:     AcDim ARX App For Dimension|Company:          Autodesk, Inc.|WEB Address:      www.autodesk.com"
 90
        0
280
     0
281
     0
  0
ENDSEC
  0
SECTION
  2
TABLES
  0
TABLE
  2
VPORT
  5
8
102
{ACAD_XDICTIONARY
360
300
102
}
330
0
100
AcDbSymbolTable
 70
     1
  0
VPORT
  5
230
330
8
100
AcDbSymbolTableRecord
100
AcDbViewportTableRecord
  2
*Active
 70
     0
 10
0.0
 20
0.0
 11
1.0
 21
1.0
 12
4.702221997255575
 22
-5.891627020939928
 13
0.0
 23
0.0
 14
0.5740882589684922
 24
0.5740882589684922
 15
0.5
 25
0.5
 16
0.0
 26
0.0
 36
1.0
 17
0.0
 27
0.0
 37
0.0
 40
8.318573437860122
 41
2.426443202979515
 42
50.0
 43
0.0
 44
0.0
 50
0.0
 51
0.0
 71
     0
 72
   100
 73
     1
 74
     0
 75
     0
 76
     0
 77
     0
 78
     0
281
     0
 65
     1
110
0.0
120
0.0
130
0.0
111
1.0
121
0.0
131
0.0
112
0.0
122
1.0
132
0.0
 79
     0
146
0.0
  0
ENDTAB
  0
TABLE
  2
LTYPE
  5
5
330
0
100
AcDbSymbolTable
 70
     1
  0
LTYPE
  5
13
330
5
100
AcDbSymbolTableRecord
100
AcDbLinetypeTableRecord
  2
ByBlock
 70
     0
  3

 72
    65
 73
     0
 40
0.0
  0
LTYPE
  5
14
330
5
100
AcDbSymbolTableRecord
100
AcDbLinetypeTableRecord
  2
ByLayer
 70
     0
  3

 72
    65
 73
     0
 40
0.0
  0
LTYPE
  5
15
330
5
100
AcDbSymbolTableRecord
100
AcDbLinetypeTableRecord
  2
CONTINUOUS
 70
     0
  3
Solid line
 72
    65
 73
     0
 40
0.0
  0
ENDTAB
  0
TABLE
  2
LAYER
  5
2
330
0
100
AcDbSymbolTable
 70
     4
  0
LAYER
  5
10
330
2
100
AcDbSymbolTableRecord
100
AcDbLayerTableRecord
  2
0
 70
     0
 62
     7
  6
CONTINUOUS
370
    -3
390
F
  0
LAYER
  5
44
330
2
100
AcDbSymbolTableRecord
100
AcDbLayerTableRecord
  2
ADP1DETAIL
 70
     0
 62
     7
  6
CONTINUOUS
370
    -3
390
F
  0
LAYER
  5
46
330
2
100
AcDbSymbolTableRecord
100
AcDbLayerTableRecord
  2
DEFPOINTS
 70
     0
 62
     7
  6
CONTINUOUS
290
     0
370
    -3
390
F
  0
LAYER
  5
47
330
2
100
AcDbSymbolTableRecord
100
AcDbLayerTableRecord
  2
ADPDIM
 70
     0
 62
     3
  6
CONTINUOUS
370
    -3
390
F
  0
ENDTAB
  0
TABLE
  2
STYLE
  5
3
330
0
100
AcDbSymbolTable
 70
     2
  0
STYLE
  5
11
330
3
100
AcDbSymbolTableRecord
100
AcDbTextStyleTableRecord
  2
STANDARD
 70
     0
 40
0.0
 41
1.0
 50
0.0
 71
     0
 42
0.2
  3
txt
  4

  0
STYLE
  5
D7
330
3
100
AcDbSymbolTableRecord
100
AcDbTextStyleTableRecord
  2
ARIAL_WIDE
 70
     0
 40
0.0
 41
1.25
 50
0.0
 71
     0
 42
0.2
  3
ARIAL.TTF
  4

1001
ACAD
1000
Arial
1071
       34
  0
ENDTAB
  0
TABLE
  2
VIEW
  5
6
330
0
100
AcDbSymbolTable
 70
     0
  0
ENDTAB
  0
TABLE
  2
UCS
  5
7
330
0
100
AcDbSymbolTable
 70
     0
  0
ENDTAB
  0
TABLE
  2
APPID
  5
9
330
0
100
AcDbSymbolTable
 70
     2
  0
APPID
  5
12
330
9
100
AcDbSymbolTableRecord
100
AcDbRegAppTableRecord
  2
ACAD
 70
     0
  0
APPID
  5
2A9
330
9
100
AcDbSymbolTableRecord
100
AcDbRegAppTableRecord
  2
DCO15
 70
     0
  0
ENDTAB
  0
TABLE
  2
DIMSTYLE
  5
A
330
0
100
AcDbSymbolTable
 70
     1
100
AcDbDimStyleTable
 71
     1
340
D5
  0
DIMSTYLE
105
D5
102
{ACAD_REACTORS
330
3B8
330
3B9
330
3BA
102
}
330
A
100
AcDbSymbolTableRecord
100
AcDbDimStyleTableRecord
  2
Standard
 70
     0
340
11
  0
ENDTAB
  0
TABLE
  2
BLOCK_RECORD
  5
1
330
0
100
AcDbSymbolTable
 70
    21
  0
BLOCK_RECORD
  5
1E
102
{ACAD_XDICTIONARY
360
114
102
}
330
1
100
AcDbSymbolTableRecord
100
AcDbBlockTableRecord
  2
*Model_Space
340
21
  0
BLOCK_RECORD
  5
1A
102
{ACAD_XDICTIONARY
360
116
102
}
330
1
100
AcDbSymbolTableRecord
100
AcDbBlockTableRecord
  2
*Paper_Space
340
1D
  0
BLOCK_RECORD
  5
29
330
1
100
AcDbSymbolTableRecord
100
AcDbBlockTableRecord
  2
4441
340
0
102
{BLKREFS
331
39E
331
3B7
102
}
  0
BLOCK_RECORD
  5
2B7
330
1
100
AcDbSymbolTableRecord
100
AcDbBlockTableRecord
  2
*D6
340
0
  0
BLOCK_RECORD
  5
2C4
330
1
100
AcDbSymbolTableRecord
100
AcDbBlockTableRecord
  2
*D7
340
0
  0
BLOCK_RECORD
  5
2D1
330
1
100
AcDbSymbolTableRecord
100
AcDbBlockTableRecord
  2
*D8
340
0
  0
BLOCK_RECORD
  5
31D
330
1
100
AcDbSymbolTableRecord
100
AcDbBlockTableRecord
  2
*D9
340
0
  0
BLOCK_RECORD
  5
331
330
1
100
AcDbSymbolTableRecord
100
AcDbBlockTableRecord
  2
*D11
340
0
  0
BLOCK_RECORD
  5
349
330
1
100
AcDbSymbolTableRecord
100
AcDbBlockTableRecord
  2
*D12
340
0
  0
BLOCK_RECORD
  5
362
330
1
100
AcDbSymbolTableRecord
100
AcDbBlockTableRecord
  2
*D13
340
0
  0
BLOCK_RECORD
  5
36F
330
1
100
AcDbSymbolTableRecord
100
AcDbBlockTableRecord
  2
*D14
340
0
  0
BLOCK_RECORD
  5
37C
330
1
100
AcDbSymbolTableRecord
100
AcDbBlockTableRecord
  2
*D15
340
0
  0
BLOCK_RECORD
  5
389
330
1
100
AcDbSymbolTableRecord
100
AcDbBlockTableRecord
  2
_Oblique
340
0
  0
BLOCK_RECORD
  5
3BC
330
1
100
AcDbSymbolTableRecord
100
AcDbBlockTableRecord
  2
*D18
340
0
  0
BLOCK_RECORD
  5
3C9
330
1
100
AcDbSymbolTableRecord
100
AcDbBlockTableRecord
  2
*D19
340
0
  0
BLOCK_RECORD
  5
3D6
330
1
100
AcDbSymbolTableRecord
100
AcDbBlockTableRecord
  2
*D20
340
0
  0
ENDTAB
  0
ENDSEC
  0
SECTION
  2
BLOCKS
  0
BLOCK
  5
4A
330
1E
100
AcDbEntity
  8
0
100
AcDbBlockBegin
  2
*Model_Space
 70
     0
 10
0.0
 20
0.0
 30
0.0
  3
*Model_Space
  1

  0
ENDBLK
  5
4B
330
1E
100
AcDbEntity
  8
0
100
AcDbBlockEnd
  0
BLOCK
  5
48
330
1A
100
AcDbEntity
 67
     1
  8
0
100
AcDbBlockBegin
  2
*Paper_Space
 70
     0
 10
0.0
 20
0.0
 30
0.0
  3
*Paper_Space
  1

  0
ENDBLK
  5
49
330
1A
100
AcDbEntity
 67
     1
  8
0
100
AcDbBlockEnd
  0
BLOCK
  5
4D
330
29
100
AcDbEntity
  8
0
100
AcDbBlockBegin
  2
4441
 70
     0
 10
0.0
 20
0.0
 30
0.0
  3
4441
  1

  0
ARC
  5
4E
330
29
100
AcDbEntity
  8
0
100
AcDbCircle
 10
2.131128572843903
 20
0.3179684149746849
 30
0.0
 40
0.125
100
AcDbArc
 50
274.0195737565656
 51
90.0
  0
ARC
  5
4F
330
29
100
AcDbEntity
  8
0
100
AcDbCircle
 10
0.3823524555948391
 20
0.161368414974685
 30
0.0
 40
0.016
100
AcDbArc
 50
90.0
 51
174.0
  0
ARC
  5
50
330
29
100
AcDbEntity
  8
0
100
AcDbCircle
 10
0.2717699263779078
 20
1.036718414974684
 30
0.0
 40
0.53125
100
AcDbArc
 50
263.6450457150437
 51
313.0098162713346
  0
ARC
  5
51
330
29
100
AcDbEntity
  8
0
100
AcDbCircle
 10
0.131128572843904
 20
0.3179684149746849
 30
0.0
 40
0.125
100
AcDbArc
 50
90.0
 51
265.9804262434344
  0
ARC
  5
52
330
29
100
AcDbEntity
  8
0
100
AcDbCircle
 10
0.0603972375810239
 20
0.0076011117305739
 30
0.0
 40
0.1957429538942399
100
AcDbArc
 50
359.375727512011
 51
74.0995487402812
  0
LINE
  5
53
330
29
100
AcDbEntity
  8
0
100
AcDbLine
 10
0.349878572843904
 20
0.005468414974685
 30
0.0
 11
0.3664401052689467
 21
0.1630408703869674
 31
0.0
  0
LINE
  5
54
330
29
100
AcDbEntity
  8
0
100
AcDbLine
 10
0.349878572843904
 20
0.005468414974685
 30
0.0
 11
0.2558458548927965
 21
0.005468414974685
 31
0.0
  0
LINE
  5
55
330
29
100
AcDbEntity
  8
0
100
AcDbLine
 10
0.131128572843904
 20
0.442968414974685
 30
0.0
 11
0.1929658099349621
 21
0.442968414974685
 31
0.0
  0
LINE
  5
56
330
29
100
AcDbEntity
  8
0
100
AcDbLine
 10
0.1934816436388733
 20
0.442968414974685
 30
0.0
 11
0.2129671381166458
 21
0.5087328142309704
 31
0.0
  0
LINE
  5
57
330
29
100
AcDbEntity
  8
0
100
AcDbLine
 10
1.787378572843904
 20
0.177368414974685
 30
0.0
 11
1.770817040418861
 21
0.3349408703869674
 31
0.0
  0
LINE
  5
58
330
29
100
AcDbEntity
  8
0
100
AcDbLine
 10
0.474878572843904
 20
0.177368414974685
 30
0.0
 11
0.4914401052689468
 21
0.3349408703869674
 31
0.0
  0
LINE
  5
59
330
29
100
AcDbEntity
  8
0
100
AcDbLine
 10
0.474878572843904
 20
0.177368414974685
 30
0.0
 11
0.3823524555948391
 21
0.177368414974685
 31
0.0
  0
ARC
  5
5A
330
29
100
AcDbEntity
  8
0
100
AcDbCircle
 10
2.201859908106783
 20
0.0076011117305739
 30
0.0
 40
0.1957429538942399
100
AcDbArc
 50
105.9004512597188
 51
180.624272487989
  0
LINE
  5
5B
330
29
100
AcDbEntity
  8
0
100
AcDbLine
 10
1.912378572843904
 20
0.005468414974685
 30
0.0
 11
1.895817040418861
 21
0.1630408703869674
 31
0.0
  0
LINE
  5
5C
330
29
100
AcDbEntity
  8
0
100
AcDbLine
 10
1.912378572843904
 20
0.005468414974685
 30
0.0
 11
2.006411290795011
 21
0.005468414974685
 31
0.0
  0
ARC
  5
5D
330
29
100
AcDbEntity
  8
0
100
AcDbCircle
 10
1.879904690092968
 20
0.161368414974685
 30
0.0
 40
0.016
100
AcDbArc
 50
5.99999999999999
 51
90.0
  0
LINE
  5
5E
330
29
100
AcDbEntity
  8
0
100
AcDbLine
 10
1.787378572843904
 20
0.177368414974685
 30
0.0
 11
1.879904690092968
 21
0.177368414974685
 31
0.0
  0
ARC
  5
5F
330
29
100
AcDbEntity
  8
0
100
AcDbCircle
 10
1.131128572843904
 20
0.005468414974685
 30
0.0
 40
0.625
100
AcDbArc
 50
33.37250147611144
 51
90.0
  0
ARC
  5
60
330
29
100
AcDbEntity
  8
0
100
AcDbCircle
 10
1.131128572843904
 20
0.005468414974685
 30
0.0
 40
0.8125
100
AcDbArc
 50
52.28977333137304
 51
90.0
  0
ARC
  5
61
330
29
100
AcDbEntity
  8
0
100
AcDbCircle
 10
1.131128572843904
 20
0.005468414974685
 30
0.0
 40
0.8125
100
AcDbArc
 50
90.0
 51
127.7102266686269
  0
ARC
  5
62
330
29
100
AcDbEntity
  8
0
100
AcDbCircle
 10
1.131128572843904
 20
0.005468414974685
 30
0.0
 40
0.625
100
AcDbArc
 50
90.0
 51
146.6274985238885
  0
ARC
  5
63
330
29
100
AcDbEntity
  8
0
100
AcDbCircle
 10
0.5073524555948393
 20
0.333268414974685
 30
0.0
 40
0.016
100
AcDbArc
 50
90.0
 51
174.0
  0
LINE
  5
64
330
29
100
AcDbEntity
  8
0
100
AcDbLine
 10
0.6091835949008262
 20
0.349268414974685
 30
0.0
 11
0.5073524555948393
 21
0.349268414974685
 31
0.0
  0
ARC
  5
65
330
29
100
AcDbEntity
  8
0
100
AcDbCircle
 10
1.9904872193099
 20
1.036718414974684
 30
0.0
 40
0.53125
100
AcDbArc
 50
226.9901837286655
 51
276.3549542849563
  0
LINE
  5
66
330
29
100
AcDbEntity
  8
0
100
AcDbLine
 10
1.653073550786981
 20
0.349268414974685
 30
0.0
 11
1.754904690092968
 21
0.349268414974685
 31
0.0
  0
ARC
  5
67
330
29
100
AcDbEntity
  8
0
100
AcDbCircle
 10
1.754904690092968
 20
0.333268414974685
 30
0.0
 40
0.016
100
AcDbArc
 50
5.99999999999999
 51
90.0
  0
LINE
  5
68
330
29
100
AcDbEntity
  8
0
100
AcDbLine
 10
2.068775502048934
 20
0.442968414974685
 30
0.0
 11
2.049290007571161
 21
0.5087328142309704
 31
0.0
  0
LINE
  5
69
330
29
100
AcDbEntity
  8
0
100
AcDbLine
 10
2.131128572843903
 20
0.442968414974685
 30
0.0
 11
2.069291335752845
 21
0.442968414974685
 31
0.0
  0
ENDBLK
  5
6A
330
29
100
AcDbEntity
  8
0
100
AcDbBlockEnd
  0
BLOCK
  5
2C2
330
2B7
100
AcDbEntity
  8
0
100
AcDbBlockBegin
  2
*D6
 70
     1
 10
0.0
 20
0.0
 30
0.0
  3
*D6
  1

  0
LINE
  5
2DE
330
2B7
100
AcDbEntity
  8
ADPDIM
 62
     0
370
    -2
100
AcDbLine
 10
0.6329713069267903
 20
-8.506591398377416
 30
0.0
 11
0.6329713069267903
 21
-7.736521057625986
 31
0.0
  0
LINE
  5
2DF
330
2B7
100
AcDbEntity
  8
ADPDIM
 62
     0
370
    -2
100
AcDbLine
 10
2.882817519712537
 20
-8.506591398377416
 30
0.0
 11
2.882817519712537
 21
-7.736521057625986
 31
0.0
  0
LINE
  5
2E0
330
2B7
100
AcDbEntity
  8
ADPDIM
 62
     0
370
    -2
100
AcDbLine
 10
0.6329713069267903
 20
-7.916521057625986
 30
0.0
 11
1.36206107998633
 21
-7.916521057625986
 31
0.0
  0
LINE
  5
2E1
330
2B7
100
AcDbEntity
  8
ADPDIM
 62
     0
370
    -2
100
AcDbLine
 10
2.882817519712537
 20
-7.916521057625986
 30
0.0
 11
2.153727746652997
 21
-7.916521057625986
 31
0.0
  0
LINE
  5
2E2
330
2B7
100
AcDbEntity
  8
ADPDIM
 62
     0
370
    -2
100
AcDbLine
 10
2.757817519712537
 20
-8.041521057625985
 30
0.0
 11
3.007817519712537
 21
-7.791521057625986
 31
0.0
  0
LINE
  5
2E3
330
2B7
100
AcDbEntity
  8
ADPDIM
 62
     0
370
    -2
100
AcDbLine
 10
0.5079713069267903
 20
-8.041521057625985
 30
0.0
 11
0.7579713069267903
 21
-7.791521057625986
 31
0.0
  0
MTEXT
  5
2E4
330
2B7
100
AcDbEntity
  8
ADPDIM
 62
     0
100
AcDbMText
 10
1.757894413319663
 20
-7.916521057625986
 30
0.0
 40
0.125
 41
0.0
 71
     5
 72
     1
  1
\A1;2 1/4
 73
     1
 44
1.0
1001
ACAD
1000
MTEXTBEGIN
1070
    73
1070
     1
1070
    44
1040
1.0
1070
    74
1070
     0
1000
MTEXTEND
  0
POINT
  5
2E5
330
2B7
100
AcDbEntity
  8
DEFPOINTS
 62
     0
100
AcDbPoint
 10
0.6329713069267903
 20
-8.569091398377416
 30
0.0
  0
POINT
  5
2E6
330
2B7
100
AcDbEntity
  8
DEFPOINTS
 62
     0
100
AcDbPoint
 10
2.882817519712537
 20
-8.569091398377416
 30
0.0
  0
POINT
  5
2E7
330
2B7
100
AcDbEntity
  8
DEFPOINTS
 62
     0
100
AcDbPoint
 10
2.882817519712537
 20
-7.916521057625986
 30
0.0
  0
ENDBLK
  5
2C3
330
2B7
100
AcDbEntity
  8
0
100
AcDbBlockEnd
  0
BLOCK
  5
2CF
330
2C4
100
AcDbEntity
  8
0
100
AcDbBlockBegin
  2
*D7
 70
     1
 10
0.0
 20
0.0
 30
0.0
  3
*D7
  1

  0
LINE
  5
2E8
330
2C4
100
AcDbEntity
  8
ADPDIM
 62
     0
370
    -2
100
AcDbLine
 10
1.1058121956688
 20
-8.77566852117863
 30
0.0
 11
1.1058121956688
 21
-9.067730629641157
 31
0.0
  0
LINE
  5
2E9
330
2C4
100
AcDbEntity
  8
ADPDIM
 62
     0
370
    -2
100
AcDbLine
 10
2.4183121956688
 20
-8.77566852117863
 30
0.0
 11
2.4183121956688
 21
-9.067730629641157
 31
0.0
  0
LINE
  5
2EA
330
2C4
100
AcDbEntity
  8
ADPDIM
 62
     0
370
    -2
100
AcDbLine
 10
1.1058121956688
 20
-8.887730629641158
 30
0.0
 11
1.3245621956688
 21
-8.887730629641158
 31
0.0
  0
LINE
  5
2EB
330
2C4
100
AcDbEntity
  8
ADPDIM
 62
     0
370
    -2
100
AcDbLine
 10
2.4183121956688
 20
-8.887730629641158
 30
0.0
 11
2.1995621956688
 21
-8.887730629641158
 31
0.0
  0
LINE
  5
2EC
330
2C4
100
AcDbEntity
  8
ADPDIM
 62
     0
370
    -2
100
AcDbLine
 10
2.2933121956688
 20
-9.012730629641158
 30
0.0
 11
2.5433121956688
 21
-8.762730629641158
 31
0.0
  0
LINE
  5
2ED
330
2C4
100
AcDbEntity
  8
ADPDIM
 62
     0
370
    -2
100
AcDbLine
 10
0.9808121956688005
 20
-9.012730629641158
 30
0.0
 11
1.2308121956688
 21
-8.762730629641158
 31
0.0
  0
MTEXT
  5
2EE
330
2C4
100
AcDbEntity
  8
ADPDIM
 62
     0
100
AcDbMText
 10
1.7620621956688
 20
-8.887730629641158
 30
0.0
 40
0.125
 41
0.0
 71
     5
 72
     1
  1
\A1;1 5/16
 73
     1
 44
1.0
1001
ACAD
1000
MTEXTBEGIN
1070
    73
1070
     1
1070
    44
1040
1.0
1070
    74
1070
     0
1000
MTEXTEND
  0
POINT
  5
2EF
330
2C4
100
AcDbEntity
  8
DEFPOINTS
 62
     0
100
AcDbPoint
 10
1.1058121956688
 20
-8.71316852117863
 30
0.0
  0
POINT
  5
2F0
330
2C4
100
AcDbEntity
  8
DEFPOINTS
 62
     0
100
AcDbPoint
 10
2.4183121956688
 20
-8.71316852117863
 30
0.0
  0
POINT
  5
2F1
330
2C4
100
AcDbEntity
  8
DEFPOINTS
 62
     0
100
AcDbPoint
 10
2.4183121956688
 20
-8.887730629641158
 30
0.0
  0
ENDBLK
  5
2D0
330
2C4
100
AcDbEntity
  8
0
100
AcDbBlockEnd
  0
BLOCK
  5
2DC
330
2D1
100
AcDbEntity
  8
0
100
AcDbBlockBegin
  2
*D8
 70
     1
 10
0.0
 20
0.0
 30
0.0
  3
*D8
  1

  0
LINE
  5
2F2
330
2D1
100
AcDbEntity
  8
ADPDIM
 62
     0
370
    -2
100
AcDbLine
 10
0.989462262800913
 20
-8.941918147590085
 30
0.0
 11
0.989462262800913
 21
-9.441792307329475
 31
0.0
  0
LINE
  5
2F3
330
2D1
100
AcDbEntity
  8
ADPDIM
 62
     0
370
    -2
100
AcDbLine
 10
2.551962262800913
 20
-8.941918147590085
 30
0.0
 11
2.551962262800913
 21
-9.441792307329475
 31
0.0
  0
LINE
  5
2F4
330
2D1
100
AcDbEntity
  8
ADPDIM
 62
     0
370
    -2
100
AcDbLine
 10
0.989462262800913
 20
-9.261792307329475
 30
0.0
 11
1.333212262800913
 21
-9.261792307329475
 31
0.0
  0
LINE
  5
2F5
330
2D1
100
AcDbEntity
  8
ADPDIM
 62
     0
370
    -2
100
AcDbLine
 10
2.551962262800913
 20
-9.261792307329475
 30
0.0
 11
2.208212262800913
 21
-9.261792307329475
 31
0.0
  0
LINE
  5
2F6
330
2D1
100
AcDbEntity
  8
ADPDIM
 62
     0
370
    -2
100
AcDbLine
 10
2.426962262800913
 20
-9.386792307329475
 30
0.0
 11
2.676962262800913
 21
-9.136792307329475
 31
0.0
  0
LINE
  5
2F7
330
2D1
100
AcDbEntity
  8
ADPDIM
 62
     0
370
    -2
100
AcDbLine
 10
0.864462262800913
 20
-9.386792307329475
 30
0.0
 11
1.114462262800913
 21
-9.136792307329475
 31
0.0
  0
MTEXT
  5
2F8
330
2D1
100
AcDbEntity
  8
ADPDIM
 62
     0
100
AcDbMText
 10
1.770712262800913
 20
-9.261792307329475
 30
0.0
 40
0.125
 41
0.0
 71
     5
 72
     1
  1
\A1;1 9/16
 73
     1
 44
1.0
1001
ACAD
1000
MTEXTBEGIN
1070
    73
1070
     1
1070
    44
1040
1.0
1070
    74
1070
     0
1000
MTEXTEND
  0
POINT
  5
2F9
330
2D1
100
AcDbEntity
  8
DEFPOINTS
 62
     0
100
AcDbPoint
 10
0.989462262800913
 20
-8.879418147590085
 30
0.0
  0
POINT
  5
2FA
330
2D1
100
AcDbEntity
  8
DEFPOINTS
 62
     0
100
AcDbPoint
 10
2.551962262800913
 20
-8.879418147590085
 30
0.0
  0
POINT
  5
2FB
330
2D1
100
AcDbEntity
  8
DEFPOINTS
 62
     0
100
AcDbPoint
 10
2.551962262800913
 20
-9.261792307329475
 30
0.0
  0
ENDBLK
  5
2DD
330
2D1
100
AcDbEntity
  8
0
100
AcDbBlockEnd
  0
BLOCK
  5
31E
330
31D
100
AcDbEntity
  8
0
100
AcDbBlockBegin
  2
*D9
 70
     1
 10
0.0
 20
0.0
 30
0.0
  3
*D9
  1

  0
LINE
  5
31F
330
31D
100
AcDbEntity
  8
ADP1DETAIL
 62
     0
370
    -2
100
AcDbLine
 10
32.70989476804266
 20
12.21325507327267
 30
0.0
 11
32.70989476804266
 21
11.01475628437308
 31
0.0
  0
LINE
  5
320
330
31D
100
AcDbEntity
  8
ADP1DETAIL
 62
     0
370
    -2
100
AcDbLine
 10
35.95989476804266
 20
12.21325507327267
 30
0.0
 11
35.95989476804266
 21
11.01475628437308
 31
0.0
  0
LINE
  5
321
330
31D
100
AcDbEntity
  8
ADP1DETAIL
 62
     0
370
    -2
100
AcDbLine
 10
32.70989476804266
 20
11.19475628437307
 30
0.0
 11
34.105728101376
 21
11.19475628437307
 31
0.0
  0
LINE
  5
322
330
31D
100
AcDbEntity
  8
ADP1DETAIL
 62
     0
370
    -2
100
AcDbLine
 10
35.95989476804266
 20
11.19475628437307
 30
0.0
 11
34.56406143470932
 21
11.19475628437307
 31
0.0
  0
LINE
  5
323
330
31D
100
AcDbEntity
  8
ADP1DETAIL
 62
     0
370
    -2
100
AcDbLine
 10
35.83489476804266
 20
11.06975628437308
 30
0.0
 11
36.08489476804266
 21
11.31975628437308
 31
0.0
  0
LINE
  5
324
330
31D
100
AcDbEntity
  8
ADP1DETAIL
 62
     0
370
    -2
100
AcDbLine
 10
32.58489476804266
 20
11.06975628437308
 30
0.0
 11
32.83489476804266
 21
11.31975628437308
 31
0.0
  0
MTEXT
  5
325
330
31D
100
AcDbEntity
  8
ADP1DETAIL
 62
     0
100
AcDbMText
 10
34.33489476804266
 20
11.19475628437307
 30
0.0
 40
0.125
 41
0.0
 71
     5
 72
     1
  1
\A1;3{\H1.000000x;\S1/4;}
 73
     1
 44
1.0
1001
ACAD
1000
MTEXTBEGIN
1070
    73
1070
     1
1070
    44
1040
1.0
1070
    74
1070
     0
1000
MTEXTEND
  0
POINT
  5
326
330
31D
100
AcDbEntity
  8
DEFPOINTS
 62
     0
100
AcDbPoint
 10
32.70989476804266
 20
12.27575507327268
 30
0.0
  0
POINT
  5
327
330
31D
100
AcDbEntity
  8
DEFPOINTS
 62
     0
100
AcDbPoint
 10
35.95989476804266
 20
12.27575507327268
 30
0.0
  0
POINT
  5
328
330
31D
100
AcDbEntity
  8
DEFPOINTS
 62
     0
100
AcDbPoint
 10
35.95989476804266
 20
11.19475628437307
 30
0.0
  0
ENDBLK
  5
329
330
31D
100
AcDbEntity
  8
0
100
AcDbBlockEnd
  0
BLOCK
  5
33C
330
331
100
AcDbEntity
  8
0
100
AcDbBlockBegin
  2
*D11
 70
     1
 10
0.0
 20
0.0
 30
0.0
  3
*D11
  1

  0
LINE
  5
33E
330
331
100
AcDbEntity
  8
ADP1DETAIL
 62
     0
370
    -2
100
AcDbLine
 10
0.198165848504189
 20
-6.303499971197208
 30
0.0
 11
0.198165848504189
 21
-7.501998760096807
 31
0.0
  0
LINE
  5
33F
330
331
100
AcDbEntity
  8
ADP1DETAIL
 62
     0
370
    -2
100
AcDbLine
 10
3.448165848504189
 20
-6.303499971197208
 30
0.0
 11
3.448165848504189
 21
-7.501998760096807
 31
0.0
  0
LINE
  5
340
330
331
100
AcDbEntity
  8
ADP1DETAIL
 62
     0
370
    -2
100
AcDbLine
 10
0.198165848504189
 20
-7.321998760096807
 30
0.0
 11
1.593999181837522
 21
-7.321998760096807
 31
0.0
  0
LINE
  5
341
330
331
100
AcDbEntity
  8
ADP1DETAIL
 62
     0
370
    -2
100
AcDbLine
 10
3.448165848504189
 20
-7.321998760096807
 30
0.0
 11
2.052332515170855
 21
-7.321998760096807
 31
0.0
  0
LINE
  5
342
330
331
100
AcDbEntity
  8
ADP1DETAIL
 62
     0
370
    -2
100
AcDbLine
 10
3.323165848504189
 20
-7.446998760096807
 30
0.0
 11
3.573165848504189
 21
-7.196998760096807
 31
0.0
  0
LINE
  5
343
330
331
100
AcDbEntity
  8
ADP1DETAIL
 62
     0
370
    -2
100
AcDbLine
 10
0.073165848504189
 20
-7.446998760096807
 30
0.0
 11
0.323165848504189
 21
-7.196998760096807
 31
0.0
  0
MTEXT
  5
344
330
331
100
AcDbEntity
  8
ADP1DETAIL
 62
     0
100
AcDbMText
 10
1.823165848504189
 20
-7.321998760096807
 30
0.0
 40
0.125
 41
0.0
 71
     5
 72
     1
  1
\A1;3{\H1.000000x;\S1/4;}
 73
     1
 44
1.0
1001
ACAD
1000
MTEXTBEGIN
1070
    73
1070
     1
1070
    44
1040
1.0
1070
    74
1070
     0
1000
MTEXTEND
  0
POINT
  5
345
330
331
100
AcDbEntity
  8
DEFPOINTS
 62
     0
100
AcDbPoint
 10
0.198165848504189
 20
-6.240999971197208
 30
0.0
  0
POINT
  5
346
330
331
100
AcDbEntity
  8
DEFPOINTS
 62
     0
100
AcDbPoint
 10
3.448165848504189
 20
-6.240999971197208
 30
0.0
  0
POINT
  5
347
330
331
100
AcDbEntity
  8
DEFPOINTS
 62
     0
100
AcDbPoint
 10
3.448165848504189
 20
-7.321998760096807
 30
0.0
  0
ENDBLK
  5
33D
330
331
100
AcDbEntity
  8
0
100
AcDbBlockEnd
  0
BLOCK
  5
354
330
349
100
AcDbEntity
  8
0
100
AcDbBlockBegin
  2
*D12
 70
     1
 10
0.0
 20
0.0
 30
0.0
  3
*D12
  1

  0
LINE
  5
357
330
349
100
AcDbEntity
  8
0
 62
     0
370
    -2
100
AcDbLine
 10
0.183536505868065
 20
-6.253725298081536
 30
0.0
 11
0.183536505868065
 21
-7.195715440946116
 31
0.0
  0
LINE
  5
358
330
349
100
AcDbEntity
  8
0
 62
     0
370
    -2
100
AcDbLine
 10
3.308536505868064
 20
-6.253725298081536
 30
0.0
 11
3.308536505868064
 21
-7.195715440946116
 31
0.0
  0
LINE
  5
359
330
349
100
AcDbEntity
  8
0
 62
     0
370
    -2
100
AcDbLine
 10
0.183536505868065
 20
-7.015715440946117
 30
0.0
 11
1.516869839201398
 21
-7.015715440946117
 31
0.0
  0
LINE
  5
35A
330
349
100
AcDbEntity
  8
0
 62
     0
370
    -2
100
AcDbLine
 10
3.308536505868064
 20
-7.015715440946117
 30
0.0
 11
1.975203172534731
 21
-7.015715440946117
 31
0.0
  0
LINE
  5
35B
330
349
100
AcDbEntity
  8
0
 62
     0
370
    -2
100
AcDbLine
 10
3.183536505868064
 20
-7.140715440946117
 30
0.0
 11
3.433536505868064
 21
-6.890715440946117
 31
0.0
  0
LINE
  5
35C
330
349
100
AcDbEntity
  8
0
 62
     0
370
    -2
100
AcDbLine
 10
0.058536505868065
 20
-7.140715440946117
 30
0.0
 11
0.308536505868065
 21
-6.890715440946117
 31
0.0
  0
MTEXT
  5
35D
330
349
100
AcDbEntity
  8
0
 62
     0
100
AcDbMText
 10
1.746036505868064
 20
-7.015715440946117
 30
0.0
 40
0.125
 41
0.0
 71
     5
 72
     1
  1
\A1;3{\H1.000000x;\S1/8;}
 73
     1
 44
1.0
1001
ACAD
1000
MTEXTBEGIN
1070
    73
1070
     1
1070
    44
1040
1.0
1070
    74
1070
     0
1000
MTEXTEND
  0
POINT
  5
35E
330
349
100
AcDbEntity
  8
DEFPOINTS
 62
     0
100
AcDbPoint
 10
0.183536505868065
 20
-6.191225298081536
 30
0.0
  0
POINT
  5
35F
330
349
100
AcDbEntity
  8
DEFPOINTS
 62
     0
100
AcDbPoint
 10
3.308536505868064
 20
-6.191225298081536
 30
0.0
  0
POINT
  5
360
330
349
100
AcDbEntity
  8
DEFPOINTS
 62
     0
100
AcDbPoint
 10
3.308536505868064
 20
-7.015715440946117
 30
0.0
  0
ENDBLK
  5
355
330
349
100
AcDbEntity
  8
0
100
AcDbBlockEnd
  0
BLOCK
  5
363
330
362
100
AcDbEntity
  8
0
100
AcDbBlockBegin
  2
*D13
 70
     1
 10
0.0
 20
0.0
 30
0.0
  3
*D13
  1

  0
LINE
  5
364
330
362
100
AcDbEntity
  8
ADPDIM
 62
     0
370
    -2
100
AcDbLine
 10
33.27888903091873
 20
9.789180840956767
 30
0.0
 11
33.27888903091873
 21
10.5592511817082
 31
0.0
  0
LINE
  5
365
330
362
100
AcDbEntity
  8
ADPDIM
 62
     0
370
    -2
100
AcDbLine
 10
35.52873524370447
 20
9.789180840956767
 30
0.0
 11
35.52873524370447
 21
10.5592511817082
 31
0.0
  0
LINE
  5
366
330
362
100
AcDbEntity
  8
ADPDIM
 62
     0
370
    -2
100
AcDbLine
 10
33.27888903091873
 20
10.3792511817082
 30
0.0
 11
34.00797880397827
 21
10.3792511817082
 31
0.0
  0
LINE
  5
367
330
362
100
AcDbEntity
  8
ADPDIM
 62
     0
370
    -2
100
AcDbLine
 10
35.52873524370447
 20
10.3792511817082
 30
0.0
 11
34.79964547064494
 21
10.3792511817082
 31
0.0
  0
LINE
  5
368
330
362
100
AcDbEntity
  8
ADPDIM
 62
     0
370
    -2
100
AcDbLine
 10
35.40373524370448
 20
10.2542511817082
 30
0.0
 11
35.65373524370448
 21
10.5042511817082
 31
0.0
  0
LINE
  5
369
330
362
100
AcDbEntity
  8
ADPDIM
 62
     0
370
    -2
100
AcDbLine
 10
33.15388903091873
 20
10.2542511817082
 30
0.0
 11
33.40388903091873
 21
10.5042511817082
 31
0.0
  0
MTEXT
  5
36A
330
362
100
AcDbEntity
  8
ADPDIM
 62
     0
100
AcDbMText
 10
34.40381213731161
 20
10.3792511817082
 30
0.0
 40
0.125
 41
0.0
 71
     5
 72
     1
  1
\A1;2 1/4
 73
     1
 44
1.0
1001
ACAD
1000
MTEXTBEGIN
1070
    73
1070
     1
1070
    44
1040
1.0
1070
    74
1070
     0
1000
MTEXTEND
  0
POINT
  5
36B
330
362
100
AcDbEntity
  8
DEFPOINTS
 62
     0
100
AcDbPoint
 10
33.27888903091873
 20
9.726680840956767
 30
0.0
  0
POINT
  5
36C
330
362
100
AcDbEntity
  8
DEFPOINTS
 62
     0
100
AcDbPoint
 10
35.52873524370447
 20
9.726680840956767
 30
0.0
  0
POINT
  5
36D
330
362
100
AcDbEntity
  8
DEFPOINTS
 62
     0
100
AcDbPoint
 10
35.52873524370447
 20
10.3792511817082
 30
0.0
  0
ENDBLK
  5
36E
330
362
100
AcDbEntity
  8
0
100
AcDbBlockEnd
  0
BLOCK
  5
370
330
36F
100
AcDbEntity
  8
0
100
AcDbBlockBegin
  2
*D14
 70
     1
 10
0.0
 20
0.0
 30
0.0
  3
*D14
  1

  0
LINE
  5
371
330
36F
100
AcDbEntity
  8
ADPDIM
 62
     0
370
    -2
100
AcDbLine
 10
33.75172991966073
 20
9.520103718155553
 30
0.0
 11
33.75172991966073
 21
9.228041609693026
 31
0.0
  0
LINE
  5
372
330
36F
100
AcDbEntity
  8
ADPDIM
 62
     0
370
    -2
100
AcDbLine
 10
35.06422991966073
 20
9.520103718155553
 30
0.0
 11
35.06422991966073
 21
9.228041609693026
 31
0.0
  0
LINE
  5
373
330
36F
100
AcDbEntity
  8
ADPDIM
 62
     0
370
    -2
100
AcDbLine
 10
33.75172991966073
 20
9.408041609693025
 30
0.0
 11
33.97047991966073
 21
9.408041609693025
 31
0.0
  0
LINE
  5
374
330
36F
100
AcDbEntity
  8
ADPDIM
 62
     0
370
    -2
100
AcDbLine
 10
35.06422991966073
 20
9.408041609693025
 30
0.0
 11
34.84547991966073
 21
9.408041609693025
 31
0.0
  0
LINE
  5
375
330
36F
100
AcDbEntity
  8
ADPDIM
 62
     0
370
    -2
100
AcDbLine
 10
34.93922991966073
 20
9.283041609693025
 30
0.0
 11
35.18922991966074
 21
9.533041609693025
 31
0.0
  0
LINE
  5
376
330
36F
100
AcDbEntity
  8
ADPDIM
 62
     0
370
    -2
100
AcDbLine
 10
33.62672991966074
 20
9.283041609693025
 30
0.0
 11
33.87672991966073
 21
9.533041609693025
 31
0.0
  0
MTEXT
  5
377
330
36F
100
AcDbEntity
  8
ADPDIM
 62
     0
100
AcDbMText
 10
34.40797991966074
 20
9.408041609693025
 30
0.0
 40
0.125
 41
0.0
 71
     5
 72
     1
  1
\A1;1 5/16
 73
     1
 44
1.0
1001
ACAD
1000
MTEXTBEGIN
1070
    73
1070
     1
1070
    44
1040
1.0
1070
    74
1070
     0
1000
MTEXTEND
  0
POINT
  5
378
330
36F
100
AcDbEntity
  8
DEFPOINTS
 62
     0
100
AcDbPoint
 10
33.75172991966073
 20
9.582603718155553
 30
0.0
  0
POINT
  5
379
330
36F
100
AcDbEntity
  8
DEFPOINTS
 62
     0
100
AcDbPoint
 10
35.06422991966073
 20
9.582603718155553
 30
0.0
  0
POINT
  5
37A
330
36F
100
AcDbEntity
  8
DEFPOINTS
 62
     0
100
AcDbPoint
 10
35.06422991966073
 20
9.408041609693025
 30
0.0
  0
ENDBLK
  5
37B
330
36F
100
AcDbEntity
  8
0
100
AcDbBlockEnd
  0
BLOCK
  5
37D
330
37C
100
AcDbEntity
  8
0
100
AcDbBlockBegin
  2
*D15
 70
     1
 10
0.0
 20
0.0
 30
0.0
  3
*D15
  1

  0
LINE
  5
37E
330
37C
100
AcDbEntity
  8
ADPDIM
 62
     0
370
    -2
100
AcDbLine
 10
33.63537998679285
 20
9.353854091744098
 30
0.0
 11
33.63537998679285
 21
8.853979932004708
 31
0.0
  0
LINE
  5
37F
330
37C
100
AcDbEntity
  8
ADPDIM
 62
     0
370
    -2
100
AcDbLine
 10
35.19787998679285
 20
9.353854091744098
 30
0.0
 11
35.19787998679285
 21
8.853979932004708
 31
0.0
  0
LINE
  5
380
330
37C
100
AcDbEntity
  8
ADPDIM
 62
     0
370
    -2
100
AcDbLine
 10
33.63537998679285
 20
9.033979932004708
 30
0.0
 11
33.97912998679285
 21
9.033979932004708
 31
0.0
  0
LINE
  5
381
330
37C
100
AcDbEntity
  8
ADPDIM
 62
     0
370
    -2
100
AcDbLine
 10
35.19787998679285
 20
9.033979932004708
 30
0.0
 11
34.85412998679285
 21
9.033979932004708
 31
0.0
  0
LINE
  5
382
330
37C
100
AcDbEntity
  8
ADPDIM
 62
     0
370
    -2
100
AcDbLine
 10
35.07287998679285
 20
8.908979932004708
 30
0.0
 11
35.32287998679285
 21
9.158979932004708
 31
0.0
  0
LINE
  5
383
330
37C
100
AcDbEntity
  8
ADPDIM
 62
     0
370
    -2
100
AcDbLine
 10
33.51037998679285
 20
8.908979932004708
 30
0.0
 11
33.76037998679285
 21
9.158979932004708
 31
0.0
  0
MTEXT
  5
384
330
37C
100
AcDbEntity
  8
ADPDIM
 62
     0
100
AcDbMText
 10
34.41662998679285
 20
9.033979932004708
 30
0.0
 40
0.125
 41
0.0
 71
     5
 72
     1
  1
\A1;1 9/16
 73
     1
 44
1.0
1001
ACAD
1000
MTEXTBEGIN
1070
    73
1070
     1
1070
    44
1040
1.0
1070
    74
1070
     0
1000
MTEXTEND
  0
POINT
  5
385
330
37C
100
AcDbEntity
  8
DEFPOINTS
 62
     0
100
AcDbPoint
 10
33.63537998679285
 20
9.416354091744098
 30
0.0
  0
POINT
  5
386
330
37C
100
AcDbEntity
  8
DEFPOINTS
 62
     0
100
AcDbPoint
 10
35.19787998679285
 20
9.416354091744098
 30
0.0
  0
POINT
  5
387
330
37C
100
AcDbEntity
  8
DEFPOINTS
 62
     0
100
AcDbPoint
 10
35.19787998679285
 20
9.033979932004708
 30
0.0
  0
ENDBLK
  5
388
330
37C
100
AcDbEntity
  8
0
100
AcDbBlockEnd
  0
BLOCK
  5
38A
330
389
100
AcDbEntity
  8
0
100
AcDbBlockBegin
  2
_Oblique
 70
     0
 10
0.0
 20
0.0
 30
0.0
  3
_Oblique
  1

  0
LINE
  5
38B
330
389
100
AcDbEntity
  8
0
  6
ByBlock
 62
     0
370
    -2
100
AcDbLine
 10
-0.5
 20
-0.5
 30
0.0
 11
0.5
 21
0.5
 31
0.0
  0
ENDBLK
  5
38C
330
389
100
AcDbEntity
  8
0
100
AcDbBlockEnd
  0
BLOCK
  5
3C7
330
3BC
100
AcDbEntity
  8
0
100
AcDbBlockBegin
  2
*D18
 70
     1
 10
0.0
 20
0.0
 30
0.0
  3
*D18
  1

  0
LINE
  5
3E3
330
3BC
100
AcDbEntity
  8
ADPDIM
 62
     0
370
    -2
100
AcDbLine
 10
0.6231680420236004
 20
-8.520341500469445
 30
0.0
 11
0.6231680420236004
 21
-7.750271159718014
 31
0.0
  0
LINE
  5
3E4
330
3BC
100
AcDbEntity
  8
ADPDIM
 62
     0
370
    -2
100
AcDbLine
 10
2.873014254809348
 20
-8.520341500469445
 30
0.0
 11
2.873014254809348
 21
-7.750271159718014
 31
0.0
  0
LINE
  5
3E5
330
3BC
100
AcDbEntity
  8
ADPDIM
 62
     0
370
    -2
100
AcDbLine
 10
0.6231680420236004
 20
-7.930271159718014
 30
0.0
 11
1.352257815083141
 21
-7.930271159718014
 31
0.0
  0
LINE
  5
3E6
330
3BC
100
AcDbEntity
  8
ADPDIM
 62
     0
370
    -2
100
AcDbLine
 10
2.873014254809348
 20
-7.930271159718014
 30
0.0
 11
2.143924481749807
 21
-7.930271159718014
 31
0.0
  0
LINE
  5
3E7
330
3BC
100
AcDbEntity
  8
ADPDIM
 62
     0
370
    -2
100
AcDbLine
 10
2.748014254809348
 20
-8.055271159718014
 30
0.0
 11
2.998014254809348
 21
-7.805271159718014
 31
0.0
  0
LINE
  5
3E8
330
3BC
100
AcDbEntity
  8
ADPDIM
 62
     0
370
    -2
100
AcDbLine
 10
0.4981680420236004
 20
-8.055271159718014
 30
0.0
 11
0.7481680420236004
 21
-7.805271159718014
 31
0.0
  0
MTEXT
  5
3E9
330
3BC
100
AcDbEntity
  8
ADPDIM
 62
     0
100
AcDbMText
 10
1.748091148416474
 20
-7.930271159718014
 30
0.0
 40
0.125
 41
0.0
 71
     5
 72
     1
  1
\A1;2 1/4
 73
     1
 44
1.0
1001
ACAD
1000
MTEXTBEGIN
1070
    73
1070
     1
1070
    44
1040
1.0
1070
    74
1070
     0
1000
MTEXTEND
  0
POINT
  5
3EA
330
3BC
100
AcDbEntity
  8
DEFPOINTS
 62
     0
100
AcDbPoint
 10
0.6231680420236004
 20
-8.582841500469445
 30
0.0
  0
POINT
  5
3EB
330
3BC
100
AcDbEntity
  8
DEFPOINTS
 62
     0
100
AcDbPoint
 10
2.873014254809348
 20
-8.582841500469445
 30
0.0
  0
POINT
  5
3EC
330
3BC
100
AcDbEntity
  8
DEFPOINTS
 62
     0
100
AcDbPoint
 10
2.873014254809348
 20
-7.930271159718014
 30
0.0
  0
ENDBLK
  5
3C8
330
3BC
100
AcDbEntity
  8
0
100
AcDbBlockEnd
  0
BLOCK
  5
3D4
330
3C9
100
AcDbEntity
  8
0
100
AcDbBlockBegin
  2
*D19
 70
     1
 10
0.0
 20
0.0
 30
0.0
  3
*D19
  1

  0
LINE
  5
3ED
330
3C9
100
AcDbEntity
  8
ADPDIM
 62
     0
370
    -2
100
AcDbLine
 10
1.096008930765606
 20
-8.789418623270659
 30
0.0
 11
1.096008930765606
 21
-9.081480731733186
 31
0.0
  0
LINE
  5
3EE
330
3C9
100
AcDbEntity
  8
ADPDIM
 62
     0
370
    -2
100
AcDbLine
 10
2.408508930765606
 20
-8.789418623270659
 30
0.0
 11
2.408508930765606
 21
-9.081480731733186
 31
0.0
  0
LINE
  5
3EF
330
3C9
100
AcDbEntity
  8
ADPDIM
 62
     0
370
    -2
100
AcDbLine
 10
1.096008930765606
 20
-8.901480731733187
 30
0.0
 11
1.314758930765606
 21
-8.901480731733187
 31
0.0
  0
LINE
  5
3F0
330
3C9
100
AcDbEntity
  8
ADPDIM
 62
     0
370
    -2
100
AcDbLine
 10
2.408508930765606
 20
-8.901480731733187
 30
0.0
 11
2.189758930765606
 21
-8.901480731733187
 31
0.0
  0
LINE
  5
3F1
330
3C9
100
AcDbEntity
  8
ADPDIM
 62
     0
370
    -2
100
AcDbLine
 10
2.283508930765606
 20
-9.026480731733187
 30
0.0
 11
2.533508930765606
 21
-8.776480731733187
 31
0.0
  0
LINE
  5
3F2
330
3C9
100
AcDbEntity
  8
ADPDIM
 62
     0
370
    -2
100
AcDbLine
 10
0.9710089307656062
 20
-9.026480731733187
 30
0.0
 11
1.221008930765606
 21
-8.776480731733187
 31
0.0
  0
MTEXT
  5
3F3
330
3C9
100
AcDbEntity
  8
ADPDIM
 62
     0
100
AcDbMText
 10
1.752258930765606
 20
-8.901480731733187
 30
0.0
 40
0.125
 41
0.0
 71
     5
 72
     1
  1
\A1;1 5/16
 73
     1
 44
1.0
1001
ACAD
1000
MTEXTBEGIN
1070
    73
1070
     1
1070
    44
1040
1.0
1070
    74
1070
     0
1000
MTEXTEND
  0
POINT
  5
3F4
330
3C9
100
AcDbEntity
  8
DEFPOINTS
 62
     0
100
AcDbPoint
 10
1.096008930765606
 20
-8.726918623270659
 30
0.0
  0
POINT
  5
3F5
330
3C9
100
AcDbEntity
  8
DEFPOINTS
 62
     0
100
AcDbPoint
 10
2.408508930765606
 20
-8.726918623270659
 30
0.0
  0
POINT
  5
3F6
330
3C9
100
AcDbEntity
  8
DEFPOINTS
 62
     0
100
AcDbPoint
 10
2.408508930765606
 20
-8.901480731733187
 30
0.0
  0
ENDBLK
  5
3D5
330
3C9
100
AcDbEntity
  8
0
100
AcDbBlockEnd
  0
BLOCK
  5
3E1
330
3D6
100
AcDbEntity
  8
0
100
AcDbBlockBegin
  2
*D20
 70
     1
 10
0.0
 20
0.0
 30
0.0
  3
*D20
  1

  0
LINE
  5
3F7
330
3D6
100
AcDbEntity
  8
ADPDIM
 62
     0
370
    -2
100
AcDbLine
 10
0.9796589978977223
 20
-8.955668249682114
 30
0.0
 11
0.9796589978977223
 21
-9.455542409421504
 31
0.0
  0
LINE
  5
3F8
330
3D6
100
AcDbEntity
  8
ADPDIM
 62
     0
370
    -2
100
AcDbLine
 10
2.542158997897722
 20
-8.955668249682114
 30
0.0
 11
2.542158997897722
 21
-9.455542409421504
 31
0.0
  0
LINE
  5
3F9
330
3D6
100
AcDbEntity
  8
ADPDIM
 62
     0
370
    -2
100
AcDbLine
 10
0.9796589978977223
 20
-9.275542409421504
 30
0.0
 11
1.323408997897722
 21
-9.275542409421504
 31
0.0
  0
LINE
  5
3FA
330
3D6
100
AcDbEntity
  8
ADPDIM
 62
     0
370
    -2
100
AcDbLine
 10
2.542158997897722
 20
-9.275542409421504
 30
0.0
 11
2.198408997897722
 21
-9.275542409421504
 31
0.0
  0
LINE
  5
3FB
330
3D6
100
AcDbEntity
  8
ADPDIM
 62
     0
370
    -2
100
AcDbLine
 10
2.417158997897722
 20
-9.400542409421504
 30
0.0
 11
2.667158997897722
 21
-9.150542409421504
 31
0.0
  0
LINE
  5
3FC
330
3D6
100
AcDbEntity
  8
ADPDIM
 62
     0
370
    -2
100
AcDbLine
 10
0.8546589978977223
 20
-9.400542409421504
 30
0.0
 11
1.104658997897722
 21
-9.150542409421504
 31
0.0
  0
MTEXT
  5
3FD
330
3D6
100
AcDbEntity
  8
ADPDIM
 62
     0
100
AcDbMText
 10
1.760908997897722
 20
-9.275542409421504
 30
0.0
 40
0.125
 41
0.0
 71
     5
 72
     1
  1
\A1;1 9/16
 73
     1
 44
1.0
1001
ACAD
1000
MTEXTBEGIN
1070
    73
1070
     1
1070
    44
1040
1.0
1070
    74
1070
     0
1000
MTEXTEND
  0
POINT
  5
3FE
330
3D6
100
AcDbEntity
  8
DEFPOINTS
 62
     0
100
AcDbPoint
 10
0.9796589978977223
 20
-8.893168249682114
 30
0.0
  0
POINT
  5
3FF
330
3D6
100
AcDbEntity
  8
DEFPOINTS
 62
     0
100
AcDbPoint
 10
2.542158997897722
 20
-8.893168249682114
 30
0.0
  0
POINT
  5
400
330
3D6
100
AcDbEntity
  8
DEFPOINTS
 62
     0
100
AcDbPoint
 10
2.542158997897722
 20
-9.275542409421504
 30
0.0
  0
ENDBLK
  5
3E2
330
3D6
100
AcDbEntity
  8
0
100
AcDbBlockEnd
  0
ENDSEC
  0
SECTION
  2
ENTITIES
  0
LINE
  5
84
330
1E
100
AcDbEntity
  8
ADP1DETAIL
100
AcDbLine
 10
9.135220109393921
 20
-3.316225298081536
 30
0.0
 11
6.51022010939392
 21
-3.316225298081536
 31
0.0
  0
LINE
  5
85
330
1E
100
AcDbEntity
  8
ADP1DETAIL
100
AcDbLine
 10
6.51022010939392
 20
-5.941225298081536
 30
0.0
 11
6.94772010939392
 21
-5.941225298081536
 31
0.0
  0
LINE
  5
86
330
1E
100
AcDbEntity
  8
ADP1DETAIL
100
AcDbLine
 10
6.69772010939392
 20
-7.691225298081536
 30
0.0
 11
8.947720109393921
 21
-7.691225298081536
 31
0.0
  0
LINE
  5
87
330
1E
100
AcDbEntity
  8
ADP1DETAIL
100
AcDbLine
 10
9.385220109393921
 20
-3.066225298081536
 30
0.0
 11
6.26022010939392
 21
-3.066225298081536
 31
0.0
  0
LINE
  5
88
330
1E
100
AcDbEntity
  8
ADP1DETAIL
100
AcDbLine
 10
0.7429323982460581
 20
-2.663527584659184
 30
0.0
 11
2.740456440590214
 21
-2.663527584659184
 31
0.0
  0
LINE
  5
89
330
1E
100
AcDbEntity
  8
ADP1DETAIL
100
AcDbLine
 10
3.056676529323253
 20
-1.851027584659184
 30
0.0
 11
0.4545198398240764
 21
-1.856246358104111
 31
0.0
  0
LINE
  5
8A
330
1E
100
AcDbEntity
  8
ADP1DETAIL
100
AcDbLine
 10
3.099837964050509
 20
-2.354291983915469
 30
0.0
 11
0.3857141647297073
 21
-2.354291983915469
 31
0.0
  0
LINE
  5
8B
330
1E
100
AcDbEntity
  8
ADP1DETAIL
100
AcDbLine
 10
3.119323458528283
 20
-2.288527584659184
 30
0.0
 11
0.3662286702519353
 21
-2.288527584659184
 31
0.0
  0
LINE
  5
8E
330
1E
100
AcDbEntity
  8
ADP1DETAIL
100
AcDbLine
 10
0.746036505868065
 20
-3.628725298081536
 30
0.0
 11
2.746036505868064
 21
-3.628725298081536
 31
0.0
  0
LINE
  5
8F
330
1E
100
AcDbEntity
  8
ADP1DETAIL
100
AcDbLine
 10
2.746036505868064
 20
-5.628725298081536
 30
0.0
 11
0.746036505868065
 21
-5.628725298081536
 31
0.0
  0
LINE
  5
90
330
1E
100
AcDbEntity
  8
ADP1DETAIL
100
AcDbLine
 10
2.871036505868064
 20
-7.691225298081536
 30
0.0
 11
0.621036505868065
 21
-7.691225298081536
 31
0.0
  0
LINE
  5
92
330
1E
100
AcDbEntity
  8
ADP1DETAIL
100
AcDbLine
 10
0.183536505868065
 20
-3.066225298081536
 30
0.0
 11
3.308536505868064
 21
-3.066225298081536
 31
0.0
  0
LINE
  5
93
330
1E
100
AcDbEntity
  8
ADP1DETAIL
100
AcDbLine
 10
0.371536505868065
 20
-3.254225298081537
 30
0.0
 11
3.120536505868064
 21
-3.254225298081535
 31
0.0
  0
LINE
  5
94
330
1E
100
AcDbEntity
  8
ADP1DETAIL
100
AcDbLine
 10
1.183536505868065
 20
-5.628725298081536
 30
0.0
 11
0.621036505868065
 21
-6.191225298081536
 31
0.0
  0
LINE
  5
95
330
1E
100
AcDbEntity
  8
ADP1DETAIL
100
AcDbLine
 10
0.8090365058680649
 20
-7.691225298081536
 30
0.0
 11
0.8090365058680649
 21
-6.003225298081536
 31
0.0
  0
LINE
  5
96
330
1E
100
AcDbEntity
  8
ADP1DETAIL
100
AcDbLine
 10
0.621036505868065
 20
-7.691225298081536
 30
0.0
 11
0.621036505868065
 21
-6.191225298081536
 31
0.0
  0
LINE
  5
97
330
1E
100
AcDbEntity
  8
ADP1DETAIL
100
AcDbLine
 10
0.746036505868065
 20
-5.628725298081536
 30
0.0
 11
0.746036505868065
 21
-3.628725298081536
 31
0.0
  0
LINE
  5
98
330
1E
100
AcDbEntity
  8
ADP1DETAIL
100
AcDbLine
 10
0.183536505868065
 20
-6.191225298081536
 30
0.0
 11
0.183536505868065
 21
-3.066225298081536
 31
0.0
  0
LINE
  5
99
330
1E
100
AcDbEntity
  8
ADP1DETAIL
100
AcDbLine
 10
0.371536505868065
 20
-6.003225298081536
 30
0.0
 11
0.371536505868065
 21
-3.254225298081537
 31
0.0
  0
LINE
  5
9A
330
1E
100
AcDbEntity
  8
ADP1DETAIL
100
AcDbLine
 10
0.746036505868065
 20
-5.628725298081536
 30
0.0
 11
0.183536505868065
 21
-6.191225298081536
 31
0.0
  0
LINE
  5
9B
330
1E
100
AcDbEntity
  8
ADP1DETAIL
100
AcDbLine
 10
0.621036505868065
 20
-6.191225298081536
 30
0.0
 11
0.183536505868065
 21
-6.191225298081536
 31
0.0
  0
LINE
  5
9C
330
1E
100
AcDbEntity
  8
ADP1DETAIL
100
AcDbLine
 10
0.8090365058680649
 20
-6.003225298081536
 30
0.0
 11
0.371536505868065
 21
-6.003225298081536
 31
0.0
  0
ARC
  5
9D
330
1E
100
AcDbEntity
  8
ADP1DETAIL
100
AcDbCircle
 10
0.3038755994569664
 20
-2.163527584659182
 30
0.0
 40
0.125
100
AcDbArc
 50
94.01957375656557
 51
270.0
  0
LINE
  5
9E
330
1E
100
AcDbEntity
  8
ADP1DETAIL
100
AcDbLine
 10
0.183536505868065
 20
-3.066225298081536
 30
0.0
 11
0.746036505868065
 21
-3.628725298081536
 31
0.0
  0
LINE
  5
9F
330
1E
100
AcDbEntity
  8
ADP1DETAIL
100
AcDbLine
 10
0.3662286702519353
 20
-2.288527584659184
 30
0.0
 11
0.3857141647297073
 21
-2.354291983915469
 31
0.0
  0
LINE
  5
A0
330
1E
100
AcDbEntity
  8
ADP1DETAIL
100
AcDbLine
 10
0.3038755994569655
 20
-2.288527584659184
 30
0.0
 11
0.365712836548024
 21
-2.288527584659184
 31
0.0
  0
ARC
  5
A1
330
1E
100
AcDbEntity
  8
ADP1DETAIL
100
AcDbCircle
 10
0.475583261851706
 20
-2.613525995770518
 30
0.0
 40
0.2719847782913535
100
AcDbArc
 50
349.4065104904146
 51
60.0021274778436
  0
ARC
  5
A2
330
1E
100
AcDbEntity
  8
ADP1DETAIL
100
AcDbCircle
 10
0.2331442641940855
 20
-1.853160281415072
 30
0.0
 40
0.1957429538942399
100
AcDbArc
 50
285.9004512597188
 51
0.6242724879890638
  0
LINE
  5
A3
330
1E
100
AcDbEntity
  8
ADP1DETAIL
100
AcDbLine
 10
6.69772010939392
 20
-6.191225298081536
 30
0.0
 11
6.69772010939392
 21
-7.691225298081536
 31
0.0
  0
LINE
  5
A4
330
1E
100
AcDbEntity
  8
ADP1DETAIL
100
AcDbLine
 10
4.807196301323082
 20
-7.68934498047537
 30
0.0
 11
4.807196301323082
 21
-3.25350147526938
 31
0.0
  0
LINE
  5
A5
330
1E
100
AcDbEntity
  8
ADP1DETAIL
100
AcDbLine
 10
4.741431902066797
 20
-7.68934498047537
 30
0.0
 11
4.741431902066797
 21
-3.272986969747152
 31
0.0
  0
LINE
  5
A6
330
1E
100
AcDbEntity
  8
ADP1DETAIL
100
AcDbLine
 10
5.239477527878155
 20
-7.68934498047537
 30
0.0
 11
5.239477527878155
 21
-3.341792644841521
 31
0.0
  0
LINE
  5
A7
330
1E
100
AcDbEntity
  8
ADP1DETAIL
100
AcDbLine
 10
4.432196301323083
 20
-3.630205203263501
 30
0.0
 11
4.432196301323083
 21
-7.68934498047537
 31
0.0
  0
LINE
  5
A8
330
1E
100
AcDbEntity
  8
ADP1DETAIL
100
AcDbLine
 10
2.871036505868064
 20
-6.191225298081536
 30
0.0
 11
2.871036505868064
 21
-7.691225298081536
 31
0.0
  0
LINE
  5
A9
330
1E
100
AcDbEntity
  8
ADP1DETAIL
100
AcDbLine
 10
2.683036505868064
 20
-6.003225298081536
 30
0.0
 11
2.683036505868064
 21
-7.691225298081536
 31
0.0
  0
LINE
  5
AA
330
1E
100
AcDbEntity
  8
ADP1DETAIL
100
AcDbLine
 10
4.432196301323083
 20
-7.68934498047537
 30
0.0
 11
5.239477527878155
 21
-7.68934498047537
 31
0.0
  0
LINE
  5
AB
330
1E
100
AcDbEntity
  8
ADP1DETAIL
100
AcDbLine
 10
2.746036505868064
 20
-3.628725298081536
 30
0.0
 11
2.746036505868064
 21
-5.628725298081536
 31
0.0
  0
LINE
  5
AC
330
1E
100
AcDbEntity
  8
ADP1DETAIL
100
AcDbLine
 10
3.308536505868064
 20
-3.066225298081536
 30
0.0
 11
3.308536505868064
 21
-6.191225298081536
 31
0.0
  0
LINE
  5
AD
330
1E
100
AcDbEntity
  8
ADP1DETAIL
100
AcDbLine
 10
3.120536505868064
 20
-3.254225298081535
 30
0.0
 11
3.120536505868065
 21
-6.003225298081536
 31
0.0
  0
LINE
  5
AE
330
1E
100
AcDbEntity
  8
ADP1DETAIL
100
AcDbLine
 10
2.871036505868064
 20
-6.191225298081536
 30
0.0
 11
2.308536505868064
 21
-5.628725298081536
 31
0.0
  0
LINE
  5
AF
330
1E
100
AcDbEntity
  8
ADP1DETAIL
100
AcDbLine
 10
3.308536505868064
 20
-6.191225298081536
 30
0.0
 11
2.746036505868064
 21
-5.628725298081536
 31
0.0
  0
LINE
  5
B0
330
1E
100
AcDbEntity
  8
ADP1DETAIL
100
AcDbLine
 10
3.308536505868064
 20
-6.191225298081536
 30
0.0
 11
2.871036505868064
 21
-6.191225298081536
 31
0.0
  0
LINE
  5
B1
330
1E
100
AcDbEntity
  8
ADP1DETAIL
100
AcDbLine
 10
3.120536505868065
 20
-6.003225298081536
 30
0.0
 11
2.683036505868064
 21
-6.003225298081536
 31
0.0
  0
ARC
  5
B2
330
1E
100
AcDbEntity
  8
ADP1DETAIL
100
AcDbCircle
 10
3.181676529323253
 20
-2.163527584659182
 30
0.0
 40
0.125
100
AcDbArc
 50
270.0
 51
85.98042624343442
  0
LINE
  5
B3
330
1E
100
AcDbEntity
  8
ADP1DETAIL
100
AcDbLine
 10
2.746036505868064
 20
-3.628725298081536
 30
0.0
 11
3.308536505868064
 21
-3.066225298081536
 31
0.0
  0
ARC
  5
B4
330
1E
100
AcDbEntity
  8
ADP1DETAIL
100
AcDbCircle
 10
3.007805576984566
 20
-2.613525995770518
 30
0.0
 40
0.2719847782913535
100
AcDbArc
 50
119.9978725221564
 51
190.5934895095853
  0
LINE
  5
B5
330
1E
100
AcDbEntity
  8
ADP1DETAIL
100
AcDbLine
 10
3.119323458528283
 20
-2.288527584659184
 30
0.0
 11
3.099837964050509
 21
-2.354291983915469
 31
0.0
  0
LINE
  5
B6
330
1E
100
AcDbEntity
  8
ADP1DETAIL
100
AcDbLine
 10
3.181676529323253
 20
-2.288527584659184
 30
0.0
 11
3.119839292232194
 21
-2.288527584659184
 31
0.0
  0
ARC
  5
B7
330
1E
100
AcDbEntity
  8
ADP1DETAIL
100
AcDbCircle
 10
3.252407864586134
 20
-1.853160281415072
 30
0.0
 40
0.1957429538942399
100
AcDbArc
 50
179.375727512011
 51
254.0995487402812
  0
LINE
  5
B8
330
1E
100
AcDbEntity
  8
ADP1DETAIL
100
AcDbLine
 10
6.51022010939392
 20
-3.316225298081536
 30
0.0
 11
6.51022010939392
 21
-5.941225298081536
 31
0.0
  0
LINE
  5
B9
330
1E
100
AcDbEntity
  8
ADP1DETAIL
100
AcDbLine
 10
6.26022010939392
 20
-3.066225298081536
 30
0.0
 11
6.26022010939392
 21
-6.191225298081536
 31
0.0
  0
ARC
  5
BA
330
1E
100
AcDbEntity
  8
ADP1DETAIL
100
AcDbCircle
 10
4.482197890211748
 20
-5.895078382002008
 30
0.0
 40
0.2719847782913535
100
AcDbArc
 50
29.99787252215641
 51
100.5934895095853
  0
ARC
  5
BB
330
1E
100
AcDbEntity
  8
ADP1DETAIL
100
AcDbCircle
 10
4.932196301323083
 20
-6.068949334340696
 30
0.0
 40
0.125
100
AcDbArc
 50
180.0
 51
355.9804262434344
  0
LINE
  5
BC
330
1E
100
AcDbEntity
  8
ADP1DETAIL
100
AcDbLine
 10
4.807196301323082
 20
-6.006596263545727
 30
0.0
 11
4.741431902066797
 21
-5.987110769067954
 31
0.0
  0
LINE
  5
BD
330
1E
100
AcDbEntity
  8
ADP1DETAIL
100
AcDbLine
 10
4.807196301323082
 20
-6.068949334340697
 30
0.0
 11
4.807196301323082
 21
-6.007112097249638
 31
0.0
  0
ARC
  5
BE
330
1E
100
AcDbEntity
  8
ADP1DETAIL
100
AcDbCircle
 10
5.242563604567194
 20
-6.139680669603576
 30
0.0
 40
0.1957429538942399
100
AcDbArc
 50
89.375727512011
 51
164.0995487402812
  0
LINE
  5
BF
330
1E
100
AcDbEntity
  8
ADP1DETAIL
100
AcDbLine
 10
6.26022010939392
 20
-6.191225298081536
 30
0.0
 11
6.69772010939392
 21
-6.191225298081536
 31
0.0
  0
ARC
  5
C0
330
1E
100
AcDbEntity
  8
ADP1DETAIL
100
AcDbCircle
 10
4.482197890211748
 20
-3.36285606686915
 30
0.0
 40
0.2719847782913535
100
AcDbArc
 50
259.4065104904146
 51
330.0021274778436
  0
ARC
  5
C1
330
1E
100
AcDbEntity
  8
ADP1DETAIL
100
AcDbCircle
 10
4.932196301323083
 20
-3.19114840447441
 30
0.0
 40
0.125
100
AcDbArc
 50
4.019573756565568
 51
180.0
  0
LINE
  5
C2
330
1E
100
AcDbEntity
  8
ADP1DETAIL
100
AcDbLine
 10
4.807196301323082
 20
-3.25350147526938
 30
0.0
 11
4.741431902066797
 21
-3.272986969747152
 31
0.0
  0
LINE
  5
C3
330
1E
100
AcDbEntity
  8
ADP1DETAIL
100
AcDbLine
 10
4.807196301323082
 20
-3.19114840447441
 30
0.0
 11
4.807196301323082
 21
-3.252985641565468
 31
0.0
  0
ARC
  5
C4
330
1E
100
AcDbEntity
  8
ADP1DETAIL
100
AcDbCircle
 10
5.242563604567194
 20
-3.120417069211529
 30
0.0
 40
0.1957429538942399
100
AcDbArc
 50
195.9004512597188
 51
270.6242724879891
  0
LINE
  5
C5
330
1E
100
AcDbEntity
  8
ADP1DETAIL
100
AcDbLine
 10
8.947720109393921
 20
-7.691225298081536
 30
0.0
 11
8.947720109393921
 21
-6.191225298081536
 31
0.0
  0
LINE
  5
C6
330
1E
100
AcDbEntity
  8
ADP1DETAIL
100
AcDbLine
 10
8.697720109393921
 20
-7.691225298081536
 30
0.0
 11
8.697720109393921
 21
-5.941225298081536
 31
0.0
  0
LINE
  5
C7
330
1E
100
AcDbEntity
  8
ADP1DETAIL
100
AcDbLine
 10
6.94772010939392
 20
-5.941225298081536
 30
0.0
 11
6.94772010939392
 21
-7.691225298081536
 31
0.0
  0
LINE
  5
C8
330
1E
100
AcDbEntity
  8
ADP1DETAIL
100
AcDbLine
 10
8.322720109393921
 20
-7.691225298081536
 30
0.0
 11
8.322720109393921
 21
-3.691225298081536
 31
0.0
  0
LINE
  5
C9
330
1E
100
AcDbEntity
  8
ADP1DETAIL
100
AcDbLine
 10
7.32272010939392
 20
-3.691225298081536
 30
0.0
 11
7.32272010939392
 21
-7.691225298081536
 31
0.0
  0
LINE
  5
CA
330
1E
100
AcDbEntity
  8
ADP1DETAIL
100
AcDbLine
 10
7.19772010939392
 20
-3.566225298081536
 30
0.0
 11
7.19772010939392
 21
-7.691225298081536
 31
0.0
  0
LINE
  5
CB
330
1E
100
AcDbEntity
  8
ADP1DETAIL
100
AcDbLine
 10
7.07272010939392
 20
-3.441225298081536
 30
0.0
 11
7.07272010939392
 21
-7.691225298081536
 31
0.0
  0
LINE
  5
CC
330
1E
100
AcDbEntity
  8
ADP1DETAIL
100
AcDbLine
 10
8.447720109393921
 20
-7.691225298081536
 30
0.0
 11
8.447720109393921
 21
-3.566225298081536
 31
0.0
  0
LINE
  5
CD
330
1E
100
AcDbEntity
  8
ADP1DETAIL
100
AcDbLine
 10
8.572720109393921
 20
-7.691225298081536
 30
0.0
 11
8.572720109393921
 21
-3.441225298081536
 31
0.0
  0
LINE
  5
CE
330
1E
100
AcDbEntity
  8
ADP1DETAIL
100
AcDbLine
 10
9.385220109393921
 20
-6.191225298081536
 30
0.0
 11
9.385220109393921
 21
-3.066225298081536
 31
0.0
  0
LINE
  5
CF
330
1E
100
AcDbEntity
  8
ADP1DETAIL
100
AcDbLine
 10
9.135220109393921
 20
-5.941225298081536
 30
0.0
 11
9.135220109393921
 21
-3.316225298081536
 31
0.0
  0
LINE
  5
D0
330
1E
100
AcDbEntity
  8
ADP1DETAIL
100
AcDbLine
 10
8.697720109393921
 20
-5.941225298081536
 30
0.0
 11
9.135220109393921
 21
-5.941225298081536
 31
0.0
  0
LINE
  5
D1
330
1E
100
AcDbEntity
  8
ADP1DETAIL
100
AcDbLine
 10
8.947720109393921
 20
-6.191225298081536
 30
0.0
 11
9.385220109393921
 21
-6.191225298081536
 31
0.0
  0
LINE
  5
D2
330
1E
100
AcDbEntity
  8
ADP1DETAIL
100
AcDbLine
 10
8.447720109393921
 20
-3.566225298081536
 30
0.0
 11
7.19772010939392
 21
-3.566225298081536
 31
0.0
  0
LINE
  5
D3
330
1E
100
AcDbEntity
  8
ADP1DETAIL
100
AcDbLine
 10
8.572720109393921
 20
-3.441225298081536
 30
0.0
 11
7.07272010939392
 21
-3.441225298081536
 31
0.0
  0
LINE
  5
D4
330
1E
100
AcDbEntity
  8
ADP1DETAIL
100
AcDbLine
 10
8.322720109393921
 20
-3.691225298081536
 30
0.0
 11
7.32272010939392
 21
-3.691225298081536
 31
0.0
  0
TEXT
  5
D8
330
1E
100
AcDbEntity
  8
ADPDIM
100
AcDbText
 10
-5.341353996227534
 20
-9.875610003256824
 30
0.0
 40
0.1875
  1
J U L I U S  B L U M  &  C O . ,  I N C .      ( 8 0 0 )  5 2 6 - 6 2 9 3        W W W . J U L I U S B L U M . C O M        P A R T  N o .  4 4 4 1 - E
 41
1.25
  7
ARIAL_WIDE
 72
     1
 11
4.70191851400439
 21
-9.688110003256824
 31
0.0
100
AcDbText
 73
     3
  0
LINE
  5
3A7
330
1E
100
AcDbEntity
  8
ADP1DETAIL
100
AcDbLine
 10
0.5528613455874663
 20
-8.902142627293162
 30
0.0
 11
0.9661520579353606
 21
-8.902249216752087
 31
0.0
  0
LINE
  5
3A8
330
1E
100
AcDbEntity
  8
ADP1DETAIL
100
AcDbLine
 10
2.554232494929792
 20
-8.076136202053287
 30
0.0
 11
0.9454975398084997
 21
-8.076136202053282
 31
0.0
  0
ARC
  5
3A9
330
1E
100
AcDbEntity
  8
ADP1DETAIL
100
AcDbCircle
 10
0.3491560730635044
 20
-7.619112580853801
 30
0.0
 40
0.7513279811732399
100
AcDbArc
 50
266.4904592099829
 51
322.5341998017491
  0
LINE
  5
3AA
330
1E
100
AcDbEntity
  8
ADP1DETAIL
100
AcDbLine
 10
1.064777795583353
 20
-8.369708372705431
 30
0.0
 11
0.3014202661858931
 21
-8.369900111188947
 31
0.0
  0
LINE
  5
3AB
330
1E
100
AcDbEntity
  8
ADP1DETAIL
100
AcDbLine
 10
0.8250234929449717
 20
-8.413019587276595
 30
0.0
 11
0.301943945331395
 21
-8.413157833542314
 31
0.0
  0
ARC
  5
3AC
330
1E
100
AcDbEntity
  8
ADP1DETAIL
100
AcDbCircle
 10
0.2728938022346909
 20
-8.888128855452727
 30
0.0
 40
0.2649999999999998
100
AcDbArc
 50
0.0
 51
78.45730220113797
  0
ARC
  5
3AD
330
1E
100
AcDbEntity
  8
ADP1DETAIL
100
AcDbCircle
 10
0.5528613455874663
 20
-8.887142627293162
 30
0.0
 40
0.015
100
AcDbArc
 50
183.7698334967863
 51
270.0
  0
ARC
  5
3AE
330
1E
100
AcDbEntity
  8
ADP1DETAIL
100
AcDbCircle
 10
0.301943945331395
 20
-8.522157833542316
 30
0.0
 40
0.1089999999999999
100
AcDbArc
 50
90.0
 51
282.7068037043093
  0
LINE
  5
3AF
330
1E
100
AcDbEntity
  8
ADP1DETAIL
100
AcDbLine
 10
0.301943945331395
 20
-8.413157833542314
 30
0.0
 11
0.3014202661858931
 21
-8.369900111188947
 31
0.0
  0
LINE
  5
3B0
330
1E
100
AcDbEntity
  8
ADP1DETAIL
100
AcDbLine
 10
3.196566313427936
 20
-8.36903153572431
 30
0.0
 11
2.43002560810703
 21
-8.369221939084376
 31
0.0
  0
ARC
  5
3B1
330
1E
100
AcDbEntity
  8
ADP1DETAIL
100
AcDbCircle
 10
3.225616456524633
 20
-8.888128855452727
 30
0.0
 40
0.2649999999999998
100
AcDbArc
 50
101.542697798862
 51
180.0
  0
ARC
  5
3B2
330
1E
100
AcDbEntity
  8
ADP1DETAIL
100
AcDbCircle
 10
2.945648913171865
 20
-8.887142627293162
 30
0.0
 40
0.015
100
AcDbArc
 50
270.0
 51
356.2301665032137
  0
ARC
  5
3B3
330
1E
100
AcDbEntity
  8
ADP1DETAIL
100
AcDbCircle
 10
3.15057396167478
 20
-7.619112580853805
 30
0.0
 40
0.7513279811732399
100
AcDbArc
 50
217.465800198251
 51
273.5095407900171
  0
LINE
  5
3B4
330
1E
100
AcDbEntity
  8
ADP1DETAIL
100
AcDbLine
 10
3.197089992573438
 20
-8.412289258077677
 30
0.0
 11
2.670983611214964
 21
-8.412428304314387
 31
0.0
  0
ARC
  5
3B5
330
1E
100
AcDbEntity
  8
ADP1DETAIL
100
AcDbCircle
 10
3.196566313427936
 20
-8.522157833542316
 30
0.0
 40
0.1089999999999999
100
AcDbArc
 50
257.2931962956907
 51
90.0
  0
LINE
  5
3B6
330
1E
100
AcDbEntity
  8
ADP1DETAIL
100
AcDbLine
 10
3.196566313427936
 20
-8.413157833542314
 30
0.0
 11
3.197089992573438
 21
-8.369900111188947
 31
0.0
  0
INSERT
  5
3B7
330
1E
100
AcDbEntity
  8
ADP1DETAIL
100
AcDbBlockReference
  2
4441
 10
0.6169625755725719
 20
-8.905193691117535
 30
0.0
  0
DIMENSION
  5
3B8
330
1E
100
AcDbEntity
  8
ADPDIM
100
AcDbDimension
  2
*D18
 10
2.873014254809348
 20
-7.930271159718014
 30
0.0
 11
1.748091148416474
 21
-7.930271159718014
 31
0.0
 70
    32
 71
     5
 42
2.249846212785747
  3
Standard
100
AcDbAlignedDimension
 13
0.6231680420236004
 23
-8.582841500469445
 33
0.0
 14
2.873014254809348
 24
-8.582841500469445
 34
0.0
100
AcDbRotatedDimension
1001
ACAD
1000
DSTYLE
1002
{
1070
   276
1070
     2
1070
    41
1040
0.125
1070
    73
1070
     0
1070
    74
1070
     0
1070
    78
1070
     3
1070
   140
1040
0.125
1070
   141
1040
0.1875
1070
   142
1040
0.125
1070
   147
1040
0.125
1070
   171
1070
     1
1070
   273
1070
     5
1070
   274
1070
     1
1070
   277
1070
     5
1070
   279
1070
     2
1070
   284
1070
     3
1070
   285
1070
     3
1070
   286
1070
     3
1002
}
  0
DIMENSION
  5
3B9
330
1E
100
AcDbEntity
  8
ADPDIM
 62
     3
100
AcDbDimension
  2
*D19
 10
2.408508930765606
 20
-8.901480731733187
 30
0.0
 11
1.752258930765606
 21
-8.901480731733187
 31
0.0
 70
    32
 71
     5
 42
1.3125
  3
Standard
100
AcDbAlignedDimension
 13
1.096008930765606
 23
-8.726918623270659
 33
0.0
 14
2.408508930765606
 24
-8.726918623270659
 34
0.0
100
AcDbRotatedDimension
1001
ACAD
1000
DSTYLE
1002
{
1070
   276
1070
     2
1070
    41
1040
0.125
1070
    73
1070
     0
1070
    74
1070
     0
1070
    78
1070
     3
1070
   140
1040
0.125
1070
   141
1040
0.1875
1070
   142
1040
0.125
1070
   147
1040
0.125
1070
   171
1070
     1
1070
   273
1070
     5
1070
   274
1070
     1
1070
   277
1070
     5
1070
   279
1070
     2
1070
   284
1070
     3
1070
   285
1070
     3
1070
   286
1070
     3
1002
}
  0
DIMENSION
  5
3BA
330
1E
100
AcDbEntity
  8
ADPDIM
 62
     3
100
AcDbDimension
  2
*D20
 10
2.542158997897722
 20
-9.275542409421504
 30
0.0
 11
1.760908997897722
 21
-9.275542409421504
 31
0.0
 70
    32
 71
     5
 42
1.5625
  3
Standard
100
AcDbAlignedDimension
 13
0.9796589978977223
 23
-8.893168249682114
 33
0.0
 14
2.542158997897722
 24
-8.893168249682114
 34
0.0
100
AcDbRotatedDimension
1001
ACAD
1000
DSTYLE
1002
{
1070
   343
1005
389
1070
   173
1070
     1
1070
   344
1005
389
1070
   276
1070
     2
1070
    41
1040
0.125
1070
    73
1070
     0
1070
    74
1070
     0
1070
    78
1070
     3
1070
   140
1040
0.125
1070
   141
1040
0.1875
1070
   142
1040
0.125
1070
   147
1040
0.125
1070
   171
1070
     1
1070
   273
1070
     5
1070
   274
1070
     1
1070
   277
1070
     5
1070
   279
1070
     2
1070
   284
1070
     3
1070
   285
1070
     3
1070
   286
1070
     3
1002
}
  0
LINE
  5
3BB
330
1E
100
AcDbEntity
  8
ADP1DETAIL
100
AcDbLine
 10
2.529341188345448
 20
-8.901990762912275
 30
0.0
 11
2.942631900693342
 21
-8.9020973523712
 31
0.0
  0
ENDSEC
  0
SECTION
  2
OBJECTS
  0
DICTIONARY
  5
C
330
0
100
AcDbDictionary
281
     1
  3
ACAD_COLOR
350
27C
  3
ACAD_GROUP
350
D
  3
ACAD_LAYOUT
350
19
  3
ACAD_MATERIAL
350
267
  3
ACAD_MLINESTYLE
350
16
  3
ACAD_PLOTSETTINGS
350
18
  3
ACAD_PLOTSTYLENAME
350
E
  3
ACAD_TABLESTYLE
350
27D
  3
ACAD_VISUALSTYLE
350
26B
  3
AcDbVariableDictionary
350
149
  3
ASE_INDEX_DICTIONARY
350
2FD
  3
DWGPROPS
350
417
  0
DICTIONARY
  5
300
330
8
100
AcDbDictionary
280
     1
281
     1
  0
DICTIONARY
  5
114
330
1E
100
AcDbDictionary
280
     1
281
     1
  3
ACAD_LAYOUTSELFREF
360
263
  0
DICTIONARY
  5
116
330
1A
100
AcDbDictionary
280
     1
281
     1
  3
ACAD_LAYOUTSELFREF
360
262
  0
DICTIONARY
  5
27C
102
{ACAD_REACTORS
330
C
102
}
330
C
100
AcDbDictionary
281
     1
  0
DICTIONARY
  5
D
102
{ACAD_REACTORS
330
C
102
}
330
C
100
AcDbDictionary
281
     1
  0
DICTIONARY
  5
19
102
{ACAD_REACTORS
330
C
102
}
330
C
100
AcDbDictionary
281
     1
  3
Layout1
350
1D
  3
Model
350
21
  0
DICTIONARY
  5
267
102
{ACAD_REACTORS
330
C
102
}
330
C
100
AcDbDictionary
281
     1
  3
ByBlock
350
269
  3
ByLayer
350
268
  3
Global
350
26A
  0
DICTIONARY
  5
16
102
{ACAD_REACTORS
330
C
102
}
330
C
100
AcDbDictionary
281
     1
  3
Standard
350
17
  0
DICTIONARY
  5
18
102
{ACAD_REACTORS
330
C
102
}
330
C
100
AcDbDictionary
281
     1
  0
ACDBDICTIONARYWDFLT
  5
E
102
{ACAD_REACTORS
330
C
102
}
330
C
100
AcDbDictionary
281
     1
  3
Normal
350
F
100
AcDbDictionaryWithDefault
340
F
  0
DICTIONARY
  5
27D
102
{ACAD_REACTORS
330
C
102
}
330
C
100
AcDbDictionary
281
     1
  3
Standard
350
27E
  0
DICTIONARY
  5
26B
102
{ACAD_REACTORS
330
C
102
}
330
C
100
AcDbDictionary
281
     1
  3
2dWireframe
350
271
  3
3D Hidden
350
273
  3
3dWireframe
350
272
  3
Basic
350
270
  3
Brighten
350
277
  3
ColorChange
350
27B
  3
Conceptual
350
274
  3
Dim
350
276
  3
Facepattern
350
27A
  3
Flat
350
26C
  3
FlatWithEdges
350
26D
  3
Gouraud
350
26E
  3
GouraudWithEdges
350
26F
  3
Linepattern
350
279
  3
Realistic
350
275
  3
Thicken
350
278
  0
DICTIONARY
  5
149
102
{ACAD_REACTORS
330
C
102
}
330
C
100
AcDbDictionary
281
     1
  3
CTABLESTYLE
350
316
  3
DIMASSOC
350
14B
  3
HIDETEXT
350
14A
  3
INDEXCTL
350
318
  3
SORTENTS
350
317
  0
DICTIONARY
  5
2FD
102
{ACAD_REACTORS
330
C
102
}
330
C
100
AcDbDictionary
281
     1
  3
ASEBlockHierarchyIndexRecord
350
2FE
1001
DCO15
1040
1569092335.51
  0
XRECORD
  5
417
102
{ACAD_REACTORS
330
C
102
}
330
C
100
AcDbXrecord
280
     1
  1
DWGPROPS COOKIE
  2

  3

  4

  6

  7

  8
John
  9

300
=
301
=
302
=
303
=
304
=
305
=
306
=
307
=
308
=
309
=
 40
0.1612811574074074
 41
2450406.425246713
 42
2455237.596468576
  1

 90
        0
  0
XRECORD
  5
263
102
{ACAD_REACTORS
330
114
102
}
330
114
100
AcDbXrecord
280
     1
340
1E
  0
XRECORD
  5
262
102
{ACAD_REACTORS
330
116
102
}
330
116
100
AcDbXrecord
280
     1
340
1A
  0
LAYOUT
  5
1D
102
{ACAD_XDICTIONARY
360
418
102
}
102
{ACAD_REACTORS
330
19
102
}
330
19
100
AcDbPlotSettings
  1

  2
Fax
  4

  6

 40
0.0
 41
0.0
 42
0.0
 43
0.0
 44
0.0
 45
0.0
 46
0.0
 47
0.0
 48
0.0
 49
0.0
140
0.0
141
0.0
142
1.0
143
1.0
 70
   688
 72
     0
 73
     0
 74
     5
  7
Default R14 pen assignments.ctb
 75
    16
147
1.0
148
0.0
149
0.0
100
AcDbLayout
  1
Layout1
 70
     1
 71
     1
 10
0.0
 20
0.0
 11
12.0
 21
9.0
 12
0.0008545024320483
 22
1.750284242913068
 32
0.0
 14
1.000000000000000E+20
 24
1.000000000000000E+20
 34
1.000000000000000E+20
 15
-1.000000000000000E+20
 25
-1.000000000000000E+20
 35
-1.000000000000000E+20
146
0.0
 13
0.0
 23
0.0
 33
0.0
 16
1.0
 26
0.0
 36
0.0
 17
0.0
 27
1.0
 37
0.0
 76
     0
330
1A
  0
LAYOUT
  5
21
102
{ACAD_XDICTIONARY
360
41A
102
}
102
{ACAD_REACTORS
330
19
102
}
330
19
100
AcDbPlotSettings
  1

  2
Fax
  4

  6

 40
0.0
 41
0.0
 42
0.0
 43
0.0
 44
0.0
 45
0.0
 46
0.0
 47
0.0
 48
0.0
 49
0.0
140
0.0
141
0.0
142
1.0
143
1.0
 70
  1712
 72
     0
 73
     0
 74
     0
  7
Default R14 pen assignments.ctb
 75
     0
147
1.0
148
0.0
149
0.0
100
AcDbLayout
  1
Model
 70
     1
 71
     0
 10
0.0
 20
0.0
 11
12.0
 21
9.0
 12
0.0
 22
0.0
 32
0.0
 14
0.0
 24
0.0
 34
0.0
 15
0.0
 25
0.0
 35
0.0
146
0.0
 13
0.0
 23
0.0
 33
0.0
 16
1.0
 26
0.0
 36
0.0
 17
0.0
 27
1.0
 37
0.0
 76
     0
330
1E
331
230
  0
MATERIAL
  5
269
102
{ACAD_XDICTIONARY
360
41E
102
}
102
{ACAD_REACTORS
330
267
102
}
330
267
100
AcDbMaterial
  1
ByBlock
  0
MATERIAL
  5
268
102
{ACAD_XDICTIONARY
360
41C
102
}
102
{ACAD_REACTORS
330
267
102
}
330
267
100
AcDbMaterial
  1
ByLayer
  0
MATERIAL
  5
26A
102
{ACAD_XDICTIONARY
360
420
102
}
102
{ACAD_REACTORS
330
267
102
}
330
267
100
AcDbMaterial
  1
Global
  0
MLINESTYLE
  5
17
102
{ACAD_REACTORS
330
16
102
}
330
16
100
AcDbMlineStyle
  2
STANDARD
 70
     0
  3

 62
   256
 51
90.0
 52
90.0
 71
     2
 49
0.5
 62
   256
  6
BYLAYER
 49
-0.5
 62
   256
  6
BYLAYER
  0
ACDBPLACEHOLDER
  5
F
102
{ACAD_REACTORS
330
E
102
}
330
E
  0
TABLESTYLE
  5
27E
102
{ACAD_XDICTIONARY
360
422
102
}
102
{ACAD_REACTORS
330
27D
102
}
330
27D
100
AcDbTableStyle
  3
Standard
 70
     0
 71
     0
 40
0.06
 41
0.06
280
     0
281
     0
  7
STANDARD
140
0.18
170
     2
 62
     0
 63
     7
283
     0
274
    -2
284
     1
 64
     0
275
    -2
285
     1
 65
     0
276
    -2
286
     1
 66
     0
277
    -2
287
     1
 67
     0
278
    -2
288
     1
 68
     0
279
    -2
289
     1
 69
     0
  7
STANDARD
140
0.25
170
     5
 62
     0
 63
     7
283
     0
274
    -2
284
     1
 64
     0
275
    -2
285
     1
 65
     0
276
    -2
286
     1
 66
     0
277
    -2
287
     1
 67
     0
278
    -2
288
     1
 68
     0
279
    -2
289
     1
 69
     0
  7
STANDARD
140
0.18
170
     5
 62
     0
 63
     7
283
     0
274
    -2
284
     1
 64
     0
275
    -2
285
     1
 65
     0
276
    -2
286
     1
 66
     0
277
    -2
287
     1
 67
     0
278
    -2
288
     1
 68
     0
279
    -2
289
     1
 69
     0
  0
VISUALSTYLE
  5
271
102
{ACAD_REACTORS
330
26B
102
}
330
26B
100
AcDbVisualStyle
  2
2dWireframe
 70
     4
 71
     0
 72
     2
 73
     0
 90
        0
 40
-0.6
 41
-30.0
 62
     5
 63
     7
 74
     1
 91
        4
 64
     7
 65
   257
 75
     1
175
     1
 42
1.0
 92
        0
 66
   257
 43
1.0
 76
     1
 77
     6
 78
     2
 67
     7
 79
     5
170
     0
171
     0
290
     0
174
     0
 93
        1
 44
0.0
173
     0
291
     0
 45
0.0
1001
ACAD
1000
AcDbSavedByObjectVersion
1070
     0
  0
VISUALSTYLE
  5
273
102
{ACAD_REACTORS
330
26B
102
}
330
26B
100
AcDbVisualStyle
  2
3D Hidden
 70
     6
 71
     1
 72
     2
 73
     2
 90
        0
 40
-0.6
 41
-30.0
 62
     5
 63
     7
 74
     2
 91
        2
 64
     7
 65
   257
 75
     2
175
     1
 42
40.0
 92
        0
 66
   257
 43
1.0
 76
     1
 77
     6
 78
     2
 67
     7
 79
     3
170
     0
171
     0
290
     0
174
     0
 93
        1
 44
0.0
173
     0
291
     0
 45
0.0
1001
ACAD
1000
AcDbSavedByObjectVersion
1070
     0
  0
VISUALSTYLE
  5
272
102
{ACAD_REACTORS
330
26B
102
}
330
26B
100
AcDbVisualStyle
  2
3dWireframe
 70
     5
 71
     0
 72
     2
 73
     0
 90
        0
 40
-0.6
 41
-30.0
 62
     5
 63
     7
 74
     1
 91
        4
 64
     7
 65
   257
 75
     1
175
     1
 42
1.0
 92
        0
 66
   257
 43
1.0
 76
     1
 77
     6
 78
     2
 67
     7
 79
     5
170
     0
171
     0
290
     0
174
     0
 93
        1
 44
0.0
173
     0
291
     0
 45
0.0
1001
ACAD
1000
AcDbSavedByObjectVersion
1070
     0
  0
VISUALSTYLE
  5
270
102
{ACAD_REACTORS
330
26B
102
}
330
26B
100
AcDbVisualStyle
  2
Basic
 70
     7
 71
     1
 72
     0
 73
     1
 90
        0
 40
-0.6
 41
-30.0
 62
     5
 63
     7
 74
     0
 91
        4
 64
     7
 65
   257
 75
     1
175
     1
 42
1.0
 92
        8
 66
     7
 43
1.0
 76
     1
 77
     6
 78
     2
 67
     7
 79
     5
170
     0
171
     0
290
     0
174
     0
 93
        1
 44
0.0
173
     0
291
     1
 45
0.0
1001
ACAD
1000
AcDbSavedByObjectVersion
1070
     0
  0
VISUALSTYLE
  5
277
102
{ACAD_REACTORS
330
26B
102
}
330
26B
100
AcDbVisualStyle
  2
Brighten
 70
    12
 71
     2
 72
     2
 73
     0
 90
        0
 40
-0.6
 41
-30.0
 62
     5
 63
     7
 74
     1
 91
        4
 64
     7
 65
   257
 75
     1
175
     1
 42
1.0
 92
        8
 66
     7
 43
1.0
 76
     1
 77
     6
 78
     2
 67
     7
 79
     5
170
     0
171
     0
290
     0
174
     0
 93
        1
 44
50.0
173
     0
291
     1
 45
0.0
1001
ACAD
1000
AcDbSavedByObjectVersion
1070
     0
  0
VISUALSTYLE
  5
27B
102
{ACAD_REACTORS
330
26B
102
}
330
26B
100
AcDbVisualStyle
  2
ColorChange
 70
    16
 71
     2
 72
     2
 73
     3
 90
        0
 40
-0.6
 41
-30.0
 62
     5
 63
     8
 74
     1
 91
        4
 64
     7
 65
   257
 75
     1
175
     1
 42
1.0
 92
        8
 66
     8
 43
1.0
 76
     1
 77
     6
 78
     2
 67
     7
 79
     5
170
     0
171
     0
290
     0
174
     0
 93
        1
 44
0.0
173
     0
291
     1
 45
0.0
1001
ACAD
1000
AcDbSavedByObjectVersion
1070
     0
  0
VISUALSTYLE
  5
274
102
{ACAD_REACTORS
330
26B
102
}
330
26B
100
AcDbVisualStyle
  2
Conceptual
 70
     9
 71
     3
 72
     2
 73
     0
 90
        0
 40
-0.6
 41
-30.0
 62
     5
 63
     7
 74
     2
 91
        2
 64
     7
 65
   257
 75
     1
175
     1
 42
40.0
 92
        8
 66
     7
 43
1.0
 76
     1
 77
     6
 78
     2
 67
     7
 79
     3
170
     0
171
     0
290
     0
174
     0
 93
        1
 44
0.0
173
     0
291
     0
 45
0.0
1001
ACAD
1000
AcDbSavedByObjectVersion
1070
     0
  0
VISUALSTYLE
  5
276
102
{ACAD_REACTORS
330
26B
102
}
330
26B
100
AcDbVisualStyle
  2
Dim
 70
    11
 71
     2
 72
     2
 73
     0
 90
        0
 40
-0.6
 41
-30.0
 62
     5
 63
     7
 74
     1
 91
        4
 64
     7
 65
   257
 75
     1
175
     1
 42
1.0
 92
        8
 66
     7
 43
1.0
 76
     1
 77
     6
 78
     2
 67
     7
 79
     5
170
     0
171
     0
290
     0
174
     0
 93
        1
 44
-50.0
173
     0
291
     1
 45
0.0
1001
ACAD
1000
AcDbSavedByObjectVersion
1070
     0
  0
VISUALSTYLE
  5
27A
102
{ACAD_REACTORS
330
26B
102
}
330
26B
100
AcDbVisualStyle
  2
Facepattern
 70
    15
 71
     2
 72
     2
 73
     0
 90
        0
 40
-0.6
 41
-30.0
 62
     5
 63
     7
 74
     1
 91
        4
 64
     7
 65
   257
 75
     1
175
     1
 42
1.0
 92
        8
 66
     7
 43
1.0
 76
     1
 77
     6
 78
     2
 67
     7
 79
     5
170
     0
171
     0
290
     0
174
     0
 93
        1
 44
0.0
173
     0
291
     1
 45
0.0
1001
ACAD
1000
AcDbSavedByObjectVersion
1070
     0
  0
VISUALSTYLE
  5
26C
102
{ACAD_REACTORS
330
26B
102
}
330
26B
100
AcDbVisualStyle
  2
Flat
 70
     0
 71
     2
 72
     1
 73
     1
 90
        2
 40
-0.6
 41
30.0
 62
     5
 63
     7
 74
     0
 91
        4
 64
     7
 65
   257
 75
     1
175
     1
 42
1.0
 92
        8
 66
     7
 43
1.0
 76
     1
 77
     6
 78
     2
 67
     7
 79
     5
170
     0
171
     0
290
     0
174
     0
 93
       13
 44
0.0
173
     0
291
     1
 45
0.0
1001
ACAD
1000
AcDbSavedByObjectVersion
1070
     0
  0
VISUALSTYLE
  5
26D
102
{ACAD_REACTORS
330
26B
102
}
330
26B
100
AcDbVisualStyle
  2
FlatWithEdges
 70
     1
 71
     2
 72
     1
 73
     1
 90
        2
 40
-0.6
 41
30.0
 62
     5
 63
     7
 74
     1
 91
        4
 64
     7
 65
   257
 75
     1
175
     1
 42
1.0
 92
        0
 66
   257
 43
1.0
 76
     1
 77
     6
 78
     2
 67
     7
 79
     5
170
     0
171
     0
290
     0
174
     0
 93
       13
 44
0.0
173
     0
291
     1
 45
0.0
1001
ACAD
1000
AcDbSavedByObjectVersion
1070
     0
  0
VISUALSTYLE
  5
26E
102
{ACAD_REACTORS
330
26B
102
}
330
26B
100
AcDbVisualStyle
  2
Gouraud
 70
     2
 71
     2
 72
     2
 73
     1
 90
        2
 40
-0.6
 41
30.0
 62
     5
 63
     7
 74
     0
 91
        4
 64
     7
 65
   257
 75
     1
175
     1
 42
1.0
 92
        0
 66
     7
 43
1.0
 76
     1
 77
     6
 78
     2
 67
     7
 79
     5
170
     0
171
     0
290
     0
174
     0
 93
       13
 44
0.0
173
     0
291
     1
 45
0.0
1001
ACAD
1000
AcDbSavedByObjectVersion
1070
     0
  0
VISUALSTYLE
  5
26F
102
{ACAD_REACTORS
330
26B
102
}
330
26B
100
AcDbVisualStyle
  2
GouraudWithEdges
 70
     3
 71
     2
 72
     2
 73
     1
 90
        2
 40
-0.6
 41
30.0
 62
     5
 63
     7
 74
     1
 91
        4
 64
     7
 65
   257
 75
     1
175
     1
 42
1.0
 92
        0
 66
   257
 43
1.0
 76
     1
 77
     6
 78
     2
 67
     7
 79
     5
170
     0
171
     0
290
     0
174
     0
 93
       13
 44
0.0
173
     0
291
     1
 45
0.0
1001
ACAD
1000
AcDbSavedByObjectVersion
1070
     0
  0
VISUALSTYLE
  5
279
102
{ACAD_REACTORS
330
26B
102
}
330
26B
100
AcDbVisualStyle
  2
Linepattern
 70
    14
 71
     2
 72
     2
 73
     0
 90
        0
 40
-0.6
 41
-30.0
 62
     5
 63
     7
 74
     1
 91
        4
 64
     7
 65
   257
 75
     7
175
     7
 42
1.0
 92
        8
 66
     7
 43
1.0
 76
     1
 77
     6
 78
     2
 67
     7
 79
     5
170
     0
171
     0
290
     0
174
     0
 93
        1
 44
0.0
173
     0
291
     1
 45
0.0
1001
ACAD
1000
AcDbSavedByObjectVersion
1070
     0
  0
VISUALSTYLE
  5
275
102
{ACAD_REACTORS
330
26B
102
}
330
26B
100
AcDbVisualStyle
  2
Realistic
 70
     8
 71
     2
 72
     2
 73
     0
 90
        0
 40
-0.6
 41
-30.0
 62
     5
 63
     7
 74
     1
 91
        0
 64
     7
 65
   257
 75
     1
175
     1
 42
1.0
 92
        8
 66
     8
 43
1.0
 76
     1
 77
     6
 78
     2
 67
     7
 79
     5
170
     0
171
     0
290
     0
174
     0
 93
       13
 44
0.0
173
     0
291
     0
 45
0.0
1001
ACAD
1000
AcDbSavedByObjectVersion
1070
     0
  0
VISUALSTYLE
  5
278
102
{ACAD_REACTORS
330
26B
102
}
330
26B
100
AcDbVisualStyle
  2
Thicken
 70
    13
 71
     2
 72
     2
 73
     0
 90
        0
 40
-0.6
 41
-30.0
 62
     5
 63
     7
 74
     1
 91
        4
 64
     7
 65
   257
 75
     1
175
     1
 42
1.0
 92
       12
 66
     7
 43
1.0
 76
     1
 77
     6
 78
     2
 67
     7
 79
     5
170
     0
171
     0
290
     0
174
     0
 93
        1
 44
0.0
173
     0
291
     1
 45
0.0
1001
ACAD
1000
AcDbSavedByObjectVersion
1070
     0
  0
DICTIONARYVAR
  5
316
102
{ACAD_REACTORS
330
149
102
}
330
149
100
DictionaryVariables
280
     0
  1
STANDARD
  0
DICTIONARYVAR
  5
14B
102
{ACAD_REACTORS
330
149
102
}
330
149
100
DictionaryVariables
280
     0
  1
2
  0
DICTIONARYVAR
  5
14A
102
{ACAD_REACTORS
330
149
102
}
330
149
100
DictionaryVariables
280
     0
  1
1
  0
DICTIONARYVAR
  5
318
102
{ACAD_REACTORS
330
149
102
}
330
149
100
DictionaryVariables
280
     0
  1
0
  0
DICTIONARYVAR
  5
317
102
{ACAD_REACTORS
330
149
102
}
330
149
100
DictionaryVariables
280
     0
  1
127
  0
XRECORD
  5
2FE
102
{ACAD_REACTORS
330
2FD
102
}
330
2FD
100
AcDbXrecord
280
     1
330
2B3
  0
DICTIONARY
  5
418
330
1D
100
AcDbDictionary
280
     1
281
     1
  3
ACAD_XREC_ROUNDTRIP
360
419
  0
DICTIONARY
  5
41A
330
21
100
AcDbDictionary
280
     1
281
     1
  3
ACAD_XREC_ROUNDTRIP
360
41B
  0
DICTIONARY
  5
41E
330
269
100
AcDbDictionary
280
     1
281
     1
  3
ACAD_XREC_ROUNDTRIP
360
41F
  0
DICTIONARY
  5
41C
330
268
100
AcDbDictionary
280
     1
281
     1
  3
ACAD_XREC_ROUNDTRIP
360
41D
  0
DICTIONARY
  5
420
330
26A
100
AcDbDictionary
280
     1
281
     1
  3
ACAD_XREC_ROUNDTRIP
360
421
  0
DICTIONARY
  5
422
330
27E
100
AcDbDictionary
280
     1
281
     1
  3
ACAD_XREC_ROUNDTRIP
360
423
  0
XRECORD
  5
419
102
{ACAD_REACTORS
330
418
102
}
330
418
100
AcDbXrecord
280
     1
102
SHADEPLOT
 70
     0
102
SHADEPLOTRESLEVEL
 70
     2
102
SHADEPLOTCUSTOMDPI
 70
   300
  0
XRECORD
  5
41B
102
{ACAD_REACTORS
330
41A
102
}
330
41A
100
AcDbXrecord
280
     1
102
SHADEPLOT
 70
     0
102
SHADEPLOTRESLEVEL
 70
     2
102
SHADEPLOTCUSTOMDPI
 70
   300
  0
XRECORD
  5
41F
102
{ACAD_REACTORS
330
41E
102
}
330
41E
100
AcDbXrecord
280
     1
102
MATERIAL
148
0.0
149
0.0
149
0.0
 93
        0
 94
       63
282
     0
 72
     1
 77
     1
171
     1
175
     1
179
     1
273
     0
  0
XRECORD
  5
41D
102
{ACAD_REACTORS
330
41C
102
}
330
41C
100
AcDbXrecord
280
     1
102
MATERIAL
148
0.0
149
0.0
149
0.0
 93
        0
 94
       63
282
     0
 72
     1
 77
     1
171
     1
175
     1
179
     1
273
     0
  0
XRECORD
  5
421
102
{ACAD_REACTORS
330
420
102
}
330
420
100
AcDbXrecord
280
     1
102
MATERIAL
148
0.0
149
0.0
149
0.0
 93
        0
 94
       63
282
     0
 72
     1
 77
     1
171
     1
175
     1
179
     1
273
     0
  0
XRECORD
  5
423
102
{ACAD_REACTORS
330
422
102
}
330
422
100
AcDbXrecord
280
     1
102
ACAD_ROUNDTRIP_PRE2007_TABLESTYLE
 90
      512
 91
        0
  1

 92
      512
 93
        0
  2

 94
      512
 95
        0
  3

  0
ENDSEC
  0
EOF
