  0
SECTION
  2
HEADER
  9
$ACADVER
  1
AC1014
  9
$ACADMAINTVER
 70
     9
  9
$DWGCODEPAGE
  3
ANSI_1252
  9
$INSBASE
 10
56.92407483233919
 20
3.859311012654117
 30
0.0
  9
$EXTMIN
 10
55.1852520463006
 20
2.640590723728711
 30
0.0
  9
$EXTMAX
 10
68.05466712133472
 20
7.523833435243643
 30
0.0
  9
$LIMMIN
 10
0.0
 20
0.0
  9
$LIMMAX
 10
36.0
 20
36.0
  9
$ORTHOMODE
 70
     1
  9
$REGENMODE
 70
     1
  9
$FILLMODE
 70
     1
  9
$QTEXTMODE
 70
     0
  9
$MIRRTEXT
 70
     1
  9
$DRAGMODE
 70
     0
  9
$LTSCALE
 40
1.0
  9
$OSMODE
 70
    37
  9
$ATTMODE
 70
     1
  9
$TEXTSIZE
 40
0.2
  9
$TRACEWID
 40
0.05
  9
$TEXTSTYLE
  7
STANDARD
  9
$CLAYER
  8
ADP1DETAIL
  9
$CELTYPE
  6
BYLAYER
  9
$CECOLOR
 62
   256
  9
$CELTSCALE
 40
1.0
  9
$DELOBJ
 70
     1
  9
$DISPSILH
 70
     0
  9
$DIMSCALE
 40
1.0
  9
$DIMASZ
 40
0.125
  9
$DIMEXO
 40
0.0625
  9
$DIMDLI
 40
0.38
  9
$DIMRND
 40
0.0
  9
$DIMDLE
 40
0.0
  9
$DIMEXE
 40
0.18
  9
$DIMTP
 40
0.0
  9
$DIMTM
 40
0.0
  9
$DIMTXT
 40
0.125
  9
$DIMCEN
 40
0.1875
  9
$DIMTSZ
 40
0.125
  9
$DIMTOL
 70
     0
  9
$DIMLIM
 70
     0
  9
$DIMTIH
 70
     0
  9
$DIMTOH
 70
     0
  9
$DIMSE1
 70
     0
  9
$DIMSE2
 70
     0
  9
$DIMTAD
 70
     0
  9
$DIMZIN
 70
     3
  9
$DIMBLK
  1

  9
$DIMASO
 70
     1
  9
$DIMSHO
 70
     1
  9
$DIMPOST
  1

  9
$DIMAPOST
  1

  9
$DIMALT
 70
     0
  9
$DIMALTD
 70
     1
  9
$DIMALTF
 40
25.4
  9
$DIMLFAC
 40
1.0
  9
$DIMTOFL
 70
     0
  9
$DIMTVP
 40
0.0
  9
$DIMTIX
 70
     0
  9
$DIMSOXD
 70
     0
  9
$DIMSAH
 70
     0
  9
$DIMBLK1
  1

  9
$DIMBLK2
  1

  9
$DIMSTYLE
  2
STANDARD
  9
$DIMCLRD
 70
     0
  9
$DIMCLRE
 70
     0
  9
$DIMCLRT
 70
     0
  9
$DIMTFAC
 40
1.0
  9
$DIMGAP
 40
0.125
  9
$DIMJUST
 70
     0
  9
$DIMSD1
 70
     0
  9
$DIMSD2
 70
     0
  9
$DIMTOLJ
 70
     1
  9
$DIMTZIN
 70
     0
  9
$DIMALTZ
 70
     0
  9
$DIMALTTZ
 70
     0
  9
$DIMFIT
 70
     3
  9
$DIMUPT
 70
     0
  9
$DIMUNIT
 70
     2
  9
$DIMDEC
 70
     4
  9
$DIMTDEC
 70
     4
  9
$DIMALTU
 70
     2
  9
$DIMALTTD
 70
     2
  9
$DIMTXSTY
  7
STANDARD
  9
$DIMAUNIT
 70
     0
  9
$LUNITS
 70
     5
  9
$LUPREC
 70
     4
  9
$SKETCHINC
 40
0.1
  9
$FILLETRAD
 40
0.062
  9
$AUNITS
 70
     0
  9
$AUPREC
 70
     0
  9
$MENU
  1
acad
  9
$ELEVATION
 40
0.0
  9
$PELEVATION
 40
0.0
  9
$THICKNESS
 40
0.0
  9
$LIMCHECK
 70
     0
  9
$BLIPMODE
 70
     0
  9
$CHAMFERA
 40
0.0
  9
$CHAMFERB
 40
0.0
  9
$CHAMFERC
 40
0.0
  9
$CHAMFERD
 40
0.0
  9
$SKPOLY
 70
     0
  9
$TDCREATE
 40
2450382.693227812
  9
$TDUPDATE
 40
2452297.070814525
  9
$TDINDWG
 40
0.0222845370
  9
$TDUSRTIMER
 40
0.0222845370
  9
$USRTIMER
 70
     1
  9
$ANGBASE
 50
0.0
  9
$ANGDIR
 70
     0
  9
$PDMODE
 70
     0
  9
$PDSIZE
 40
0.0
  9
$PLINEWID
 40
0.0
  9
$COORDS
 70
     2
  9
$SPLFRAME
 70
     0
  9
$SPLINETYPE
 70
     6
  9
$SPLINESEGS
 70
     8
  9
$ATTDIA
 70
     0
  9
$ATTREQ
 70
     1
  9
$HANDLING
 70
 22529
  9
$HANDSEED
  5
30C
  9
$SURFTAB1
 70
     6
  9
$SURFTAB2
 70
     6
  9
$SURFTYPE
 70
     6
  9
$SURFU
 70
     6
  9
$SURFV
 70
     6
  9
$UCSNAME
  2

  9
$UCSORG
 10
0.0
 20
0.0
 30
0.0
  9
$UCSXDIR
 10
1.0
 20
0.0
 30
0.0
  9
$UCSYDIR
 10
0.0
 20
1.0
 30
0.0
  9
$PUCSNAME
  2

  9
$PUCSORG
 10
0.0
 20
0.0
 30
0.0
  9
$PUCSXDIR
 10
1.0
 20
0.0
 30
0.0
  9
$PUCSYDIR
 10
0.0
 20
1.0
 30
0.0
  9
$USERI1
 70
     0
  9
$USERI2
 70
     0
  9
$USERI3
 70
     0
  9
$USERI4
 70
     0
  9
$USERI5
 70
     0
  9
$USERR1
 40
0.0
  9
$USERR2
 40
0.0
  9
$USERR3
 40
0.0
  9
$USERR4
 40
0.0
  9
$USERR5
 40
0.0
  9
$WORLDVIEW
 70
     1
  9
$SHADEDGE
 70
     3
  9
$SHADEDIF
 70
    70
  9
$TILEMODE
 70
     1
  9
$MAXACTVP
 70
    15
  9
$PINSBASE
 10
0.0
 20
0.0
 30
0.0
  9
$PLIMCHECK
 70
     0
  9
$PEXTMIN
 10
1.000000000000000E+20
 20
1.000000000000000E+20
 30
1.000000000000000E+20
  9
$PEXTMAX
 10
-1.000000000000000E+20
 20
-1.000000000000000E+20
 30
-1.000000000000000E+20
  9
$PLIMMIN
 10
0.0
 20
0.0
  9
$PLIMMAX
 10
12.0
 20
9.0
  9
$UNITMODE
 70
     0
  9
$VISRETAIN
 70
     0
  9
$PLINEGEN
 70
     0
  9
$PSLTSCALE
 70
     1
  9
$TREEDEPTH
 70
  3020
  9
$PICKSTYLE
 70
     1
  9
$CMLSTYLE
  2
STANDARD
  9
$CMLJUST
 70
     0
  9
$CMLSCALE
 40
1.0
  9
$PROXYGRAPHICS
 70
     1
  9
$MEASUREMENT
 70
     0
  0
ENDSEC
  0
SECTION
  2
CLASSES
  0
CLASS
  1
ACDBDICTIONARYWDFLT
  2
AcDbDictionaryWithDefault
  3
AutoCAD 2000
 90
        0
280
     0
281
     0
  0
CLASS
  1
ACDBPLACEHOLDER
  2
AcDbPlaceHolder
  3
AutoCAD 2000
 90
        0
280
     0
281
     0
  0
CLASS
  1
LAYOUT
  2
AcDbLayout
  3
AutoCAD 2000
 90
        0
280
     0
281
     0
  0
CLASS
  1
DICTIONARYVAR
  2
AcDbDictionaryVar
  3
AutoCAD 2000
 90
        0
280
     0
281
     0
  0
CLASS
  1
LONG_TRANSACTION
  2
AcDbLongTransaction
  3
AutoCAD 2000
 90
        0
280
     0
281
     0
  0
CLASS
  1
LWPOLYLINE
  2
AcDbPolyline
  3
AutoCAD 2000
 90
        0
280
     0
281
     1
  0
CLASS
  1
HATCH
  2
AcDbHatch
  3
AutoCAD 2000
 90
        0
280
     0
281
     1
  0
CLASS
  1
XRECORD
  2
AcDbXrecord
  3
AutoCAD 2000
 90
        0
280
     0
281
     0
  0
CLASS
  1
LONG_TRANSACTION
  2
AcDbLongTransaction
  3
AutoCAD 2000
 90
        0
280
     0
281
     0
  0
CLASS
  1
LWPOLYLINE
  2
AcDbPolyline
  3
AutoCAD 2000
 90
        0
280
     0
281
     1
  0
CLASS
  1
HATCH
  2
AcDbHatch
  3
AutoCAD 2000
 90
        0
280
     0
281
     1
  0
CLASS
  1
XRECORD
  2
AcDbXrecord
  3
AutoCAD 2000
 90
        0
280
     0
281
     0
  0
CLASS
  1
LONG_TRANSACTION
  2
AcDbLongTransaction
  3
AutoCAD 2000
 90
        0
280
     0
281
     0
  0
CLASS
  1
LWPOLYLINE
  2
AcDbPolyline
  3
AutoCAD 2000
 90
        0
280
     0
281
     1
  0
CLASS
  1
HATCH
  2
AcDbHatch
  3
AutoCAD 2000
 90
        0
280
     0
281
     1
  0
CLASS
  1
XRECORD
  2
AcDbXrecord
  3
AutoCAD 2000
 90
        0
280
     0
281
     0
  0
CLASS
  1
LONG_TRANSACTION
  2
AcDbLongTransaction
  3
AutoCAD 2000
 90
        0
280
     0
281
     0
  0
CLASS
  1
LWPOLYLINE
  2
AcDbPolyline
  3
AutoCAD 2000
 90
        0
280
     0
281
     1
  0
CLASS
  1
HATCH
  2
AcDbHatch
  3
AutoCAD 2000
 90
        0
280
     0
281
     1
  0
CLASS
  1
XRECORD
  2
AcDbXrecord
  3
AutoCAD 2000
 90
        0
280
     0
281
     0
  0
CLASS
  1
LONG_TRANSACTION
  2
AcDbLongTransaction
  3
AutoCAD 2000
 90
        0
280
     0
281
     0
  0
CLASS
  1
LWPOLYLINE
  2
AcDbPolyline
  3
AutoCAD 2000
 90
        0
280
     0
281
     1
  0
CLASS
  1
HATCH
  2
AcDbHatch
  3
AutoCAD 2000
 90
        0
280
     0
281
     1
  0
CLASS
  1
XRECORD
  2
AcDbXrecord
  3
AutoCAD 2000
 90
        0
280
     0
281
     0
  0
ENDSEC
  0
SECTION
  2
TABLES
  0
TABLE
  2
VPORT
  5
8
330
0
100
AcDbSymbolTable
 70
     2
  0
VPORT
  5
2E9
330
8
100
AcDbSymbolTableRecord
100
AcDbViewportTableRecord
  2
*ACTIVE
 70
     0
 10
0.0
 20
0.0
 11
1.0
 21
1.0
 12
61.61870064548662
 22
5.08145148479549
 13
0.0
 23
0.0
 14
0.5740882589684922
 24
0.5740882589684922
 15
0.5
 25
0.5
 16
0.0
 26
0.0
 36
1.0
 17
0.0
 27
0.0
 37
0.0
 40
8.235320543916754
 41
1.570528967254408
 42
50.0
 43
0.0
 44
0.0
 50
0.0
 51
0.0
 71
     0
 72
   100
 73
     1
 74
     0
 75
     0
 76
     0
 77
     0
 78
     0
  0
ENDTAB
  0
TABLE
  2
LTYPE
  5
5
330
0
100
AcDbSymbolTable
 70
     2
  0
LTYPE
  5
12
330
5
100
AcDbSymbolTableRecord
100
AcDbLinetypeTableRecord
  2
BYBLOCK
 70
     0
  3

 72
    65
 73
     0
 40
0.0
  0
LTYPE
  5
13
330
5
100
AcDbSymbolTableRecord
100
AcDbLinetypeTableRecord
  2
BYLAYER
 70
     0
  3

 72
    65
 73
     0
 40
0.0
  0
LTYPE
  5
14
330
5
100
AcDbSymbolTableRecord
100
AcDbLinetypeTableRecord
  2
CONTINUOUS
 70
     0
  3
Solid line
 72
    65
 73
     0
 40
0.0
  0
LTYPE
  5
EF
330
5
100
AcDbSymbolTableRecord
100
AcDbLinetypeTableRecord
  2
HIDDEN2
 70
     0
  3
_ _ _ _ _ _ _ _ _ _ _ _ _ _ _ _ _ _ _ _ _ _ _ _
 72
    65
 73
     2
 40
0.1875
 49
0.125
 74
     0
 49
-0.0625
 74
     0
  0
ENDTAB
  0
TABLE
  2
LAYER
  5
2
330
0
100
AcDbSymbolTable
 70
     5
  0
LAYER
  5
F
330
2
100
AcDbSymbolTableRecord
100
AcDbLayerTableRecord
  2
0
 70
     0
 62
     7
  6
CONTINUOUS
  0
LAYER
  5
F3
330
2
100
AcDbSymbolTableRecord
100
AcDbLayerTableRecord
  2
ADP1DETAIL
 70
     0
 62
     7
  6
CONTINUOUS
  0
LAYER
  5
F5
330
2
100
AcDbSymbolTableRecord
100
AcDbLayerTableRecord
  2
DEFPOINTS
 70
     0
 62
     7
  6
CONTINUOUS
  0
LAYER
  5
F6
330
2
100
AcDbSymbolTableRecord
100
AcDbLayerTableRecord
  2
ADPDIM
 70
     0
 62
     3
  6
CONTINUOUS
  0
LAYER
  5
F8
330
2
100
AcDbSymbolTableRecord
100
AcDbLayerTableRecord
  2
ADP2DETAIL
 70
     0
 62
     5
  6
CONTINUOUS
  0
ENDTAB
  0
TABLE
  2
STYLE
  5
3
330
0
100
AcDbSymbolTable
 70
     2
  0
STYLE
  5
10
330
3
100
AcDbSymbolTableRecord
100
AcDbTextStyleTableRecord
  2
STANDARD
 70
     0
 40
0.0
 41
1.0
 50
0.0
 71
     0
 42
0.2
  3
txt
  4

  0
STYLE
  5
1A5
330
3
100
AcDbSymbolTableRecord
100
AcDbTextStyleTableRecord
  2
ARIAL_WIDE
 70
     0
 40
0.0
 41
1.25
 50
0.0
 71
     0
 42
0.2
  3
ARIAL.TTF
  4

1001
ACAD
1000
Arial
1071
       34
  0
ENDTAB
  0
TABLE
  2
VIEW
  5
6
330
0
100
AcDbSymbolTable
 70
     0
  0
ENDTAB
  0
TABLE
  2
UCS
  5
7
330
0
100
AcDbSymbolTable
 70
     0
  0
ENDTAB
  0
TABLE
  2
APPID
  5
9
330
0
100
AcDbSymbolTable
 70
     1
  0
APPID
  5
11
330
9
100
AcDbSymbolTableRecord
100
AcDbRegAppTableRecord
  2
ACAD
 70
     0
  0
ENDTAB
  0
TABLE
  2
DIMSTYLE
  5
A
330
0
100
AcDbSymbolTable
 70
     1
  0
DIMSTYLE
105
199
330
A
100
AcDbSymbolTableRecord
100
AcDbDimStyleTableRecord
  2
STANDARD
 70
     0
  3

  4

  5

  6

  7

 40
1.0
 41
0.18
 42
0.0625
 43
0.38
 44
0.18
 45
0.0
 46
0.0
 47
0.0
 48
0.0
140
0.18
141
0.09
142
0.0
143
25.4
144
1.0
145
0.0
146
1.0
147
0.09
 71
     0
 72
     0
 73
     1
 74
     1
 75
     0
 76
     0
 77
     0
 78
     0
170
     0
171
     2
172
     0
173
     0
174
     0
175
     0
176
     0
177
     0
178
     0
270
     2
271
     4
272
     4
273
     2
274
     2
340
10
275
     0
280
     0
281
     0
282
     0
283
     1
284
     0
285
     0
286
     0
287
     3
288
     0
  0
ENDTAB
  0
TABLE
  2
BLOCK_RECORD
  5
1
330
0
100
AcDbSymbolTable
 70
     6
  0
BLOCK_RECORD
  5
18
102
{ACAD_XDICTIONARY
360
1FA
102
}
330
1
100
AcDbSymbolTableRecord
100
AcDbBlockTableRecord
  2
*MODEL_SPACE
  0
BLOCK_RECORD
  5
15
102
{ACAD_XDICTIONARY
360
1F8
102
}
330
1
100
AcDbSymbolTableRecord
100
AcDbBlockTableRecord
  2
*PAPER_SPACE
  0
BLOCK_RECORD
  5
E8
330
1
100
AcDbSymbolTableRecord
100
AcDbBlockTableRecord
  2
*D0
  0
BLOCK_RECORD
  5
E9
330
1
100
AcDbSymbolTableRecord
100
AcDbBlockTableRecord
  2
*D1
  0
BLOCK_RECORD
  5
EA
330
1
100
AcDbSymbolTableRecord
100
AcDbBlockTableRecord
  2
*D2
  0
BLOCK_RECORD
  5
EB
330
1
100
AcDbSymbolTableRecord
100
AcDbBlockTableRecord
  2
*D3
  0
BLOCK_RECORD
  5
EC
330
1
100
AcDbSymbolTableRecord
100
AcDbBlockTableRecord
  2
*D4
  0
BLOCK_RECORD
  5
ED
330
1
100
AcDbSymbolTableRecord
100
AcDbBlockTableRecord
  2
*D5
  0
ENDTAB
  0
ENDSEC
  0
SECTION
  2
BLOCKS
  0
BLOCK
  5
FB
330
18
100
AcDbEntity
  8
0
100
AcDbBlockBegin
  2
*MODEL_SPACE
 70
     0
 10
0.0
 20
0.0
 30
0.0
  3
*MODEL_SPACE
  1

  0
ENDBLK
  5
FC
330
18
100
AcDbEntity
  8
0
100
AcDbBlockEnd
  0
BLOCK
  5
F9
330
15
100
AcDbEntity
 67
     1
  8
0
100
AcDbBlockBegin
  2
*PAPER_SPACE
 70
     0
 10
0.0
 20
0.0
 30
0.0
  3
*PAPER_SPACE
  1

  0
ENDBLK
  5
FA
330
15
100
AcDbEntity
 67
     1
  8
0
100
AcDbBlockEnd
  0
BLOCK
  5
FE
330
E8
100
AcDbEntity
  8
0
100
AcDbBlockBegin
  2
*D0
 70
     1
 10
0.0
 20
0.0
 30
0.0
  3
*D0
  1

  0
LINE
  5
FF
330
E8
100
AcDbEntity
  8
0
  6
BYBLOCK
 62
     0
100
AcDbLine
 10
56.92022895443322
 20
6.904077538906189
 30
0.0
 11
56.92022895443322
 21
7.219762076343261
 31
0.0
  0
LINE
  5
100
330
E8
100
AcDbEntity
  8
0
  6
BYBLOCK
 62
     0
100
AcDbLine
 10
60.42031191771774
 20
6.478885302970232
 30
0.0
 11
60.42031191771774
 21
7.219762076343261
 31
0.0
  0
LINE
  5
101
330
E8
100
AcDbEntity
  8
0
  6
BYBLOCK
 62
     0
100
AcDbLine
 10
56.92022895443322
 20
7.039762076343262
 30
0.0
 11
58.27443710274215
 21
7.039762076343262
 31
0.0
  0
LINE
  5
102
330
E8
100
AcDbEntity
  8
0
  6
BYBLOCK
 62
     0
100
AcDbLine
 10
60.42031191771774
 20
7.039762076343262
 30
0.0
 11
59.06610376940882
 21
7.039762076343262
 31
0.0
  0
LINE
  5
103
330
E8
100
AcDbEntity
  8
0
  6
BYBLOCK
 62
     0
100
AcDbLine
 10
56.79522895443322
 20
6.914762076343262
 30
0.0
 11
57.04522895443322
 21
7.164762076343262
 31
0.0
  0
LINE
  5
104
330
E8
100
AcDbEntity
  8
0
  6
BYBLOCK
 62
     0
100
AcDbLine
 10
60.29531191771773
 20
6.914762076343262
 30
0.0
 11
60.54531191771774
 21
7.164762076343262
 31
0.0
  0
TEXT
  5
105
330
E8
100
AcDbEntity
  8
0
  6
BYBLOCK
 62
     0
100
AcDbText
 10
58.39943710274215
 20
6.977262076343262
 30
0.0
 40
0.125
  1
3 1/2
 72
     1
 11
58.67027043607548
 21
7.039762076343262
 31
0.0
100
AcDbText
 73
     2
  0
POINT
  5
106
330
E8
100
AcDbEntity
  8
DEFPOINTS
  6
BYBLOCK
 62
     0
100
AcDbPoint
 10
56.92022895443322
 20
6.841577538906189
 30
0.0
  0
POINT
  5
107
330
E8
100
AcDbEntity
  8
DEFPOINTS
  6
BYBLOCK
 62
     0
100
AcDbPoint
 10
60.42031191771774
 20
6.416385302970232
 30
0.0
  0
POINT
  5
108
330
E8
100
AcDbEntity
  8
DEFPOINTS
  6
BYBLOCK
 62
     0
100
AcDbPoint
 10
60.42031191771774
 20
7.039762076343262
 30
0.0
  0
ENDBLK
  5
109
330
E8
100
AcDbEntity
  8
0
100
AcDbBlockEnd
  0
BLOCK
  5
10A
330
E9
100
AcDbEntity
  8
0
100
AcDbBlockBegin
  2
*D1
 70
     1
 10
0.0
 20
0.0
 30
0.0
  3
*D1
  1

  0
LINE
  5
10B
330
E9
100
AcDbEntity
  8
0
  6
BYBLOCK
 62
     0
100
AcDbLine
 10
62.6845280022594
 20
6.459567677957949
 30
0.0
 11
62.6845280022594
 21
7.523833435243643
 31
0.0
  0
LINE
  5
10C
330
E9
100
AcDbEntity
  8
0
  6
BYBLOCK
 62
     0
100
AcDbLine
 10
65.1845280022594
 20
6.459567677957949
 30
0.0
 11
65.1845280022594
 21
7.523833435243643
 31
0.0
  0
LINE
  5
10D
330
E9
100
AcDbEntity
  8
0
  6
BYBLOCK
 62
     0
100
AcDbLine
 10
62.6845280022594
 20
7.343833435243643
 30
0.0
 11
63.53869466892606
 21
7.343833435243643
 31
0.0
  0
LINE
  5
10E
330
E9
100
AcDbEntity
  8
0
  6
BYBLOCK
 62
     0
100
AcDbLine
 10
65.1845280022594
 20
7.343833435243643
 30
0.0
 11
64.33036133559273
 21
7.343833435243643
 31
0.0
  0
LINE
  5
10F
330
E9
100
AcDbEntity
  8
0
  6
BYBLOCK
 62
     0
100
AcDbLine
 10
62.5595280022594
 20
7.218833435243643
 30
0.0
 11
62.80952800225939
 21
7.468833435243643
 31
0.0
  0
LINE
  5
110
330
E9
100
AcDbEntity
  8
0
  6
BYBLOCK
 62
     0
100
AcDbLine
 10
65.0595280022594
 20
7.218833435243643
 30
0.0
 11
65.30952800225939
 21
7.468833435243643
 31
0.0
  0
TEXT
  5
111
330
E9
100
AcDbEntity
  8
0
  6
BYBLOCK
 62
     0
100
AcDbText
 10
63.66369466892606
 20
7.281333435243643
 30
0.0
 40
0.125
  1
2 1/2
 72
     1
 11
63.9345280022594
 21
7.343833435243643
 31
0.0
100
AcDbText
 73
     2
  0
POINT
  5
112
330
E9
100
AcDbEntity
  8
DEFPOINTS
  6
BYBLOCK
 62
     0
100
AcDbPoint
 10
62.6845280022594
 20
6.397067677957949
 30
0.0
  0
POINT
  5
113
330
E9
100
AcDbEntity
  8
DEFPOINTS
  6
BYBLOCK
 62
     0
100
AcDbPoint
 10
65.1845280022594
 20
6.397067677957949
 30
0.0
  0
POINT
  5
114
330
E9
100
AcDbEntity
  8
DEFPOINTS
  6
BYBLOCK
 62
     0
100
AcDbPoint
 10
65.1845280022594
 20
7.343833435243643
 30
0.0
  0
ENDBLK
  5
115
330
E9
100
AcDbEntity
  8
0
100
AcDbBlockEnd
  0
BLOCK
  5
116
330
EA
100
AcDbEntity
  8
0
100
AcDbBlockBegin
  2
*D2
 70
     1
 10
0.0
 20
0.0
 30
0.0
  3
*D2
  1

  0
LINE
  5
117
330
EA
100
AcDbEntity
  8
0
  6
BYBLOCK
 62
     0
100
AcDbLine
 10
62.91584446272469
 20
4.2308254907067
 30
0.0
 11
62.74598053946892
 21
4.047396355681331
 31
0.0
  0
LINE
  5
118
330
EA
100
AcDbEntity
  8
0
  6
BYBLOCK
 62
     0
100
AcDbLine
 10
62.92262706860949
 20
4.054178961566127
 30
0.0
 11
62.9090618568399
 21
4.407472019847274
 31
0.0
  0
LINE
  5
119
330
EA
100
AcDbEntity
  8
0
  6
BYBLOCK
 62
     0
100
AcDbLine
 10
63.74752800225936
 20
5.331400300858912
 30
0.0
 11
64.12252800225935
 21
5.331400300858912
 31
0.0
  0
LINE
  5
11A
330
EA
100
AcDbEntity
  8
0
  6
BYBLOCK
 62
     0
100
AcDbLine
 10
63.93502800225935
 20
5.143900300858912
 30
0.0
 11
63.93502800225935
 21
5.518900300858912
 31
0.0
  0
TEXT
  5
11B
330
EA
100
AcDbEntity
  8
0
  6
BYBLOCK
 62
     0
100
AcDbText
 10
62.56535259221756
 20
3.760358194833562
 30
0.0
 40
0.125
  1
%%c3
 50
47.1988763946551
 72
     1
 11
62.59027194315113
 21
3.879252981908077
 31
0.0
100
AcDbText
 73
     2
  0
POINT
  5
11C
330
EA
100
AcDbEntity
  8
DEFPOINTS
  6
BYBLOCK
 62
     0
100
AcDbPoint
 10
62.91584446272469
 20
4.2308254907067
 30
0.0
  0
POINT
  5
11D
330
EA
100
AcDbEntity
  8
DEFPOINTS
  6
BYBLOCK
 62
     0
100
AcDbPoint
 10
64.95421154179402
 20
6.431975111011128
 30
0.0
  0
ENDBLK
  5
11E
330
EA
100
AcDbEntity
  8
0
100
AcDbBlockEnd
  0
BLOCK
  5
11F
330
EB
100
AcDbEntity
  8
0
100
AcDbBlockBegin
  2
*D3
 70
     1
 10
0.0
 20
0.0
 30
0.0
  3
*D3
  1

  0
LINE
  5
120
330
EB
100
AcDbEntity
  8
0
  6
BYBLOCK
 62
     0
100
AcDbLine
 10
60.85781658921836
 20
6.416385302970232
 30
0.0
 11
61.58481906881304
 21
6.416385302970232
 31
0.0
  0
LINE
  5
121
330
EB
100
AcDbEntity
  8
0
  6
BYBLOCK
 62
     0
100
AcDbLine
 10
60.98272895443322
 20
5.354385302970232
 30
0.0
 11
61.58481906881304
 21
5.354385302970232
 31
0.0
  0
LINE
  5
122
330
EB
100
AcDbEntity
  8
0
  6
BYBLOCK
 62
     0
100
AcDbLine
 10
61.40481906881304
 20
6.416385302970232
 30
0.0
 11
61.40481906881304
 21
6.666385302970232
 31
0.0
  0
LINE
  5
123
330
EB
100
AcDbEntity
  8
0
  6
BYBLOCK
 62
     0
100
AcDbLine
 10
61.40481906881304
 20
5.354385302970232
 30
0.0
 11
61.40481906881304
 21
5.104385302970232
 31
0.0
  0
LINE
  5
124
330
EB
100
AcDbEntity
  8
0
  6
BYBLOCK
 62
     0
100
AcDbLine
 10
61.52981906881304
 20
6.291385302970232
 30
0.0
 11
61.27981906881304
 21
6.541385302970232
 31
0.0
  0
LINE
  5
125
330
EB
100
AcDbEntity
  8
0
  6
BYBLOCK
 62
     0
100
AcDbLine
 10
61.52981906881304
 20
5.229385302970232
 30
0.0
 11
61.27981906881304
 21
5.479385302970232
 31
0.0
  0
TEXT
  5
126
330
EB
100
AcDbEntity
  8
0
  6
BYBLOCK
 62
     0
100
AcDbText
 10
61.46731906881304
 20
4.396051969636898
 30
0.0
 40
0.125
  1
1 1/16
 50
90.0
 72
     1
 11
61.40481906881304
 21
4.687718636303565
 31
0.0
100
AcDbText
 73
     2
  0
POINT
  5
127
330
EB
100
AcDbEntity
  8
DEFPOINTS
  6
BYBLOCK
 62
     0
100
AcDbPoint
 10
60.79531658921837
 20
6.416385302970232
 30
0.0
  0
POINT
  5
128
330
EB
100
AcDbEntity
  8
DEFPOINTS
  6
BYBLOCK
 62
     0
100
AcDbPoint
 10
60.92022895443322
 20
5.354385302970232
 30
0.0
  0
POINT
  5
129
330
EB
100
AcDbEntity
  8
DEFPOINTS
  6
BYBLOCK
 62
     0
100
AcDbPoint
 10
61.40481906881304
 20
5.354385302970232
 30
0.0
  0
ENDBLK
  5
12A
330
EB
100
AcDbEntity
  8
0
100
AcDbBlockEnd
  0
BLOCK
  5
12B
330
EC
100
AcDbEntity
  8
0
100
AcDbBlockBegin
  2
*D4
 70
     1
 10
0.0
 20
0.0
 30
0.0
  3
*D4
  1

  0
LINE
  5
12C
330
EC
100
AcDbEntity
  8
0
  6
BYBLOCK
 62
     0
100
AcDbLine
 10
60.04531658921837
 20
4.916385302970232
 30
0.0
 11
60.04531658921837
 21
4.526755103943802
 31
0.0
  0
LINE
  5
12D
330
EC
100
AcDbEntity
  8
0
  6
BYBLOCK
 62
     0
100
AcDbLine
 10
60.79531658921837
 20
4.916385302970232
 30
0.0
 11
60.79531658921837
 21
4.526755103943802
 31
0.0
  0
LINE
  5
12E
330
EC
100
AcDbEntity
  8
0
  6
BYBLOCK
 62
     0
100
AcDbLine
 10
60.04531658921837
 20
4.706755103943802
 30
0.0
 11
59.79531658921836
 21
4.706755103943802
 31
0.0
  0
LINE
  5
12F
330
EC
100
AcDbEntity
  8
0
  6
BYBLOCK
 62
     0
100
AcDbLine
 10
60.79531658921837
 20
4.706755103943802
 30
0.0
 11
61.04531658921836
 21
4.706755103943802
 31
0.0
  0
LINE
  5
130
330
EC
100
AcDbEntity
  8
0
  6
BYBLOCK
 62
     0
100
AcDbLine
 10
59.92031658921836
 20
4.581755103943802
 30
0.0
 11
60.17031658921837
 21
4.831755103943802
 31
0.0
  0
LINE
  5
131
330
EC
100
AcDbEntity
  8
0
  6
BYBLOCK
 62
     0
100
AcDbLine
 10
60.67031658921837
 20
4.581755103943802
 30
0.0
 11
60.92031658921836
 21
4.831755103943802
 31
0.0
  0
TEXT
  5
132
330
EC
100
AcDbEntity
  8
0
  6
BYBLOCK
 62
     0
100
AcDbText
 10
61.17031658921836
 20
4.644255103943802
 30
0.0
 40
0.125
  1
3/4
 72
     1
 11
61.33698325588503
 21
4.706755103943802
 31
0.0
100
AcDbText
 73
     2
  0
POINT
  5
133
330
EC
100
AcDbEntity
  8
DEFPOINTS
  6
BYBLOCK
 62
     0
100
AcDbPoint
 10
60.04531658921837
 20
4.978885302970232
 30
0.0
  0
POINT
  5
134
330
EC
100
AcDbEntity
  8
DEFPOINTS
  6
BYBLOCK
 62
     0
100
AcDbPoint
 10
60.79531658921837
 20
4.978885302970232
 30
0.0
  0
POINT
  5
135
330
EC
100
AcDbEntity
  8
DEFPOINTS
  6
BYBLOCK
 62
     0
100
AcDbPoint
 10
60.79531658921837
 20
4.706755103943802
 30
0.0
  0
ENDBLK
  5
136
330
EC
100
AcDbEntity
  8
0
100
AcDbBlockEnd
  0
BLOCK
  5
137
330
ED
100
AcDbEntity
  8
0
100
AcDbBlockBegin
  2
*D5
 70
     1
 10
0.0
 20
0.0
 30
0.0
  3
*D5
  1

  0
LINE
  5
138
330
ED
100
AcDbEntity
  8
0
  6
BYBLOCK
 62
     0
100
AcDbLine
 10
63.12088273510513
 20
6.470931619754844
 30
0.0
 11
63.12088273510513
 21
7.168380743515845
 31
0.0
  0
LINE
  5
139
330
ED
100
AcDbEntity
  8
0
  6
BYBLOCK
 62
     0
100
AcDbLine
 10
64.74588273510512
 20
6.470931619754844
 30
0.0
 11
64.74588273510512
 21
7.168380743515845
 31
0.0
  0
LINE
  5
13A
330
ED
100
AcDbEntity
  8
0
  6
BYBLOCK
 62
     0
100
AcDbLine
 10
63.12088273510513
 20
6.988380743515845
 30
0.0
 11
63.53754940177179
 21
6.988380743515845
 31
0.0
  0
LINE
  5
13B
330
ED
100
AcDbEntity
  8
0
  6
BYBLOCK
 62
     0
100
AcDbLine
 10
64.74588273510512
 20
6.988380743515845
 30
0.0
 11
64.32921606843845
 21
6.988380743515845
 31
0.0
  0
LINE
  5
13C
330
ED
100
AcDbEntity
  8
0
  6
BYBLOCK
 62
     0
100
AcDbLine
 10
62.99588273510512
 20
6.863380743515845
 30
0.0
 11
63.24588273510513
 21
7.113380743515845
 31
0.0
  0
LINE
  5
13D
330
ED
100
AcDbEntity
  8
0
  6
BYBLOCK
 62
     0
100
AcDbLine
 10
64.62088273510513
 20
6.863380743515845
 30
0.0
 11
64.87088273510512
 21
7.113380743515845
 31
0.0
  0
TEXT
  5
13E
330
ED
100
AcDbEntity
  8
0
  6
BYBLOCK
 62
     0
100
AcDbText
 10
63.66254940177179
 20
6.925880743515845
 30
0.0
 40
0.125
  1
1 5/8
 72
     1
 11
63.93338273510512
 21
6.988380743515845
 31
0.0
100
AcDbText
 73
     2
  0
POINT
  5
13F
330
ED
100
AcDbEntity
  8
DEFPOINTS
  6
BYBLOCK
 62
     0
100
AcDbPoint
 10
63.12088273510513
 20
6.408431619754844
 30
0.0
  0
POINT
  5
140
330
ED
100
AcDbEntity
  8
DEFPOINTS
  6
BYBLOCK
 62
     0
100
AcDbPoint
 10
64.74588273510512
 20
6.408431619754844
 30
0.0
  0
POINT
  5
141
330
ED
100
AcDbEntity
  8
DEFPOINTS
  6
BYBLOCK
 62
     0
100
AcDbPoint
 10
64.74588273510512
 20
6.988380743515845
 30
0.0
  0
ENDBLK
  5
142
330
ED
100
AcDbEntity
  8
0
100
AcDbBlockEnd
  0
ENDSEC
  0
SECTION
  2
ENTITIES
  0
ARC
  5
143
330
18
100
AcDbEntity
  8
ADP1DETAIL
100
AcDbCircle
 10
63.93502800225938
 20
5.33140030085892
 30
0.0
 40
1.4375
100
AcDbArc
 50
142.3706296439194
 51
37.62937035608057
  0
LINE
  5
144
330
18
100
AcDbEntity
  8
ADP1DETAIL
100
AcDbLine
 10
56.92022895443322
 20
3.867193067034278
 30
0.0
 11
56.92022895443322
 21
6.841577538906189
 31
0.0
  0
LINE
  5
145
330
18
100
AcDbEntity
  8
ADP1DETAIL
100
AcDbLine
 10
57.17022895443322
 20
6.743477165773159
 30
0.0
 11
57.17022895443322
 21
4.653230341993928
 31
0.0
  0
ARC
  5
146
330
18
100
AcDbEntity
  8
ADP1DETAIL
100
AcDbCircle
 10
63.93502800225938
 20
5.33140030085892
 30
0.0
 40
1.5
100
AcDbArc
 50
45.28640669157143
 51
134.7288733778345
  0
ARC
  5
147
330
18
100
AcDbEntity
  8
ADP1DETAIL
100
AcDbCircle
 10
63.93502800225938
 20
5.33140030085892
 30
0.0
 40
1.4375
100
AcDbArc
 50
47.86972332098648
 51
132.154838505089
  0
DIMENSION
  5
148
330
18
100
AcDbEntity
  8
ADPDIM
100
AcDbDimension
  2
*D5
 10
64.74588273510512
 20
6.988380743515845
 30
0.0
 11
63.93338273510512
 21
6.988380743515845
 31
0.0
100
AcDbAlignedDimension
 13
63.12088273510513
 23
6.408431619754844
 33
0.0
 14
64.74588273510512
 24
6.408431619754844
 34
0.0
100
AcDbRotatedDimension
  0
DIMENSION
  5
149
330
18
100
AcDbEntity
  8
ADPDIM
100
AcDbDimension
  2
*D3
 10
61.40481906881304
 20
5.354385302970232
 30
0.0
 11
61.40481906881304
 21
4.687718636303565
 31
0.0
100
AcDbAlignedDimension
 13
60.79531658921837
 23
6.416385302970232
 33
0.0
 14
60.92022895443322
 24
5.354385302970232
 34
0.0
 50
90.0
100
AcDbRotatedDimension
  0
DIMENSION
  5
14A
330
18
100
AcDbEntity
  8
ADPDIM
100
AcDbDimension
  2
*D1
 10
65.1845280022594
 20
7.343833435243643
 30
0.0
 11
63.9345280022594
 21
7.343833435243643
 31
0.0
100
AcDbAlignedDimension
 13
62.6845280022594
 23
6.397067677957949
 33
0.0
 14
65.1845280022594
 24
6.397067677957949
 34
0.0
100
AcDbRotatedDimension
  0
DIMENSION
  5
14B
330
18
100
AcDbEntity
  8
ADPDIM
100
AcDbDimension
  2
*D0
 10
60.42031191771774
 20
7.039762076343262
 30
0.0
 11
58.67027043607548
 21
7.039762076343262
 31
0.0
100
AcDbAlignedDimension
 13
56.92022895443322
 23
6.841577538906189
 33
0.0
 14
60.42031191771774
 24
6.416385302970232
 34
0.0
100
AcDbRotatedDimension
  0
ARC
  5
14C
330
18
100
AcDbEntity
  8
ADP1DETAIL
100
AcDbCircle
 10
63.93502800225938
 20
5.33140030085892
 30
0.0
 40
1.5
100
AcDbArc
 50
144.1891266479682
 51
35.81087335203176
  0
LINE
  5
14D
330
18
100
AcDbEntity
  8
ADP1DETAIL
100
AcDbLine
 10
60.04531658921837
 20
6.416385302970232
 30
0.0
 11
60.79531658921837
 21
6.416385302970232
 31
0.0
  0
LINE
  5
14E
330
18
100
AcDbEntity
  8
ADP1DETAIL
100
AcDbLine
 10
60.79531658921837
 20
6.228385302970233
 30
0.0
 11
60.04531658921837
 21
6.228385302970233
 31
0.0
  0
LINE
  5
14F
330
18
100
AcDbEntity
  8
ADP1DETAIL
100
AcDbLine
 10
60.79531658921837
 20
4.978885302970232
 30
0.0
 11
60.04531658921837
 21
4.978885302970232
 31
0.0
  0
DIMENSION
  5
150
330
18
100
AcDbEntity
  8
ADPDIM
100
AcDbDimension
  2
*D4
 10
60.79531658921837
 20
4.706755103943802
 30
0.0
 11
61.33698325588503
 21
4.706755103943802
 31
0.0
100
AcDbAlignedDimension
 13
60.04531658921837
 23
4.978885302970232
 33
0.0
 14
60.79531658921837
 24
4.978885302970232
 34
0.0
100
AcDbRotatedDimension
  0
LINE
  5
151
330
18
100
AcDbEntity
  8
ADP1DETAIL
100
AcDbLine
 10
57.66265431068358
 20
4.852491642032823
 30
0.0
 11
57.21719174568097
 21
4.741126000782173
 31
0.0
  0
LINE
  5
152
330
18
100
AcDbEntity
  8
ADP1DETAIL
100
AcDbLine
 10
57.21719174568097
 20
5.967644605158296
 30
0.0
 11
57.66265431068358
 21
5.856278963907643
 31
0.0
  0
LINE
  5
153
330
18
100
AcDbEntity
  8
ADP1DETAIL
100
AcDbLine
 10
57.17022895443322
 20
4.680977165773162
 30
0.0
 11
57.17022895443322
 21
3.965293440167307
 31
0.0
  0
ARC
  5
154
330
18
100
AcDbEntity
  8
ADP1DETAIL
100
AcDbCircle
 10
57.10822895443321
 20
3.965293440167307
 30
0.0
 40
0.062
100
AcDbArc
 50
284.0362434679264
 51
0.0
  0
ARC
  5
155
330
18
100
AcDbEntity
  8
ADP1DETAIL
100
AcDbCircle
 10
56.93022895443322
 20
3.867193067034278
 30
0.0
 40
0.01
100
AcDbArc
 50
180.0
 51
284.0362434679263
  0
LINE
  5
156
330
18
100
AcDbEntity
  8
ADP1DETAIL
100
AcDbLine
 10
57.12326616318547
 20
3.905144605158296
 30
0.0
 11
56.93265431068358
 21
3.857491642032826
 31
0.0
  0
ARC
  5
157
330
18
100
AcDbEntity
  8
ADP1DETAIL
100
AcDbCircle
 10
57.23222895443321
 20
4.680977165773162
 30
0.0
 40
0.062
100
AcDbArc
 50
104.0362434679264
 51
180.0
  0
ARC
  5
158
330
18
100
AcDbEntity
  8
ADP1DETAIL
100
AcDbCircle
 10
57.23222895443321
 20
6.027793440167307
 30
0.0
 40
0.062
100
AcDbArc
 50
180.0
 51
255.9637565320735
  0
LINE
  5
159
330
18
100
AcDbEntity
  8
ADP1DETAIL
100
AcDbLine
 10
57.79522895443322
 20
5.729385302970232
 30
0.0
 11
59.29522895443322
 21
5.604385302970232
 31
0.0
  0
LINE
  5
15A
330
18
100
AcDbEntity
  8
ADP1DETAIL
100
AcDbLine
 10
59.29522895443322
 20
5.104385302970232
 30
0.0
 11
57.79522895443322
 21
4.979385302970232
 31
0.0
  0
LINE
  5
15B
330
18
100
AcDbEntity
  8
ADP1DETAIL
100
AcDbLine
 10
57.67022895443322
 20
5.84657753890619
 30
0.0
 11
57.67022895443322
 21
4.862193067034278
 31
0.0
  0
LINE
  5
15C
330
18
100
AcDbEntity
  8
ADP1DETAIL
100
AcDbLine
 10
57.79512936047985
 20
5.757882845757809
 30
0.0
 11
57.79522895443322
 21
5.354385302970232
 31
0.0
  0
LINE
  5
15D
330
18
100
AcDbEntity
  8
ADP1DETAIL
100
AcDbLine
 10
57.67022895443322
 20
5.354385302970232
 30
0.0
 11
57.67022895443322
 21
5.791885302970232
 31
0.0
  0
LINE
  5
15E
330
18
100
AcDbEntity
  8
ADP1DETAIL
100
AcDbLine
 10
57.67022895443322
 20
4.916885302970232
 30
0.0
 11
57.79512936047985
 21
4.950887760182657
 31
0.0
  0
ARC
  5
15F
330
18
100
AcDbEntity
  8
ADP1DETAIL
100
AcDbCircle
 10
57.66022895443322
 20
4.862193067034278
 30
0.0
 40
0.01
100
AcDbArc
 50
284.0362434679261
 51
0.0
  0
LINE
  5
160
330
18
100
AcDbEntity
  8
ADP1DETAIL
100
AcDbLine
 10
57.67022895443322
 20
5.354385302970232
 30
0.0
 11
57.67022895443322
 21
4.916885302970232
 31
0.0
  0
LINE
  5
161
330
18
100
AcDbEntity
  8
ADP1DETAIL
100
AcDbLine
 10
57.79512936047985
 20
4.950887760182657
 30
0.0
 11
57.79522895443322
 21
5.354385302970232
 31
0.0
  0
ARC
  5
162
330
18
100
AcDbEntity
  8
ADP1DETAIL
100
AcDbCircle
 10
57.66022895443322
 20
5.84657753890619
 30
0.0
 40
0.01
100
AcDbArc
 50
0.0
 51
75.96375653207362
  0
LINE
  5
163
330
18
100
AcDbEntity
  8
ADP1DETAIL
100
AcDbLine
 10
57.67022895443322
 20
5.791885302970232
 30
0.0
 11
57.79512936047985
 21
5.757882845757809
 31
0.0
  0
LINE
  5
164
330
18
100
AcDbEntity
  8
ADP1DETAIL
100
AcDbLine
 10
60.04531658921837
 20
4.978885302970232
 30
0.0
 11
60.04531658921837
 21
6.416385302970232
 31
0.0
  0
LINE
  5
165
330
18
100
AcDbEntity
  8
ADP1DETAIL
100
AcDbLine
 10
60.04522895443322
 20
5.166885302970232
 30
0.0
 11
60.04522895443322
 21
5.541885302970232
 31
0.0
  0
LINE
  5
166
330
18
100
AcDbEntity
  8
ADP1DETAIL
100
AcDbLine
 10
60.04522895443322
 20
5.666885302970232
 30
0.0
 11
60.04522895443322
 21
5.041885302970232
 31
0.0
  0
LINE
  5
167
330
18
100
AcDbEntity
  8
ADP1DETAIL
100
AcDbLine
 10
59.29119118729495
 20
5.1052181195317
 30
0.0
 11
59.29119118729495
 21
5.603552486408766
 31
0.0
  0
LINE
  5
168
330
18
100
AcDbEntity
  8
ADP1DETAIL
100
AcDbLine
 10
60.04522895443322
 20
5.041885302970232
 30
0.0
 11
59.29522895443322
 21
5.104385302970232
 31
0.0
  0
LINE
  5
169
330
18
100
AcDbEntity
  8
ADP1DETAIL
100
AcDbLine
 10
59.29522895443322
 20
5.604385302970232
 30
0.0
 11
60.04522895443322
 21
5.666885302970232
 31
0.0
  0
LINE
  5
16A
330
18
100
AcDbEntity
  8
ADP1DETAIL
100
AcDbLine
 10
63.43452800225939
 20
6.20906767795795
 30
0.0
 11
62.6845280022594
 21
6.20906767795795
 31
0.0
  0
LINE
  5
16B
330
18
100
AcDbEntity
  8
ADP1DETAIL
100
AcDbLine
 10
62.6845280022594
 20
6.397067677957949
 30
0.0
 11
63.74465444579118
 21
6.397067677957949
 31
0.0
  0
DIMENSION
  5
16C
330
18
100
AcDbEntity
  8
ADPDIM
100
AcDbDimension
  2
*D2
 10
64.95421154179402
 20
6.431975111011128
 30
0.0
 11
62.59027194315113
 21
3.879252981908077
 31
0.0
 70
     3
100
AcDbDiametricDimension
 15
62.91584446272469
 25
4.2308254907067
 35
0.0
 40
0.0
  0
ARC
  5
16D
330
18
100
AcDbEntity
  8
ADP2DETAIL
  6
HIDDEN2
100
AcDbCircle
 10
61.61668941261098
 20
5.354385302970232
 30
0.0
 40
0.75
100
AcDbArc
 50
158.2197748746747
 51
180.0
  0
LINE
  5
16E
330
18
100
AcDbEntity
  8
ADP1DETAIL
100
AcDbLine
 10
60.79531658921837
 20
6.416385302970232
 30
0.0
 11
60.79531658921837
 21
4.978885302970232
 31
0.0
  0
LINE
  5
16F
330
18
100
AcDbEntity
  8
ADP1DETAIL
100
AcDbLine
 10
60.79522895443322
 20
5.541885302970232
 30
0.0
 11
60.79522895443322
 21
5.166885302970232
 31
0.0
  0
LINE
  5
170
330
18
100
AcDbEntity
  8
ADP1DETAIL
100
AcDbLine
 10
60.92022895443322
 20
5.632670822167387
 30
0.0
 11
60.92022895443322
 21
5.354385302970232
 31
0.0
  0
ARC
  5
171
330
18
100
AcDbEntity
  8
ADP2DETAIL
  6
HIDDEN2
100
AcDbCircle
 10
61.61668941261098
 20
5.354385302970232
 30
0.0
 40
0.75
100
AcDbArc
 50
180.0
 51
201.7802251253252
  0
LINE
  5
172
330
18
100
AcDbEntity
  8
ADP1DETAIL
100
AcDbLine
 10
60.79522895443322
 20
5.041885302970232
 30
0.0
 11
60.91596968271935
 21
5.074237683608048
 31
0.0
  0
LINE
  5
173
330
18
100
AcDbEntity
  8
ADP1DETAIL
100
AcDbLine
 10
60.91596968271935
 20
5.074237683608048
 30
0.0
 11
60.91596968271935
 21
5.074237683608048
 31
0.0
  0
LINE
  5
174
330
18
100
AcDbEntity
  8
ADP1DETAIL
100
AcDbLine
 10
60.79522895443322
 20
5.166885302970232
 30
0.0
 11
60.79522895443322
 21
5.041885302970232
 31
0.0
  0
LINE
  5
175
330
18
100
AcDbEntity
  8
ADP1DETAIL
100
AcDbLine
 10
60.92022895443322
 20
5.076099783773079
 30
0.0
 11
60.92022895443322
 21
5.354385302970232
 31
0.0
  0
LINE
  5
176
330
18
100
AcDbEntity
  8
ADP2DETAIL
  6
HIDDEN2
100
AcDbLine
 10
60.32631658921836
 20
6.414381901907058
 30
0.0
 11
60.32631658921836
 21
6.289381901907058
 31
0.0
  0
LINE
  5
177
330
18
100
AcDbEntity
  8
ADP2DETAIL
  6
HIDDEN2
100
AcDbLine
 10
60.51431658921837
 20
6.414381901907058
 30
0.0
 11
60.51431658921837
 21
6.289381901907058
 31
0.0
  0
LINE
  5
178
330
18
100
AcDbEntity
  8
ADP2DETAIL
  6
HIDDEN2
100
AcDbLine
 10
60.32631658921836
 20
6.289381901907058
 30
0.0
 11
60.26431658921836
 21
6.22738190190706
 31
0.0
  0
LINE
  5
179
330
18
100
AcDbEntity
  8
ADP2DETAIL
  6
HIDDEN2
100
AcDbLine
 10
60.51431658921837
 20
6.289381901907058
 30
0.0
 11
60.57631658921836
 21
6.22738190190706
 31
0.0
  0
LINE
  5
17A
330
18
100
AcDbEntity
  8
ADP1DETAIL
100
AcDbLine
 10
60.79522895443322
 20
5.666885302970232
 30
0.0
 11
60.91596968271935
 21
5.634532922332418
 31
0.0
  0
LINE
  5
17B
330
18
100
AcDbEntity
  8
ADP1DETAIL
100
AcDbLine
 10
60.79522895443322
 20
5.541885302970232
 30
0.0
 11
60.79522895443322
 21
5.666885302970232
 31
0.0
  0
LINE
  5
17C
330
18
100
AcDbEntity
  8
ADP1DETAIL
100
AcDbLine
 10
60.91596968271935
 20
5.634532922332418
 30
0.0
 11
60.91596968271935
 21
5.634532922332418
 31
0.0
  0
LINE
  5
17D
330
18
100
AcDbEntity
  8
ADP1DETAIL
100
AcDbLine
 10
62.6845280022594
 20
6.20906767795795
 30
0.0
 11
62.6845280022594
 21
6.397067677957949
 31
0.0
  0
ARC
  5
17E
330
18
100
AcDbEntity
  8
ADP1DETAIL
100
AcDbCircle
 10
63.93502800225938
 20
5.33140030085892
 30
0.0
 40
0.625
100
AcDbArc
 50
126.9272149369694
 51
53.18737667338435
  0
CIRCLE
  5
17F
330
18
100
AcDbEntity
  8
ADP1DETAIL
100
AcDbCircle
 10
63.93502800225938
 20
5.33140030085892
 30
0.0
 40
0.2859512779740925
  0
CIRCLE
  5
180
330
18
100
AcDbEntity
  8
ADP1DETAIL
100
AcDbCircle
 10
63.93502800225938
 20
5.33140030085892
 30
0.0
 40
0.3125
  0
ARC
  5
181
330
18
100
AcDbEntity
  8
ADP1DETAIL
100
AcDbCircle
 10
63.93502800225938
 20
5.33140030085892
 30
0.0
 40
0.5
100
AcDbArc
 50
138.677075376201
 51
41.49617109724033
  0
ARC
  5
182
330
18
100
AcDbEntity
  8
ADP1DETAIL
100
AcDbCircle
 10
63.93502800225938
 20
5.334567677957949
 30
0.0
 40
0.3745
100
AcDbArc
 50
270.0
 51
0.0
  0
LINE
  5
183
330
18
100
AcDbEntity
  8
ADP1DETAIL
100
AcDbLine
 10
63.74588273510513
 20
6.41604954882176
 30
0.0
 11
64.12088273510512
 21
6.41604954882176
 31
0.0
  0
LINE
  5
184
330
18
100
AcDbEntity
  8
ADP1DETAIL
100
AcDbLine
 10
63.5595280022594
 20
5.334567677957949
 30
0.0
 11
63.5595280022594
 21
6.08406767795795
 31
0.0
  0
ARC
  5
185
330
18
100
AcDbEntity
  8
ADP1DETAIL
100
AcDbCircle
 10
63.93402800225939
 20
5.334567677957949
 30
0.0
 40
0.3745
100
AcDbArc
 50
180.0
 51
270.0
  0
LINE
  5
186
330
18
100
AcDbEntity
  8
ADP2DETAIL
  6
HIDDEN2
100
AcDbLine
 10
63.21529650347459
 20
6.395673812177701
 30
0.0
 11
63.21529650347459
 21
6.270673812177701
 31
0.0
  0
LINE
  5
187
330
18
100
AcDbEntity
  8
ADP2DETAIL
  6
HIDDEN2
100
AcDbLine
 10
63.02729650347459
 20
6.395673812177701
 30
0.0
 11
63.02729650347459
 21
6.270673812177701
 31
0.0
  0
LINE
  5
188
330
18
100
AcDbEntity
  8
ADP2DETAIL
  6
HIDDEN2
100
AcDbLine
 10
63.21529650347459
 20
6.270673812177701
 30
0.0
 11
63.2772965034746
 21
6.208673812177703
 31
0.0
  0
LINE
  5
189
330
18
100
AcDbEntity
  8
ADP2DETAIL
  6
HIDDEN2
100
AcDbLine
 10
63.02729650347459
 20
6.270673812177701
 30
0.0
 11
62.96529650347459
 21
6.208673812177703
 31
0.0
  0
LINE
  5
18A
330
18
100
AcDbEntity
  8
ADP1DETAIL
100
AcDbLine
 10
63.74702800225939
 20
5.581024518434059
 30
0.0
 11
63.74702800225939
 21
6.41604954882176
 31
0.0
  0
ARC
  5
18B
330
18
100
AcDbEntity
  8
ADP1DETAIL
100
AcDbCircle
 10
63.43452800225939
 20
6.08406767795795
 30
0.0
 40
0.125
100
AcDbArc
 50
0.0
 51
90.0
  0
LINE
  5
18C
330
18
100
AcDbEntity
  8
ADP1DETAIL
100
AcDbLine
 10
64.3095280022594
 20
6.08406767795795
 30
0.0
 11
64.3095280022594
 21
5.334567677957949
 31
0.0
  0
LINE
  5
18D
330
18
100
AcDbEntity
  8
ADP1DETAIL
100
AcDbLine
 10
65.1845280022594
 20
6.397067677957949
 30
0.0
 11
64.12161460093229
 21
6.398154368363076
 31
0.0
  0
LINE
  5
18E
330
18
100
AcDbEntity
  8
ADP1DETAIL
100
AcDbLine
 10
65.1845280022594
 20
6.20906767795795
 30
0.0
 11
64.4345280022594
 21
6.20906767795795
 31
0.0
  0
LINE
  5
18F
330
18
100
AcDbEntity
  8
ADP2DETAIL
  6
HIDDEN2
100
AcDbLine
 10
64.65229650347459
 20
6.270673812177701
 30
0.0
 11
64.59029650347459
 21
6.208673812177703
 31
0.0
  0
LINE
  5
190
330
18
100
AcDbEntity
  8
ADP2DETAIL
  6
HIDDEN2
100
AcDbLine
 10
64.65229650347459
 20
6.395673812177701
 30
0.0
 11
64.65229650347459
 21
6.270673812177701
 31
0.0
  0
LINE
  5
191
330
18
100
AcDbEntity
  8
ADP1DETAIL
100
AcDbLine
 10
64.1220280022594
 20
6.41604954882176
 30
0.0
 11
64.1220280022594
 21
5.581774520777827
 31
0.0
  0
ARC
  5
192
330
18
100
AcDbEntity
  8
ADP1DETAIL
100
AcDbCircle
 10
64.4345280022594
 20
6.08406767795795
 30
0.0
 40
0.125
100
AcDbArc
 50
90.0
 51
180.0
  0
LINE
  5
193
330
18
100
AcDbEntity
  8
ADP2DETAIL
  6
HIDDEN2
100
AcDbLine
 10
64.84029650347459
 20
6.395673812177701
 30
0.0
 11
64.84029650347459
 21
6.270673812177701
 31
0.0
  0
LINE
  5
194
330
18
100
AcDbEntity
  8
ADP2DETAIL
  6
HIDDEN2
100
AcDbLine
 10
64.84029650347459
 20
6.270673812177701
 30
0.0
 11
64.90229650347458
 21
6.208673812177703
 31
0.0
  0
LINE
  5
195
330
18
100
AcDbEntity
  8
ADP1DETAIL
100
AcDbLine
 10
65.1845280022594
 20
6.397067677957949
 30
0.0
 11
65.1845280022594
 21
6.20906767795795
 31
0.0
  0
ARC
  5
196
330
18
100
AcDbEntity
  8
ADP1DETAIL
100
AcDbCircle
 10
57.10822895443321
 20
6.743477165773159
 30
0.0
 40
0.062
100
AcDbArc
 50
0.0
 51
75.96375653207352
  0
LINE
  5
197
330
18
100
AcDbEntity
  8
ADP1DETAIL
100
AcDbLine
 10
56.93265431068358
 20
6.851278963907642
 30
0.0
 11
57.12326616318547
 21
6.80362600078217
 31
0.0
  0
ARC
  5
198
330
18
100
AcDbEntity
  8
ADP1DETAIL
100
AcDbCircle
 10
56.93022895443322
 20
6.841577538906189
 30
0.0
 40
0.01
100
AcDbArc
 50
75.96375653207326
 51
180.0
  0
TEXT
  5
1A6
330
18
100
AcDbEntity
  8
ADPDIM
100
AcDbText
 10
55.1852520463006
 20
2.677596180754632
 30
0.0
 40
0.125
  1
J U L I U S  B L U M  &  C O . ,  I N C .      ( 8 0 0 )  5 2 6 - 6 2 9 3        W W W . J U L I U S B L U M . C O M        P A R T  N o .  4 4 4
 41
1.25
  7
ARIAL_WIDE
 72
     1
 11
61.61995958381766
 21
2.802596180754632
 31
0.0
100
AcDbText
 73
     3
  0
ENDSEC
  0
SECTION
  2
OBJECTS
  0
DICTIONARY
  5
C
330
0
100
AcDbDictionary
  3
ACAD_GROUP
350
D
  3
ACAD_LAYOUT
350
19F
  3
ACAD_MLINESTYLE
350
E
  3
ACAD_PLOTSETTINGS
350
1A0
  3
ACAD_PLOTSTYLENAME
350
19D
  3
ACDBHEADERROUNDTRIPXREC
350
2EA
  3
ACDBVARIABLEDICTIONARY
350
200
  0
DICTIONARY
  5
1FA
330
18
100
AcDbDictionary
280
     1
  3
ACAD_LAYOUTSELFREF
360
30B
  0
DICTIONARY
  5
1F8
330
15
100
AcDbDictionary
280
     1
  3
ACAD_LAYOUTSELFREF
360
30A
  0
DICTIONARY
  5
D
102
{ACAD_REACTORS
330
C
102
}
330
C
100
AcDbDictionary
  0
DICTIONARY
  5
19F
102
{ACAD_REACTORS
330
C
102
}
330
C
100
AcDbDictionary
  0
DICTIONARY
  5
E
102
{ACAD_REACTORS
330
C
102
}
330
C
100
AcDbDictionary
  3
STANDARD
350
1B
  0
DICTIONARY
  5
1A0
102
{ACAD_REACTORS
330
C
102
}
330
C
100
AcDbDictionary
  0
ACDBDICTIONARYWDFLT
  5
19D
102
{ACAD_REACTORS
330
C
102
}
330
C
100
AcDbDictionary
281
     1
  3
Normal
350
19E
100
AcDbDictionaryWithDefault
340
19E
  0
DICTIONARY
  5
2EA
102
{ACAD_REACTORS
330
C
102
}
330
C
100
AcDbDictionary
  3
CEPSNTYPE
350
2F4
  3
FINGERPRINTGUID
350
2F5
  3
HYPERLINKBASE
350
2ED
  3
INSUNITS
350
2F3
  3
LAYOUTDICT
350
2EF
  3
LWETCUNION
350
2F2
  3
PLOTSETDICT
350
2F0
  3
PLOTSTYLNAMDICT
350
2F1
  3
PSVPSCALE
350
2F7
  3
PUCSBASE
350
2FA
  3
PUCSORGBACK
350
300
  3
PUCSORGBOTTOM
350
2FC
  3
PUCSORGFRONT
350
2FF
  3
PUCSORGLEFT
350
2FD
  3
PUCSORGRIGHT
350
2FE
  3
PUCSORGTOP
350
2FB
  3
PUCSORTHOREF
350
2F8
  3
PUCSORTHOVIEW
350
2F9
  3
STYLESHEET
350
2EE
  3
TSTACKALIGN
350
2EB
  3
TSTACKSIZE
350
2EC
  3
UCSBASE
350
303
  3
UCSORGBACK
350
309
  3
UCSORGBOTTOM
350
305
  3
UCSORGFRONT
350
308
  3
UCSORGLEFT
350
306
  3
UCSORGRIGHT
350
307
  3
UCSORGTOP
350
304
  3
UCSORTHOREF
350
301
  3
UCSORTHOVIEW
350
302
  3
VERSIONGUID
350
2F6
  0
DICTIONARY
  5
200
102
{ACAD_REACTORS
330
C
102
}
330
C
100
AcDbDictionary
  3
DIMASSOC
350
201
  0
XRECORD
  5
30B
102
{ACAD_REACTORS
330
1FA
102
}
330
1FA
100
AcDbXrecord
340
18
  0
XRECORD
  5
30A
102
{ACAD_REACTORS
330
1F8
102
}
330
1F8
100
AcDbXrecord
340
15
  0
MLINESTYLE
  5
1B
102
{ACAD_REACTORS
330
E
102
}
330
E
100
AcDbMlineStyle
  2
STANDARD
 70
     0
  3

 62
     0
 51
90.0
 52
90.0
 71
     2
 49
0.5
 62
   256
  6
BYLAYER
 49
-0.5
 62
   256
  6
BYLAYER
  0
ACDBPLACEHOLDER
  5
19E
102
{ACAD_REACTORS
330
19D
102
}
330
19D
100
AcDbPlaceHolder
280
     0
  0
XRECORD
  5
2F4
102
{ACAD_REACTORS
330
2EA
102
}
330
2EA
100
AcDbXrecord
 90
        0
  0
XRECORD
  5
2F5
102
{ACAD_REACTORS
330
2EA
102
}
330
2EA
100
AcDbXrecord
  1
{3E3F5408-7AA8-4D6B-B4AA-5BCEB4F98944}
  0
XRECORD
  5
2ED
102
{ACAD_REACTORS
330
2EA
102
}
330
2EA
100
AcDbXrecord
  1

  0
XRECORD
  5
2F3
102
{ACAD_REACTORS
330
2EA
102
}
330
2EA
100
AcDbXrecord
 90
        0
  0
XRECORD
  5
2EF
102
{ACAD_REACTORS
330
2EA
102
}
330
2EA
100
AcDbXrecord
340
19F
  0
XRECORD
  5
2F2
102
{ACAD_REACTORS
330
2EA
102
}
330
2EA
100
AcDbXrecord
 90
    14877
  0
XRECORD
  5
2F0
102
{ACAD_REACTORS
330
2EA
102
}
330
2EA
100
AcDbXrecord
340
1A0
  0
XRECORD
  5
2F1
102
{ACAD_REACTORS
330
2EA
102
}
330
2EA
100
AcDbXrecord
340
19D
  0
XRECORD
  5
2F7
102
{ACAD_REACTORS
330
2EA
102
}
330
2EA
100
AcDbXrecord
 40
0.0
  0
XRECORD
  5
2FA
102
{ACAD_REACTORS
330
2EA
102
}
330
2EA
100
AcDbXrecord
340
0
  0
XRECORD
  5
300
102
{ACAD_REACTORS
330
2EA
102
}
330
2EA
100
AcDbXrecord
 10
0.0
 20
0.0
 30
0.0
  0
XRECORD
  5
2FC
102
{ACAD_REACTORS
330
2EA
102
}
330
2EA
100
AcDbXrecord
 10
0.0
 20
0.0
 30
0.0
  0
XRECORD
  5
2FF
102
{ACAD_REACTORS
330
2EA
102
}
330
2EA
100
AcDbXrecord
 10
0.0
 20
0.0
 30
0.0
  0
XRECORD
  5
2FD
102
{ACAD_REACTORS
330
2EA
102
}
330
2EA
100
AcDbXrecord
 10
0.0
 20
0.0
 30
0.0
  0
XRECORD
  5
2FE
102
{ACAD_REACTORS
330
2EA
102
}
330
2EA
100
AcDbXrecord
 10
0.0
 20
0.0
 30
0.0
  0
XRECORD
  5
2FB
102
{ACAD_REACTORS
330
2EA
102
}
330
2EA
100
AcDbXrecord
 10
0.0
 20
0.0
 30
0.0
  0
XRECORD
  5
2F8
102
{ACAD_REACTORS
330
2EA
102
}
330
2EA
100
AcDbXrecord
340
0
  0
XRECORD
  5
2F9
102
{ACAD_REACTORS
330
2EA
102
}
330
2EA
100
AcDbXrecord
 70
     0
  0
XRECORD
  5
2EE
102
{ACAD_REACTORS
330
2EA
102
}
330
2EA
100
AcDbXrecord
  1

  0
XRECORD
  5
2EB
102
{ACAD_REACTORS
330
2EA
102
}
330
2EA
100
AcDbXrecord
 90
        1
  0
XRECORD
  5
2EC
102
{ACAD_REACTORS
330
2EA
102
}
330
2EA
100
AcDbXrecord
 90
       70
  0
XRECORD
  5
303
102
{ACAD_REACTORS
330
2EA
102
}
330
2EA
100
AcDbXrecord
340
0
  0
XRECORD
  5
309
102
{ACAD_REACTORS
330
2EA
102
}
330
2EA
100
AcDbXrecord
 10
0.0
 20
0.0
 30
0.0
  0
XRECORD
  5
305
102
{ACAD_REACTORS
330
2EA
102
}
330
2EA
100
AcDbXrecord
 10
0.0
 20
0.0
 30
0.0
  0
XRECORD
  5
308
102
{ACAD_REACTORS
330
2EA
102
}
330
2EA
100
AcDbXrecord
 10
0.0
 20
0.0
 30
0.0
  0
XRECORD
  5
306
102
{ACAD_REACTORS
330
2EA
102
}
330
2EA
100
AcDbXrecord
 10
0.0
 20
0.0
 30
0.0
  0
XRECORD
  5
307
102
{ACAD_REACTORS
330
2EA
102
}
330
2EA
100
AcDbXrecord
 10
0.0
 20
0.0
 30
0.0
  0
XRECORD
  5
304
102
{ACAD_REACTORS
330
2EA
102
}
330
2EA
100
AcDbXrecord
 10
0.0
 20
0.0
 30
0.0
  0
XRECORD
  5
301
102
{ACAD_REACTORS
330
2EA
102
}
330
2EA
100
AcDbXrecord
340
0
  0
XRECORD
  5
302
102
{ACAD_REACTORS
330
2EA
102
}
330
2EA
100
AcDbXrecord
 70
     0
  0
XRECORD
  5
2F6
102
{ACAD_REACTORS
330
2EA
102
}
330
2EA
100
AcDbXrecord
  1
{295D403F-D549-4887-86B4-74B7EF55444C}
  0
DICTIONARYVAR
  5
201
102
{ACAD_REACTORS
330
200
102
}
330
200
100
DictionaryVariables
280
     0
  1
1
  0
ENDSEC
  0
EOF
