  0
SECTION
  2
HEADER
  9
$ACADVER
  1
AC1014
  9
$ACADMAINTVER
 70
     9
  9
$DWGCODEPAGE
  3
ANSI_1252
  9
$INSBASE
 10
5.754357677479465
 20
16.35390178282561
 30
0.0
  9
$EXTMIN
 10
0.2183910912441469
 20
14.07396477836641
 30
0.0
  9
$EXTMAX
 10
13.60942110488671
 20
17.39060317146454
 30
0.0
  9
$LIMMIN
 10
-23.61579290080725
 20
-21.96805058542324
  9
$LIMMAX
 10
-4.61579290080726
 20
2.031949414576754
  9
$ORTHOMODE
 70
     1
  9
$REGENMODE
 70
     1
  9
$FILLMODE
 70
     1
  9
$QTEXTMODE
 70
     0
  9
$MIRRTEXT
 70
     1
  9
$DRAGMODE
 70
     0
  9
$LTSCALE
 40
1.0
  9
$OSMODE
 70
    37
  9
$ATTMODE
 70
     1
  9
$TEXTSIZE
 40
0.2
  9
$TRACEWID
 40
0.125
  9
$TEXTSTYLE
  7
STANDARD
  9
$CLAYER
  8
ADPDIM
  9
$CELTYPE
  6
BYLAYER
  9
$CECOLOR
 62
   256
  9
$CELTSCALE
 40
1.0
  9
$DELOBJ
 70
     1
  9
$DISPSILH
 70
     0
  9
$DIMSCALE
 40
1.0
  9
$DIMASZ
 40
0.1875
  9
$DIMEXO
 40
0.0625
  9
$DIMDLI
 40
0.375
  9
$DIMRND
 40
0.0
  9
$DIMDLE
 40
0.0
  9
$DIMEXE
 40
0.1875
  9
$DIMTP
 40
0.0
  9
$DIMTM
 40
0.0
  9
$DIMTXT
 40
0.18
  9
$DIMCEN
 40
0.09375
  9
$DIMTSZ
 40
0.0
  9
$DIMTOL
 70
     0
  9
$DIMLIM
 70
     0
  9
$DIMTIH
 70
     1
  9
$DIMTOH
 70
     1
  9
$DIMSE1
 70
     0
  9
$DIMSE2
 70
     0
  9
$DIMTAD
 70
     0
  9
$DIMZIN
 70
     0
  9
$DIMBLK
  1

  9
$DIMASO
 70
     1
  9
$DIMSHO
 70
     1
  9
$DIMPOST
  1

  9
$DIMAPOST
  1

  9
$DIMALT
 70
     0
  9
$DIMALTD
 70
     2
  9
$DIMALTF
 40
25.4
  9
$DIMLFAC
 40
1.0
  9
$DIMTOFL
 70
     0
  9
$DIMTVP
 40
0.0
  9
$DIMTIX
 70
     0
  9
$DIMSOXD
 70
     0
  9
$DIMSAH
 70
     1
  9
$DIMBLK1
  1
OBLIQUE
  9
$DIMBLK2
  1
OBLIQUE
  9
$DIMSTYLE
  2
STANDARD
  9
$DIMCLRD
 70
     0
  9
$DIMCLRE
 70
     0
  9
$DIMCLRT
 70
     0
  9
$DIMTFAC
 40
1.0
  9
$DIMGAP
 40
0.09375
  9
$DIMJUST
 70
     0
  9
$DIMSD1
 70
     0
  9
$DIMSD2
 70
     0
  9
$DIMTOLJ
 70
     1
  9
$DIMTZIN
 70
     0
  9
$DIMALTZ
 70
     0
  9
$DIMALTTZ
 70
     0
  9
$DIMFIT
 70
     3
  9
$DIMUPT
 70
     0
  9
$DIMUNIT
 70
     7
  9
$DIMDEC
 70
     2
  9
$DIMTDEC
 70
     4
  9
$DIMALTU
 70
     2
  9
$DIMALTTD
 70
     2
  9
$DIMTXSTY
  7
STANDARD
  9
$DIMAUNIT
 70
     0
  9
$LUNITS
 70
     5
  9
$LUPREC
 70
     5
  9
$SKETCHINC
 40
0.1
  9
$FILLETRAD
 40
0.038
  9
$AUNITS
 70
     0
  9
$AUPREC
 70
     0
  9
$MENU
  1
acad
  9
$ELEVATION
 40
0.0
  9
$PELEVATION
 40
0.0
  9
$THICKNESS
 40
0.0
  9
$LIMCHECK
 70
     0
  9
$BLIPMODE
 70
     0
  9
$CHAMFERA
 40
0.0
  9
$CHAMFERB
 40
0.0
  9
$CHAMFERC
 40
0.0
  9
$CHAMFERD
 40
0.0
  9
$SKPOLY
 70
     0
  9
$TDCREATE
 40
2450359.977182291
  9
$TDUPDATE
 40
2452297.086053599
  9
$TDINDWG
 40
0.0882059375
  9
$TDUSRTIMER
 40
0.0882059375
  9
$USRTIMER
 70
     1
  9
$ANGBASE
 50
0.0
  9
$ANGDIR
 70
     0
  9
$PDMODE
 70
    34
  9
$PDSIZE
 40
0.0
  9
$PLINEWID
 40
0.0
  9
$COORDS
 70
     2
  9
$SPLFRAME
 70
     0
  9
$SPLINETYPE
 70
     6
  9
$SPLINESEGS
 70
     8
  9
$ATTDIA
 70
     0
  9
$ATTREQ
 70
     1
  9
$HANDLING
 70
 22529
  9
$HANDSEED
  5
29B
  9
$SURFTAB1
 70
     6
  9
$SURFTAB2
 70
     6
  9
$SURFTYPE
 70
     6
  9
$SURFU
 70
     6
  9
$SURFV
 70
     6
  9
$UCSNAME
  2

  9
$UCSORG
 10
0.0
 20
0.0
 30
0.0
  9
$UCSXDIR
 10
1.0
 20
0.0
 30
0.0
  9
$UCSYDIR
 10
0.0
 20
1.0
 30
0.0
  9
$PUCSNAME
  2

  9
$PUCSORG
 10
0.0
 20
0.0
 30
0.0
  9
$PUCSXDIR
 10
1.0
 20
0.0
 30
0.0
  9
$PUCSYDIR
 10
0.0
 20
1.0
 30
0.0
  9
$USERI1
 70
     0
  9
$USERI2
 70
     0
  9
$USERI3
 70
     0
  9
$USERI4
 70
     0
  9
$USERI5
 70
     0
  9
$USERR1
 40
0.0
  9
$USERR2
 40
0.0
  9
$USERR3
 40
0.0
  9
$USERR4
 40
0.0
  9
$USERR5
 40
0.0
  9
$WORLDVIEW
 70
     1
  9
$SHADEDGE
 70
     3
  9
$SHADEDIF
 70
    70
  9
$TILEMODE
 70
     1
  9
$MAXACTVP
 70
    15
  9
$PINSBASE
 10
-1.038489478408727E+35
 20
-4.476065637202240E+99
 30
0.0
  9
$PLIMCHECK
 70
     0
  9
$PEXTMIN
 10
1.000000000000000E+20
 20
1.000000000000000E+20
 30
1.000000000000000E+20
  9
$PEXTMAX
 10
-1.000000000000000E+20
 20
-1.000000000000000E+20
 30
-1.000000000000000E+20
  9
$PLIMMIN
 10
-21.61579290080726
 20
-19.96805058542324
  9
$PLIMMAX
 10
-9.61579290080726
 20
-10.96805058542324
  9
$UNITMODE
 70
     0
  9
$VISRETAIN
 70
     0
  9
$PLINEGEN
 70
     0
  9
$PSLTSCALE
 70
     1
  9
$TREEDEPTH
 70
  3020
  9
$PICKSTYLE
 70
     1
  9
$CMLSTYLE
  2
STANDARD
  9
$CMLJUST
 70
     0
  9
$CMLSCALE
 40
1.0
  9
$PROXYGRAPHICS
 70
     1
  9
$MEASUREMENT
 70
     0
  0
ENDSEC
  0
SECTION
  2
CLASSES
  0
CLASS
  1
ACDBDICTIONARYWDFLT
  2
AcDbDictionaryWithDefault
  3
AutoCAD 2000
 90
        0
280
     0
281
     0
  0
CLASS
  1
ACDBPLACEHOLDER
  2
AcDbPlaceHolder
  3
AutoCAD 2000
 90
        0
280
     0
281
     0
  0
CLASS
  1
LAYOUT
  2
AcDbLayout
  3
AutoCAD 2000
 90
        0
280
     0
281
     0
  0
CLASS
  1
DICTIONARYVAR
  2
AcDbDictionaryVar
  3
AutoCAD 2000
 90
        0
280
     0
281
     0
  0
CLASS
  1
LONG_TRANSACTION
  2
AcDbLongTransaction
  3
AutoCAD 2000
 90
        0
280
     0
281
     0
  0
CLASS
  1
LWPOLYLINE
  2
AcDbPolyline
  3
AutoCAD 2000
 90
        0
280
     0
281
     1
  0
CLASS
  1
HATCH
  2
AcDbHatch
  3
AutoCAD 2000
 90
        0
280
     0
281
     1
  0
CLASS
  1
XRECORD
  2
AcDbXrecord
  3
AutoCAD 2000
 90
        0
280
     0
281
     0
  0
CLASS
  1
LONG_TRANSACTION
  2
AcDbLongTransaction
  3
AutoCAD 2000
 90
        0
280
     0
281
     0
  0
CLASS
  1
LWPOLYLINE
  2
AcDbPolyline
  3
AutoCAD 2000
 90
        0
280
     0
281
     1
  0
CLASS
  1
HATCH
  2
AcDbHatch
  3
AutoCAD 2000
 90
        0
280
     0
281
     1
  0
CLASS
  1
XRECORD
  2
AcDbXrecord
  3
AutoCAD 2000
 90
        0
280
     0
281
     0
  0
CLASS
  1
LONG_TRANSACTION
  2
AcDbLongTransaction
  3
AutoCAD 2000
 90
        0
280
     0
281
     0
  0
CLASS
  1
LWPOLYLINE
  2
AcDbPolyline
  3
AutoCAD 2000
 90
        0
280
     0
281
     1
  0
CLASS
  1
HATCH
  2
AcDbHatch
  3
AutoCAD 2000
 90
        0
280
     0
281
     1
  0
CLASS
  1
XRECORD
  2
AcDbXrecord
  3
AutoCAD 2000
 90
        0
280
     0
281
     0
  0
CLASS
  1
LONG_TRANSACTION
  2
AcDbLongTransaction
  3
AutoCAD 2000
 90
        0
280
     0
281
     0
  0
CLASS
  1
LWPOLYLINE
  2
AcDbPolyline
  3
AutoCAD 2000
 90
        0
280
     0
281
     1
  0
CLASS
  1
HATCH
  2
AcDbHatch
  3
AutoCAD 2000
 90
        0
280
     0
281
     1
  0
CLASS
  1
XRECORD
  2
AcDbXrecord
  3
AutoCAD 2000
 90
        0
280
     0
281
     0
  0
CLASS
  1
LONG_TRANSACTION
  2
AcDbLongTransaction
  3
AutoCAD 2000
 90
        0
280
     0
281
     0
  0
CLASS
  1
LWPOLYLINE
  2
AcDbPolyline
  3
AutoCAD 2000
 90
        0
280
     0
281
     1
  0
CLASS
  1
HATCH
  2
AcDbHatch
  3
AutoCAD 2000
 90
        0
280
     0
281
     1
  0
CLASS
  1
XRECORD
  2
AcDbXrecord
  3
AutoCAD 2000
 90
        0
280
     0
281
     0
  0
ENDSEC
  0
SECTION
  2
TABLES
  0
TABLE
  2
VPORT
  5
8
330
0
100
AcDbSymbolTable
 70
     2
  0
VPORT
  5
26D
330
8
100
AcDbSymbolTableRecord
100
AcDbViewportTableRecord
  2
*ACTIVE
 70
     0
 10
0.0
 20
0.0
 11
1.0
 21
1.0
 12
28.54095979864373
 22
35.70044226070392
 13
0.0
 23
0.0
 14
1.0
 24
1.0
 15
1.0
 25
1.0
 16
0.0
 26
0.0
 36
1.0
 17
-21.61579290080726
 27
-19.96805058542324
 37
0.0
 40
8.583172807228862
 41
1.570528967254408
 42
50.0
 43
0.0
 44
0.0
 50
0.0
 51
0.0
 71
     0
 72
   100
 73
     1
 74
     3
 75
     0
 76
     0
 77
     0
 78
     0
  0
ENDTAB
  0
TABLE
  2
LTYPE
  5
5
330
0
100
AcDbSymbolTable
 70
     1
  0
LTYPE
  5
12
330
5
100
AcDbSymbolTableRecord
100
AcDbLinetypeTableRecord
  2
BYBLOCK
 70
     0
  3

 72
    65
 73
     0
 40
0.0
  0
LTYPE
  5
13
330
5
100
AcDbSymbolTableRecord
100
AcDbLinetypeTableRecord
  2
BYLAYER
 70
     0
  3

 72
    65
 73
     0
 40
0.0
  0
LTYPE
  5
14
330
5
100
AcDbSymbolTableRecord
100
AcDbLinetypeTableRecord
  2
CONTINUOUS
 70
     0
  3
Solid line
 72
    65
 73
     0
 40
0.0
  0
ENDTAB
  0
TABLE
  2
LAYER
  5
2
330
0
100
AcDbSymbolTable
 70
     4
  0
LAYER
  5
F
330
2
100
AcDbSymbolTableRecord
100
AcDbLayerTableRecord
  2
0
 70
     0
 62
     7
  6
CONTINUOUS
  0
LAYER
  5
23
330
2
100
AcDbSymbolTableRecord
100
AcDbLayerTableRecord
  2
DEFPOINTS
 70
     0
 62
    -7
  6
CONTINUOUS
  0
LAYER
  5
24
330
2
100
AcDbSymbolTableRecord
100
AcDbLayerTableRecord
  2
ADPDIM
 70
     0
 62
     3
  6
CONTINUOUS
  0
LAYER
  5
25
330
2
100
AcDbSymbolTableRecord
100
AcDbLayerTableRecord
  2
ADP1DETAIL
 70
     0
 62
     7
  6
CONTINUOUS
  0
ENDTAB
  0
TABLE
  2
STYLE
  5
3
330
0
100
AcDbSymbolTable
 70
     2
  0
STYLE
  5
10
330
3
100
AcDbSymbolTableRecord
100
AcDbTextStyleTableRecord
  2
STANDARD
 70
     0
 40
0.0
 41
1.0
 50
0.0
 71
     0
 42
0.2
  3
txt
  4

  0
STYLE
  5
DC
330
3
100
AcDbSymbolTableRecord
100
AcDbTextStyleTableRecord
  2
ARIAL_WIDE
 70
     0
 40
0.0
 41
1.25
 50
0.0
 71
     0
 42
0.2
  3
ARIAL.TTF
  4

1001
ACAD
1000
Arial
1071
       34
  0
ENDTAB
  0
TABLE
  2
VIEW
  5
6
330
0
100
AcDbSymbolTable
 70
     0
  0
ENDTAB
  0
TABLE
  2
UCS
  5
7
330
0
100
AcDbSymbolTable
 70
     0
  0
ENDTAB
  0
TABLE
  2
APPID
  5
9
330
0
100
AcDbSymbolTable
 70
     1
  0
APPID
  5
11
330
9
100
AcDbSymbolTableRecord
100
AcDbRegAppTableRecord
  2
ACAD
 70
     0
  0
ENDTAB
  0
TABLE
  2
DIMSTYLE
  5
A
330
0
100
AcDbSymbolTable
 70
     1
  0
DIMSTYLE
105
81
102
{ACAD_REACTORS
330
60
102
}
330
A
100
AcDbSymbolTableRecord
100
AcDbDimStyleTableRecord
  2
STANDARD
 70
     0
  3

  4

  5

  6

  7

 40
1.0
 41
0.18
 42
0.0625
 43
0.38
 44
0.18
 45
0.0
 46
0.0
 47
0.0
 48
0.0
140
0.18
141
0.09
142
0.0
143
25.4
144
1.0
145
0.0
146
1.0
147
0.09
 71
     0
 72
     0
 73
     1
 74
     1
 75
     0
 76
     0
 77
     0
 78
     0
170
     0
171
     2
172
     0
173
     0
174
     0
175
     0
176
     0
177
     0
178
     0
270
     2
271
     4
272
     4
273
     2
274
     2
340
10
275
     0
280
     0
281
     0
282
     0
283
     1
284
     0
285
     0
286
     0
287
     3
288
     0
  0
ENDTAB
  0
TABLE
  2
BLOCK_RECORD
  5
1
330
0
100
AcDbSymbolTable
 70
     5
  0
BLOCK_RECORD
  5
18
102
{ACAD_XDICTIONARY
360
13D
102
}
330
1
100
AcDbSymbolTableRecord
100
AcDbBlockTableRecord
  2
*MODEL_SPACE
  0
BLOCK_RECORD
  5
15
102
{ACAD_XDICTIONARY
360
13B
102
}
330
1
100
AcDbSymbolTableRecord
100
AcDbBlockTableRecord
  2
*PAPER_SPACE
  0
BLOCK_RECORD
  5
88
330
1
100
AcDbSymbolTableRecord
100
AcDbBlockTableRecord
  2
_OBLIQUE
  0
BLOCK_RECORD
  5
8F
330
1
100
AcDbSymbolTableRecord
100
AcDbBlockTableRecord
  2
*D1
  0
BLOCK_RECORD
  5
9C
330
1
100
AcDbSymbolTableRecord
100
AcDbBlockTableRecord
  2
*D2
  0
BLOCK_RECORD
  5
A9
330
1
100
AcDbSymbolTableRecord
100
AcDbBlockTableRecord
  2
A$C2251
  0
BLOCK_RECORD
  5
C5
330
1
100
AcDbSymbolTableRecord
100
AcDbBlockTableRecord
  2
*D4
  0
ENDTAB
  0
ENDSEC
  0
SECTION
  2
BLOCKS
  0
BLOCK
  5
28
330
18
100
AcDbEntity
  8
0
100
AcDbBlockBegin
  2
*MODEL_SPACE
 70
     0
 10
0.0
 20
0.0
 30
0.0
  3
*MODEL_SPACE
  1

  0
ENDBLK
  5
29
330
18
100
AcDbEntity
  8
0
100
AcDbBlockEnd
  0
BLOCK
  5
26
330
15
100
AcDbEntity
 67
     1
  8
0
100
AcDbBlockBegin
  2
*PAPER_SPACE
 70
     0
 10
0.0
 20
0.0
 30
0.0
  3
*PAPER_SPACE
  1

  0
ENDBLK
  5
27
330
15
100
AcDbEntity
 67
     1
  8
0
100
AcDbBlockEnd
  0
BLOCK
  5
89
330
88
100
AcDbEntity
  8
0
100
AcDbBlockBegin
  2
_OBLIQUE
 70
     0
 10
0.0
 20
0.0
 30
0.0
  3
_OBLIQUE
  1

  0
LINE
  5
8A
330
88
100
AcDbEntity
  8
0
  6
BYBLOCK
 62
     0
100
AcDbLine
 10
-0.5
 20
-0.5
 30
0.0
 11
0.5
 21
0.5
 31
0.0
  0
ENDBLK
  5
8B
330
88
100
AcDbEntity
  8
0
100
AcDbBlockEnd
  0
BLOCK
  5
9A
330
8F
100
AcDbEntity
  8
0
100
AcDbBlockBegin
  2
*D1
 70
     1
 10
0.0
 20
0.0
 30
0.0
  3
*D1
  1

  0
LINE
  5
90
330
8F
100
AcDbEntity
  8
0
  6
BYBLOCK
 62
     0
100
AcDbLine
 10
14.45397031823769
 20
-2.504121982591024
 30
0.0
 11
14.45397031823769
 21
-2.936895495836134
 31
0.0
  0
LINE
  5
91
330
8F
100
AcDbEntity
  8
0
  6
BYBLOCK
 62
     0
100
AcDbLine
 10
16.01647031823769
 20
-2.504121982591024
 30
0.0
 11
16.01647031823769
 21
-2.936895495836134
 31
0.0
  0
LINE
  5
92
330
8F
100
AcDbEntity
  8
0
  6
BYBLOCK
 62
     0
100
AcDbLine
 10
14.45397031823769
 20
-2.756895495836134
 30
0.0
 11
14.79772031823769
 21
-2.756895495836134
 31
0.0
  0
LINE
  5
93
330
8F
100
AcDbEntity
  8
0
  6
BYBLOCK
 62
     0
100
AcDbLine
 10
16.01647031823769
 20
-2.756895495836134
 30
0.0
 11
15.67272031823769
 21
-2.756895495836134
 31
0.0
  0
LINE
  5
94
330
8F
100
AcDbEntity
  8
0
  6
BYBLOCK
 62
     0
100
AcDbLine
 10
14.32897031823769
 20
-2.881895495836134
 30
0.0
 11
14.57897031823769
 21
-2.631895495836134
 31
0.0
  0
LINE
  5
95
330
8F
100
AcDbEntity
  8
0
  6
BYBLOCK
 62
     0
100
AcDbLine
 10
15.89147031823769
 20
-2.881895495836134
 30
0.0
 11
16.14147031823769
 21
-2.631895495836134
 31
0.0
  0
TEXT
  5
96
330
8F
100
AcDbEntity
  8
0
  6
BYBLOCK
 62
     0
100
AcDbText
 10
14.92272031823769
 20
-2.819395495836134
 30
0.0
 40
0.125
  1
1 9/16
 72
     1
 11
15.23522031823769
 21
-2.756895495836134
 31
0.0
100
AcDbText
 73
     2
  0
POINT
  5
97
330
8F
100
AcDbEntity
  8
DEFPOINTS
  6
BYBLOCK
 62
     0
100
AcDbPoint
 10
14.45397031823769
 20
-2.441621982591024
 30
0.0
  0
POINT
  5
98
330
8F
100
AcDbEntity
  8
DEFPOINTS
  6
BYBLOCK
 62
     0
100
AcDbPoint
 10
16.01647031823769
 20
-2.441621982591024
 30
0.0
  0
POINT
  5
99
330
8F
100
AcDbEntity
  8
DEFPOINTS
  6
BYBLOCK
 62
     0
100
AcDbPoint
 10
16.01647031823769
 20
-2.756895495836134
 30
0.0
  0
ENDBLK
  5
9B
330
8F
100
AcDbEntity
  8
0
100
AcDbBlockEnd
  0
BLOCK
  5
A7
330
9C
100
AcDbEntity
  8
0
100
AcDbBlockBegin
  2
*D2
 70
     1
 10
0.0
 20
0.0
 30
0.0
  3
*D2
  1

  0
LINE
  5
9D
330
9C
100
AcDbEntity
  8
0
  6
BYBLOCK
 62
     0
100
AcDbLine
 10
14.17613210696135
 20
-2.289886377188695
 30
0.0
 11
14.17613210696135
 21
-1.530020591080527
 31
0.0
  0
LINE
  5
9E
330
9C
100
AcDbEntity
  8
0
  6
BYBLOCK
 62
     0
100
AcDbLine
 10
16.29370942563118
 20
-2.299129245947743
 30
0.0
 11
16.29370942563118
 21
-1.530020591080527
 31
0.0
  0
LINE
  5
9F
330
9C
100
AcDbEntity
  8
0
  6
BYBLOCK
 62
     0
100
AcDbLine
 10
14.17613210696135
 20
-1.710020591080527
 30
0.0
 11
14.83908743296293
 21
-1.710020591080527
 31
0.0
  0
LINE
  5
A0
330
9C
100
AcDbEntity
  8
0
  6
BYBLOCK
 62
     0
100
AcDbLine
 10
16.29370942563118
 20
-1.710020591080527
 30
0.0
 11
15.6307540996296
 21
-1.710020591080527
 31
0.0
  0
LINE
  5
A1
330
9C
100
AcDbEntity
  8
0
  6
BYBLOCK
 62
     0
100
AcDbLine
 10
14.05113210696135
 20
-1.835020591080527
 30
0.0
 11
14.30113210696135
 21
-1.585020591080527
 31
0.0
  0
LINE
  5
A2
330
9C
100
AcDbEntity
  8
0
  6
BYBLOCK
 62
     0
100
AcDbLine
 10
16.16870942563118
 20
-1.835020591080527
 30
0.0
 11
16.41870942563118
 21
-1.585020591080527
 31
0.0
  0
TEXT
  5
A3
330
9C
100
AcDbEntity
  8
0
  6
BYBLOCK
 62
     0
100
AcDbText
 10
14.96408743296293
 20
-1.772520591080527
 30
0.0
 40
0.125
  1
2 1/8
 72
     1
 11
15.23492076629627
 21
-1.710020591080527
 31
0.0
100
AcDbText
 73
     2
  0
POINT
  5
A4
330
9C
100
AcDbEntity
  8
DEFPOINTS
  6
BYBLOCK
 62
     0
100
AcDbPoint
 10
14.17613210696135
 20
-2.352386377188695
 30
0.0
  0
POINT
  5
A5
330
9C
100
AcDbEntity
  8
DEFPOINTS
  6
BYBLOCK
 62
     0
100
AcDbPoint
 10
16.29370942563118
 20
-2.361629245947743
 30
0.0
  0
POINT
  5
A6
330
9C
100
AcDbEntity
  8
DEFPOINTS
  6
BYBLOCK
 62
     0
100
AcDbPoint
 10
16.29370942563118
 20
-1.710020591080527
 30
0.0
  0
ENDBLK
  5
A8
330
9C
100
AcDbEntity
  8
0
100
AcDbBlockEnd
  0
BLOCK
  5
C0
330
A9
100
AcDbEntity
  8
0
100
AcDbBlockBegin
  2
A$C2251
 70
     0
 10
0.0
 20
0.0
 30
0.0
  3
A$C2251
  1

  0
ARC
  5
AA
330
A9
100
AcDbEntity
  8
ADP1DETAIL
100
AcDbCircle
 10
1.192070660961288
 20
-0.1734951693971198
 30
0.0
 40
1.0
100
AcDbArc
 50
90.0
 51
122.2962258706381
  0
ARC
  5
AB
330
A9
100
AcDbEntity
  8
ADP1DETAIL
100
AcDbCircle
 10
1.192070660961288
 20
-0.8606567946824448
 30
0.0
 40
1.921536625285325
100
AcDbArc
 50
90.0
 51
116.9685766245346
  0
DIMENSION
  5
AC
330
A9
100
AcDbEntity
  8
ADPDIM
100
AcDbDimension
  2
*D1
 10
1.973320660961288
 20
0.1831063173577703
 30
0.0
 11
1.192070660961288
 21
0.1831063173577703
 31
0.0
 12
-14.04314965727641
 22
2.940001813193904
 32
0.0
100
AcDbAlignedDimension
 13
0.4108206609612886
 23
0.4983798306028802
 33
0.0
 14
1.973320660961288
 24
0.4983798306028802
 34
0.0
100
AcDbRotatedDimension
  0
DIMENSION
  5
AD
330
A9
100
AcDbEntity
  8
ADPDIM
100
AcDbDimension
  2
*D2
 10
2.250559768354772
 20
1.229981222113377
 30
0.0
 11
1.19177110901986
 21
1.229981222113377
 31
0.0
 12
-14.04314965727641
 22
2.940001813193904
 32
0.0
100
AcDbAlignedDimension
 13
0.132982449684949
 23
0.5876154360052089
 33
0.0
 14
2.250559768354772
 24
0.5783725672461615
 34
0.0
100
AcDbRotatedDimension
  0
LINE
  5
AE
330
A9
100
AcDbEntity
  8
ADP1DETAIL
100
AcDbLine
 10
0.4108206609612886
 20
0.4983798306028802
 30
0.0
 11
0.3927558705250007
 21
0.3265048306028802
 31
0.0
  0
ARC
  5
AF
330
A9
100
AcDbEntity
  8
ADP1DETAIL
100
AcDbCircle
 10
0.4232469897632463
 20
0.6171607821888272
 30
0.0
 40
0.292250903411321
100
AcDbArc
 50
187.6269326505061
 51
264.0113188001741
  0
LINE
  5
B0
330
A9
100
AcDbEntity
  8
ADP1DETAIL
100
AcDbLine
 10
0.5177558705250008
 20
0.4983798306028802
 30
0.0
 11
0.4108206609612886
 21
0.4983798306028802
 31
0.0
  0
ARC
  5
B1
330
A9
100
AcDbEntity
  8
ADP1DETAIL
100
AcDbCircle
 10
0.1959799831042463
 20
0.5870579567818038
 30
0.0
 40
0.063
100
AcDbArc
 50
171.061755270937
 51
187.9242249345007
  0
ARC
  5
B2
330
A9
100
AcDbEntity
  8
ADP1DETAIL
100
AcDbCircle
 10
0.4733206609612886
 20
0.5434378822083233
 30
0.0
 40
0.34375
100
AcDbArc
 50
116.3677952801007
 51
171.061755270937
  0
LINE
  5
B3
330
A9
100
AcDbEntity
  8
ADP1DETAIL
100
AcDbLine
 10
0.5358206609612886
 20
0.6702548306028802
 30
0.0
 11
0.5177558705250008
 21
0.4983798306028802
 31
0.0
  0
ARC
  5
B4
330
A9
100
AcDbEntity
  8
ADP1DETAIL
100
AcDbCircle
 10
0.6524310242591654
 20
0.6802548306028804
 30
0.0
 40
0.01
100
AcDbArc
 50
270.0
 51
302.2962258706372
  0
LINE
  5
B5
330
A9
100
AcDbEntity
  8
ADP1DETAIL
100
AcDbLine
 10
0.6524310242591654
 20
0.6702548306028802
 30
0.0
 11
0.5358206609612886
 21
0.6702548306028802
 31
0.0
  0
LINE
  5
B6
330
A9
100
AcDbEntity
  8
ADP1DETAIL
100
AcDbLine
 10
1.973320660961288
 20
0.4983798306028802
 30
0.0
 11
1.991385451397576
 21
0.3265048306028802
 31
0.0
  0
ARC
  5
B7
330
A9
100
AcDbEntity
  8
ADP1DETAIL
100
AcDbCircle
 10
1.96089433215933
 20
0.6171607821888272
 30
0.0
 40
0.292250903411321
100
AcDbArc
 50
275.9886811998258
 51
352.3730673494938
  0
ARC
  5
B8
330
A9
100
AcDbEntity
  8
ADP1DETAIL
100
AcDbCircle
 10
1.192070660961288
 20
-0.8606567946824448
 30
0.0
 40
1.921536625285325
100
AcDbArc
 50
63.03142337546535
 51
90.0
  0
LINE
  5
B9
330
A9
100
AcDbEntity
  8
ADP1DETAIL
100
AcDbLine
 10
1.731710297663411
 20
0.6702548306028802
 30
0.0
 11
1.848320660961288
 21
0.6702548306028802
 31
0.0
  0
ARC
  5
BA
330
A9
100
AcDbEntity
  8
ADP1DETAIL
100
AcDbCircle
 10
1.192070660961288
 20
-0.1734951693971198
 30
0.0
 40
1.0
100
AcDbArc
 50
57.70377412936189
 51
90.0
  0
ARC
  5
BB
330
A9
100
AcDbEntity
  8
ADP1DETAIL
100
AcDbCircle
 10
1.731710297663411
 20
0.6802548306028804
 30
0.0
 40
0.01
100
AcDbArc
 50
237.7037741293626
 51
270.0
  0
ARC
  5
BC
330
A9
100
AcDbEntity
  8
ADP1DETAIL
100
AcDbCircle
 10
1.910820660961288
 20
0.5434378822083233
 30
0.0
 40
0.34375
100
AcDbArc
 50
8.938244729062905
 51
63.63220471989929
  0
LINE
  5
BD
330
A9
100
AcDbEntity
  8
ADP1DETAIL
100
AcDbLine
 10
1.866385451397576
 20
0.4983798306028802
 30
0.0
 11
1.973320660961288
 21
0.4983798306028802
 31
0.0
  0
LINE
  5
BE
330
A9
100
AcDbEntity
  8
ADP1DETAIL
100
AcDbLine
 10
1.848320660961288
 20
0.6702548306028802
 30
0.0
 11
1.866385451397576
 21
0.4983798306028802
 31
0.0
  0
ARC
  5
BF
330
A9
100
AcDbEntity
  8
ADP1DETAIL
100
AcDbCircle
 10
2.188161338818332
 20
0.5870579567818038
 30
0.0
 40
0.063
100
AcDbArc
 50
352.0757750654992
 51
8.938244729062928
  0
ENDBLK
  5
C1
330
A9
100
AcDbEntity
  8
0
100
AcDbBlockEnd
  0
BLOCK
  5
C6
330
C5
100
AcDbEntity
  8
0
100
AcDbBlockBegin
  2
*D4
 70
     1
 10
0.0
 20
0.0
 30
0.0
  3
*D4
  1

  0
LINE
  5
291
330
C5
100
AcDbEntity
  8
ADPDIM
 62
     0
100
AcDbLine
 10
5.754357677479465
 20
16.29140178282561
 30
0.0
 11
5.754357677479465
 21
15.58968370764258
 31
0.0
  0
LINE
  5
292
330
C5
100
AcDbEntity
  8
ADPDIM
 62
     0
100
AcDbLine
 10
8.754357677479465
 20
16.09732283545719
 30
0.0
 11
8.754357677479465
 21
15.58968370764258
 31
0.0
  0
LINE
  5
293
330
C5
100
AcDbEntity
  8
ADPDIM
 62
     0
100
AcDbLine
 10
5.754357677479465
 20
15.77718370764259
 30
0.0
 11
7.100607677479465
 21
15.77718370764259
 31
0.0
  0
LINE
  5
294
330
C5
100
AcDbEntity
  8
ADPDIM
 62
     0
100
AcDbLine
 10
8.754357677479465
 20
15.77718370764259
 30
0.0
 11
7.408107677479464
 21
15.77718370764259
 31
0.0
  0
INSERT
  5
295
330
C5
100
AcDbEntity
  8
ADPDIM
 62
     0
100
AcDbBlockReference
  2
_OBLIQUE
 10
5.754357677479465
 20
15.77718370764259
 30
0.0
 41
0.1875
 42
0.1875
 43
0.1875
 50
180.0
  0
INSERT
  5
296
330
C5
100
AcDbEntity
  8
ADPDIM
 62
     0
100
AcDbBlockReference
  2
_OBLIQUE
 10
8.754357677479465
 20
15.77718370764259
 30
0.0
 41
0.1875
 42
0.1875
 43
0.1875
  0
MTEXT
  5
297
330
C5
100
AcDbEntity
  8
ADPDIM
 62
     0
100
AcDbMText
 10
7.254357677479465
 20
15.77718370764259
 30
0.0
 40
0.18
 41
0.0
 71
     5
 72
     1
  1
\A1;3
  0
POINT
  5
298
330
C5
100
AcDbEntity
  8
DEFPOINTS
 62
     0
100
AcDbPoint
 10
5.754357677479465
 20
16.35390178282561
 30
0.0
  0
POINT
  5
299
330
C5
100
AcDbEntity
  8
DEFPOINTS
 62
     0
100
AcDbPoint
 10
8.754357677479465
 20
16.15982283545719
 30
0.0
  0
POINT
  5
29A
330
C5
100
AcDbEntity
  8
DEFPOINTS
 62
     0
100
AcDbPoint
 10
8.754357677479465
 20
15.77718370764259
 30
0.0
  0
ENDBLK
  5
D1
330
C5
100
AcDbEntity
  8
0
100
AcDbBlockEnd
  0
ENDSEC
  0
SECTION
  2
ENTITIES
  0
LINE
  5
4F
330
18
100
AcDbEntity
  8
ADP1DETAIL
100
AcDbLine
 10
9.234620835374203
 20
16.15982283545719
 30
0.0
 11
8.754357677479465
 21
16.15982283545719
 31
0.0
  0
ARC
  5
50
330
18
100
AcDbEntity
  8
ADP1DETAIL
100
AcDbCircle
 10
9.99567948429205
 20
15.67225570650233
 30
0.0
 40
0.9038428913975874
100
AcDbArc
 50
147.3546162097651
 51
250.357851244416
  0
LWPOLYLINE
  5
51
330
18
100
AcDbEntity
  8
ADP1DETAIL
100
AcDbPolyline
 90
        8
 70
     0
 43
0.0
 10
9.932300376131518
 20
16.36651724879616
 42
-0.5639107346583963
 10
10.46488399326893
 20
15.88844125650982
 42
-0.9045289982614473
 10
9.806989256426833
 20
15.7256123091414
 42
-0.5355950425280653
 10
10.17541030905841
 20
16.06442809861508
 42
0.7509521468443183
 10
9.677055045900516
 20
15.71738862493087
 42
0.9352784815350767
 10
10.74119978274262
 20
15.90324388808877
 42
0.3781244898892053
 10
10.07014715116367
 20
16.64008599335193
 10
7.494821038752152
 20
16.64008599335193
  0
LINE
  5
5B
330
18
100
AcDbEntity
  8
ADP1DETAIL
100
AcDbLine
 10
5.754357677479465
 20
17.10719125650982
 30
0.0
 11
9.974752414321571
 21
17.10719125650982
 31
0.0
  0
DIMENSION
  5
60
330
18
100
AcDbEntity
  8
ADPDIM
100
AcDbDimension
  2
*D4
 10
8.754357677479465
 20
15.77718370764259
 30
0.0
 11
7.254357677479465
 21
15.77718370764259
 31
0.0
 70
    32
  3
STANDARD
100
AcDbAlignedDimension
 13
5.754357677479465
 23
16.35390178282561
 33
0.0
 14
8.754357677479465
 24
16.15982283545719
 34
0.0
100
AcDbRotatedDimension
1001
ACAD
1000
DSTYLE
1002
{
1070
   270
1070
     7
1070
   270
1070
     7
1070
   270
1070
     7
1070
   270
1070
     7
1070
   270
1070
     7
1070
    41
1040
0.1875
1070
    43
1040
0.375
1070
    44
1040
0.1875
1070
   141
1040
0.09375
1070
   147
1040
0.09375
1070
   173
1070
     1
1070
   271
1070
     2
1070
   276
1070
     2
1070
   277
1070
     5
1070
     6
1000
OBLIQUE
1070
     7
1000
OBLIQUE
1002
}
  0
LINE
  5
61
330
18
100
AcDbEntity
  8
ADP1DETAIL
100
AcDbLine
 10
8.754357677479465
 20
16.35390178282561
 30
0.0
 11
5.754357677479465
 21
16.35390178282561
 31
0.0
  0
LINE
  5
7A
330
18
100
AcDbEntity
  8
ADP1DETAIL
100
AcDbLine
 10
5.754357677479465
 20
16.35390178282561
 30
0.0
 11
5.754357677479465
 21
17.10719125650982
 31
0.0
  0
LINE
  5
7B
330
18
100
AcDbEntity
  8
ADP1DETAIL
100
AcDbLine
 10
8.754357677479465
 20
16.15982283545719
 30
0.0
 11
8.754357677479465
 21
16.35390178282561
 31
0.0
  0
ARC
  5
7C
330
18
100
AcDbEntity
  8
ADP1DETAIL
100
AcDbCircle
 10
9.920085210269789
 20
15.828877283681
 30
0.0
 40
1.072787949309392
100
AcDbArc
 50
352.4555597277755
 51
87.3256761748785
  0
ARC
  5
7D
330
18
100
AcDbEntity
  8
ADP1DETAIL
100
AcDbCircle
 10
9.995679484292075
 20
15.67225570650232
 30
0.0
 40
0.6971484780586197
100
AcDbArc
 50
95.21607146283146
 51
251.0146344342063
  0
ARC
  5
7E
330
18
100
AcDbEntity
  8
ADP1DETAIL
100
AcDbCircle
 10
9.920085210269792
 20
15.82887728368101
 30
0.0
 40
1.279482362648359
100
AcDbArc
 50
352.4817634777696
 51
87.55123327668387
  0
ARC
  5
7F
330
18
100
AcDbEntity
  8
ADP1DETAIL
100
AcDbCircle
 10
10.12852360680563
 20
15.79630050637598
 30
0.0
 40
0.8618908512602686
100
AcDbArc
 50
245.3373640146098
 51
352.7831474699745
  0
ARC
  5
80
330
18
100
AcDbEntity
  8
ADP1DETAIL
100
AcDbCircle
 10
10.12852360680563
 20
15.79630050637598
 30
0.0
 40
1.068585264599236
100
AcDbArc
 50
245.880613929262
 51
352.7511580166563
  0
INSERT
  5
C2
330
18
100
AcDbEntity
  8
ADPDIM
100
AcDbBlockReference
  2
A$C2251
 10
2.588240194679912
 20
15.98062194935116
 30
0.0
  0
TEXT
  5
DD
330
18
100
AcDbEntity
  8
ADPDIM
100
AcDbText
 10
0.2183910912441469
 20
14.11097023539233
 30
0.0
 40
0.125
  1
J U L I U S  B L U M  &  C O . ,  I N C .      ( 8 0 0 )  5 2 6 - 6 2 9 3        W W W . J U L I U S B L U M . C O M        P A R T  N o .  4 4 3 5 - V
 41
1.25
  7
ARIAL_WIDE
 72
     1
 11
6.913906098065428
 21
14.23597023539233
 31
0.0
100
AcDbText
 73
     3
  0
ENDSEC
  0
SECTION
  2
OBJECTS
  0
DICTIONARY
  5
C
330
0
100
AcDbDictionary
  3
ACAD_GROUP
350
D
  3
ACAD_LAYOUT
350
D6
  3
ACAD_MLINESTYLE
350
E
  3
ACAD_PLOTSETTINGS
350
D7
  3
ACAD_PLOTSTYLENAME
350
D4
  3
ACDBHEADERROUNDTRIPXREC
350
26E
  3
ACDBVARIABLEDICTIONARY
350
14D
  0
DICTIONARY
  5
13D
330
18
100
AcDbDictionary
280
     1
  3
ACAD_LAYOUTSELFREF
360
290
  0
DICTIONARY
  5
13B
330
15
100
AcDbDictionary
280
     1
  3
ACAD_LAYOUTSELFREF
360
28F
  0
DICTIONARY
  5
D
102
{ACAD_REACTORS
330
C
102
}
330
C
100
AcDbDictionary
  0
DICTIONARY
  5
D6
102
{ACAD_REACTORS
330
C
102
}
330
C
100
AcDbDictionary
  0
DICTIONARY
  5
E
102
{ACAD_REACTORS
330
C
102
}
330
C
100
AcDbDictionary
  3
STANDARD
350
1B
  0
DICTIONARY
  5
D7
102
{ACAD_REACTORS
330
C
102
}
330
C
100
AcDbDictionary
  0
ACDBDICTIONARYWDFLT
  5
D4
102
{ACAD_REACTORS
330
C
102
}
330
C
100
AcDbDictionary
281
     1
  3
Normal
350
D5
100
AcDbDictionaryWithDefault
340
D5
  0
DICTIONARY
  5
26E
102
{ACAD_REACTORS
330
C
102
}
330
C
100
AcDbDictionary
  3
CEPSNTYPE
350
278
  3
DIMSTYLEDATA
350
27C
  3
FINGERPRINTGUID
350
279
  3
HYPERLINKBASE
350
271
  3
INSUNITS
350
277
  3
LAYOUTDICT
350
273
  3
LWETCUNION
350
276
  3
PLOTSETDICT
350
274
  3
PLOTSTYLNAMDICT
350
275
  3
PSVPSCALE
350
27B
  3
PUCSBASE
350
27F
  3
PUCSORGBACK
350
285
  3
PUCSORGBOTTOM
350
281
  3
PUCSORGFRONT
350
284
  3
PUCSORGLEFT
350
282
  3
PUCSORGRIGHT
350
283
  3
PUCSORGTOP
350
280
  3
PUCSORTHOREF
350
27D
  3
PUCSORTHOVIEW
350
27E
  3
STYLESHEET
350
272
  3
TSTACKALIGN
350
26F
  3
TSTACKSIZE
350
270
  3
UCSBASE
350
288
  3
UCSORGBACK
350
28E
  3
UCSORGBOTTOM
350
28A
  3
UCSORGFRONT
350
28D
  3
UCSORGLEFT
350
28B
  3
UCSORGRIGHT
350
28C
  3
UCSORGTOP
350
289
  3
UCSORTHOREF
350
286
  3
UCSORTHOVIEW
350
287
  3
VERSIONGUID
350
27A
  0
DICTIONARY
  5
14D
102
{ACAD_REACTORS
330
C
102
}
330
C
100
AcDbDictionary
  3
DIMASSOC
350
14E
  0
XRECORD
  5
290
102
{ACAD_REACTORS
330
13D
102
}
330
13D
100
AcDbXrecord
340
18
  0
XRECORD
  5
28F
102
{ACAD_REACTORS
330
13B
102
}
330
13B
100
AcDbXrecord
340
15
  0
MLINESTYLE
  5
1B
102
{ACAD_REACTORS
330
E
102
}
330
E
100
AcDbMlineStyle
  2
STANDARD
 70
     0
  3

 62
     0
 51
90.0
 52
90.0
 71
     2
 49
0.5
 62
   256
  6
BYLAYER
 49
-0.5
 62
   256
  6
BYLAYER
  0
ACDBPLACEHOLDER
  5
D5
102
{ACAD_REACTORS
330
D4
102
}
330
D4
100
AcDbPlaceHolder
280
     0
  0
XRECORD
  5
278
102
{ACAD_REACTORS
330
26E
102
}
330
26E
100
AcDbXrecord
 90
        0
  0
XRECORD
  5
27C
102
{ACAD_REACTORS
330
26E
102
}
330
26E
100
AcDbXrecord
1000
DSTYLE
1002
{
1070
   276
 70
     2
1070
   277
 70
     5
1070
   341
340
88
1070
   343
340
88
1070
   344
340
88
1002
}
  0
XRECORD
  5
279
102
{ACAD_REACTORS
330
26E
102
}
330
26E
100
AcDbXrecord
  1
{87ECBB47-CDE7-4501-ADA9-268EAB3AB2FB}
  0
XRECORD
  5
271
102
{ACAD_REACTORS
330
26E
102
}
330
26E
100
AcDbXrecord
  1

  0
XRECORD
  5
277
102
{ACAD_REACTORS
330
26E
102
}
330
26E
100
AcDbXrecord
 90
        0
  0
XRECORD
  5
273
102
{ACAD_REACTORS
330
26E
102
}
330
26E
100
AcDbXrecord
340
D6
  0
XRECORD
  5
276
102
{ACAD_REACTORS
330
26E
102
}
330
26E
100
AcDbXrecord
 90
    14877
  0
XRECORD
  5
274
102
{ACAD_REACTORS
330
26E
102
}
330
26E
100
AcDbXrecord
340
D7
  0
XRECORD
  5
275
102
{ACAD_REACTORS
330
26E
102
}
330
26E
100
AcDbXrecord
340
D4
  0
XRECORD
  5
27B
102
{ACAD_REACTORS
330
26E
102
}
330
26E
100
AcDbXrecord
 40
0.0
  0
XRECORD
  5
27F
102
{ACAD_REACTORS
330
26E
102
}
330
26E
100
AcDbXrecord
340
0
  0
XRECORD
  5
285
102
{ACAD_REACTORS
330
26E
102
}
330
26E
100
AcDbXrecord
 10
0.0
 20
0.0
 30
0.0
  0
XRECORD
  5
281
102
{ACAD_REACTORS
330
26E
102
}
330
26E
100
AcDbXrecord
 10
0.0
 20
0.0
 30
0.0
  0
XRECORD
  5
284
102
{ACAD_REACTORS
330
26E
102
}
330
26E
100
AcDbXrecord
 10
0.0
 20
0.0
 30
0.0
  0
XRECORD
  5
282
102
{ACAD_REACTORS
330
26E
102
}
330
26E
100
AcDbXrecord
 10
0.0
 20
0.0
 30
0.0
  0
XRECORD
  5
283
102
{ACAD_REACTORS
330
26E
102
}
330
26E
100
AcDbXrecord
 10
0.0
 20
0.0
 30
0.0
  0
XRECORD
  5
280
102
{ACAD_REACTORS
330
26E
102
}
330
26E
100
AcDbXrecord
 10
0.0
 20
0.0
 30
0.0
  0
XRECORD
  5
27D
102
{ACAD_REACTORS
330
26E
102
}
330
26E
100
AcDbXrecord
340
0
  0
XRECORD
  5
27E
102
{ACAD_REACTORS
330
26E
102
}
330
26E
100
AcDbXrecord
 70
     0
  0
XRECORD
  5
272
102
{ACAD_REACTORS
330
26E
102
}
330
26E
100
AcDbXrecord
  1

  0
XRECORD
  5
26F
102
{ACAD_REACTORS
330
26E
102
}
330
26E
100
AcDbXrecord
 90
        1
  0
XRECORD
  5
270
102
{ACAD_REACTORS
330
26E
102
}
330
26E
100
AcDbXrecord
 90
       70
  0
XRECORD
  5
288
102
{ACAD_REACTORS
330
26E
102
}
330
26E
100
AcDbXrecord
340
0
  0
XRECORD
  5
28E
102
{ACAD_REACTORS
330
26E
102
}
330
26E
100
AcDbXrecord
 10
0.0
 20
0.0
 30
0.0
  0
XRECORD
  5
28A
102
{ACAD_REACTORS
330
26E
102
}
330
26E
100
AcDbXrecord
 10
0.0
 20
0.0
 30
0.0
  0
XRECORD
  5
28D
102
{ACAD_REACTORS
330
26E
102
}
330
26E
100
AcDbXrecord
 10
0.0
 20
0.0
 30
0.0
  0
XRECORD
  5
28B
102
{ACAD_REACTORS
330
26E
102
}
330
26E
100
AcDbXrecord
 10
0.0
 20
0.0
 30
0.0
  0
XRECORD
  5
28C
102
{ACAD_REACTORS
330
26E
102
}
330
26E
100
AcDbXrecord
 10
0.0
 20
0.0
 30
0.0
  0
XRECORD
  5
289
102
{ACAD_REACTORS
330
26E
102
}
330
26E
100
AcDbXrecord
 10
0.0
 20
0.0
 30
0.0
  0
XRECORD
  5
286
102
{ACAD_REACTORS
330
26E
102
}
330
26E
100
AcDbXrecord
340
0
  0
XRECORD
  5
287
102
{ACAD_REACTORS
330
26E
102
}
330
26E
100
AcDbXrecord
 70
     0
  0
XRECORD
  5
27A
102
{ACAD_REACTORS
330
26E
102
}
330
26E
100
AcDbXrecord
  1
{2CA69431-E686-4238-B960-5C7F6551317D}
  0
DICTIONARYVAR
  5
14E
102
{ACAD_REACTORS
330
14D
102
}
330
14D
100
DictionaryVariables
280
     0
  1
1
  0
ENDSEC
  0
EOF
