  0
SECTION
  2
HEADER
  9
$ACADVER
  1
AC1014
  9
$ACADMAINTVER
 70
     9
  9
$DWGCODEPAGE
  3
ANSI_1252
  9
$INSBASE
 10
5.649962210943687
 20
26.06118429205946
 30
0.0
  9
$EXTMIN
 10
0.0218425266885163
 20
23.33902284288871
 30
0.0
  9
$EXTMAX
 10
13.41287254033108
 20
27.07196835896108
 30
0.0
  9
$LIMMIN
 10
-23.61579290080725
 20
-21.96805058542324
  9
$LIMMAX
 10
-4.61579290080726
 20
2.031949414576754
  9
$ORTHOMODE
 70
     1
  9
$REGENMODE
 70
     1
  9
$FILLMODE
 70
     1
  9
$QTEXTMODE
 70
     0
  9
$MIRRTEXT
 70
     1
  9
$DRAGMODE
 70
     0
  9
$LTSCALE
 40
1.0
  9
$OSMODE
 70
    37
  9
$ATTMODE
 70
     1
  9
$TEXTSIZE
 40
0.2
  9
$TRACEWID
 40
0.125
  9
$TEXTSTYLE
  7
STANDARD
  9
$CLAYER
  8
ADPDIM
  9
$CELTYPE
  6
BYLAYER
  9
$CECOLOR
 62
   256
  9
$CELTSCALE
 40
1.0
  9
$DELOBJ
 70
     1
  9
$DISPSILH
 70
     0
  9
$DIMSCALE
 40
1.0
  9
$DIMASZ
 40
0.1875
  9
$DIMEXO
 40
0.0625
  9
$DIMDLI
 40
0.375
  9
$DIMRND
 40
0.0
  9
$DIMDLE
 40
0.0
  9
$DIMEXE
 40
0.1875
  9
$DIMTP
 40
0.0
  9
$DIMTM
 40
0.0
  9
$DIMTXT
 40
0.18
  9
$DIMCEN
 40
0.09375
  9
$DIMTSZ
 40
0.0
  9
$DIMTOL
 70
     0
  9
$DIMLIM
 70
     0
  9
$DIMTIH
 70
     1
  9
$DIMTOH
 70
     1
  9
$DIMSE1
 70
     0
  9
$DIMSE2
 70
     0
  9
$DIMTAD
 70
     0
  9
$DIMZIN
 70
     2
  9
$DIMBLK
  1

  9
$DIMASO
 70
     1
  9
$DIMSHO
 70
     1
  9
$DIMPOST
  1

  9
$DIMAPOST
  1

  9
$DIMALT
 70
     0
  9
$DIMALTD
 70
     2
  9
$DIMALTF
 40
25.4
  9
$DIMLFAC
 40
1.0
  9
$DIMTOFL
 70
     0
  9
$DIMTVP
 40
0.0
  9
$DIMTIX
 70
     0
  9
$DIMSOXD
 70
     0
  9
$DIMSAH
 70
     1
  9
$DIMBLK1
  1
OBLIQUE
  9
$DIMBLK2
  1
OBLIQUE
  9
$DIMSTYLE
  2
STANDARD
  9
$DIMCLRD
 70
     0
  9
$DIMCLRE
 70
     0
  9
$DIMCLRT
 70
     0
  9
$DIMTFAC
 40
1.0
  9
$DIMGAP
 40
0.09375
  9
$DIMJUST
 70
     0
  9
$DIMSD1
 70
     0
  9
$DIMSD2
 70
     0
  9
$DIMTOLJ
 70
     1
  9
$DIMTZIN
 70
     0
  9
$DIMALTZ
 70
     0
  9
$DIMALTTZ
 70
     0
  9
$DIMFIT
 70
     3
  9
$DIMUPT
 70
     0
  9
$DIMUNIT
 70
     7
  9
$DIMDEC
 70
     3
  9
$DIMTDEC
 70
     4
  9
$DIMALTU
 70
     2
  9
$DIMALTTD
 70
     2
  9
$DIMTXSTY
  7
STANDARD
  9
$DIMAUNIT
 70
     0
  9
$LUNITS
 70
     5
  9
$LUPREC
 70
     5
  9
$SKETCHINC
 40
0.1
  9
$FILLETRAD
 40
0.038
  9
$AUNITS
 70
     0
  9
$AUPREC
 70
     0
  9
$MENU
  1
acad
  9
$ELEVATION
 40
0.0
  9
$PELEVATION
 40
0.0
  9
$THICKNESS
 40
0.0
  9
$LIMCHECK
 70
     0
  9
$BLIPMODE
 70
     0
  9
$CHAMFERA
 40
0.0
  9
$CHAMFERB
 40
0.0
  9
$CHAMFERC
 40
0.0
  9
$CHAMFERD
 40
0.0
  9
$SKPOLY
 70
     0
  9
$TDCREATE
 40
2450359.953588345
  9
$TDUPDATE
 40
2452297.085999710
  9
$TDINDWG
 40
0.0882112847
  9
$TDUSRTIMER
 40
0.0882112847
  9
$USRTIMER
 70
     1
  9
$ANGBASE
 50
0.0
  9
$ANGDIR
 70
     0
  9
$PDMODE
 70
    34
  9
$PDSIZE
 40
0.0
  9
$PLINEWID
 40
0.0
  9
$COORDS
 70
     2
  9
$SPLFRAME
 70
     0
  9
$SPLINETYPE
 70
     6
  9
$SPLINESEGS
 70
     8
  9
$ATTDIA
 70
     0
  9
$ATTREQ
 70
     1
  9
$HANDLING
 70
 22529
  9
$HANDSEED
  5
287
  9
$SURFTAB1
 70
     6
  9
$SURFTAB2
 70
     6
  9
$SURFTYPE
 70
     6
  9
$SURFU
 70
     6
  9
$SURFV
 70
     6
  9
$UCSNAME
  2

  9
$UCSORG
 10
0.0
 20
0.0
 30
0.0
  9
$UCSXDIR
 10
1.0
 20
0.0
 30
0.0
  9
$UCSYDIR
 10
0.0
 20
1.0
 30
0.0
  9
$PUCSNAME
  2

  9
$PUCSORG
 10
0.0
 20
0.0
 30
0.0
  9
$PUCSXDIR
 10
1.0
 20
0.0
 30
0.0
  9
$PUCSYDIR
 10
0.0
 20
1.0
 30
0.0
  9
$USERI1
 70
     0
  9
$USERI2
 70
     0
  9
$USERI3
 70
     0
  9
$USERI4
 70
     0
  9
$USERI5
 70
     0
  9
$USERR1
 40
0.0
  9
$USERR2
 40
0.0
  9
$USERR3
 40
0.0
  9
$USERR4
 40
0.0
  9
$USERR5
 40
0.0
  9
$WORLDVIEW
 70
     1
  9
$SHADEDGE
 70
     3
  9
$SHADEDIF
 70
    70
  9
$TILEMODE
 70
     1
  9
$MAXACTVP
 70
    15
  9
$PINSBASE
 10
0.0
 20
-0.0000000000727758
 30
0.0
  9
$PLIMCHECK
 70
     0
  9
$PEXTMIN
 10
1.000000000000000E+20
 20
1.000000000000000E+20
 30
1.000000000000000E+20
  9
$PEXTMAX
 10
-1.000000000000000E+20
 20
-1.000000000000000E+20
 30
-1.000000000000000E+20
  9
$PLIMMIN
 10
-21.61579290080726
 20
-19.96805058542324
  9
$PLIMMAX
 10
-9.61579290080726
 20
-10.96805058542324
  9
$UNITMODE
 70
     0
  9
$VISRETAIN
 70
     0
  9
$PLINEGEN
 70
     0
  9
$PSLTSCALE
 70
     1
  9
$TREEDEPTH
 70
  3020
  9
$PICKSTYLE
 70
     1
  9
$CMLSTYLE
  2
STANDARD
  9
$CMLJUST
 70
     0
  9
$CMLSCALE
 40
1.0
  9
$PROXYGRAPHICS
 70
     1
  9
$MEASUREMENT
 70
     0
  0
ENDSEC
  0
SECTION
  2
CLASSES
  0
CLASS
  1
ACDBDICTIONARYWDFLT
  2
AcDbDictionaryWithDefault
  3
AutoCAD 2000
 90
        0
280
     0
281
     0
  0
CLASS
  1
ACDBPLACEHOLDER
  2
AcDbPlaceHolder
  3
AutoCAD 2000
 90
        0
280
     0
281
     0
  0
CLASS
  1
LAYOUT
  2
AcDbLayout
  3
AutoCAD 2000
 90
        0
280
     0
281
     0
  0
CLASS
  1
DICTIONARYVAR
  2
AcDbDictionaryVar
  3
AutoCAD 2000
 90
        0
280
     0
281
     0
  0
CLASS
  1
LONG_TRANSACTION
  2
AcDbLongTransaction
  3
AutoCAD 2000
 90
        0
280
     0
281
     0
  0
CLASS
  1
LWPOLYLINE
  2
AcDbPolyline
  3
AutoCAD 2000
 90
        0
280
     0
281
     1
  0
CLASS
  1
HATCH
  2
AcDbHatch
  3
AutoCAD 2000
 90
        0
280
     0
281
     1
  0
CLASS
  1
XRECORD
  2
AcDbXrecord
  3
AutoCAD 2000
 90
        0
280
     0
281
     0
  0
CLASS
  1
LONG_TRANSACTION
  2
AcDbLongTransaction
  3
AutoCAD 2000
 90
        0
280
     0
281
     0
  0
CLASS
  1
LWPOLYLINE
  2
AcDbPolyline
  3
AutoCAD 2000
 90
        0
280
     0
281
     1
  0
CLASS
  1
HATCH
  2
AcDbHatch
  3
AutoCAD 2000
 90
        0
280
     0
281
     1
  0
CLASS
  1
XRECORD
  2
AcDbXrecord
  3
AutoCAD 2000
 90
        0
280
     0
281
     0
  0
CLASS
  1
LONG_TRANSACTION
  2
AcDbLongTransaction
  3
AutoCAD 2000
 90
        0
280
     0
281
     0
  0
CLASS
  1
LWPOLYLINE
  2
AcDbPolyline
  3
AutoCAD 2000
 90
        0
280
     0
281
     1
  0
CLASS
  1
HATCH
  2
AcDbHatch
  3
AutoCAD 2000
 90
        0
280
     0
281
     1
  0
CLASS
  1
XRECORD
  2
AcDbXrecord
  3
AutoCAD 2000
 90
        0
280
     0
281
     0
  0
CLASS
  1
LONG_TRANSACTION
  2
AcDbLongTransaction
  3
AutoCAD 2000
 90
        0
280
     0
281
     0
  0
CLASS
  1
LWPOLYLINE
  2
AcDbPolyline
  3
AutoCAD 2000
 90
        0
280
     0
281
     1
  0
CLASS
  1
HATCH
  2
AcDbHatch
  3
AutoCAD 2000
 90
        0
280
     0
281
     1
  0
CLASS
  1
XRECORD
  2
AcDbXrecord
  3
AutoCAD 2000
 90
        0
280
     0
281
     0
  0
CLASS
  1
LONG_TRANSACTION
  2
AcDbLongTransaction
  3
AutoCAD 2000
 90
        0
280
     0
281
     0
  0
CLASS
  1
LWPOLYLINE
  2
AcDbPolyline
  3
AutoCAD 2000
 90
        0
280
     0
281
     1
  0
CLASS
  1
HATCH
  2
AcDbHatch
  3
AutoCAD 2000
 90
        0
280
     0
281
     1
  0
CLASS
  1
XRECORD
  2
AcDbXrecord
  3
AutoCAD 2000
 90
        0
280
     0
281
     0
  0
ENDSEC
  0
SECTION
  2
TABLES
  0
TABLE
  2
VPORT
  5
8
330
0
100
AcDbSymbolTable
 70
     2
  0
VPORT
  5
263
330
8
100
AcDbSymbolTableRecord
100
AcDbViewportTableRecord
  2
*ACTIVE
 70
     0
 10
0.0
 20
0.0
 11
1.0
 21
1.0
 12
28.34453880774562
 22
45.17409783918743
 13
0.0
 23
0.0
 14
1.0
 24
1.0
 15
1.0
 25
1.0
 16
0.0
 26
0.0
 36
1.0
 17
-21.61579290080726
 27
-19.96805058542324
 37
0.0
 40
8.582587259972296
 41
1.570528967254408
 42
50.0
 43
0.0
 44
0.0
 50
0.0
 51
0.0
 71
     0
 72
   100
 73
     1
 74
     3
 75
     0
 76
     0
 77
     0
 78
     0
  0
ENDTAB
  0
TABLE
  2
LTYPE
  5
5
330
0
100
AcDbSymbolTable
 70
     1
  0
LTYPE
  5
12
330
5
100
AcDbSymbolTableRecord
100
AcDbLinetypeTableRecord
  2
BYBLOCK
 70
     0
  3

 72
    65
 73
     0
 40
0.0
  0
LTYPE
  5
13
330
5
100
AcDbSymbolTableRecord
100
AcDbLinetypeTableRecord
  2
BYLAYER
 70
     0
  3

 72
    65
 73
     0
 40
0.0
  0
LTYPE
  5
14
330
5
100
AcDbSymbolTableRecord
100
AcDbLinetypeTableRecord
  2
CONTINUOUS
 70
     0
  3
Solid line
 72
    65
 73
     0
 40
0.0
  0
ENDTAB
  0
TABLE
  2
LAYER
  5
2
330
0
100
AcDbSymbolTable
 70
     5
  0
LAYER
  5
F
330
2
100
AcDbSymbolTableRecord
100
AcDbLayerTableRecord
  2
0
 70
     0
 62
     7
  6
CONTINUOUS
  0
LAYER
  5
25
330
2
100
AcDbSymbolTableRecord
100
AcDbLayerTableRecord
  2
DEFPOINTS
 70
     0
 62
    -7
  6
CONTINUOUS
  0
LAYER
  5
26
330
2
100
AcDbSymbolTableRecord
100
AcDbLayerTableRecord
  2
DIMENSION
 70
     0
 62
     1
  6
CONTINUOUS
  0
LAYER
  5
27
330
2
100
AcDbSymbolTableRecord
100
AcDbLayerTableRecord
  2
ADPDIM
 70
     0
 62
     3
  6
CONTINUOUS
  0
LAYER
  5
28
330
2
100
AcDbSymbolTableRecord
100
AcDbLayerTableRecord
  2
ADP1DETAIL
 70
     0
 62
     7
  6
CONTINUOUS
  0
ENDTAB
  0
TABLE
  2
STYLE
  5
3
330
0
100
AcDbSymbolTable
 70
     2
  0
STYLE
  5
10
330
3
100
AcDbSymbolTableRecord
100
AcDbTextStyleTableRecord
  2
STANDARD
 70
     0
 40
0.0
 41
1.0
 50
0.0
 71
     0
 42
0.2
  3
txt
  4

  0
STYLE
  5
118
330
3
100
AcDbSymbolTableRecord
100
AcDbTextStyleTableRecord
  2
ARIAL_WIDE
 70
     0
 40
0.0
 41
1.25
 50
0.0
 71
     0
 42
0.2
  3
ARIAL.TTF
  4

1001
ACAD
1000
Arial
1071
       34
  0
ENDTAB
  0
TABLE
  2
VIEW
  5
6
330
0
100
AcDbSymbolTable
 70
     0
  0
ENDTAB
  0
TABLE
  2
UCS
  5
7
330
0
100
AcDbSymbolTable
 70
     0
  0
ENDTAB
  0
TABLE
  2
APPID
  5
9
330
0
100
AcDbSymbolTable
 70
     1
  0
APPID
  5
11
330
9
100
AcDbSymbolTableRecord
100
AcDbRegAppTableRecord
  2
ACAD
 70
     0
  0
ENDTAB
  0
TABLE
  2
DIMSTYLE
  5
A
330
0
100
AcDbSymbolTable
 70
     1
  0
DIMSTYLE
105
9E
330
A
100
AcDbSymbolTableRecord
100
AcDbDimStyleTableRecord
  2
STANDARD
 70
     0
  3

  4

  5

  6

  7

 40
1.0
 41
0.18
 42
0.0625
 43
0.38
 44
0.18
 45
0.0
 46
0.0
 47
0.0
 48
0.0
140
0.18
141
0.09
142
0.0
143
25.4
144
1.0
145
0.0
146
1.0
147
0.09
 71
     0
 72
     0
 73
     1
 74
     1
 75
     0
 76
     0
 77
     0
 78
     0
170
     0
171
     2
172
     0
173
     0
174
     0
175
     0
176
     0
177
     0
178
     0
270
     2
271
     4
272
     4
273
     2
274
     2
340
10
275
     0
280
     0
281
     0
282
     0
283
     1
284
     0
285
     0
286
     0
287
     3
288
     0
  0
ENDTAB
  0
TABLE
  2
BLOCK_RECORD
  5
1
330
0
100
AcDbSymbolTable
 70
     6
  0
BLOCK_RECORD
  5
18
102
{ACAD_XDICTIONARY
360
16F
102
}
330
1
100
AcDbSymbolTableRecord
100
AcDbBlockTableRecord
  2
*MODEL_SPACE
  0
BLOCK_RECORD
  5
15
102
{ACAD_XDICTIONARY
360
16D
102
}
330
1
100
AcDbSymbolTableRecord
100
AcDbBlockTableRecord
  2
*PAPER_SPACE
  0
BLOCK_RECORD
  5
1F
330
1
100
AcDbSymbolTableRecord
100
AcDbBlockTableRecord
  2
4531-VX
  0
BLOCK_RECORD
  5
20
330
1
100
AcDbSymbolTableRecord
100
AcDbBlockTableRecord
  2
*D1
  0
BLOCK_RECORD
  5
BA
330
1
100
AcDbSymbolTableRecord
100
AcDbBlockTableRecord
  2
_OBLIQUE
  0
BLOCK_RECORD
  5
D8
330
1
100
AcDbSymbolTableRecord
100
AcDbBlockTableRecord
  2
*D3
  0
BLOCK_RECORD
  5
E5
330
1
100
AcDbSymbolTableRecord
100
AcDbBlockTableRecord
  2
*D4
  0
BLOCK_RECORD
  5
F2
330
1
100
AcDbSymbolTableRecord
100
AcDbBlockTableRecord
  2
4429
  0
ENDTAB
  0
ENDSEC
  0
SECTION
  2
BLOCKS
  0
BLOCK
  5
2B
330
18
100
AcDbEntity
  8
0
100
AcDbBlockBegin
  2
*MODEL_SPACE
 70
     0
 10
0.0
 20
0.0
 30
0.0
  3
*MODEL_SPACE
  1

  0
ENDBLK
  5
2C
330
18
100
AcDbEntity
  8
0
100
AcDbBlockEnd
  0
BLOCK
  5
29
330
15
100
AcDbEntity
 67
     1
  8
0
100
AcDbBlockBegin
  2
*PAPER_SPACE
 70
     0
 10
0.0
 20
0.0
 30
0.0
  3
*PAPER_SPACE
  1

  0
ENDBLK
  5
2A
330
15
100
AcDbEntity
 67
     1
  8
0
100
AcDbBlockEnd
  0
BLOCK
  5
2E
330
1F
100
AcDbEntity
  8
0
100
AcDbBlockBegin
  2
4531-VX
 70
     0
 10
0.0
 20
0.0
 30
0.0
  3
4531-VX
  1

  0
DIMENSION
  5
2F
330
1F
100
AcDbEntity
  8
ADPDIM
100
AcDbDimension
  2
*D1
 10
2.134790645132222
 20
-2.034398766293107
 30
0.0
 11
1.06739532256611
 21
-2.034398766293107
 31
0.0
 12
-10.75080303793681
 22
-1.357741290194981
 32
0.0
100
AcDbAlignedDimension
 13
0.0
 23
0.0
 33
0.0
 14
2.134790645132222
 24
-0.3724252224134026
 34
0.0
100
AcDbRotatedDimension
  0
LINE
  5
30
330
1F
100
AcDbEntity
  8
ADP1DETAIL
100
AcDbLine
 10
3.348410256560875
 20
0.0
 30
0.0
 11
0.0
 21
0.0
 31
0.0
  0
LINE
  5
31
330
1F
100
AcDbEntity
  8
ADP1DETAIL
100
AcDbLine
 10
0.0
 20
0.2560492229548257
 30
0.0
 11
3.3432678679413
 21
0.2560492229548248
 31
0.0
  0
LINE
  5
32
330
1F
100
AcDbEntity
  8
ADP1DETAIL
100
AcDbLine
 10
0.0
 20
0.4681687403597323
 30
0.0
 11
3.344248884750875
 21
0.4681687403597317
 31
0.0
  0
LINE
  5
33
330
1F
100
AcDbEntity
  8
ADP1DETAIL
100
AcDbLine
 10
0.0000000000000018
 20
0.393952037486873
 30
0.0
 11
3.343917181107952
 21
0.3939520374868719
 31
0.0
  0
LINE
  5
34
330
1F
100
AcDbEntity
  8
ADP1DETAIL
100
AcDbLine
 10
0.0
 20
0.6440564626140067
 30
0.0
 11
3.344993511401121
 21
0.6440564626140067
 31
0.0
  0
LINE
  5
35
330
1F
100
AcDbEntity
  8
ADP1DETAIL
100
AcDbLine
 10
0.0
 20
0.0
 30
0.0
 11
0.0
 21
0.6440564626140067
 31
0.0
  0
ARC
  5
36
330
1F
100
AcDbEntity
  8
ADP1DETAIL
100
AcDbCircle
 10
3.334423293400348
 20
-0.6498910149523343
 30
0.0
 40
1.293990650742454
100
AcDbArc
 50
302.2505397901014
 51
89.53196291241038
  0
ARC
  5
37
330
1F
100
AcDbEntity
  8
ADP1DETAIL
100
AcDbCircle
 10
3.334423293400357
 20
-0.6498910149523303
 30
0.0
 40
0.905983411083273
100
AcDbArc
 50
302.3511612593817
 51
89.44064666494151
  0
ARC
  5
38
330
1F
100
AcDbEntity
  8
ADP1DETAIL
100
AcDbCircle
 10
3.334423293400352
 20
-0.6498910149523319
 30
0.0
 40
1.043886225615319
100
AcDbArc
 50
302.3059703619324
 51
89.47890183561826
  0
ARC
  5
39
330
1F
100
AcDbEntity
  8
ADP1DETAIL
100
AcDbCircle
 10
3.334423293400364
 20
-0.6498910149523251
 30
0.0
 40
1.118102928488179
100
AcDbArc
 50
302.2866985077194
 51
89.49649343788328
  0
CIRCLE
  5
3A
330
1F
100
AcDbEntity
  8
ADP1DETAIL
100
AcDbCircle
 10
3.498299652992876
 20
-0.7713224557226737
 30
0.0
 40
0.2526152719136452
  0
ARC
  5
3B
330
1F
100
AcDbEntity
  8
ADP1DETAIL
100
AcDbCircle
 10
3.501092787351868
 20
-0.8992719174296277
 30
0.0
 40
0.9941761846860549
100
AcDbArc
 50
148.3467148660078
 51
301.7963456826713
  0
ARC
  5
3C
330
1F
100
AcDbEntity
  8
ADP1DETAIL
100
AcDbCircle
 10
3.501092787351867
 20
-0.8992719174296288
 30
0.0
 40
0.6061689450268744
100
AcDbArc
 50
148.3467148660076
 51
301.656003611937
  0
ARC
  5
3D
330
1F
100
AcDbEntity
  8
ADP1DETAIL
100
AcDbCircle
 10
3.501092787351868
 20
-0.8992719174296276
 30
0.0
 40
0.7440717595589211
100
AcDbArc
 50
148.3467148660078
 51
301.7214421265083
  0
ARC
  5
3E
330
1F
100
AcDbEntity
  8
ADP1DETAIL
100
AcDbCircle
 10
3.501092787351868
 20
-0.8992719174296276
 30
0.0
 40
0.8182884624317807
100
AcDbArc
 50
148.3467148660078
 51
301.748124862221
  0
LWPOLYLINE
  5
3F
330
1F
100
AcDbEntity
  8
ADP1DETAIL
100
AcDbPolyline
 90
        3
 70
     0
 43
0.0
 10
2.972568288987718
 20
-0.5893885400579084
 42
-0.5270451295264426
 10
3.710585243495012
 20
-0.5073866562237653
 42
-0.1888602360304876
 10
3.751586185412085
 20
-0.7533923077261964
 42
1.233301537780671
  0
LWPOLYLINE
  5
44
330
1F
100
AcDbEntity
  8
ADP1DETAIL
100
AcDbPolyline
 90
        2
 70
     0
 43
0.0
 10
2.808564521319429
 20
-0.4629689691469361
 42
-0.4900511097669242
 10
3.674709419317574
 20
-0.3348410256560861
 42
0.4019948784075533
  0
LWPOLYLINE
  5
48
330
1F
100
AcDbEntity
  8
ADP1DETAIL
100
AcDbPolyline
 90
        2
 70
     0
 43
0.0
 10
2.870065934195036
 20
-0.4937196755847402
 42
-0.4809238761903897
 10
3.68666802737672
 20
-0.3536331240347441
 42
-0.4490634127766108
  0
LINE
  5
4C
330
1F
100
AcDbEntity
  8
ADP1DETAIL
100
AcDbLine
 10
2.636018890751753
 20
-0.3724252224134026
 30
0.0
 11
2.134790645132222
 21
-0.3724252224134026
 31
0.0
  0
LINE
  5
4D
330
1F
100
AcDbEntity
  8
ADP1DETAIL
100
AcDbLine
 10
2.134790645132222
 20
0.0000000000000004
 30
0.0
 11
2.134790645132222
 21
-0.3724252224134026
 31
0.0
  0
ARC
  5
4E
330
1F
100
AcDbEntity
  8
ADP1DETAIL
100
AcDbCircle
 10
2.552240687701026
 20
-0.7671660616514713
 30
0.0
 40
0.4035332916486361
100
AcDbArc
 50
51.19060037010967
 51
78.01757593154942
  0
ARC
  5
4F
330
1F
100
AcDbEntity
  8
ADP1DETAIL
100
AcDbCircle
 10
3.374104038257739
 20
-0.3140153568714297
 30
0.0
 40
0.3150647786868235
100
AcDbArc
 50
352.7762291793138
 51
94.67771078057319
  0
ENDBLK
  5
50
330
1F
100
AcDbEntity
  8
0
100
AcDbBlockEnd
  0
BLOCK
  5
51
330
20
100
AcDbEntity
  8
0
100
AcDbBlockBegin
  2
*D1
 70
     1
 10
0.0
 20
0.0
 30
0.0
  3
*D1
  1
*U
  0
LINE
  5
52
330
20
100
AcDbEntity
  8
0
  6
BYBLOCK
 62
     0
100
AcDbLine
 10
10.75080303793681
 20
1.295241290194981
 30
0.0
 11
10.75080303793681
 21
-0.8566574760981261
 31
0.0
  0
LINE
  5
53
330
20
100
AcDbEntity
  8
0
  6
BYBLOCK
 62
     0
100
AcDbLine
 10
12.88559368306903
 20
0.922816067781579
 30
0.0
 11
12.88559368306903
 21
-0.8566574760981257
 31
0.0
  0
LINE
  5
54
330
20
100
AcDbEntity
  8
0
  6
BYBLOCK
 62
     0
100
AcDbLine
 10
10.75080303793681
 20
-0.6766574760981259
 30
0.0
 11
11.42236502716959
 21
-0.6766574760981259
 31
0.0
  0
LINE
  5
55
330
20
100
AcDbEntity
  8
0
  6
BYBLOCK
 62
     0
100
AcDbLine
 10
12.88559368306903
 20
-0.6766574760981259
 30
0.0
 11
12.21403169383626
 21
-0.6766574760981259
 31
0.0
  0
LINE
  5
56
330
20
100
AcDbEntity
  8
0
  6
BYBLOCK
 62
     0
100
AcDbLine
 10
10.62580303793681
 20
-0.8016574760981258
 30
0.0
 11
10.87580303793681
 21
-0.5516574760981259
 31
0.0
  0
LINE
  5
57
330
20
100
AcDbEntity
  8
0
  6
BYBLOCK
 62
     0
100
AcDbLine
 10
12.76059368306903
 20
-0.8016574760981258
 30
0.0
 11
13.01059368306903
 21
-0.5516574760981259
 31
0.0
  0
TEXT
  5
58
330
20
100
AcDbEntity
  8
0
  6
BYBLOCK
 62
     0
100
AcDbText
 10
11.54736502716959
 20
-0.7391574760981259
 30
0.0
 40
0.125
  1
2 1/8
 72
     1
 11
11.81819836050292
 21
-0.6766574760981259
 31
0.0
100
AcDbText
 73
     2
  0
POINT
  5
59
330
20
100
AcDbEntity
  8
DEFPOINTS
  6
BYBLOCK
 62
     0
100
AcDbPoint
 10
10.75080303793681
 20
1.357741290194981
 30
0.0
  0
POINT
  5
5A
330
20
100
AcDbEntity
  8
DEFPOINTS
  6
BYBLOCK
 62
     0
100
AcDbPoint
 10
12.88559368306903
 20
0.985316067781579
 30
0.0
  0
POINT
  5
5B
330
20
100
AcDbEntity
  8
DEFPOINTS
  6
BYBLOCK
 62
     0
100
AcDbPoint
 10
12.88559368306903
 20
-0.6766574760981259
 30
0.0
  0
ENDBLK
  5
5C
330
20
100
AcDbEntity
  8
0
100
AcDbBlockEnd
  0
BLOCK
  5
BB
330
BA
100
AcDbEntity
  8
0
100
AcDbBlockBegin
  2
_OBLIQUE
 70
     0
 10
0.0
 20
0.0
 30
0.0
  3
_OBLIQUE
  1

  0
LINE
  5
BC
330
BA
100
AcDbEntity
  8
0
  6
BYBLOCK
 62
     0
100
AcDbLine
 10
-0.5
 20
-0.5
 30
0.0
 11
0.5
 21
0.5
 31
0.0
  0
ENDBLK
  5
BD
330
BA
100
AcDbEntity
  8
0
100
AcDbBlockEnd
  0
BLOCK
  5
E3
330
D8
100
AcDbEntity
  8
0
100
AcDbBlockBegin
  2
*D3
 70
     1
 10
0.0
 20
0.0
 30
0.0
  3
*D3
  1

  0
LINE
  5
D9
330
D8
100
AcDbEntity
  8
0
  6
BYBLOCK
 62
     0
100
AcDbLine
 10
11.76834916314826
 20
12.704990013524
 30
0.0
 11
11.76834916314826
 21
12.21792406883407
 31
0.0
  0
LINE
  5
DA
330
D8
100
AcDbEntity
  8
0
  6
BYBLOCK
 62
     0
100
AcDbLine
 10
12.85961058340313
 20
12.704990013524
 30
0.0
 11
12.85961058340313
 21
12.21792406883407
 31
0.0
  0
LINE
  5
DB
330
D8
100
AcDbEntity
  8
0
  6
BYBLOCK
 62
     0
100
AcDbLine
 10
11.76834916314826
 20
12.39792406883407
 30
0.0
 11
11.51834916314826
 21
12.39792406883407
 31
0.0
  0
LINE
  5
DC
330
D8
100
AcDbEntity
  8
0
  6
BYBLOCK
 62
     0
100
AcDbLine
 10
12.85961058340313
 20
12.39792406883407
 30
0.0
 11
13.10961058340313
 21
12.39792406883407
 31
0.0
  0
LINE
  5
DD
330
D8
100
AcDbEntity
  8
0
  6
BYBLOCK
 62
     0
100
AcDbLine
 10
11.64334916314826
 20
12.27292406883407
 30
0.0
 11
11.89334916314826
 21
12.52292406883407
 31
0.0
  0
LINE
  5
DE
330
D8
100
AcDbEntity
  8
0
  6
BYBLOCK
 62
     0
100
AcDbLine
 10
12.73461058340313
 20
12.27292406883407
 30
0.0
 11
12.98461058340313
 21
12.52292406883407
 31
0.0
  0
TEXT
  5
DF
330
D8
100
AcDbEntity
  8
0
  6
BYBLOCK
 62
     0
100
AcDbText
 10
13.23461058340313
 20
12.33542406883407
 30
0.0
 40
0.125
  1
1 1/16
 72
     1
 11
13.5262772500698
 21
12.39792406883407
 31
0.0
100
AcDbText
 73
     2
  0
POINT
  5
E0
330
D8
100
AcDbEntity
  8
DEFPOINTS
  6
BYBLOCK
 62
     0
100
AcDbPoint
 10
11.76834916314826
 20
12.767490013524
 30
0.0
  0
POINT
  5
E1
330
D8
100
AcDbEntity
  8
DEFPOINTS
  6
BYBLOCK
 62
     0
100
AcDbPoint
 10
12.85961058340313
 20
12.767490013524
 30
0.0
  0
POINT
  5
E2
330
D8
100
AcDbEntity
  8
DEFPOINTS
  6
BYBLOCK
 62
     0
100
AcDbPoint
 10
12.85961058340313
 20
12.39792406883407
 30
0.0
  0
ENDBLK
  5
E4
330
D8
100
AcDbEntity
  8
0
100
AcDbBlockEnd
  0
BLOCK
  5
F0
330
E5
100
AcDbEntity
  8
0
100
AcDbBlockBegin
  2
*D4
 70
     1
 10
0.0
 20
0.0
 30
0.0
  3
*D4
  1

  0
LINE
  5
E6
330
E5
100
AcDbEntity
  8
0
  6
BYBLOCK
 62
     0
100
AcDbLine
 10
11.44163846281149
 20
12.9181333223126
 30
0.0
 11
11.44163846281149
 21
13.54046761781161
 31
0.0
  0
LINE
  5
E7
330
E5
100
AcDbEntity
  8
0
  6
BYBLOCK
 62
     0
100
AcDbLine
 10
13.18632128373991
 20
12.9181333223126
 30
0.0
 11
13.18632128373991
 21
13.54046761781161
 31
0.0
  0
LINE
  5
E8
330
E5
100
AcDbEntity
  8
0
  6
BYBLOCK
 62
     0
100
AcDbLine
 10
11.44163846281149
 20
13.36046761781161
 30
0.0
 11
11.91814653994236
 21
13.36046761781161
 31
0.0
  0
LINE
  5
E9
330
E5
100
AcDbEntity
  8
0
  6
BYBLOCK
 62
     0
100
AcDbLine
 10
13.18632128373991
 20
13.36046761781161
 30
0.0
 11
12.70981320660903
 21
13.36046761781161
 31
0.0
  0
LINE
  5
EA
330
E5
100
AcDbEntity
  8
0
  6
BYBLOCK
 62
     0
100
AcDbLine
 10
11.31663846281149
 20
13.23546761781161
 30
0.0
 11
11.56663846281149
 21
13.48546761781161
 31
0.0
  0
LINE
  5
EB
330
E5
100
AcDbEntity
  8
0
  6
BYBLOCK
 62
     0
100
AcDbLine
 10
13.06132128373991
 20
13.23546761781161
 30
0.0
 11
13.3113212837399
 21
13.48546761781161
 31
0.0
  0
TEXT
  5
EC
330
E5
100
AcDbEntity
  8
0
  6
BYBLOCK
 62
     0
100
AcDbText
 10
12.04314653994236
 20
13.29796761781161
 30
0.0
 40
0.125
  1
1 3/4
 72
     1
 11
12.3139798732757
 21
13.36046761781161
 31
0.0
100
AcDbText
 73
     2
  0
POINT
  5
ED
330
E5
100
AcDbEntity
  8
DEFPOINTS
  6
BYBLOCK
 62
     0
100
AcDbPoint
 10
11.44163846281149
 20
12.8556333223126
 30
0.0
  0
POINT
  5
EE
330
E5
100
AcDbEntity
  8
DEFPOINTS
  6
BYBLOCK
 62
     0
100
AcDbPoint
 10
13.18632128373991
 20
12.8556333223126
 30
0.0
  0
POINT
  5
EF
330
E5
100
AcDbEntity
  8
DEFPOINTS
  6
BYBLOCK
 62
     0
100
AcDbPoint
 10
13.18632128373991
 20
13.36046761781161
 30
0.0
  0
ENDBLK
  5
F1
330
E5
100
AcDbEntity
  8
0
100
AcDbBlockEnd
  0
BLOCK
  5
10B
330
F2
100
AcDbEntity
  8
0
100
AcDbBlockBegin
  2
4429
 70
     0
 10
0.0
 20
0.0
 30
0.0
  3
4429
  1

  0
ARC
  5
F3
330
F2
100
AcDbEntity
  8
ADP1DETAIL
100
AcDbCircle
 10
-0.5653377542397476
 20
0.1875
 30
0.0
 40
0.40625
100
AcDbArc
 50
54.7034709189056
 51
90.0
  0
ARC
  5
F4
330
F2
100
AcDbEntity
  8
ADP1DETAIL
100
AcDbCircle
 10
-0.5653377542397476
 20
-0.03125
 30
0.0
 40
0.40625
100
AcDbArc
 50
32.57221494780893
 51
90.03299209357448
  0
DIMENSION
  5
F5
330
F2
100
AcDbEntity
  8
ADPDIM
100
AcDbDimension
  2
*D3
 10
-0.0197070441123142
 20
-0.182065944689926
 30
0.0
 11
0.6469596225543519
 21
-0.182065944689926
 31
0.0
 12
-12.87931762751544
 22
-12.579990013524
 32
0.0
100
AcDbAlignedDimension
 13
-1.11096846436718
 23
0.1875
 33
0.0
 14
-0.0197070441123142
 24
0.1875
 34
0.0
100
AcDbRotatedDimension
  0
DIMENSION
  5
F6
330
F2
100
AcDbEntity
  8
ADPDIM
100
AcDbDimension
  2
*D4
 10
0.3070036562244613
 20
0.780477604287615
 30
0.0
 11
-0.5653377542397476
 21
0.780477604287615
 31
0.0
 12
-12.87931762751544
 22
-12.579990013524
 32
0.0
100
AcDbAlignedDimension
 13
-1.437679164703956
 23
0.2756433087886076
 33
0.0
 14
0.3070036562244613
 24
0.2756433087886076
 34
0.0
100
AcDbRotatedDimension
  0
LINE
  5
F7
330
F2
100
AcDbEntity
  8
ADP1DETAIL
100
AcDbLine
 10
-1.315337754239747
 20
0.3750975731765305
 30
0.0
 11
-1.175691373250694
 21
0.3750975731765305
 31
0.0
  0
LINE
  5
F8
330
F2
100
AcDbEntity
  8
ADP1DETAIL
100
AcDbLine
 10
-1.257132776812182
 20
-0.0000563081867657
 30
0.0
 11
-1.130675508479495
 21
0.0
 31
0.0
  0
ARC
  5
F9
330
F2
100
AcDbEntity
  8
ADP1DETAIL
100
AcDbCircle
 10
-1.494448548949355
 20
-0.0786770706794933
 30
0.0
 40
0.2500000000000005
100
AcDbArc
 50
18.32960882129964
 51
58.95842546434906
  0
ARC
  5
FA
330
F2
100
AcDbEntity
  8
ADP1DETAIL
100
AcDbCircle
 10
-1.315337754239747
 20
0.25
 30
0.0
 40
0.125
100
AcDbArc
 50
90.0
 51
246.3238531733126
  0
ARC
  5
FB
330
F2
100
AcDbEntity
  8
ADP1DETAIL
100
AcDbCircle
 10
-1.110556233264709
 20
1.066822793382936
 30
0.0
 40
0.6296294546398661
100
AcDbArc
 50
270.9972411168814
 51
299.5459647873847
  0
ARC
  5
FC
330
F2
100
AcDbEntity
  8
ADP1DETAIL
100
AcDbCircle
 10
-0.5653377542397476
 20
-0.03125
 30
0.0
 40
0.40625
100
AcDbArc
 50
89.96700790642552
 51
147.427785052191
  0
LINE
  5
FD
330
F2
100
AcDbEntity
  8
ADP1DETAIL
100
AcDbLine
 10
-0.9076901419667109
 20
0.1874596365450038
 30
0.0
 11
-1.11096846436718
 21
0.1875
 31
0.0
  0
LINE
  5
FE
330
F2
100
AcDbEntity
  8
ADP1DETAIL
100
AcDbLine
 10
-1.11096846436718
 20
0.1875
 30
0.0
 11
-1.130675508479495
 21
0.0
 31
0.0
  0
LINE
  5
FF
330
F2
100
AcDbEntity
  8
ADP1DETAIL
100
AcDbLine
 10
-1.175691373250694
 20
0.3750975731765305
 30
0.0
 11
-1.158970693377602
 21
0.4375
 31
0.0
  0
LINE
  5
100
330
F2
100
AcDbEntity
  8
ADP1DETAIL
100
AcDbLine
 10
-1.159087754239747
 20
0.4375
 30
0.0
 11
-1.09959799717458
 21
0.4372887059723425
 31
0.0
  0
ARC
  5
101
330
F2
100
AcDbEntity
  8
ADP1DETAIL
100
AcDbCircle
 10
-0.5653377542397476
 20
0.1875
 30
0.0
 40
0.40625
100
AcDbArc
 50
90.0
 51
125.2965290810944
  0
ARC
  5
102
330
F2
100
AcDbEntity
  8
ADP1DETAIL
100
AcDbCircle
 10
0.1846622457602525
 20
0.25
 30
0.0
 40
0.125
100
AcDbArc
 50
293.6761468266873
 51
90.0
  0
ARC
  5
103
330
F2
100
AcDbEntity
  8
ADP1DETAIL
100
AcDbCircle
 10
0.3637730404698605
 20
-0.0786770706794933
 30
0.0
 40
0.2500000000000005
100
AcDbArc
 50
121.0415745356509
 51
161.6703911787003
  0
ARC
  5
104
330
F2
100
AcDbEntity
  8
ADP1DETAIL
100
AcDbCircle
 10
-0.0201192752147854
 20
1.066822793382936
 30
0.0
 40
0.6296294546398661
100
AcDbArc
 50
240.4540352126153
 51
269.0027588831185
  0
LINE
  5
105
330
F2
100
AcDbEntity
  8
ADP1DETAIL
100
AcDbLine
 10
-0.2229853665127841
 20
0.1874596365450038
 30
0.0
 11
-0.0197070441123142
 21
0.1875
 31
0.0
  0
LINE
  5
106
330
F2
100
AcDbEntity
  8
ADP1DETAIL
100
AcDbLine
 10
-0.0197070441123142
 20
0.1875
 30
0.0
 11
0.0
 21
0.0
 31
0.0
  0
LINE
  5
107
330
F2
100
AcDbEntity
  8
ADP1DETAIL
100
AcDbLine
 10
0.0450158647711998
 20
0.3750975731765305
 30
0.0
 11
0.0282951848981075
 21
0.4375
 31
0.0
  0
LINE
  5
108
330
F2
100
AcDbEntity
  8
ADP1DETAIL
100
AcDbLine
 10
0.0284122457602525
 20
0.4375
 30
0.0
 11
-0.0310775113049147
 21
0.4372887059723425
 31
0.0
  0
LINE
  5
109
330
F2
100
AcDbEntity
  8
ADP1DETAIL
100
AcDbLine
 10
0.1264572683326879
 20
-0.0000563081867657
 30
0.0
 11
0.0
 21
0.0
 31
0.0
  0
LINE
  5
10A
330
F2
100
AcDbEntity
  8
ADP1DETAIL
100
AcDbLine
 10
0.1846622457602525
 20
0.3750975731765305
 30
0.0
 11
0.0450158647711998
 21
0.3750975731765305
 31
0.0
  0
ENDBLK
  5
10C
330
F2
100
AcDbEntity
  8
0
100
AcDbBlockEnd
  0
ENDSEC
  0
SECTION
  2
ENTITIES
  0
INSERT
  5
75
330
18
100
AcDbEntity
  8
DIMENSION
100
AcDbBlockReference
  2
4531-VX
 10
5.649962210943687
 20
26.06118429205946
 30
0.0
  0
INSERT
  5
10D
330
18
100
AcDbEntity
  8
ADPDIM
100
AcDbBlockReference
  2
4429
 10
4.31831809748624
 20
26.11149075467347
 30
0.0
  0
TEXT
  5
119
330
18
100
AcDbEntity
  8
ADPDIM
100
AcDbText
 10
0.0218425266885163
 20
23.37602829991463
 30
0.0
 40
0.125
  1
J U L I U S  B L U M  &  C O . ,  I N C .      ( 8 0 0 )  5 2 6 - 6 2 9 3        W W W . J U L I U S B L U M . C O M        P A R T  N o .  4 4 2 9 - V
 41
1.25
  7
ARIAL_WIDE
 72
     1
 11
6.717357533509797
 21
23.50102829991463
 31
0.0
100
AcDbText
 73
     3
  0
ENDSEC
  0
SECTION
  2
OBJECTS
  0
DICTIONARY
  5
C
330
0
100
AcDbDictionary
  3
ACAD_GROUP
350
D
  3
ACAD_LAYOUT
350
112
  3
ACAD_MLINESTYLE
350
E
  3
ACAD_PLOTSETTINGS
350
113
  3
ACAD_PLOTSTYLENAME
350
110
  3
ACDBHEADERROUNDTRIPXREC
350
264
  3
ACDBVARIABLEDICTIONARY
350
175
  0
DICTIONARY
  5
16F
330
18
100
AcDbDictionary
280
     1
  3
ACAD_LAYOUTSELFREF
360
286
  0
DICTIONARY
  5
16D
330
15
100
AcDbDictionary
280
     1
  3
ACAD_LAYOUTSELFREF
360
285
  0
DICTIONARY
  5
D
102
{ACAD_REACTORS
330
C
102
}
330
C
100
AcDbDictionary
  0
DICTIONARY
  5
112
102
{ACAD_REACTORS
330
C
102
}
330
C
100
AcDbDictionary
  0
DICTIONARY
  5
E
102
{ACAD_REACTORS
330
C
102
}
330
C
100
AcDbDictionary
  3
STANDARD
350
1B
  0
DICTIONARY
  5
113
102
{ACAD_REACTORS
330
C
102
}
330
C
100
AcDbDictionary
  0
ACDBDICTIONARYWDFLT
  5
110
102
{ACAD_REACTORS
330
C
102
}
330
C
100
AcDbDictionary
281
     1
  3
Normal
350
111
100
AcDbDictionaryWithDefault
340
111
  0
DICTIONARY
  5
264
102
{ACAD_REACTORS
330
C
102
}
330
C
100
AcDbDictionary
  3
CEPSNTYPE
350
26E
  3
DIMSTYLEDATA
350
272
  3
FINGERPRINTGUID
350
26F
  3
HYPERLINKBASE
350
267
  3
INSUNITS
350
26D
  3
LAYOUTDICT
350
269
  3
LWETCUNION
350
26C
  3
PLOTSETDICT
350
26A
  3
PLOTSTYLNAMDICT
350
26B
  3
PSVPSCALE
350
271
  3
PUCSBASE
350
275
  3
PUCSORGBACK
350
27B
  3
PUCSORGBOTTOM
350
277
  3
PUCSORGFRONT
350
27A
  3
PUCSORGLEFT
350
278
  3
PUCSORGRIGHT
350
279
  3
PUCSORGTOP
350
276
  3
PUCSORTHOREF
350
273
  3
PUCSORTHOVIEW
350
274
  3
STYLESHEET
350
268
  3
TSTACKALIGN
350
265
  3
TSTACKSIZE
350
266
  3
UCSBASE
350
27E
  3
UCSORGBACK
350
284
  3
UCSORGBOTTOM
350
280
  3
UCSORGFRONT
350
283
  3
UCSORGLEFT
350
281
  3
UCSORGRIGHT
350
282
  3
UCSORGTOP
350
27F
  3
UCSORTHOREF
350
27C
  3
UCSORTHOVIEW
350
27D
  3
VERSIONGUID
350
270
  0
DICTIONARY
  5
175
102
{ACAD_REACTORS
330
C
102
}
330
C
100
AcDbDictionary
  3
DIMASSOC
350
176
  0
XRECORD
  5
286
102
{ACAD_REACTORS
330
16F
102
}
330
16F
100
AcDbXrecord
340
18
  0
XRECORD
  5
285
102
{ACAD_REACTORS
330
16D
102
}
330
16D
100
AcDbXrecord
340
15
  0
MLINESTYLE
  5
1B
102
{ACAD_REACTORS
330
E
102
}
330
E
100
AcDbMlineStyle
  2
STANDARD
 70
     0
  3

 62
     0
 51
90.0
 52
90.0
 71
     2
 49
0.5
 62
   256
  6
BYLAYER
 49
-0.5
 62
   256
  6
BYLAYER
  0
ACDBPLACEHOLDER
  5
111
102
{ACAD_REACTORS
330
110
102
}
330
110
100
AcDbPlaceHolder
280
     0
  0
XRECORD
  5
26E
102
{ACAD_REACTORS
330
264
102
}
330
264
100
AcDbXrecord
 90
        0
  0
XRECORD
  5
272
102
{ACAD_REACTORS
330
264
102
}
330
264
100
AcDbXrecord
1000
DSTYLE
1002
{
1070
   276
 70
     2
1070
   277
 70
     5
1070
   341
340
BA
1070
   343
340
BA
1070
   344
340
BA
1002
}
  0
XRECORD
  5
26F
102
{ACAD_REACTORS
330
264
102
}
330
264
100
AcDbXrecord
  1
{875F64A0-B8CF-4126-A803-111620F275F6}
  0
XRECORD
  5
267
102
{ACAD_REACTORS
330
264
102
}
330
264
100
AcDbXrecord
  1

  0
XRECORD
  5
26D
102
{ACAD_REACTORS
330
264
102
}
330
264
100
AcDbXrecord
 90
        0
  0
XRECORD
  5
269
102
{ACAD_REACTORS
330
264
102
}
330
264
100
AcDbXrecord
340
112
  0
XRECORD
  5
26C
102
{ACAD_REACTORS
330
264
102
}
330
264
100
AcDbXrecord
 90
    14877
  0
XRECORD
  5
26A
102
{ACAD_REACTORS
330
264
102
}
330
264
100
AcDbXrecord
340
113
  0
XRECORD
  5
26B
102
{ACAD_REACTORS
330
264
102
}
330
264
100
AcDbXrecord
340
110
  0
XRECORD
  5
271
102
{ACAD_REACTORS
330
264
102
}
330
264
100
AcDbXrecord
 40
0.0
  0
XRECORD
  5
275
102
{ACAD_REACTORS
330
264
102
}
330
264
100
AcDbXrecord
340
0
  0
XRECORD
  5
27B
102
{ACAD_REACTORS
330
264
102
}
330
264
100
AcDbXrecord
 10
0.0
 20
0.0
 30
0.0
  0
XRECORD
  5
277
102
{ACAD_REACTORS
330
264
102
}
330
264
100
AcDbXrecord
 10
0.0
 20
0.0
 30
0.0
  0
XRECORD
  5
27A
102
{ACAD_REACTORS
330
264
102
}
330
264
100
AcDbXrecord
 10
0.0
 20
0.0
 30
0.0
  0
XRECORD
  5
278
102
{ACAD_REACTORS
330
264
102
}
330
264
100
AcDbXrecord
 10
0.0
 20
0.0
 30
0.0
  0
XRECORD
  5
279
102
{ACAD_REACTORS
330
264
102
}
330
264
100
AcDbXrecord
 10
0.0
 20
0.0
 30
0.0
  0
XRECORD
  5
276
102
{ACAD_REACTORS
330
264
102
}
330
264
100
AcDbXrecord
 10
0.0
 20
0.0
 30
0.0
  0
XRECORD
  5
273
102
{ACAD_REACTORS
330
264
102
}
330
264
100
AcDbXrecord
340
0
  0
XRECORD
  5
274
102
{ACAD_REACTORS
330
264
102
}
330
264
100
AcDbXrecord
 70
     0
  0
XRECORD
  5
268
102
{ACAD_REACTORS
330
264
102
}
330
264
100
AcDbXrecord
  1

  0
XRECORD
  5
265
102
{ACAD_REACTORS
330
264
102
}
330
264
100
AcDbXrecord
 90
        1
  0
XRECORD
  5
266
102
{ACAD_REACTORS
330
264
102
}
330
264
100
AcDbXrecord
 90
       70
  0
XRECORD
  5
27E
102
{ACAD_REACTORS
330
264
102
}
330
264
100
AcDbXrecord
340
0
  0
XRECORD
  5
284
102
{ACAD_REACTORS
330
264
102
}
330
264
100
AcDbXrecord
 10
0.0
 20
0.0
 30
0.0
  0
XRECORD
  5
280
102
{ACAD_REACTORS
330
264
102
}
330
264
100
AcDbXrecord
 10
0.0
 20
0.0
 30
0.0
  0
XRECORD
  5
283
102
{ACAD_REACTORS
330
264
102
}
330
264
100
AcDbXrecord
 10
0.0
 20
0.0
 30
0.0
  0
XRECORD
  5
281
102
{ACAD_REACTORS
330
264
102
}
330
264
100
AcDbXrecord
 10
0.0
 20
0.0
 30
0.0
  0
XRECORD
  5
282
102
{ACAD_REACTORS
330
264
102
}
330
264
100
AcDbXrecord
 10
0.0
 20
0.0
 30
0.0
  0
XRECORD
  5
27F
102
{ACAD_REACTORS
330
264
102
}
330
264
100
AcDbXrecord
 10
0.0
 20
0.0
 30
0.0
  0
XRECORD
  5
27C
102
{ACAD_REACTORS
330
264
102
}
330
264
100
AcDbXrecord
340
0
  0
XRECORD
  5
27D
102
{ACAD_REACTORS
330
264
102
}
330
264
100
AcDbXrecord
 70
     0
  0
XRECORD
  5
270
102
{ACAD_REACTORS
330
264
102
}
330
264
100
AcDbXrecord
  1
{7E8A7F1F-4681-49A9-B101-18B31D28D773}
  0
DICTIONARYVAR
  5
176
102
{ACAD_REACTORS
330
175
102
}
330
175
100
DictionaryVariables
280
     0
  1
1
  0
ENDSEC
  0
EOF
