  0
SECTION
  2
HEADER
  9
$ACADVER
  1
AC1015
  9
$ACADMAINTVER
 70
    20
  9
$DWGCODEPAGE
  3
ANSI_1252
  9
$INSBASE
 10
13.50688163590814
 20
7.529533549978761
 30
0.0
  9
$EXTMIN
 10
8.829162691753779
 20
6.05786141899631
 30
-0.0015258207003583
  9
$EXTMAX
 10
18.88439947795635
 20
9.5954590374551
 30
0.0000000349246037
  9
$LIMMIN
 10
0.0
 20
0.0
  9
$LIMMAX
 10
36.0
 20
36.0
  9
$ORTHOMODE
 70
     1
  9
$REGENMODE
 70
     1
  9
$FILLMODE
 70
     1
  9
$QTEXTMODE
 70
     0
  9
$MIRRTEXT
 70
     1
  9
$LTSCALE
 40
1.0
  9
$ATTMODE
 70
     1
  9
$TEXTSIZE
 40
0.2
  9
$TRACEWID
 40
0.05
  9
$TEXTSTYLE
  7
STANDARD
  9
$CLAYER
  8
ADP1DETAIL
  9
$CELTYPE
  6
ByLayer
  9
$CECOLOR
 62
   256
  9
$CELTSCALE
 40
1.0
  9
$DISPSILH
 70
     0
  9
$DIMSCALE
 40
1.0
  9
$DIMASZ
 40
0.125
  9
$DIMEXO
 40
0.0625
  9
$DIMDLI
 40
0.38
  9
$DIMRND
 40
0.0
  9
$DIMDLE
 40
0.0
  9
$DIMEXE
 40
0.18
  9
$DIMTP
 40
0.0
  9
$DIMTM
 40
0.0
  9
$DIMTXT
 40
0.125
  9
$DIMCEN
 40
0.1875
  9
$DIMTSZ
 40
0.125
  9
$DIMTOL
 70
     0
  9
$DIMLIM
 70
     0
  9
$DIMTIH
 70
     0
  9
$DIMTOH
 70
     0
  9
$DIMSE1
 70
     0
  9
$DIMSE2
 70
     0
  9
$DIMTAD
 70
     0
  9
$DIMZIN
 70
     3
  9
$DIMBLK
  1

  9
$DIMASO
 70
     1
  9
$DIMSHO
 70
     1
  9
$DIMPOST
  1

  9
$DIMAPOST
  1

  9
$DIMALT
 70
     0
  9
$DIMALTD
 70
     1
  9
$DIMALTF
 40
25.4
  9
$DIMLFAC
 40
1.0
  9
$DIMTOFL
 70
     0
  9
$DIMTVP
 40
0.0
  9
$DIMTIX
 70
     0
  9
$DIMSOXD
 70
     0
  9
$DIMSAH
 70
     0
  9
$DIMBLK1
  1

  9
$DIMBLK2
  1

  9
$DIMSTYLE
  2
Standard
  9
$DIMCLRD
 70
     0
  9
$DIMCLRE
 70
     0
  9
$DIMCLRT
 70
     0
  9
$DIMTFAC
 40
1.0
  9
$DIMGAP
 40
0.125
  9
$DIMJUST
 70
     0
  9
$DIMSD1
 70
     0
  9
$DIMSD2
 70
     0
  9
$DIMTOLJ
 70
     1
  9
$DIMTZIN
 70
     3
  9
$DIMALTZ
 70
     3
  9
$DIMALTTZ
 70
     3
  9
$DIMUPT
 70
     0
  9
$DIMDEC
 70
     5
  9
$DIMTDEC
 70
     5
  9
$DIMALTU
 70
     5
  9
$DIMALTTD
 70
     1
  9
$DIMTXSTY
  7
STANDARD
  9
$DIMAUNIT
 70
     0
  9
$DIMADEC
 70
     0
  9
$DIMALTRND
 40
0.0
  9
$DIMAZIN
 70
     0
  9
$DIMDSEP
 70
    46
  9
$DIMATFIT
 70
     3
  9
$DIMFRAC
 70
     0
  9
$DIMLDRBLK
  1

  9
$DIMLUNIT
 70
     5
  9
$DIMLWD
 70
    -2
  9
$DIMLWE
 70
    -2
  9
$DIMTMOVE
 70
     2
  9
$LUNITS
 70
     5
  9
$LUPREC
 70
     5
  9
$SKETCHINC
 40
0.1
  9
$FILLETRAD
 40
0.06
  9
$AUNITS
 70
     0
  9
$AUPREC
 70
     0
  9
$MENU
  1
acad
  9
$ELEVATION
 40
0.0
  9
$PELEVATION
 40
0.0
  9
$THICKNESS
 40
0.0
  9
$LIMCHECK
 70
     0
  9
$CHAMFERA
 40
0.0
  9
$CHAMFERB
 40
0.0
  9
$CHAMFERC
 40
0.0
  9
$CHAMFERD
 40
0.0
  9
$SKPOLY
 70
     0
  9
$TDCREATE
 40
2450368.567073496
  9
$TDUCREATE
 40
2450368.733740162
  9
$TDUPDATE
 40
2453964.017857106
  9
$TDUUPDATE
 40
2453964.184523774
  9
$TDINDWG
 40
0.0928451157
  9
$TDUSRTIMER
 40
0.0928451157
  9
$USRTIMER
 70
     1
  9
$ANGBASE
 50
0.0
  9
$ANGDIR
 70
     0
  9
$PDMODE
 70
     0
  9
$PDSIZE
 40
0.0
  9
$PLINEWID
 40
0.0
  9
$SPLFRAME
 70
     0
  9
$SPLINETYPE
 70
     6
  9
$SPLINESEGS
 70
     8
  9
$HANDSEED
  5
291
  9
$SURFTAB1
 70
     6
  9
$SURFTAB2
 70
     6
  9
$SURFTYPE
 70
     6
  9
$SURFU
 70
     6
  9
$SURFV
 70
     6
  9
$UCSBASE
  2

  9
$UCSNAME
  2

  9
$UCSORG
 10
0.0
 20
0.0
 30
0.0
  9
$UCSXDIR
 10
1.0
 20
0.0
 30
0.0
  9
$UCSYDIR
 10
0.0
 20
1.0
 30
0.0
  9
$UCSORTHOREF
  2

  9
$UCSORTHOVIEW
 70
     0
  9
$UCSORGTOP
 10
0.0
 20
0.0
 30
0.0
  9
$UCSORGBOTTOM
 10
0.0
 20
0.0
 30
0.0
  9
$UCSORGLEFT
 10
0.0
 20
0.0
 30
0.0
  9
$UCSORGRIGHT
 10
0.0
 20
0.0
 30
0.0
  9
$UCSORGFRONT
 10
0.0
 20
0.0
 30
0.0
  9
$UCSORGBACK
 10
0.0
 20
0.0
 30
0.0
  9
$PUCSBASE
  2

  9
$PUCSNAME
  2

  9
$PUCSORG
 10
0.0
 20
0.0
 30
0.0
  9
$PUCSXDIR
 10
1.0
 20
0.0
 30
0.0
  9
$PUCSYDIR
 10
0.0
 20
1.0
 30
0.0
  9
$PUCSORTHOREF
  2

  9
$PUCSORTHOVIEW
 70
     0
  9
$PUCSORGTOP
 10
0.0
 20
0.0
 30
0.0
  9
$PUCSORGBOTTOM
 10
0.0
 20
0.0
 30
0.0
  9
$PUCSORGLEFT
 10
0.0
 20
0.0
 30
0.0
  9
$PUCSORGRIGHT
 10
0.0
 20
0.0
 30
0.0
  9
$PUCSORGFRONT
 10
0.0
 20
0.0
 30
0.0
  9
$PUCSORGBACK
 10
0.0
 20
0.0
 30
0.0
  9
$USERI1
 70
     0
  9
$USERI2
 70
     0
  9
$USERI3
 70
     0
  9
$USERI4
 70
     0
  9
$USERI5
 70
     0
  9
$USERR1
 40
0.0
  9
$USERR2
 40
0.0
  9
$USERR3
 40
0.0
  9
$USERR4
 40
0.0
  9
$USERR5
 40
0.0
  9
$WORLDVIEW
 70
     1
  9
$SHADEDGE
 70
     3
  9
$SHADEDIF
 70
    70
  9
$TILEMODE
 70
     1
  9
$MAXACTVP
 70
    15
  9
$PINSBASE
 10
0.1250035762786868
 20
0.0
 30
0.0
  9
$PLIMCHECK
 70
     0
  9
$PEXTMIN
 10
1.000000000000000E+20
 20
1.000000000000000E+20
 30
1.000000000000000E+20
  9
$PEXTMAX
 10
-1.000000000000000E+20
 20
-1.000000000000000E+20
 30
-1.000000000000000E+20
  9
$PLIMMIN
 10
0.0
 20
0.0
  9
$PLIMMAX
 10
12.0
 20
9.0
  9
$UNITMODE
 70
     0
  9
$VISRETAIN
 70
     0
  9
$PLINEGEN
 70
     0
  9
$PSLTSCALE
 70
     1
  9
$TREEDEPTH
 70
  3020
  9
$CMLSTYLE
  2
Standard
  9
$CMLJUST
 70
     0
  9
$CMLSCALE
 40
1.0
  9
$PROXYGRAPHICS
 70
     1
  9
$MEASUREMENT
 70
     0
  9
$CELWEIGHT
370
    -1
  9
$ENDCAPS
280
     0
  9
$JOINSTYLE
280
     0
  9
$LWDISPLAY
290
     0
  9
$INSUNITS
 70
     0
  9
$HYPERLINKBASE
  1

  9
$STYLESHEET
  1

  9
$XEDIT
290
     1
  9
$CEPSNTYPE
380
     0
  9
$PSTYLEMODE
290
     1
  9
$FINGERPRINTGUID
  2
{09090506-AD0B-48D5-93BE-F5596FD965EC}
  9
$VERSIONGUID
  2
{C928DA39-0EF0-44B6-B811-C1FE34D8ED7D}
  9
$EXTNAMES
290
     1
  9
$PSVPSCALE
 40
0.0
  9
$OLESTARTUP
290
     0
  0
ENDSEC
  0
SECTION
  2
CLASSES
  0
CLASS
  1
ACDBDICTIONARYWDFLT
  2
AcDbDictionaryWithDefault
  3
ObjectDBX Classes
 90
        0
280
     0
281
     0
  0
CLASS
  1
ACDBPLACEHOLDER
  2
AcDbPlaceHolder
  3
ObjectDBX Classes
 90
        0
280
     0
281
     0
  0
CLASS
  1
LAYOUT
  2
AcDbLayout
  3
ObjectDBX Classes
 90
        0
280
     0
281
     0
  0
CLASS
  1
DICTIONARYVAR
  2
AcDbDictionaryVar
  3
ObjectDBX Classes
 90
        0
280
     0
281
     0
  0
CLASS
  1
MATERIAL
  2
AcDbMaterial
  3
ObjectDBX Classes
 90
     1024
280
     0
281
     0
  0
CLASS
  1
VISUALSTYLE
  2
AcDbVisualStyle
  3
ObjectDBX Classes
 90
     4095
280
     0
281
     0
  0
CLASS
  1
TABLESTYLE
  2
AcDbTableStyle
  3
ObjectDBX Classes
 90
     4095
280
     0
281
     0
  0
ENDSEC
  0
SECTION
  2
TABLES
  0
TABLE
  2
VPORT
  5
8
330
0
100
AcDbSymbolTable
 70
     1
  0
VPORT
  5
1DF
330
8
100
AcDbSymbolTableRecord
100
AcDbViewportTableRecord
  2
*Active
 70
     0
 10
0.0
 20
0.0
 11
1.0
 21
1.0
 12
13.85678108485506
 22
7.826660228225705
 13
0.0
 23
0.0
 14
0.5740882589684922
 24
0.5740882589684922
 15
0.5
 25
0.5
 16
0.0
 26
0.0
 36
1.0
 17
0.0
 27
0.0
 37
0.0
 40
5.860633269052526
 41
1.726930320150659
 42
50.0
 43
0.0
 44
0.0
 50
0.0
 51
0.0
 71
     0
 72
   100
 73
     1
 74
     0
 75
     0
 76
     0
 77
     0
 78
     0
281
     0
 65
     1
110
0.0
120
0.0
130
0.0
111
1.0
121
0.0
131
0.0
112
0.0
122
1.0
132
0.0
 79
     0
146
0.0
  0
ENDTAB
  0
TABLE
  2
LTYPE
  5
5
330
0
100
AcDbSymbolTable
 70
     2
  0
LTYPE
  5
13
330
5
100
AcDbSymbolTableRecord
100
AcDbLinetypeTableRecord
  2
ByBlock
 70
     0
  3

 72
    65
 73
     0
 40
0.0
  0
LTYPE
  5
14
330
5
100
AcDbSymbolTableRecord
100
AcDbLinetypeTableRecord
  2
ByLayer
 70
     0
  3

 72
    65
 73
     0
 40
0.0
  0
LTYPE
  5
15
330
5
100
AcDbSymbolTableRecord
100
AcDbLinetypeTableRecord
  2
CONTINUOUS
 70
     0
  3
Solid line
 72
    65
 73
     0
 40
0.0
  0
LTYPE
  5
24
330
5
100
AcDbSymbolTableRecord
100
AcDbLinetypeTableRecord
  2
HIDDEN2
 70
     0
  3
_ _ _ _ _ _ _ _ _ _ _ _ _ _ _ _ _ _ _ _ _ _ _ _
 72
    65
 73
     2
 40
0.1875
 49
0.125
 74
     0
 49
-0.0625
 74
     0
  0
ENDTAB
  0
TABLE
  2
LAYER
  5
2
330
0
100
AcDbSymbolTable
 70
     5
  0
LAYER
  5
10
330
2
100
AcDbSymbolTableRecord
100
AcDbLayerTableRecord
  2
0
 70
     0
 62
     7
  6
CONTINUOUS
370
    -3
390
F
  0
LAYER
  5
26
330
2
100
AcDbSymbolTableRecord
100
AcDbLayerTableRecord
  2
ADP2DETAIL
 70
     0
 62
     5
  6
CONTINUOUS
370
    -3
390
F
  0
LAYER
  5
27
330
2
100
AcDbSymbolTableRecord
100
AcDbLayerTableRecord
  2
ADPDIM
 70
     0
 62
     3
  6
CONTINUOUS
370
    -3
390
F
  0
LAYER
  5
28
330
2
100
AcDbSymbolTableRecord
100
AcDbLayerTableRecord
  2
ADP1DETAIL
 70
     0
 62
     7
  6
CONTINUOUS
370
    -3
390
F
  0
LAYER
  5
29
330
2
100
AcDbSymbolTableRecord
100
AcDbLayerTableRecord
  2
DEFPOINTS
 70
     0
 62
     7
  6
CONTINUOUS
290
     0
370
    -3
390
F
  0
ENDTAB
  0
TABLE
  2
STYLE
  5
3
330
0
100
AcDbSymbolTable
 70
     2
  0
STYLE
  5
11
330
3
100
AcDbSymbolTableRecord
100
AcDbTextStyleTableRecord
  2
STANDARD
 70
     0
 40
0.0
 41
1.0
 50
0.0
 71
     0
 42
0.2
  3
txt
  4

  0
STYLE
  5
86
330
3
100
AcDbSymbolTableRecord
100
AcDbTextStyleTableRecord
  2
ARIAL_WIDE
 70
     0
 40
0.0
 41
1.25
 50
0.0
 71
     0
 42
0.2
  3
ARIAL.TTF
  4

1001
ACAD
1000
Arial
1071
       34
  0
ENDTAB
  0
TABLE
  2
VIEW
  5
6
330
0
100
AcDbSymbolTable
 70
     0
  0
ENDTAB
  0
TABLE
  2
UCS
  5
7
330
0
100
AcDbSymbolTable
 70
     0
  0
ENDTAB
  0
TABLE
  2
APPID
  5
9
330
0
100
AcDbSymbolTable
 70
     2
  0
APPID
  5
12
330
9
100
AcDbSymbolTableRecord
100
AcDbRegAppTableRecord
  2
ACAD
 70
     0
  0
APPID
  5
263
330
9
100
AcDbSymbolTableRecord
100
AcDbRegAppTableRecord
  2
DCO15
 70
     0
  0
ENDTAB
  0
TABLE
  2
DIMSTYLE
  5
A
330
0
100
AcDbSymbolTable
 70
     1
100
AcDbDimStyleTable
 71
     1
340
84
  0
DIMSTYLE
105
84
102
{ACAD_REACTORS
330
231
330
23F
102
}
330
A
100
AcDbSymbolTableRecord
100
AcDbDimStyleTableRecord
  2
Standard
 70
     0
340
11
  0
ENDTAB
  0
TABLE
  2
BLOCK_RECORD
  5
1
330
0
100
AcDbSymbolTable
 70
     4
  0
BLOCK_RECORD
  5
1E
102
{ACAD_XDICTIONARY
360
C3
102
}
330
1
100
AcDbSymbolTableRecord
100
AcDbBlockTableRecord
  2
*Model_Space
340
21
  0
BLOCK_RECORD
  5
1A
102
{ACAD_XDICTIONARY
360
C5
102
}
330
1
100
AcDbSymbolTableRecord
100
AcDbBlockTableRecord
  2
*Paper_Space
340
1D
  0
BLOCK_RECORD
  5
22
330
1
100
AcDbSymbolTableRecord
100
AcDbBlockTableRecord
  2
*D0
340
0
  0
BLOCK_RECORD
  5
23
330
1
100
AcDbSymbolTableRecord
100
AcDbBlockTableRecord
  2
*D1
340
0
  0
BLOCK_RECORD
  5
232
330
1
100
AcDbSymbolTableRecord
100
AcDbBlockTableRecord
  2
*D2
340
0
  0
BLOCK_RECORD
  5
240
330
1
100
AcDbSymbolTableRecord
100
AcDbBlockTableRecord
  2
*D3
340
0
  0
ENDTAB
  0
ENDSEC
  0
SECTION
  2
BLOCKS
  0
BLOCK
  5
2C
330
1E
100
AcDbEntity
  8
0
100
AcDbBlockBegin
  2
*Model_Space
 70
     0
 10
0.0
 20
0.0
 30
0.0
  3
*Model_Space
  1

  0
ENDBLK
  5
2D
330
1E
100
AcDbEntity
  8
0
100
AcDbBlockEnd
  0
BLOCK
  5
2A
330
1A
100
AcDbEntity
 67
     1
  8
0
100
AcDbBlockBegin
  2
*Paper_Space
 70
     0
 10
0.0
 20
0.0
 30
0.0
  3
*Paper_Space
  1

  0
ENDBLK
  5
2B
330
1A
100
AcDbEntity
 67
     1
  8
0
100
AcDbBlockEnd
  0
BLOCK
  5
2E
330
22
100
AcDbEntity
  8
0
100
AcDbBlockBegin
  2
*D0
 70
     1
 10
0.0
 20
0.0
 30
0.0
  3
*D0
  1

  0
LINE
  5
2F
330
22
100
AcDbEntity
  8
0
  6
ByBlock
 62
     0
100
AcDbLine
 10
13.56938163590814
 20
8.998283549978761
 30
0.0
 11
14.03663338591409
 21
8.998283549978761
 31
0.0
  0
LINE
  5
30
330
22
100
AcDbEntity
  8
0
  6
ByBlock
 62
     0
100
AcDbLine
 10
13.56938163590814
 20
7.529533549978761
 30
0.0
 11
14.03663338591409
 21
7.529533549978761
 31
0.0
  0
LINE
  5
31
330
22
100
AcDbEntity
  8
0
  6
ByBlock
 62
     0
100
AcDbLine
 10
13.85663338591409
 20
8.998283549978761
 30
0.0
 11
13.85663338591409
 21
9.248283549978761
 31
0.0
  0
LINE
  5
32
330
22
100
AcDbEntity
  8
0
  6
ByBlock
 62
     0
100
AcDbLine
 10
13.85663338591409
 20
7.529533549978761
 30
0.0
 11
13.85663338591409
 21
7.279533549978761
 31
0.0
  0
LINE
  5
33
330
22
100
AcDbEntity
  8
0
  6
ByBlock
 62
     0
100
AcDbLine
 10
13.98163338591409
 20
8.873283549978761
 30
0.0
 11
13.73163338591409
 21
9.123283549978761
 31
0.0
  0
LINE
  5
34
330
22
100
AcDbEntity
  8
0
  6
ByBlock
 62
     0
100
AcDbLine
 10
13.98163338591409
 20
7.404533549978761
 30
0.0
 11
13.73163338591409
 21
7.654533549978761
 31
0.0
  0
TEXT
  5
35
330
22
100
AcDbEntity
  8
0
  6
ByBlock
 62
     0
100
AcDbText
 10
13.91913338591409
 20
6.404533549978761
 30
0.0
 40
0.125
  1
1 15/32
 50
90.0
 72
     1
 11
13.85663338591409
 21
6.779533549978761
 31
0.0
100
AcDbText
 73
     2
  0
POINT
  5
37
330
22
100
AcDbEntity
  8
DEFPOINTS
  6
ByBlock
 62
     0
100
AcDbPoint
 10
13.50688163590814
 20
8.998283549978761
 30
0.0
  0
POINT
  5
38
330
22
100
AcDbEntity
  8
DEFPOINTS
  6
ByBlock
 62
     0
100
AcDbPoint
 10
13.50688163590814
 20
7.529533549978761
 30
0.0
  0
POINT
  5
39
330
22
100
AcDbEntity
  8
DEFPOINTS
  6
ByBlock
 62
     0
100
AcDbPoint
 10
13.85663338591409
 20
7.529533549978761
 30
0.0
  0
ENDBLK
  5
3A
330
22
100
AcDbEntity
  8
0
100
AcDbBlockEnd
  0
BLOCK
  5
3B
330
23
100
AcDbEntity
  8
0
100
AcDbBlockBegin
  2
*D1
 70
     1
 10
0.0
 20
0.0
 30
0.0
  3
*D1
  1

  0
LINE
  5
3C
330
23
100
AcDbEntity
  8
0
  6
ByBlock
 62
     0
100
AcDbLine
 10
12.10063163590814
 20
8.998283549978761
 30
0.0
 11
12.10063163590814
 21
9.520171341001436
 31
0.0
  0
LINE
  5
3D
330
23
100
AcDbEntity
  8
0
  6
ByBlock
 62
     0
100
AcDbLine
 10
13.56938163590814
 20
8.998283549978761
 30
0.0
 11
13.56938163590814
 21
9.520171341001436
 31
0.0
  0
LINE
  5
3E
330
23
100
AcDbEntity
  8
0
  6
ByBlock
 62
     0
100
AcDbLine
 10
12.10063163590814
 20
9.340171341001436
 30
0.0
 11
11.85063163590814
 21
9.340171341001436
 31
0.0
  0
LINE
  5
3F
330
23
100
AcDbEntity
  8
0
  6
ByBlock
 62
     0
100
AcDbLine
 10
13.56938163590814
 20
9.340171341001436
 30
0.0
 11
13.81938163590814
 21
9.340171341001436
 31
0.0
  0
LINE
  5
40
330
23
100
AcDbEntity
  8
0
  6
ByBlock
 62
     0
100
AcDbLine
 10
11.97563163590814
 20
9.215171341001436
 30
0.0
 11
12.22563163590814
 21
9.465171341001436
 31
0.0
  0
LINE
  5
41
330
23
100
AcDbEntity
  8
0
  6
ByBlock
 62
     0
100
AcDbLine
 10
13.44438163590814
 20
9.215171341001436
 30
0.0
 11
13.69438163590814
 21
9.465171341001436
 31
0.0
  0
TEXT
  5
42
330
23
100
AcDbEntity
  8
0
  6
ByBlock
 62
     0
100
AcDbText
 10
13.94438163590814
 20
9.277671341001436
 30
0.0
 40
0.125
  1
1 15/32
 72
     1
 11
14.31938163590814
 21
9.340171341001436
 31
0.0
100
AcDbText
 73
     2
  0
POINT
  5
43
330
23
100
AcDbEntity
  8
DEFPOINTS
  6
ByBlock
 62
     0
100
AcDbPoint
 10
12.10063163590814
 20
8.935783549978761
 30
0.0
  0
POINT
  5
44
330
23
100
AcDbEntity
  8
DEFPOINTS
  6
ByBlock
 62
     0
100
AcDbPoint
 10
13.56938163590814
 20
8.935783549978761
 30
0.0
  0
POINT
  5
45
330
23
100
AcDbEntity
  8
DEFPOINTS
  6
ByBlock
 62
     0
100
AcDbPoint
 10
13.56938163590814
 20
9.340171341001436
 30
0.0
  0
ENDBLK
  5
46
330
23
100
AcDbEntity
  8
0
100
AcDbBlockEnd
  0
BLOCK
  5
23D
330
232
100
AcDbEntity
  8
0
 62
     3
100
AcDbBlockBegin
  2
*D2
 70
     1
 10
0.0
 20
0.0
 30
0.0
  3
*D2
  1

  0
LINE
  5
257
330
232
100
AcDbEntity
  8
ADPDIM
 62
     0
370
    -2
100
AcDbLine
 10
13.59933650988798
 20
7.532162554337974
 30
0.0
 11
14.20951585165958
 21
7.532162554337973
 31
0.0
  0
LINE
  5
258
330
232
100
AcDbEntity
  8
ADPDIM
 62
     0
370
    -2
100
AcDbLine
 10
13.59933650988798
 20
9.032162554337974
 30
0.0
 11
14.20951585165958
 21
9.032162554337974
 31
0.0
  0
LINE
  5
259
330
232
100
AcDbEntity
  8
ADPDIM
 62
     0
370
    -2
100
AcDbLine
 10
14.02951585165958
 20
7.532162554337973
 30
0.0
 11
14.02951585165958
 21
7.907162554337974
 31
0.0
  0
LINE
  5
25A
330
232
100
AcDbEntity
  8
ADPDIM
 62
     0
370
    -2
100
AcDbLine
 10
14.02951585165958
 20
9.032162554337974
 30
0.0
 11
14.02951585165958
 21
8.657162554337974
 31
0.0
  0
LINE
  5
25B
330
232
100
AcDbEntity
  8
ADPDIM
 62
     0
370
    -2
100
AcDbLine
 10
14.15451585165958
 20
8.907162554337974
 30
0.0
 11
13.90451585165958
 21
9.157162554337974
 31
0.0
  0
LINE
  5
25C
330
232
100
AcDbEntity
  8
ADPDIM
 62
     0
370
    -2
100
AcDbLine
 10
14.15451585165958
 20
7.407162554337973
 30
0.0
 11
13.90451585165958
 21
7.657162554337974
 31
0.0
  0
MTEXT
  5
25D
330
232
100
AcDbEntity
  8
ADPDIM
 62
     0
100
AcDbMText
 10
14.02951585165958
 20
8.282162554337977
 30
0.0
 40
0.125
 41
0.0
 71
     5
 72
     1
  1
\A1;1 1/2
 11
0.0000000000000001
 21
1.0
 31
0.0
 73
     1
 44
1.0
1001
ACAD
1000
MTEXTBEGIN
1070
    73
1070
     1
1070
    44
1040
1.0
1070
    74
1070
     0
1000
MTEXTEND
  0
POINT
  5
25E
330
232
100
AcDbEntity
  8
DEFPOINTS
 62
     0
100
AcDbPoint
 10
13.53683650988798
 20
7.532162554337974
 30
0.0
  0
POINT
  5
25F
330
232
100
AcDbEntity
  8
DEFPOINTS
 62
     0
100
AcDbPoint
 10
13.53683650988798
 20
9.032162554337974
 30
0.0
  0
POINT
  5
260
330
232
100
AcDbEntity
  8
DEFPOINTS
 62
     0
100
AcDbPoint
 10
14.02951585165958
 20
9.032162554337974
 30
0.0
  0
ENDBLK
  5
23E
330
232
100
AcDbEntity
  8
0
 62
     3
100
AcDbBlockEnd
  0
BLOCK
  5
24B
330
240
100
AcDbEntity
  8
0
 62
     3
100
AcDbBlockBegin
  2
*D3
 70
     1
 10
0.0
 20
0.0
 30
0.0
  3
*D3
  1

  0
LINE
  5
24D
330
240
100
AcDbEntity
  8
ADPDIM
 62
     0
370
    -2
100
AcDbLine
 10
13.56687793221886
 20
9.006910660107305
 30
0.0
 11
13.56687793221886
 21
9.593156840469141
 31
0.0
  0
LINE
  5
24E
330
240
100
AcDbEntity
  8
ADPDIM
 62
     0
370
    -2
100
AcDbLine
 10
12.12937793221886
 20
9.006910660107305
 30
0.0
 11
12.12937793221886
 21
9.593156840469141
 31
0.0
  0
LINE
  5
24F
330
240
100
AcDbEntity
  8
ADPDIM
 62
     0
370
    -2
100
AcDbLine
 10
13.56687793221886
 20
9.413156840469142
 30
0.0
 11
13.28562793221886
 21
9.413156840469142
 31
0.0
  0
LINE
  5
250
330
240
100
AcDbEntity
  8
ADPDIM
 62
     0
370
    -2
100
AcDbLine
 10
12.12937793221886
 20
9.413156840469142
 30
0.0
 11
12.41062793221886
 21
9.413156840469142
 31
0.0
  0
LINE
  5
251
330
240
100
AcDbEntity
  8
ADPDIM
 62
     0
370
    -2
100
AcDbLine
 10
12.00437793221886
 20
9.288156840469142
 30
0.0
 11
12.25437793221886
 21
9.538156840469142
 31
0.0
  0
LINE
  5
252
330
240
100
AcDbEntity
  8
ADPDIM
 62
     0
370
    -2
100
AcDbLine
 10
13.44187793221886
 20
9.288156840469142
 30
0.0
 11
13.69187793221886
 21
9.538156840469142
 31
0.0
  0
MTEXT
  5
253
330
240
100
AcDbEntity
  8
ADPDIM
 62
     0
100
AcDbMText
 10
12.84812793221886
 20
9.413156840469142
 30
0.0
 40
0.125
 41
0.0
 71
     5
 72
     1
  1
\A1;1 7/16
 73
     1
 44
1.0
1001
ACAD
1000
MTEXTBEGIN
1070
    73
1070
     1
1070
    44
1040
1.0
1070
    74
1070
     0
1000
MTEXTEND
  0
POINT
  5
254
330
240
100
AcDbEntity
  8
DEFPOINTS
 62
     0
100
AcDbPoint
 10
13.56687793221886
 20
8.944410660107305
 30
0.0
  0
POINT
  5
255
330
240
100
AcDbEntity
  8
DEFPOINTS
 62
     0
100
AcDbPoint
 10
12.12937793221886
 20
8.944410660107305
 30
0.0
  0
POINT
  5
256
330
240
100
AcDbEntity
  8
DEFPOINTS
 62
     0
100
AcDbPoint
 10
12.12937793221886
 20
9.413156840469142
 30
0.0
  0
ENDBLK
  5
24C
330
240
100
AcDbEntity
  8
0
 62
     3
100
AcDbBlockEnd
  0
ENDSEC
  0
SECTION
  2
ENTITIES
  0
LWPOLYLINE
  5
48
330
1E
100
AcDbEntity
  8
ADP1DETAIL
100
AcDbPolyline
 90
        8
 70
     1
 43
0.0
 10
12.10063163590814
 20
7.592033549978761
 10
12.10063163590814
 20
8.935783549978761
 42
-0.4142135623730951
 10
12.16313163590814
 20
8.998283549978761
 10
13.50688163590814
 20
8.998283549978761
 42
-0.4142135623730951
 10
13.56938163590814
 20
8.935783549978761
 10
13.56938163590814
 20
7.592033549978761
 42
-0.4142135623730951
 10
13.50688163590814
 20
7.529533549978761
 10
12.16313163590814
 20
7.529533549978761
 42
-0.4142135623730951
  0
LWPOLYLINE
  5
52
330
1E
100
AcDbEntity
  8
ADP2DETAIL
  6
HIDDEN2
100
AcDbPolyline
 90
        8
 70
     1
 43
0.0
 10
12.22563163590814
 20
7.684533549978763
 10
12.22563163590814
 20
8.84328354997876
 42
-0.4142135623730939
 10
12.25563163590815
 20
8.87328354997876
 10
13.41438163590815
 20
8.873283549978761
 42
-0.4142135623730964
 10
13.44438163590814
 20
8.84328354997876
 10
13.44438163590814
 20
7.684533549978762
 42
-0.4142135623730946
 10
13.41438163590814
 20
7.654533549978761
 10
12.25563163590814
 20
7.654533549978762
 42
-0.4142135623730956
  0
LINE
  5
5C
330
1E
100
AcDbEntity
  8
ADP1DETAIL
100
AcDbLine
 10
14.93042143645452
 20
7.692198445672956
 30
0.0
 11
14.93042143645452
 21
8.831647880518795
 31
0.0
  0
LINE
  5
5D
330
1E
100
AcDbEntity
  8
ADP2DETAIL
  6
HIDDEN2
100
AcDbLine
 10
14.60200152485088
 20
7.723448445672956
 30
0.0
 11
14.60200152485088
 21
8.804368654284568
 31
0.0
  0
ARC
  5
5E
330
1E
100
AcDbEntity
  8
ADP1DETAIL
100
AcDbCircle
 10
14.16430568513874
 20
8.78708713330953
 30
0.0
 40
0.6296294546398661
100
AcDbArc
 50
330.4540352126153
 51
359.0027588831186
  0
LINE
  5
5F
330
1E
100
AcDbEntity
  8
ADP1DETAIL
100
AcDbLine
 10
15.12705783303765
 20
7.752198445672956
 30
0.0
 11
15.12705783303764
 21
8.775618654284567
 31
0.0
  0
LINE
  5
60
330
1E
100
AcDbEntity
  8
ADP1DETAIL
100
AcDbLine
 10
15.22705783303765
 20
7.562671535984287
 30
0.0
 11
15.22705783303764
 21
8.965145563973237
 31
0.0
  0
LINE
  5
61
330
1E
100
AcDbEntity
  8
ADP1DETAIL
100
AcDbLine
 10
14.44575152485088
 20
8.929368654284569
 30
0.0
 11
14.44575152485088
 21
7.598448445672954
 31
0.0
  0
LINE
  5
62
330
1E
100
AcDbEntity
  8
ADP1DETAIL
100
AcDbLine
 10
11.94438163590814
 20
7.592033549978761
 30
0.0
 11
11.94438163590814
 21
8.935783549978761
 31
0.0
  0
LINE
  5
63
330
1E
100
AcDbEntity
  8
ADP2DETAIL
  6
HIDDEN2
100
AcDbLine
 10
12.31938163590814
 20
7.529533549978761
 30
0.0
 11
12.31938163590815
 21
8.998283549978761
 31
0.0
  0
LINE
  5
64
330
1E
100
AcDbEntity
  8
ADP2DETAIL
  6
HIDDEN2
100
AcDbLine
 10
14.7937850398714
 20
7.692198445672956
 30
0.0
 11
14.63325152485088
 21
7.692198445672956
 31
0.0
  0
ARC
  5
65
330
1E
100
AcDbEntity
  8
ADP1DETAIL
100
AcDbCircle
 10
14.16430568513874
 20
7.696650175259605
 30
0.0
 40
0.6296294546398661
100
AcDbArc
 50
0.9972411168813977
 51
29.54596478738473
  0
LINE
  5
66
330
1E
100
AcDbEntity
  8
ADP1DETAIL
100
AcDbLine
 10
14.85603090534514
 20
7.535948445672956
 30
0.0
 11
14.50825152485088
 21
7.535948445672954
 31
0.0
  0
ARC
  5
67
330
1E
100
AcDbEntity
  8
ADP1DETAIL
100
AcDbCircle
 10
15.04362847852167
 20
8.241868654284568
 30
0.0
 40
0.40625
100
AcDbArc
 50
180.0
 51
215.2965290810944
  0
ARC
  5
68
330
1E
100
AcDbEntity
  8
ADP2DETAIL
  6
HIDDEN2
100
AcDbCircle
 10
14.63325152485088
 20
7.723448445672956
 30
0.0
 40
0.03125
100
AcDbArc
 50
180.0
 51
270.0000000000003
  0
ARC
  5
69
330
1E
100
AcDbEntity
  8
ADP1DETAIL
100
AcDbCircle
 10
14.50825152485088
 20
7.598448445672954
 30
0.0
 40
0.0625
100
AcDbArc
 50
180.0
 51
270.0
  0
ARC
  5
6A
330
1E
100
AcDbEntity
  8
ADP1DETAIL
100
AcDbCircle
 10
15.04362847852167
 20
8.241868654284568
 30
0.0
 40
0.40625
100
AcDbArc
 50
144.7034709189056
 51
180.0
  0
ARC
  5
6B
330
1E
100
AcDbEntity
  8
ADP1DETAIL
100
AcDbCircle
 10
15.06705783303765
 20
7.752198445672956
 30
0.0
 40
0.06
100
AcDbArc
 50
270.0
 51
0.0000000000000763
  0
ARC
  5
6C
330
1E
100
AcDbEntity
  8
ADP1DETAIL
100
AcDbCircle
 10
15.30567859553037
 20
7.325355763847114
 30
0.0
 40
0.2500000000000005
100
AcDbArc
 50
108.3296088212996
 51
148.9584254643491
  0
ARC
  5
6D
330
1E
100
AcDbEntity
  8
ADP1DETAIL
100
AcDbCircle
 10
14.97700152485088
 20
7.504466558556722
 30
0.0
 40
0.125
100
AcDbArc
 50
165.4126855417429
 51
336.3238531733126
  0
LINE
  5
6E
330
1E
100
AcDbEntity
  8
ADP1DETAIL
100
AcDbLine
 10
15.06705783303765
 20
7.692198445672956
 30
0.0
 11
14.7937850398714
 21
7.692198445672956
 31
0.0
  0
LINE
  5
6F
330
1E
100
AcDbEntity
  8
ADP1DETAIL
100
AcDbLine
 10
14.85603090534514
 20
7.491868654284568
 30
0.0
 11
14.85603090534514
 21
7.63151503527362
 31
0.0
  0
LINE
  5
70
330
1E
100
AcDbEntity
  8
ADP1DETAIL
100
AcDbLine
 10
14.85603090534514
 20
7.63151503527362
 30
0.0
 11
14.79362847852167
 21
7.648235715146713
 31
0.0
  0
LINE
  5
71
330
1E
100
AcDbEntity
  8
ADP1DETAIL
100
AcDbLine
 10
14.79362847852167
 20
7.648118654284568
 30
0.0
 11
14.79383977254933
 21
7.707608411349735
 31
0.0
  0
ARC
  5
72
330
1E
100
AcDbEntity
  8
ADP1DETAIL
100
AcDbCircle
 10
12.16313163590814
 20
7.592033549978761
 30
0.0
 40
0.21875
100
AcDbArc
 50
180.0
 51
270.0
  0
LINE
  5
73
330
1E
100
AcDbEntity
  8
ADP1DETAIL
100
AcDbLine
 10
12.31938163590814
 20
7.373283549978761
 30
0.0
 11
12.16313163590814
 21
7.373283549978761
 31
0.0
  0
LINE
  5
74
330
1E
100
AcDbEntity
  8
ADP1DETAIL
100
AcDbLine
 10
12.31938163590814
 20
7.373283549978761
 30
0.0
 11
12.31938163590814
 21
7.529533549978761
 31
0.0
  0
LINE
  5
75
330
1E
100
AcDbEntity
  8
ADP2DETAIL
  6
HIDDEN2
100
AcDbLine
 10
14.85015467894426
 20
8.835618654284568
 30
0.0
 11
14.63325152485088
 21
8.835618654284568
 31
0.0
  0
LINE
  5
76
330
1E
100
AcDbEntity
  8
ADP1DETAIL
100
AcDbLine
 10
14.85603090534514
 20
8.991868654284568
 30
0.0
 11
14.50825152485088
 21
8.991868654284569
 31
0.0
  0
ARC
  5
77
330
1E
100
AcDbEntity
  8
ADP2DETAIL
  6
HIDDEN2
100
AcDbCircle
 10
14.63325152485088
 20
8.804368654284568
 30
0.0
 40
0.03125
100
AcDbArc
 50
89.99999999999969
 51
180.0
  0
ARC
  5
78
330
1E
100
AcDbEntity
  8
ADP1DETAIL
100
AcDbCircle
 10
14.50825152485088
 20
8.929368654284569
 30
0.0
 40
0.0625
100
AcDbArc
 50
90.00000000000003
 51
180.0
  0
ARC
  5
79
330
1E
100
AcDbEntity
  8
ADP1DETAIL
100
AcDbCircle
 10
15.06705783303764
 20
8.775618654284567
 30
0.0
 40
0.06
100
AcDbArc
 50
0.0000000000000509
 51
90.0
  0
ARC
  5
7A
330
1E
100
AcDbEntity
  8
ADP1DETAIL
100
AcDbCircle
 10
14.97700152485088
 20
9.023350541400802
 30
0.0
 40
0.125
100
AcDbArc
 50
23.67614682668737
 51
194.587314458257
  0
ARC
  5
7B
330
1E
100
AcDbEntity
  8
ADP1DETAIL
100
AcDbCircle
 10
15.30567859553037
 20
9.20246133611041
 30
0.0
 40
0.2500000000000005
100
AcDbArc
 50
211.0415745356509
 51
251.6703911787004
  0
LINE
  5
7C
330
1E
100
AcDbEntity
  8
ADP1DETAIL
100
AcDbLine
 10
15.06705783303764
 20
8.835618654284568
 30
0.0
 11
14.79362847852167
 21
8.835618654284568
 31
0.0
  0
LINE
  5
7D
330
1E
100
AcDbEntity
  8
ADP1DETAIL
100
AcDbLine
 10
14.85603090534514
 20
8.991868654284568
 30
0.0
 11
14.85603090534514
 21
8.852222273295515
 31
0.0
  0
LINE
  5
7E
330
1E
100
AcDbEntity
  8
ADP1DETAIL
100
AcDbLine
 10
14.79362847852167
 20
8.835618654284568
 30
0.0
 11
14.79383977254933
 21
8.7761288972194
 31
0.0
  0
LINE
  5
7F
330
1E
100
AcDbEntity
  8
ADP1DETAIL
100
AcDbLine
 10
14.85603090534514
 20
8.852222273295515
 30
0.0
 11
14.79362847852167
 21
8.835501593422423
 31
0.0
  0
ARC
  5
80
330
1E
100
AcDbEntity
  8
ADP1DETAIL
100
AcDbCircle
 10
12.16313163590814
 20
8.935783549978761
 30
0.0
 40
0.21875
100
AcDbArc
 50
90.0
 51
179.9999999999998
  0
LINE
  5
81
330
1E
100
AcDbEntity
  8
ADP1DETAIL
100
AcDbLine
 10
12.16313163590814
 20
9.154533549978761
 30
0.0
 11
12.31938163590814
 21
9.154533549978761
 31
0.0
  0
LINE
  5
82
330
1E
100
AcDbEntity
  8
ADP1DETAIL
100
AcDbLine
 10
12.31938163590815
 20
8.998283549978761
 30
0.0
 11
12.31938163590814
 21
9.154533549978761
 31
0.0
  0
TEXT
  5
87
330
1E
100
AcDbEntity
  8
ADPDIM
100
AcDbText
 10
8.830480695770843
 20
6.087556188362965
 30
0.0
 40
0.09375
  1
J U L I U S  B L U M  &  C O . ,  I N C .      ( 8 0 0 )  5 2 6 - 6 2 9 3        W W W . J U L I U S B L U M . C O M        P A R T  N o .  4 4 2 9 - U
 41
1.25
  7
ARIAL_WIDE
 72
     1
 11
13.85663338591409
 21
6.181306188362965
 31
0.0
100
AcDbText
 73
     3
  0
DIMENSION
  5
231
330
1E
100
AcDbEntity
  8
ADPDIM
 62
     3
100
AcDbDimension
  2
*D2
 10
14.02951585165958
 20
9.032162554337974
 30
0.0
 11
14.02951585165958
 21
8.282162554337977
 31
0.0
 70
    32
 71
     5
 42
1.5
  3
Standard
100
AcDbAlignedDimension
 13
13.53683650988798
 23
7.532162554337974
 33
0.0
 14
13.53683650988798
 24
9.032162554337974
 34
0.0
 50
90.0
100
AcDbRotatedDimension
1001
ACAD
1000
DSTYLE
1002
{
1070
   276
1070
     2
1070
    41
1040
0.125
1070
    73
1070
     0
1070
    74
1070
     0
1070
    78
1070
     3
1070
   140
1040
0.125
1070
   141
1040
0.1875
1070
   142
1040
0.125
1070
   147
1040
0.125
1070
   171
1070
     1
1070
   271
1070
     5
1070
   272
1070
     5
1070
   273
1070
     5
1070
   274
1070
     1
1070
   277
1070
     5
1070
   279
1070
     2
1070
   284
1070
     3
1070
   285
1070
     3
1070
   286
1070
     3
1002
}
  0
DIMENSION
  5
23F
330
1E
100
AcDbEntity
  8
ADPDIM
 62
     3
100
AcDbDimension
  2
*D3
 10
12.12937793221886
 20
9.413156840469142
 30
0.0
 11
12.84812793221886
 21
9.413156840469142
 31
0.0
 70
    32
 71
     5
 42
1.4375
  3
Standard
100
AcDbAlignedDimension
 13
13.56687793221886
 23
8.944410660107305
 33
0.0
 14
12.12937793221886
 24
8.944410660107305
 34
0.0
100
AcDbRotatedDimension
1001
ACAD
1000
DSTYLE
1002
{
1070
   276
1070
     2
1070
    41
1040
0.125
1070
    73
1070
     0
1070
    74
1070
     0
1070
    78
1070
     3
1070
   140
1040
0.125
1070
   141
1040
0.1875
1070
   142
1040
0.125
1070
   147
1040
0.125
1070
   171
1070
     1
1070
   271
1070
     5
1070
   272
1070
     5
1070
   273
1070
     5
1070
   274
1070
     1
1070
   277
1070
     5
1070
   279
1070
     2
1070
   284
1070
     3
1070
   285
1070
     3
1070
   286
1070
     3
1002
}
  0
ENDSEC
  0
SECTION
  2
OBJECTS
  0
DICTIONARY
  5
C
330
0
100
AcDbDictionary
281
     1
  3
ACAD_COLOR
350
22B
  3
ACAD_GROUP
350
D
  3
ACAD_LAYOUT
350
19
  3
ACAD_MATERIAL
350
216
  3
ACAD_MLINESTYLE
350
16
  3
ACAD_PLOTSETTINGS
350
18
  3
ACAD_PLOTSTYLENAME
350
E
  3
ACAD_TABLESTYLE
350
22C
  3
ACAD_VISUALSTYLE
350
21A
  3
AcDbVariableDictionary
350
F8
  3
ASE_INDEX_DICTIONARY
350
262
  3
DWGPROPS
350
284
  0
DICTIONARY
  5
C3
330
1E
100
AcDbDictionary
280
     1
281
     1
  3
ACAD_LAYOUTSELFREF
360
212
  0
DICTIONARY
  5
C5
330
1A
100
AcDbDictionary
280
     1
281
     1
  3
ACAD_LAYOUTSELFREF
360
211
  0
DICTIONARY
  5
22B
102
{ACAD_REACTORS
330
C
102
}
330
C
100
AcDbDictionary
281
     1
  0
DICTIONARY
  5
D
102
{ACAD_REACTORS
330
C
102
}
330
C
100
AcDbDictionary
281
     1
  0
DICTIONARY
  5
19
102
{ACAD_REACTORS
330
C
102
}
330
C
100
AcDbDictionary
281
     1
  3
Layout1
350
1D
  3
Model
350
21
  0
DICTIONARY
  5
216
102
{ACAD_REACTORS
330
C
102
}
330
C
100
AcDbDictionary
281
     1
  3
ByBlock
350
218
  3
ByLayer
350
217
  3
Global
350
219
  0
DICTIONARY
  5
16
102
{ACAD_REACTORS
330
C
102
}
330
C
100
AcDbDictionary
281
     1
  3
Standard
350
17
  0
DICTIONARY
  5
18
102
{ACAD_REACTORS
330
C
102
}
330
C
100
AcDbDictionary
281
     1
  0
ACDBDICTIONARYWDFLT
  5
E
102
{ACAD_REACTORS
330
C
102
}
330
C
100
AcDbDictionary
281
     1
  3
Normal
350
F
100
AcDbDictionaryWithDefault
340
F
  0
DICTIONARY
  5
22C
102
{ACAD_REACTORS
330
C
102
}
330
C
100
AcDbDictionary
281
     1
  3
Standard
350
22D
  0
DICTIONARY
  5
21A
102
{ACAD_REACTORS
330
C
102
}
330
C
100
AcDbDictionary
281
     1
  3
2dWireframe
350
220
  3
3D Hidden
350
222
  3
3dWireframe
350
221
  3
Basic
350
21F
  3
Brighten
350
226
  3
ColorChange
350
22A
  3
Conceptual
350
223
  3
Dim
350
225
  3
Facepattern
350
229
  3
Flat
350
21B
  3
FlatWithEdges
350
21C
  3
Gouraud
350
21D
  3
GouraudWithEdges
350
21E
  3
Linepattern
350
228
  3
Realistic
350
224
  3
Thicken
350
227
  0
DICTIONARY
  5
F8
102
{ACAD_REACTORS
330
C
102
}
330
C
100
AcDbDictionary
281
     1
  3
CTABLESTYLE
350
281
  3
DIMASSOC
350
FA
  3
HIDETEXT
350
F9
  3
INDEXCTL
350
283
  3
SORTENTS
350
282
  0
DICTIONARY
  5
262
102
{ACAD_REACTORS
330
C
102
}
330
C
100
AcDbDictionary
281
     1
  3
ASEBlockHierarchyIndexRecord
350
264
1001
DCO15
1040
1569093638.854
  0
XRECORD
  5
284
102
{ACAD_REACTORS
330
C
102
}
330
C
100
AcDbXrecord
280
     1
  1
DWGPROPS COOKIE
  2

  3

  4

  6

  7

  8
Yu Hu
  9

300
=
301
=
302
=
303
=
304
=
305
=
306
=
307
=
308
=
309
=
 40
0.092845
 41
2450368.567073496
 42
2453964.017857106
  1

 90
        0
  0
XRECORD
  5
212
102
{ACAD_REACTORS
330
C3
102
}
330
C3
100
AcDbXrecord
280
     1
340
1E
  0
XRECORD
  5
211
102
{ACAD_REACTORS
330
C5
102
}
330
C5
100
AcDbXrecord
280
     1
340
1A
  0
LAYOUT
  5
1D
102
{ACAD_XDICTIONARY
360
285
102
}
102
{ACAD_REACTORS
330
19
102
}
330
19
100
AcDbPlotSettings
  1

  2
Fax
  4

  6

 40
0.0
 41
0.0
 42
0.0
 43
0.0
 44
0.0
 45
0.0
 46
0.0
 47
0.0
 48
0.0
 49
0.0
140
0.0
141
0.0
142
1.0
143
1.0
 70
   688
 72
     0
 73
     0
 74
     5
  7
Default R14 pen assignments.ctb
 75
    16
147
1.0
148
0.0
149
0.0
100
AcDbLayout
  1
Layout1
 70
     1
 71
     1
 10
0.0
 20
0.0
 11
12.0
 21
9.0
 12
0.1250035762786868
 22
0.0
 32
0.0
 14
1.000000000000000E+20
 24
1.000000000000000E+20
 34
1.000000000000000E+20
 15
-1.000000000000000E+20
 25
-1.000000000000000E+20
 35
-1.000000000000000E+20
146
0.0
 13
0.0
 23
0.0
 33
0.0
 16
1.0
 26
0.0
 36
0.0
 17
0.0
 27
1.0
 37
0.0
 76
     0
330
1A
  0
LAYOUT
  5
21
102
{ACAD_XDICTIONARY
360
287
102
}
102
{ACAD_REACTORS
330
19
102
}
330
19
100
AcDbPlotSettings
  1

  2
Fax
  4

  6

 40
0.0
 41
0.0
 42
0.0
 43
0.0
 44
0.0
 45
0.0
 46
0.0
 47
0.0
 48
0.0
 49
0.0
140
0.0
141
0.0
142
1.0
143
1.0
 70
  1712
 72
     0
 73
     0
 74
     0
  7
Default R14 pen assignments.ctb
 75
     0
147
1.0
148
0.0
149
0.0
100
AcDbLayout
  1
Model
 70
     1
 71
     0
 10
0.0
 20
0.0
 11
12.0
 21
9.0
 12
0.0
 22
0.0
 32
0.0
 14
0.0
 24
0.0
 34
0.0
 15
0.0
 25
0.0
 35
0.0
146
0.0
 13
0.0
 23
0.0
 33
0.0
 16
1.0
 26
0.0
 36
0.0
 17
0.0
 27
1.0
 37
0.0
 76
     0
330
1E
331
1DF
  0
MATERIAL
  5
218
102
{ACAD_XDICTIONARY
360
28B
102
}
102
{ACAD_REACTORS
330
216
102
}
330
216
100
AcDbMaterial
  1
ByBlock
  0
MATERIAL
  5
217
102
{ACAD_XDICTIONARY
360
289
102
}
102
{ACAD_REACTORS
330
216
102
}
330
216
100
AcDbMaterial
  1
ByLayer
  0
MATERIAL
  5
219
102
{ACAD_XDICTIONARY
360
28D
102
}
102
{ACAD_REACTORS
330
216
102
}
330
216
100
AcDbMaterial
  1
Global
  0
MLINESTYLE
  5
17
102
{ACAD_REACTORS
330
16
102
}
330
16
100
AcDbMlineStyle
  2
STANDARD
 70
     0
  3

 62
   256
 51
90.0
 52
90.0
 71
     2
 49
0.5
 62
   256
  6
BYLAYER
 49
-0.5
 62
   256
  6
BYLAYER
  0
ACDBPLACEHOLDER
  5
F
102
{ACAD_REACTORS
330
E
102
}
330
E
  0
TABLESTYLE
  5
22D
102
{ACAD_XDICTIONARY
360
28F
102
}
102
{ACAD_REACTORS
330
22C
102
}
330
22C
100
AcDbTableStyle
  3
Standard
 70
     0
 71
     0
 40
0.06
 41
0.06
280
     0
281
     0
  7
STANDARD
140
0.18
170
     2
 62
     0
 63
     7
283
     0
274
    -2
284
     1
 64
     0
275
    -2
285
     1
 65
     0
276
    -2
286
     1
 66
     0
277
    -2
287
     1
 67
     0
278
    -2
288
     1
 68
     0
279
    -2
289
     1
 69
     0
  7
STANDARD
140
0.25
170
     5
 62
     0
 63
     7
283
     0
274
    -2
284
     1
 64
     0
275
    -2
285
     1
 65
     0
276
    -2
286
     1
 66
     0
277
    -2
287
     1
 67
     0
278
    -2
288
     1
 68
     0
279
    -2
289
     1
 69
     0
  7
STANDARD
140
0.18
170
     5
 62
     0
 63
     7
283
     0
274
    -2
284
     1
 64
     0
275
    -2
285
     1
 65
     0
276
    -2
286
     1
 66
     0
277
    -2
287
     1
 67
     0
278
    -2
288
     1
 68
     0
279
    -2
289
     1
 69
     0
  0
VISUALSTYLE
  5
220
102
{ACAD_REACTORS
330
21A
102
}
330
21A
100
AcDbVisualStyle
  2
2dWireframe
 70
     4
 71
     0
 72
     2
 73
     0
 90
        0
 40
-0.6
 41
-30.0
 62
     5
 63
     7
 74
     1
 91
        4
 64
     7
 65
   257
 75
     1
175
     1
 42
1.0
 92
        0
 66
   257
 43
1.0
 76
     1
 77
     6
 78
     2
 67
     7
 79
     5
170
     0
171
     0
290
     0
174
     0
 93
        1
 44
0.0
173
     0
291
     0
 45
0.0
1001
ACAD
1000
AcDbSavedByObjectVersion
1070
     0
  0
VISUALSTYLE
  5
222
102
{ACAD_REACTORS
330
21A
102
}
330
21A
100
AcDbVisualStyle
  2
3D Hidden
 70
     6
 71
     1
 72
     2
 73
     2
 90
        0
 40
-0.6
 41
-30.0
 62
     5
 63
     7
 74
     2
 91
        2
 64
     7
 65
   257
 75
     2
175
     1
 42
40.0
 92
        0
 66
   257
 43
1.0
 76
     1
 77
     6
 78
     2
 67
     7
 79
     3
170
     0
171
     0
290
     0
174
     0
 93
        1
 44
0.0
173
     0
291
     0
 45
0.0
1001
ACAD
1000
AcDbSavedByObjectVersion
1070
     0
  0
VISUALSTYLE
  5
221
102
{ACAD_REACTORS
330
21A
102
}
330
21A
100
AcDbVisualStyle
  2
3dWireframe
 70
     5
 71
     0
 72
     2
 73
     0
 90
        0
 40
-0.6
 41
-30.0
 62
     5
 63
     7
 74
     1
 91
        4
 64
     7
 65
   257
 75
     1
175
     1
 42
1.0
 92
        0
 66
   257
 43
1.0
 76
     1
 77
     6
 78
     2
 67
     7
 79
     5
170
     0
171
     0
290
     0
174
     0
 93
        1
 44
0.0
173
     0
291
     0
 45
0.0
1001
ACAD
1000
AcDbSavedByObjectVersion
1070
     0
  0
VISUALSTYLE
  5
21F
102
{ACAD_REACTORS
330
21A
102
}
330
21A
100
AcDbVisualStyle
  2
Basic
 70
     7
 71
     1
 72
     0
 73
     1
 90
        0
 40
-0.6
 41
-30.0
 62
     5
 63
     7
 74
     0
 91
        4
 64
     7
 65
   257
 75
     1
175
     1
 42
1.0
 92
        8
 66
     7
 43
1.0
 76
     1
 77
     6
 78
     2
 67
     7
 79
     5
170
     0
171
     0
290
     0
174
     0
 93
        1
 44
0.0
173
     0
291
     1
 45
0.0
1001
ACAD
1000
AcDbSavedByObjectVersion
1070
     0
  0
VISUALSTYLE
  5
226
102
{ACAD_REACTORS
330
21A
102
}
330
21A
100
AcDbVisualStyle
  2
Brighten
 70
    12
 71
     2
 72
     2
 73
     0
 90
        0
 40
-0.6
 41
-30.0
 62
     5
 63
     7
 74
     1
 91
        4
 64
     7
 65
   257
 75
     1
175
     1
 42
1.0
 92
        8
 66
     7
 43
1.0
 76
     1
 77
     6
 78
     2
 67
     7
 79
     5
170
     0
171
     0
290
     0
174
     0
 93
        1
 44
50.0
173
     0
291
     1
 45
0.0
1001
ACAD
1000
AcDbSavedByObjectVersion
1070
     0
  0
VISUALSTYLE
  5
22A
102
{ACAD_REACTORS
330
21A
102
}
330
21A
100
AcDbVisualStyle
  2
ColorChange
 70
    16
 71
     2
 72
     2
 73
     3
 90
        0
 40
-0.6
 41
-30.0
 62
     5
 63
     8
 74
     1
 91
        4
 64
     7
 65
   257
 75
     1
175
     1
 42
1.0
 92
        8
 66
     8
 43
1.0
 76
     1
 77
     6
 78
     2
 67
     7
 79
     5
170
     0
171
     0
290
     0
174
     0
 93
        1
 44
0.0
173
     0
291
     1
 45
0.0
1001
ACAD
1000
AcDbSavedByObjectVersion
1070
     0
  0
VISUALSTYLE
  5
223
102
{ACAD_REACTORS
330
21A
102
}
330
21A
100
AcDbVisualStyle
  2
Conceptual
 70
     9
 71
     3
 72
     2
 73
     0
 90
        0
 40
-0.6
 41
-30.0
 62
     5
 63
     7
 74
     2
 91
        2
 64
     7
 65
   257
 75
     1
175
     1
 42
40.0
 92
        8
 66
     7
 43
1.0
 76
     1
 77
     6
 78
     2
 67
     7
 79
     3
170
     0
171
     0
290
     0
174
     0
 93
        1
 44
0.0
173
     0
291
     0
 45
0.0
1001
ACAD
1000
AcDbSavedByObjectVersion
1070
     0
  0
VISUALSTYLE
  5
225
102
{ACAD_REACTORS
330
21A
102
}
330
21A
100
AcDbVisualStyle
  2
Dim
 70
    11
 71
     2
 72
     2
 73
     0
 90
        0
 40
-0.6
 41
-30.0
 62
     5
 63
     7
 74
     1
 91
        4
 64
     7
 65
   257
 75
     1
175
     1
 42
1.0
 92
        8
 66
     7
 43
1.0
 76
     1
 77
     6
 78
     2
 67
     7
 79
     5
170
     0
171
     0
290
     0
174
     0
 93
        1
 44
-50.0
173
     0
291
     1
 45
0.0
1001
ACAD
1000
AcDbSavedByObjectVersion
1070
     0
  0
VISUALSTYLE
  5
229
102
{ACAD_REACTORS
330
21A
102
}
330
21A
100
AcDbVisualStyle
  2
Facepattern
 70
    15
 71
     2
 72
     2
 73
     0
 90
        0
 40
-0.6
 41
-30.0
 62
     5
 63
     7
 74
     1
 91
        4
 64
     7
 65
   257
 75
     1
175
     1
 42
1.0
 92
        8
 66
     7
 43
1.0
 76
     1
 77
     6
 78
     2
 67
     7
 79
     5
170
     0
171
     0
290
     0
174
     0
 93
        1
 44
0.0
173
     0
291
     1
 45
0.0
1001
ACAD
1000
AcDbSavedByObjectVersion
1070
     0
  0
VISUALSTYLE
  5
21B
102
{ACAD_REACTORS
330
21A
102
}
330
21A
100
AcDbVisualStyle
  2
Flat
 70
     0
 71
     2
 72
     1
 73
     1
 90
        2
 40
-0.6
 41
30.0
 62
     5
 63
     7
 74
     0
 91
        4
 64
     7
 65
   257
 75
     1
175
     1
 42
1.0
 92
        8
 66
     7
 43
1.0
 76
     1
 77
     6
 78
     2
 67
     7
 79
     5
170
     0
171
     0
290
     0
174
     0
 93
       13
 44
0.0
173
     0
291
     1
 45
0.0
1001
ACAD
1000
AcDbSavedByObjectVersion
1070
     0
  0
VISUALSTYLE
  5
21C
102
{ACAD_REACTORS
330
21A
102
}
330
21A
100
AcDbVisualStyle
  2
FlatWithEdges
 70
     1
 71
     2
 72
     1
 73
     1
 90
        2
 40
-0.6
 41
30.0
 62
     5
 63
     7
 74
     1
 91
        4
 64
     7
 65
   257
 75
     1
175
     1
 42
1.0
 92
        0
 66
   257
 43
1.0
 76
     1
 77
     6
 78
     2
 67
     7
 79
     5
170
     0
171
     0
290
     0
174
     0
 93
       13
 44
0.0
173
     0
291
     1
 45
0.0
1001
ACAD
1000
AcDbSavedByObjectVersion
1070
     0
  0
VISUALSTYLE
  5
21D
102
{ACAD_REACTORS
330
21A
102
}
330
21A
100
AcDbVisualStyle
  2
Gouraud
 70
     2
 71
     2
 72
     2
 73
     1
 90
        2
 40
-0.6
 41
30.0
 62
     5
 63
     7
 74
     0
 91
        4
 64
     7
 65
   257
 75
     1
175
     1
 42
1.0
 92
        0
 66
     7
 43
1.0
 76
     1
 77
     6
 78
     2
 67
     7
 79
     5
170
     0
171
     0
290
     0
174
     0
 93
       13
 44
0.0
173
     0
291
     1
 45
0.0
1001
ACAD
1000
AcDbSavedByObjectVersion
1070
     0
  0
VISUALSTYLE
  5
21E
102
{ACAD_REACTORS
330
21A
102
}
330
21A
100
AcDbVisualStyle
  2
GouraudWithEdges
 70
     3
 71
     2
 72
     2
 73
     1
 90
        2
 40
-0.6
 41
30.0
 62
     5
 63
     7
 74
     1
 91
        4
 64
     7
 65
   257
 75
     1
175
     1
 42
1.0
 92
        0
 66
   257
 43
1.0
 76
     1
 77
     6
 78
     2
 67
     7
 79
     5
170
     0
171
     0
290
     0
174
     0
 93
       13
 44
0.0
173
     0
291
     1
 45
0.0
1001
ACAD
1000
AcDbSavedByObjectVersion
1070
     0
  0
VISUALSTYLE
  5
228
102
{ACAD_REACTORS
330
21A
102
}
330
21A
100
AcDbVisualStyle
  2
Linepattern
 70
    14
 71
     2
 72
     2
 73
     0
 90
        0
 40
-0.6
 41
-30.0
 62
     5
 63
     7
 74
     1
 91
        4
 64
     7
 65
   257
 75
     7
175
     7
 42
1.0
 92
        8
 66
     7
 43
1.0
 76
     1
 77
     6
 78
     2
 67
     7
 79
     5
170
     0
171
     0
290
     0
174
     0
 93
        1
 44
0.0
173
     0
291
     1
 45
0.0
1001
ACAD
1000
AcDbSavedByObjectVersion
1070
     0
  0
VISUALSTYLE
  5
224
102
{ACAD_REACTORS
330
21A
102
}
330
21A
100
AcDbVisualStyle
  2
Realistic
 70
     8
 71
     2
 72
     2
 73
     0
 90
        0
 40
-0.6
 41
-30.0
 62
     5
 63
     7
 74
     1
 91
        0
 64
     7
 65
   257
 75
     1
175
     1
 42
1.0
 92
        8
 66
     8
 43
1.0
 76
     1
 77
     6
 78
     2
 67
     7
 79
     5
170
     0
171
     0
290
     0
174
     0
 93
       13
 44
0.0
173
     0
291
     0
 45
0.0
1001
ACAD
1000
AcDbSavedByObjectVersion
1070
     0
  0
VISUALSTYLE
  5
227
102
{ACAD_REACTORS
330
21A
102
}
330
21A
100
AcDbVisualStyle
  2
Thicken
 70
    13
 71
     2
 72
     2
 73
     0
 90
        0
 40
-0.6
 41
-30.0
 62
     5
 63
     7
 74
     1
 91
        4
 64
     7
 65
   257
 75
     1
175
     1
 42
1.0
 92
       12
 66
     7
 43
1.0
 76
     1
 77
     6
 78
     2
 67
     7
 79
     5
170
     0
171
     0
290
     0
174
     0
 93
        1
 44
0.0
173
     0
291
     1
 45
0.0
1001
ACAD
1000
AcDbSavedByObjectVersion
1070
     0
  0
DICTIONARYVAR
  5
281
102
{ACAD_REACTORS
330
F8
102
}
330
F8
100
DictionaryVariables
280
     0
  1
STANDARD
  0
DICTIONARYVAR
  5
FA
102
{ACAD_REACTORS
330
F8
102
}
330
F8
100
DictionaryVariables
280
     0
  1
2
  0
DICTIONARYVAR
  5
F9
102
{ACAD_REACTORS
330
F8
102
}
330
F8
100
DictionaryVariables
280
     0
  1
1
  0
DICTIONARYVAR
  5
283
102
{ACAD_REACTORS
330
F8
102
}
330
F8
100
DictionaryVariables
280
     0
  1
0
  0
DICTIONARYVAR
  5
282
102
{ACAD_REACTORS
330
F8
102
}
330
F8
100
DictionaryVariables
280
     0
  1
127
  0
XRECORD
  5
264
102
{ACAD_REACTORS
330
262
102
}
330
262
100
AcDbXrecord
280
     1
  0
DICTIONARY
  5
285
330
1D
100
AcDbDictionary
280
     1
281
     1
  3
ACAD_XREC_ROUNDTRIP
360
286
  0
DICTIONARY
  5
287
330
21
100
AcDbDictionary
280
     1
281
     1
  3
ACAD_XREC_ROUNDTRIP
360
288
  0
DICTIONARY
  5
28B
330
218
100
AcDbDictionary
280
     1
281
     1
  3
ACAD_XREC_ROUNDTRIP
360
28C
  0
DICTIONARY
  5
289
330
217
100
AcDbDictionary
280
     1
281
     1
  3
ACAD_XREC_ROUNDTRIP
360
28A
  0
DICTIONARY
  5
28D
330
219
100
AcDbDictionary
280
     1
281
     1
  3
ACAD_XREC_ROUNDTRIP
360
28E
  0
DICTIONARY
  5
28F
330
22D
100
AcDbDictionary
280
     1
281
     1
  3
ACAD_XREC_ROUNDTRIP
360
290
  0
XRECORD
  5
286
102
{ACAD_REACTORS
330
285
102
}
330
285
100
AcDbXrecord
280
     1
102
SHADEPLOT
 70
     0
102
SHADEPLOTRESLEVEL
 70
     2
102
SHADEPLOTCUSTOMDPI
 70
   300
  0
XRECORD
  5
288
102
{ACAD_REACTORS
330
287
102
}
330
287
100
AcDbXrecord
280
     1
102
SHADEPLOT
 70
     0
102
SHADEPLOTRESLEVEL
 70
     2
102
SHADEPLOTCUSTOMDPI
 70
   300
  0
XRECORD
  5
28C
102
{ACAD_REACTORS
330
28B
102
}
330
28B
100
AcDbXrecord
280
     1
102
MATERIAL
148
0.0
149
0.0
149
0.0
 93
        0
 94
       63
282
     0
 72
     1
 77
     1
171
     1
175
     1
179
     1
273
     0
  0
XRECORD
  5
28A
102
{ACAD_REACTORS
330
289
102
}
330
289
100
AcDbXrecord
280
     1
102
MATERIAL
148
0.0
149
0.0
149
0.0
 93
        0
 94
       63
282
     0
 72
     1
 77
     1
171
     1
175
     1
179
     1
273
     0
  0
XRECORD
  5
28E
102
{ACAD_REACTORS
330
28D
102
}
330
28D
100
AcDbXrecord
280
     1
102
MATERIAL
148
0.0
149
0.0
149
0.0
 93
        0
 94
       63
282
     0
 72
     1
 77
     1
171
     1
175
     1
179
     1
273
     0
  0
XRECORD
  5
290
102
{ACAD_REACTORS
330
28F
102
}
330
28F
100
AcDbXrecord
280
     1
102
ACAD_ROUNDTRIP_PRE2007_TABLESTYLE
 90
      512
 91
        0
  1

 92
      512
 93
        0
  2

 94
      512
 95
        0
  3

  0
ENDSEC
  0
EOF
