  0
SECTION
  2
HEADER
  9
$ACADVER
  1
AC1014
  9
$ACADMAINTVER
 70
     9
  9
$DWGCODEPAGE
  3
ANSI_1252
  9
$INSBASE
 10
13.66019029961582
 20
0.0014501510574019
 30
0.0
  9
$EXTMIN
 10
-1.667043637727239
 20
-12.47360203095995
 30
0.0
  9
$EXTMAX
 10
18.72885719787985
 20
-0.3233841444416052
 30
0.0
  9
$LIMMIN
 10
0.0
 20
0.0
  9
$LIMMAX
 10
36.0
 20
36.0
  9
$ORTHOMODE
 70
     1
  9
$REGENMODE
 70
     1
  9
$FILLMODE
 70
     1
  9
$QTEXTMODE
 70
     0
  9
$MIRRTEXT
 70
     1
  9
$DRAGMODE
 70
     0
  9
$LTSCALE
 40
1.0
  9
$OSMODE
 70
    37
  9
$ATTMODE
 70
     1
  9
$TEXTSIZE
 40
0.2
  9
$TRACEWID
 40
0.05
  9
$TEXTSTYLE
  7
STANDARD
  9
$CLAYER
  8
ADPDIM
  9
$CELTYPE
  6
BYLAYER
  9
$CECOLOR
 62
   256
  9
$CELTSCALE
 40
1.0
  9
$DELOBJ
 70
     1
  9
$DISPSILH
 70
     0
  9
$DIMSCALE
 40
1.0
  9
$DIMASZ
 40
0.125
  9
$DIMEXO
 40
0.0625
  9
$DIMDLI
 40
0.38
  9
$DIMRND
 40
0.0
  9
$DIMDLE
 40
0.0
  9
$DIMEXE
 40
0.18
  9
$DIMTP
 40
0.0
  9
$DIMTM
 40
0.0
  9
$DIMTXT
 40
0.125
  9
$DIMCEN
 40
0.1875
  9
$DIMTSZ
 40
0.125
  9
$DIMTOL
 70
     0
  9
$DIMLIM
 70
     0
  9
$DIMTIH
 70
     0
  9
$DIMTOH
 70
     0
  9
$DIMSE1
 70
     0
  9
$DIMSE2
 70
     0
  9
$DIMTAD
 70
     0
  9
$DIMZIN
 70
     3
  9
$DIMBLK
  1

  9
$DIMASO
 70
     1
  9
$DIMSHO
 70
     1
  9
$DIMPOST
  1

  9
$DIMAPOST
  1

  9
$DIMALT
 70
     0
  9
$DIMALTD
 70
     1
  9
$DIMALTF
 40
25.4
  9
$DIMLFAC
 40
1.0
  9
$DIMTOFL
 70
     0
  9
$DIMTVP
 40
0.0
  9
$DIMTIX
 70
     0
  9
$DIMSOXD
 70
     0
  9
$DIMSAH
 70
     0
  9
$DIMBLK1
  1

  9
$DIMBLK2
  1

  9
$DIMSTYLE
  2
STANDARD
  9
$DIMCLRD
 70
     0
  9
$DIMCLRE
 70
     0
  9
$DIMCLRT
 70
     0
  9
$DIMTFAC
 40
1.0
  9
$DIMGAP
 40
0.125
  9
$DIMJUST
 70
     0
  9
$DIMSD1
 70
     0
  9
$DIMSD2
 70
     0
  9
$DIMTOLJ
 70
     1
  9
$DIMTZIN
 70
     3
  9
$DIMALTZ
 70
     3
  9
$DIMALTTZ
 70
     3
  9
$DIMFIT
 70
     5
  9
$DIMUPT
 70
     0
  9
$DIMUNIT
 70
     5
  9
$DIMDEC
 70
     4
  9
$DIMTDEC
 70
     4
  9
$DIMALTU
 70
     5
  9
$DIMALTTD
 70
     1
  9
$DIMTXSTY
  7
STANDARD
  9
$DIMAUNIT
 70
     0
  9
$LUNITS
 70
     5
  9
$LUPREC
 70
     4
  9
$SKETCHINC
 40
0.1
  9
$FILLETRAD
 40
0.0
  9
$AUNITS
 70
     0
  9
$AUPREC
 70
     0
  9
$MENU
  1
acad
  9
$ELEVATION
 40
0.0
  9
$PELEVATION
 40
0.0
  9
$THICKNESS
 40
0.0
  9
$LIMCHECK
 70
     0
  9
$BLIPMODE
 70
     0
  9
$CHAMFERA
 40
0.0
  9
$CHAMFERB
 40
0.0
  9
$CHAMFERC
 40
0.0
  9
$CHAMFERD
 40
0.0
  9
$SKPOLY
 70
     0
  9
$TDCREATE
 40
2450366.654205822
  9
$TDUPDATE
 40
2452297.085641817
  9
$TDINDWG
 40
0.0931228588
  9
$TDUSRTIMER
 40
0.0931228588
  9
$USRTIMER
 70
     1
  9
$ANGBASE
 50
0.0
  9
$ANGDIR
 70
     0
  9
$PDMODE
 70
     0
  9
$PDSIZE
 40
0.0
  9
$PLINEWID
 40
0.0
  9
$COORDS
 70
     2
  9
$SPLFRAME
 70
     0
  9
$SPLINETYPE
 70
     6
  9
$SPLINESEGS
 70
     8
  9
$ATTDIA
 70
     0
  9
$ATTREQ
 70
     1
  9
$HANDLING
 70
 22529
  9
$HANDSEED
  5
235
  9
$SURFTAB1
 70
     6
  9
$SURFTAB2
 70
     6
  9
$SURFTYPE
 70
     6
  9
$SURFU
 70
     6
  9
$SURFV
 70
     6
  9
$UCSNAME
  2

  9
$UCSORG
 10
0.0
 20
0.0
 30
0.0
  9
$UCSXDIR
 10
1.0
 20
0.0
 30
0.0
  9
$UCSYDIR
 10
0.0
 20
1.0
 30
0.0
  9
$PUCSNAME
  2

  9
$PUCSORG
 10
0.0
 20
0.0
 30
0.0
  9
$PUCSXDIR
 10
1.0
 20
0.0
 30
0.0
  9
$PUCSYDIR
 10
0.0
 20
1.0
 30
0.0
  9
$USERI1
 70
     0
  9
$USERI2
 70
     0
  9
$USERI3
 70
     0
  9
$USERI4
 70
     0
  9
$USERI5
 70
     0
  9
$USERR1
 40
0.0
  9
$USERR2
 40
0.0
  9
$USERR3
 40
0.0
  9
$USERR4
 40
0.0
  9
$USERR5
 40
0.0
  9
$WORLDVIEW
 70
     1
  9
$SHADEDGE
 70
     3
  9
$SHADEDIF
 70
    70
  9
$TILEMODE
 70
     1
  9
$MAXACTVP
 70
    15
  9
$PINSBASE
 10
0.1250013113021854
 20
0.0
 30
0.0
  9
$PLIMCHECK
 70
     0
  9
$PEXTMIN
 10
1.000000000000000E+20
 20
1.000000000000000E+20
 30
1.000000000000000E+20
  9
$PEXTMAX
 10
-1.000000000000000E+20
 20
-1.000000000000000E+20
 30
-1.000000000000000E+20
  9
$PLIMMIN
 10
0.0
 20
0.0
  9
$PLIMMAX
 10
12.0
 20
9.0
  9
$UNITMODE
 70
     0
  9
$VISRETAIN
 70
     0
  9
$PLINEGEN
 70
     0
  9
$PSLTSCALE
 70
     1
  9
$TREEDEPTH
 70
  3020
  9
$PICKSTYLE
 70
     1
  9
$CMLSTYLE
  2
STANDARD
  9
$CMLJUST
 70
     0
  9
$CMLSCALE
 40
1.0
  9
$PROXYGRAPHICS
 70
     1
  9
$MEASUREMENT
 70
     0
  0
ENDSEC
  0
SECTION
  2
CLASSES
  0
CLASS
  1
ACDBDICTIONARYWDFLT
  2
AcDbDictionaryWithDefault
  3
AutoCAD 2000
 90
        0
280
     0
281
     0
  0
CLASS
  1
ACDBPLACEHOLDER
  2
AcDbPlaceHolder
  3
AutoCAD 2000
 90
        0
280
     0
281
     0
  0
CLASS
  1
LAYOUT
  2
AcDbLayout
  3
AutoCAD 2000
 90
        0
280
     0
281
     0
  0
CLASS
  1
DICTIONARYVAR
  2
AcDbDictionaryVar
  3
AutoCAD 2000
 90
        0
280
     0
281
     0
  0
CLASS
  1
LONG_TRANSACTION
  2
AcDbLongTransaction
  3
AutoCAD 2000
 90
        0
280
     0
281
     0
  0
CLASS
  1
LWPOLYLINE
  2
AcDbPolyline
  3
AutoCAD 2000
 90
        0
280
     0
281
     1
  0
CLASS
  1
HATCH
  2
AcDbHatch
  3
AutoCAD 2000
 90
        0
280
     0
281
     1
  0
CLASS
  1
XRECORD
  2
AcDbXrecord
  3
AutoCAD 2000
 90
        0
280
     0
281
     0
  0
CLASS
  1
LONG_TRANSACTION
  2
AcDbLongTransaction
  3
AutoCAD 2000
 90
        0
280
     0
281
     0
  0
CLASS
  1
LWPOLYLINE
  2
AcDbPolyline
  3
AutoCAD 2000
 90
        0
280
     0
281
     1
  0
CLASS
  1
HATCH
  2
AcDbHatch
  3
AutoCAD 2000
 90
        0
280
     0
281
     1
  0
CLASS
  1
XRECORD
  2
AcDbXrecord
  3
AutoCAD 2000
 90
        0
280
     0
281
     0
  0
CLASS
  1
LONG_TRANSACTION
  2
AcDbLongTransaction
  3
AutoCAD 2000
 90
        0
280
     0
281
     0
  0
CLASS
  1
LWPOLYLINE
  2
AcDbPolyline
  3
AutoCAD 2000
 90
        0
280
     0
281
     1
  0
CLASS
  1
HATCH
  2
AcDbHatch
  3
AutoCAD 2000
 90
        0
280
     0
281
     1
  0
CLASS
  1
XRECORD
  2
AcDbXrecord
  3
AutoCAD 2000
 90
        0
280
     0
281
     0
  0
CLASS
  1
LONG_TRANSACTION
  2
AcDbLongTransaction
  3
AutoCAD 2000
 90
        0
280
     0
281
     0
  0
CLASS
  1
LWPOLYLINE
  2
AcDbPolyline
  3
AutoCAD 2000
 90
        0
280
     0
281
     1
  0
CLASS
  1
HATCH
  2
AcDbHatch
  3
AutoCAD 2000
 90
        0
280
     0
281
     1
  0
CLASS
  1
XRECORD
  2
AcDbXrecord
  3
AutoCAD 2000
 90
        0
280
     0
281
     0
  0
CLASS
  1
LONG_TRANSACTION
  2
AcDbLongTransaction
  3
AutoCAD 2000
 90
        0
280
     0
281
     0
  0
CLASS
  1
LWPOLYLINE
  2
AcDbPolyline
  3
AutoCAD 2000
 90
        0
280
     0
281
     1
  0
CLASS
  1
HATCH
  2
AcDbHatch
  3
AutoCAD 2000
 90
        0
280
     0
281
     1
  0
CLASS
  1
XRECORD
  2
AcDbXrecord
  3
AutoCAD 2000
 90
        0
280
     0
281
     0
  0
ENDSEC
  0
SECTION
  2
TABLES
  0
TABLE
  2
VPORT
  5
8
330
0
100
AcDbSymbolTable
 70
     2
  0
VPORT
  5
211
330
8
100
AcDbSymbolTableRecord
100
AcDbViewportTableRecord
  2
*ACTIVE
 70
     0
 10
0.0
 20
0.0
 11
1.0
 21
1.0
 12
8.548487897498223
 22
-6.397936694885168
 13
0.0
 23
0.0
 14
0.5740882589684922
 24
0.5740882589684922
 15
0.5
 25
0.5
 16
0.0
 26
0.0
 36
1.0
 17
0.0
 27
0.0
 37
0.0
 40
13.07224840274205
 41
1.570528967254408
 42
50.0
 43
0.0
 44
0.0
 50
0.0
 51
0.0
 71
     0
 72
   100
 73
     1
 74
     0
 75
     0
 76
     0
 77
     0
 78
     0
  0
ENDTAB
  0
TABLE
  2
LTYPE
  5
5
330
0
100
AcDbSymbolTable
 70
     1
  0
LTYPE
  5
13
330
5
100
AcDbSymbolTableRecord
100
AcDbLinetypeTableRecord
  2
BYBLOCK
 70
     0
  3

 72
    65
 73
     0
 40
0.0
  0
LTYPE
  5
14
330
5
100
AcDbSymbolTableRecord
100
AcDbLinetypeTableRecord
  2
BYLAYER
 70
     0
  3

 72
    65
 73
     0
 40
0.0
  0
LTYPE
  5
15
330
5
100
AcDbSymbolTableRecord
100
AcDbLinetypeTableRecord
  2
CONTINUOUS
 70
     0
  3
Solid line
 72
    65
 73
     0
 40
0.0
  0
ENDTAB
  0
TABLE
  2
LAYER
  5
2
330
0
100
AcDbSymbolTable
 70
     4
  0
LAYER
  5
10
330
2
100
AcDbSymbolTableRecord
100
AcDbLayerTableRecord
  2
0
 70
     0
 62
     7
  6
CONTINUOUS
  0
LAYER
  5
25
330
2
100
AcDbSymbolTableRecord
100
AcDbLayerTableRecord
  2
ADPDIM
 70
     0
 62
     3
  6
CONTINUOUS
  0
LAYER
  5
26
330
2
100
AcDbSymbolTableRecord
100
AcDbLayerTableRecord
  2
ADP1DETAIL
 70
     0
 62
     7
  6
CONTINUOUS
  0
LAYER
  5
27
330
2
100
AcDbSymbolTableRecord
100
AcDbLayerTableRecord
  2
DEFPOINTS
 70
     0
 62
     7
  6
CONTINUOUS
  0
ENDTAB
  0
TABLE
  2
STYLE
  5
3
330
0
100
AcDbSymbolTable
 70
     2
  0
STYLE
  5
11
330
3
100
AcDbSymbolTableRecord
100
AcDbTextStyleTableRecord
  2
STANDARD
 70
     0
 40
0.0
 41
1.0
 50
0.0
 71
     0
 42
0.2
  3
txt
  4

  0
STYLE
  5
7E
330
3
100
AcDbSymbolTableRecord
100
AcDbTextStyleTableRecord
  2
ARIAL_WIDE
 70
     0
 40
0.0
 41
1.25
 50
0.0
 71
     0
 42
0.2
  3
ARIAL.TTF
  4

1001
ACAD
1000
Arial
1071
       34
  0
ENDTAB
  0
TABLE
  2
VIEW
  5
6
330
0
100
AcDbSymbolTable
 70
     0
  0
ENDTAB
  0
TABLE
  2
UCS
  5
7
330
0
100
AcDbSymbolTable
 70
     0
  0
ENDTAB
  0
TABLE
  2
APPID
  5
9
330
0
100
AcDbSymbolTable
 70
     1
  0
APPID
  5
12
330
9
100
AcDbSymbolTableRecord
100
AcDbRegAppTableRecord
  2
ACAD
 70
     0
  0
ENDTAB
  0
TABLE
  2
DIMSTYLE
  5
A
330
0
100
AcDbSymbolTable
 70
     1
  0
DIMSTYLE
105
7C
330
A
100
AcDbSymbolTableRecord
100
AcDbDimStyleTableRecord
  2
STANDARD
 70
     0
  3

  4

  5

  6

  7

 40
1.0
 41
0.18
 42
0.0625
 43
0.38
 44
0.18
 45
0.0
 46
0.0
 47
0.0
 48
0.0
140
0.18
141
0.09
142
0.0
143
25.4
144
1.0
145
0.0
146
1.0
147
0.09
 71
     0
 72
     0
 73
     1
 74
     1
 75
     0
 76
     0
 77
     0
 78
     0
170
     0
171
     2
172
     0
173
     0
174
     0
175
     0
176
     0
177
     0
178
     0
270
     2
271
     4
272
     4
273
     2
274
     2
340
11
275
     0
280
     0
281
     0
282
     0
283
     1
284
     0
285
     0
286
     0
287
     3
288
     0
  0
ENDTAB
  0
TABLE
  2
BLOCK_RECORD
  5
1
330
0
100
AcDbSymbolTable
 70
     2
  0
BLOCK_RECORD
  5
1E
102
{ACAD_XDICTIONARY
360
BB
102
}
330
1
100
AcDbSymbolTableRecord
100
AcDbBlockTableRecord
  2
*MODEL_SPACE
  0
BLOCK_RECORD
  5
1A
102
{ACAD_XDICTIONARY
360
BD
102
}
330
1
100
AcDbSymbolTableRecord
100
AcDbBlockTableRecord
  2
*PAPER_SPACE
  0
BLOCK_RECORD
  5
22
330
1
100
AcDbSymbolTableRecord
100
AcDbBlockTableRecord
  2
*D0
  0
BLOCK_RECORD
  5
23
330
1
100
AcDbSymbolTableRecord
100
AcDbBlockTableRecord
  2
*D1
  0
ENDTAB
  0
ENDSEC
  0
SECTION
  2
BLOCKS
  0
BLOCK
  5
2A
330
1E
100
AcDbEntity
  8
0
100
AcDbBlockBegin
  2
*MODEL_SPACE
 70
     0
 10
0.0
 20
0.0
 30
0.0
  3
*MODEL_SPACE
  1

  0
ENDBLK
  5
2B
330
1E
100
AcDbEntity
  8
0
100
AcDbBlockEnd
  0
BLOCK
  5
28
330
1A
100
AcDbEntity
 67
     1
  8
0
100
AcDbBlockBegin
  2
*PAPER_SPACE
 70
     0
 10
0.0
 20
0.0
 30
0.0
  3
*PAPER_SPACE
  1

  0
ENDBLK
  5
29
330
1A
100
AcDbEntity
 67
     1
  8
0
100
AcDbBlockEnd
  0
BLOCK
  5
2C
330
22
100
AcDbEntity
  8
0
100
AcDbBlockBegin
  2
*D0
 70
     1
 10
0.0
 20
0.0
 30
0.0
  3
*D0
  1

  0
LINE
  5
2D
330
22
100
AcDbEntity
  8
0
  6
BYBLOCK
 62
     0
100
AcDbLine
 10
12.00752686370286
 20
-0.9980576664086186
 30
0.0
 11
12.00752686370286
 21
-0.3757233709096115
 31
0.0
  0
LINE
  5
2E
330
22
100
AcDbEntity
  8
0
  6
BYBLOCK
 62
     0
100
AcDbLine
 10
13.75220968463128
 20
-0.9980576664086186
 30
0.0
 11
13.75220968463128
 21
-0.3757233709096115
 31
0.0
  0
LINE
  5
2F
330
22
100
AcDbEntity
  8
0
  6
BYBLOCK
 62
     0
100
AcDbLine
 10
12.00752686370286
 20
-0.5557233709096115
 30
0.0
 11
12.48403494083373
 21
-0.5557233709096115
 31
0.0
  0
LINE
  5
30
330
22
100
AcDbEntity
  8
0
  6
BYBLOCK
 62
     0
100
AcDbLine
 10
13.75220968463128
 20
-0.5557233709096115
 30
0.0
 11
13.2757016075004
 21
-0.5557233709096115
 31
0.0
  0
LINE
  5
31
330
22
100
AcDbEntity
  8
0
  6
BYBLOCK
 62
     0
100
AcDbLine
 10
11.88252686370286
 20
-0.6807233709096115
 30
0.0
 11
12.13252686370286
 21
-0.4307233709096115
 31
0.0
  0
LINE
  5
32
330
22
100
AcDbEntity
  8
0
  6
BYBLOCK
 62
     0
100
AcDbLine
 10
13.62720968463127
 20
-0.6807233709096115
 30
0.0
 11
13.87720968463127
 21
-0.4307233709096115
 31
0.0
  0
TEXT
  5
33
330
22
100
AcDbEntity
  8
0
  6
BYBLOCK
 62
     0
100
AcDbText
 10
12.60903494083373
 20
-0.6182233709096115
 30
0.0
 40
0.125
  1
1 3/4
 72
     1
 11
12.87986827416706
 21
-0.5557233709096115
 31
0.0
100
AcDbText
 73
     2
  0
POINT
  5
35
330
22
100
AcDbEntity
  8
DEFPOINTS
  6
BYBLOCK
 62
     0
100
AcDbPoint
 10
12.00752686370286
 20
-1.060557666408618
 30
0.0
  0
POINT
  5
36
330
22
100
AcDbEntity
  8
DEFPOINTS
  6
BYBLOCK
 62
     0
100
AcDbPoint
 10
13.75220968463128
 20
-1.060557666408618
 30
0.0
  0
POINT
  5
37
330
22
100
AcDbEntity
  8
DEFPOINTS
  6
BYBLOCK
 62
     0
100
AcDbPoint
 10
13.75220968463128
 20
-0.5557233709096115
 30
0.0
  0
ENDBLK
  5
38
330
22
100
AcDbEntity
  8
0
100
AcDbBlockEnd
  0
BLOCK
  5
39
330
23
100
AcDbEntity
  8
0
100
AcDbBlockBegin
  2
*D1
 70
     1
 10
0.0
 20
0.0
 30
0.0
  3
*D1
  1

  0
LINE
  5
3A
330
23
100
AcDbEntity
  8
0
  6
BYBLOCK
 62
     0
100
AcDbLine
 10
12.33423756403963
 20
-1.211200975197226
 30
0.0
 11
12.33423756403963
 21
-1.698266919887152
 31
0.0
  0
LINE
  5
3B
330
23
100
AcDbEntity
  8
0
  6
BYBLOCK
 62
     0
100
AcDbLine
 10
13.4254989842945
 20
-1.211200975197226
 30
0.0
 11
13.4254989842945
 21
-1.698266919887152
 31
0.0
  0
LINE
  5
3C
330
23
100
AcDbEntity
  8
0
  6
BYBLOCK
 62
     0
100
AcDbLine
 10
12.33423756403963
 20
-1.518266919887152
 30
0.0
 11
12.08423756403963
 21
-1.518266919887152
 31
0.0
  0
LINE
  5
3D
330
23
100
AcDbEntity
  8
0
  6
BYBLOCK
 62
     0
100
AcDbLine
 10
13.4254989842945
 20
-1.518266919887152
 30
0.0
 11
13.6754989842945
 21
-1.518266919887152
 31
0.0
  0
LINE
  5
3E
330
23
100
AcDbEntity
  8
0
  6
BYBLOCK
 62
     0
100
AcDbLine
 10
12.20923756403963
 20
-1.643266919887152
 30
0.0
 11
12.45923756403963
 21
-1.393266919887152
 31
0.0
  0
LINE
  5
3F
330
23
100
AcDbEntity
  8
0
  6
BYBLOCK
 62
     0
100
AcDbLine
 10
13.3004989842945
 20
-1.643266919887152
 30
0.0
 11
13.5504989842945
 21
-1.393266919887152
 31
0.0
  0
TEXT
  5
40
330
23
100
AcDbEntity
  8
0
  6
BYBLOCK
 62
     0
100
AcDbText
 10
13.8004989842945
 20
-1.580766919887152
 30
0.0
 40
0.125
  1
1 1/16
 72
     1
 11
14.09216565096117
 21
-1.518266919887152
 31
0.0
100
AcDbText
 73
     2
  0
POINT
  5
41
330
23
100
AcDbEntity
  8
DEFPOINTS
  6
BYBLOCK
 62
     0
100
AcDbPoint
 10
12.33423756403963
 20
-1.148700975197226
 30
0.0
  0
POINT
  5
42
330
23
100
AcDbEntity
  8
DEFPOINTS
  6
BYBLOCK
 62
     0
100
AcDbPoint
 10
13.4254989842945
 20
-1.148700975197226
 30
0.0
  0
POINT
  5
43
330
23
100
AcDbEntity
  8
DEFPOINTS
  6
BYBLOCK
 62
     0
100
AcDbPoint
 10
13.4254989842945
 20
-1.518266919887152
 30
0.0
  0
ENDBLK
  5
44
330
23
100
AcDbEntity
  8
0
100
AcDbBlockEnd
  0
ENDSEC
  0
SECTION
  2
ENTITIES
  0
ARC
  5
45
330
1E
100
AcDbEntity
  8
ADP1DETAIL
100
AcDbCircle
 10
7.119749091616593
 20
-6.007642034927991
 30
0.0
 40
1.616873296282102
100
AcDbArc
 50
103.0964513179706
 51
340.8248791731618
  0
ARC
  5
46
330
1E
100
AcDbEntity
  8
ADP1DETAIL
100
AcDbCircle
 10
7.866707066526537
 20
-6.105516895414979
 30
0.0
 40
3.958168529753718
100
AcDbArc
 50
213.0430367291911
 51
308.6394996822096
  0
ARC
  5
47
330
1E
100
AcDbEntity
  8
ADP1DETAIL
100
AcDbCircle
 10
7.866707066526537
 20
-6.105516895414979
 30
0.0
 40
4.253947038224016
100
AcDbArc
 50
213.1277170456489
 51
308.7502630882926
  0
LWPOLYLINE
  5
48
330
1E
100
AcDbEntity
  8
ADP1DETAIL
100
AcDbPolyline
 90
        7
 70
     0
 43
0.0
 10
13.36441179114552
 20
-2.293102112254786
 10
13.36441179114552
 20
-5.316895622185407
 42
-0.2296277539583339
 10
11.2780527768394
 20
-10.30750287673599
 42
-0.4437028808446768
 10
3.346268041679806
 20
-9.082024373169923
 42
-0.3594111526708894
 10
3.759242033169289
 20
-3.814457039999614
 42
-0.3527586277441508
 10
7.971150948638968
 20
-3.834307785459914
 42
-0.3270892163354521
 10
8.646916774463502
 20
-6.538714652088918
  0
ARC
  5
51
330
1E
100
AcDbEntity
  8
ADP1DETAIL
100
AcDbCircle
 10
7.119749091616593
 20
-6.007642034927991
 30
0.0
 40
1.912651804752399
100
AcDbArc
 50
129.7072881005703
 51
340.8248791731618
  0
LWPOLYLINE
  5
52
330
1E
100
AcDbEntity
  8
ADP1DETAIL
100
AcDbPolyline
 90
        7
 70
     0
 43
0.0
 10
13.66019029961582
 20
-2.293102112254786
 10
13.66019029961582
 20
-5.308788070767812
 42
-0.2295396365696227
 10
11.46924541772605
 20
-10.53325959256975
 42
-0.4437968915241037
 10
3.101627307489835
 20
-9.24831864768786
 42
-0.3603405849182375
 10
3.559796598828413
 20
-3.595267466585495
 42
-0.354323632232001
 10
8.158713921663064
 20
-3.605602112254785
 42
-0.3271224483972288
 10
8.926285220002903
 20
-6.635865039169013
 42
-0.5339003555813832
  0
ARC
  5
5B
330
1E
100
AcDbEntity
  8
ADP1DETAIL
100
AcDbCircle
 10
7.174360972375254
 20
-5.66051292978995
 30
0.0
 40
4.745359300188704
100
AcDbArc
 50
311.8155928926656
 51
3.63179747356924
  0
ARC
  5
5C
330
1E
100
AcDbEntity
  8
ADP1DETAIL
100
AcDbCircle
 10
7.174360972375254
 20
-5.660512929789952
 30
0.0
 40
5.041137808659
100
AcDbArc
 50
311.7226661686958
 51
3.523608267533815
  0
DIMENSION
  5
5D
330
1E
100
AcDbEntity
  8
ADPDIM
100
AcDbDimension
  2
*D0
 10
13.65487312054423
 20
-0.5033841444416052
 30
0.0
 11
12.78253171008002
 21
-0.5033841444416052
 31
0.0
 12
-0.0973365640870405
 22
0.0523392264680063
 32
0.0
100
AcDbAlignedDimension
 13
11.91019029961582
 23
-1.008218439940612
 33
0.0
 14
13.65487312054423
 24
-1.008218439940612
 34
0.0
100
AcDbRotatedDimension
  0
DIMENSION
  5
5E
330
1E
100
AcDbEntity
  8
ADPDIM
100
AcDbDimension
  2
*D1
 10
13.32816242020746
 20
-1.465927693419146
 30
0.0
 11
13.99482908687412
 21
-1.465927693419146
 31
0.0
 12
-0.0973365640870405
 22
0.0523392264680063
 32
0.0
100
AcDbAlignedDimension
 13
12.23690099995259
 23
-1.09636174872922
 33
0.0
 14
13.32816242020746
 24
-1.09636174872922
 34
0.0
100
AcDbRotatedDimension
  0
ARC
  5
5F
330
1E
100
AcDbEntity
  8
ADP1DETAIL
100
AcDbCircle
 10
12.23731323105506
 20
-0.2170389553462837
 30
0.0
 40
0.6296294546398661
100
AcDbArc
 50
270.9972411168814
 51
299.5459647873847
  0
LINE
  5
60
330
1E
100
AcDbEntity
  8
ADP1DETAIL
100
AcDbLine
 10
12.44017932235306
 20
-1.096402112184216
 30
0.0
 11
12.23690099995259
 21
-1.09636174872922
 31
0.0
  0
LINE
  5
61
330
1E
100
AcDbEntity
  8
ADP1DETAIL
100
AcDbLine
 10
13.66019029961582
 20
-2.293102112254786
 30
0.0
 11
11.91019029961582
 21
-2.293102112254786
 31
0.0
  0
ARC
  5
62
330
1E
100
AcDbEntity
  8
ADP1DETAIL
100
AcDbCircle
 10
11.85342091537042
 20
-1.362538819408713
 30
0.0
 40
0.2500000000000005
100
AcDbArc
 50
18.32960882129964
 51
58.95842546434906
  0
LINE
  5
63
330
1E
100
AcDbEntity
  8
ADP1DETAIL
100
AcDbLine
 10
12.23690099995259
 20
-1.09636174872922
 30
0.0
 11
12.21719395584028
 21
-1.28386174872922
 31
0.0
  0
LINE
  5
64
330
1E
100
AcDbEntity
  8
ADP1DETAIL
100
AcDbLine
 10
12.09073668750759
 20
-1.283918056915985
 30
0.0
 11
12.21719395584028
 21
-1.28386174872922
 31
0.0
  0
ARC
  5
65
330
1E
100
AcDbEntity
  8
ADP1DETAIL
100
AcDbCircle
 10
12.03253171008002
 20
-1.03386174872922
 30
0.0
 40
0.125
100
AcDbArc
 50
90.0
 51
246.3238531733126
  0
LINE
  5
66
330
1E
100
AcDbEntity
  8
ADP1DETAIL
100
AcDbLine
 10
12.03253171008002
 20
-0.9087641755526895
 30
0.0
 11
12.17217809106908
 21
-0.9087641755526895
 31
0.0
  0
LINE
  5
67
330
1E
100
AcDbEntity
  8
ADP1DETAIL
100
AcDbLine
 10
12.18878171008002
 20
-0.84636174872922
 30
0.0
 11
12.24827146714519
 21
-0.8465730427568775
 31
0.0
  0
LINE
  5
68
330
1E
100
AcDbEntity
  8
ADP1DETAIL
100
AcDbLine
 10
12.17217809106908
 20
-0.9087641755526895
 30
0.0
 11
12.18889877094217
 21
-0.84636174872922
 31
0.0
  0
ARC
  5
69
330
1E
100
AcDbEntity
  8
ADP1DETAIL
100
AcDbCircle
 10
13.32775018910499
 20
-0.2170389553462837
 30
0.0
 40
0.6296294546398661
100
AcDbArc
 50
240.4540352126153
 51
269.0027588831185
  0
ARC
  5
6A
330
1E
100
AcDbEntity
  8
ADP1DETAIL
100
AcDbCircle
 10
12.78253171008002
 20
-1.31511174872922
 30
0.0
 40
0.40625
100
AcDbArc
 50
32.57221494780893
 51
90.03299209357448
  0
ARC
  5
6B
330
1E
100
AcDbEntity
  8
ADP1DETAIL
100
AcDbCircle
 10
12.78253171008002
 20
-1.31511174872922
 30
0.0
 40
0.40625
100
AcDbArc
 50
89.96700790642552
 51
147.427785052191
  0
ARC
  5
6C
330
1E
100
AcDbEntity
  8
ADP1DETAIL
100
AcDbCircle
 10
12.78253171008002
 20
-1.09636174872922
 30
0.0
 40
0.40625
100
AcDbArc
 50
90.0
 51
125.2965290810944
  0
ARC
  5
6D
330
1E
100
AcDbEntity
  8
ADP1DETAIL
100
AcDbCircle
 10
12.78253171008002
 20
-1.09636174872922
 30
0.0
 40
0.40625
100
AcDbArc
 50
54.7034709189056
 51
90.0
  0
ARC
  5
6E
330
1E
100
AcDbEntity
  8
ADP1DETAIL
100
AcDbCircle
 10
13.71164250478963
 20
-1.362538819408713
 30
0.0
 40
0.2500000000000005
100
AcDbArc
 50
121.0415745356509
 51
161.6703911787003
  0
LINE
  5
6F
330
1E
100
AcDbEntity
  8
ADP1DETAIL
100
AcDbLine
 10
13.32816242020746
 20
-1.09636174872922
 30
0.0
 11
13.34786946431977
 21
-1.28386174872922
 31
0.0
  0
LINE
  5
70
330
1E
100
AcDbEntity
  8
ADP1DETAIL
100
AcDbLine
 10
13.47432673265246
 20
-1.283918056915985
 30
0.0
 11
13.34786946431977
 21
-1.28386174872922
 31
0.0
  0
LINE
  5
71
330
1E
100
AcDbEntity
  8
ADP1DETAIL
100
AcDbLine
 10
13.53253171008002
 20
-0.9087641755526895
 30
0.0
 11
13.39288532909097
 21
-0.9087641755526895
 31
0.0
  0
LINE
  5
72
330
1E
100
AcDbEntity
  8
ADP1DETAIL
100
AcDbLine
 10
13.39288532909097
 20
-0.9087641755526895
 30
0.0
 11
13.37616464921788
 21
-0.84636174872922
 31
0.0
  0
LINE
  5
73
330
1E
100
AcDbEntity
  8
ADP1DETAIL
100
AcDbLine
 10
13.12488409780699
 20
-1.096402112184216
 30
0.0
 11
13.32816242020746
 21
-1.09636174872922
 31
0.0
  0
LINE
  5
74
330
1E
100
AcDbEntity
  8
ADP1DETAIL
100
AcDbLine
 10
13.37628171008002
 20
-0.84636174872922
 30
0.0
 11
13.31679195301486
 21
-0.8465730427568775
 31
0.0
  0
ARC
  5
75
330
1E
100
AcDbEntity
  8
ADP1DETAIL
100
AcDbCircle
 10
13.53253171008002
 20
-1.03386174872922
 30
0.0
 40
0.125
100
AcDbArc
 50
293.6761468266873
 51
90.0
  0
LINE
  5
76
330
1E
100
AcDbEntity
  8
ADP1DETAIL
100
AcDbLine
 10
11.91019029961582
 20
-2.293102112254786
 30
0.0
 11
11.91019029961581
 21
-5.359921061743534
 31
0.0
  0
LINE
  5
77
330
1E
100
AcDbEntity
  8
ADP1DETAIL
100
AcDbLine
 10
12.20596880808611
 20
-2.293102112254786
 30
0.0
 11
12.20596880808611
 21
-5.35068556898341
 31
0.0
  0
ARC
  5
78
330
1E
100
AcDbEntity
  8
ADP1DETAIL
100
AcDbCircle
 10
6.743475495838488
 20
-6.698391199230734
 30
0.0
 40
2.695805688440894
100
AcDbArc
 50
138.0459883795517
 51
215.4981544097913
  0
ARC
  5
79
330
1E
100
AcDbEntity
  8
ADP1DETAIL
100
AcDbCircle
 10
6.743475495838488
 20
-6.698391199230734
 30
0.0
 40
2.991584196911191
100
AcDbArc
 50
137.4475628364126
 51
215.3757968555293
  0
ARC
  5
7A
330
1E
100
AcDbEntity
  8
ADP1DETAIL
100
AcDbCircle
 10
5.85287890025026
 20
-6.437914987406852
 30
0.0
 40
2.198020473171695
100
AcDbArc
 50
65.814801026032
 51
126.686596737839
  0
ARC
  5
7B
330
1E
100
AcDbEntity
  8
ADP1DETAIL
100
AcDbCircle
 10
5.85287890025026
 20
-6.437914987406852
 30
0.0
 40
1.902241964701399
100
AcDbArc
 50
88.64619717109484
 51
125.8554874832836
  0
TEXT
  5
7F
330
1E
100
AcDbEntity
  8
ADPDIM
100
AcDbText
 10
-1.667043637727239
 20
-12.41809384542107
 30
0.0
 40
0.1875
  1
J U L I U S  B L U M  &  C O . ,  I N C .      ( 8 0 0 )  5 2 6 - 6 2 9 3        W W W . J U L I U S B L U M . C O M        P A R T  N o .  4 4 2 9 - G L
 41
1.25
  7
ARIAL_WIDE
 72
     1
 11
8.530906780076307
 21
-12.23059384542107
 31
0.0
100
AcDbText
 73
     3
  0
ENDSEC
  0
SECTION
  2
OBJECTS
  0
DICTIONARY
  5
C
330
0
100
AcDbDictionary
  3
ACAD_GROUP
350
D
  3
ACAD_LAYOUT
350
19
  3
ACAD_MLINESTYLE
350
16
  3
ACAD_PLOTSETTINGS
350
18
  3
ACAD_PLOTSTYLENAME
350
E
  3
ACDBHEADERROUNDTRIPXREC
350
212
  3
ACDBVARIABLEDICTIONARY
350
F0
  0
DICTIONARY
  5
BB
330
1E
100
AcDbDictionary
280
     1
  3
ACAD_LAYOUTSELFREF
360
234
  0
DICTIONARY
  5
BD
330
1A
100
AcDbDictionary
280
     1
  3
ACAD_LAYOUTSELFREF
360
233
  0
DICTIONARY
  5
D
102
{ACAD_REACTORS
330
C
102
}
330
C
100
AcDbDictionary
  0
DICTIONARY
  5
19
102
{ACAD_REACTORS
330
C
102
}
330
C
100
AcDbDictionary
  0
DICTIONARY
  5
16
102
{ACAD_REACTORS
330
C
102
}
330
C
100
AcDbDictionary
  3
STANDARD
350
17
  0
DICTIONARY
  5
18
102
{ACAD_REACTORS
330
C
102
}
330
C
100
AcDbDictionary
  0
ACDBDICTIONARYWDFLT
  5
E
102
{ACAD_REACTORS
330
C
102
}
330
C
100
AcDbDictionary
281
     1
  3
Normal
350
F
100
AcDbDictionaryWithDefault
340
F
  0
DICTIONARY
  5
212
102
{ACAD_REACTORS
330
C
102
}
330
C
100
AcDbDictionary
  3
CEPSNTYPE
350
21C
  3
DIMSTYLEDATA
350
220
  3
FINGERPRINTGUID
350
21D
  3
HYPERLINKBASE
350
215
  3
INSUNITS
350
21B
  3
LAYOUTDICT
350
217
  3
LWETCUNION
350
21A
  3
PLOTSETDICT
350
218
  3
PLOTSTYLNAMDICT
350
219
  3
PSVPSCALE
350
21F
  3
PUCSBASE
350
223
  3
PUCSORGBACK
350
229
  3
PUCSORGBOTTOM
350
225
  3
PUCSORGFRONT
350
228
  3
PUCSORGLEFT
350
226
  3
PUCSORGRIGHT
350
227
  3
PUCSORGTOP
350
224
  3
PUCSORTHOREF
350
221
  3
PUCSORTHOVIEW
350
222
  3
STYLESHEET
350
216
  3
TSTACKALIGN
350
213
  3
TSTACKSIZE
350
214
  3
UCSBASE
350
22C
  3
UCSORGBACK
350
232
  3
UCSORGBOTTOM
350
22E
  3
UCSORGFRONT
350
231
  3
UCSORGLEFT
350
22F
  3
UCSORGRIGHT
350
230
  3
UCSORGTOP
350
22D
  3
UCSORTHOREF
350
22A
  3
UCSORTHOVIEW
350
22B
  3
VERSIONGUID
350
21E
  0
DICTIONARY
  5
F0
102
{ACAD_REACTORS
330
C
102
}
330
C
100
AcDbDictionary
  3
DIMASSOC
350
F2
  3
HIDETEXT
350
F1
  0
XRECORD
  5
234
102
{ACAD_REACTORS
330
BB
102
}
330
BB
100
AcDbXrecord
340
1E
  0
XRECORD
  5
233
102
{ACAD_REACTORS
330
BD
102
}
330
BD
100
AcDbXrecord
340
1A
  0
MLINESTYLE
  5
17
102
{ACAD_REACTORS
330
16
102
}
330
16
100
AcDbMlineStyle
  2
STANDARD
 70
     0
  3

 62
   256
 51
90.0
 52
90.0
 71
     2
 49
0.5
 62
   256
  6
BYLAYER
 49
-0.5
 62
   256
  6
BYLAYER
  0
ACDBPLACEHOLDER
  5
F
102
{ACAD_REACTORS
330
E
102
}
330
E
100
AcDbPlaceHolder
280
     0
  0
XRECORD
  5
21C
102
{ACAD_REACTORS
330
212
102
}
330
212
100
AcDbXrecord
 90
        0
  0
XRECORD
  5
220
102
{ACAD_REACTORS
330
212
102
}
330
212
100
AcDbXrecord
1000
DSTYLE
1002
{
1070
   277
 70
     5
1070
   279
 70
     2
1002
}
  0
XRECORD
  5
21D
102
{ACAD_REACTORS
330
212
102
}
330
212
100
AcDbXrecord
  1
{0AFDD765-AFE2-4055-BE35-702DF5A2A53F}
  0
XRECORD
  5
215
102
{ACAD_REACTORS
330
212
102
}
330
212
100
AcDbXrecord
  1

  0
XRECORD
  5
21B
102
{ACAD_REACTORS
330
212
102
}
330
212
100
AcDbXrecord
 90
        0
  0
XRECORD
  5
217
102
{ACAD_REACTORS
330
212
102
}
330
212
100
AcDbXrecord
340
19
  0
XRECORD
  5
21A
102
{ACAD_REACTORS
330
212
102
}
330
212
100
AcDbXrecord
 90
    14877
  0
XRECORD
  5
218
102
{ACAD_REACTORS
330
212
102
}
330
212
100
AcDbXrecord
340
18
  0
XRECORD
  5
219
102
{ACAD_REACTORS
330
212
102
}
330
212
100
AcDbXrecord
340
E
  0
XRECORD
  5
21F
102
{ACAD_REACTORS
330
212
102
}
330
212
100
AcDbXrecord
 40
0.0
  0
XRECORD
  5
223
102
{ACAD_REACTORS
330
212
102
}
330
212
100
AcDbXrecord
340
0
  0
XRECORD
  5
229
102
{ACAD_REACTORS
330
212
102
}
330
212
100
AcDbXrecord
 10
0.0
 20
0.0
 30
0.0
  0
XRECORD
  5
225
102
{ACAD_REACTORS
330
212
102
}
330
212
100
AcDbXrecord
 10
0.0
 20
0.0
 30
0.0
  0
XRECORD
  5
228
102
{ACAD_REACTORS
330
212
102
}
330
212
100
AcDbXrecord
 10
0.0
 20
0.0
 30
0.0
  0
XRECORD
  5
226
102
{ACAD_REACTORS
330
212
102
}
330
212
100
AcDbXrecord
 10
0.0
 20
0.0
 30
0.0
  0
XRECORD
  5
227
102
{ACAD_REACTORS
330
212
102
}
330
212
100
AcDbXrecord
 10
0.0
 20
0.0
 30
0.0
  0
XRECORD
  5
224
102
{ACAD_REACTORS
330
212
102
}
330
212
100
AcDbXrecord
 10
0.0
 20
0.0
 30
0.0
  0
XRECORD
  5
221
102
{ACAD_REACTORS
330
212
102
}
330
212
100
AcDbXrecord
340
0
  0
XRECORD
  5
222
102
{ACAD_REACTORS
330
212
102
}
330
212
100
AcDbXrecord
 70
     0
  0
XRECORD
  5
216
102
{ACAD_REACTORS
330
212
102
}
330
212
100
AcDbXrecord
  1

  0
XRECORD
  5
213
102
{ACAD_REACTORS
330
212
102
}
330
212
100
AcDbXrecord
 90
        1
  0
XRECORD
  5
214
102
{ACAD_REACTORS
330
212
102
}
330
212
100
AcDbXrecord
 90
       70
  0
XRECORD
  5
22C
102
{ACAD_REACTORS
330
212
102
}
330
212
100
AcDbXrecord
340
0
  0
XRECORD
  5
232
102
{ACAD_REACTORS
330
212
102
}
330
212
100
AcDbXrecord
 10
0.0
 20
0.0
 30
0.0
  0
XRECORD
  5
22E
102
{ACAD_REACTORS
330
212
102
}
330
212
100
AcDbXrecord
 10
0.0
 20
0.0
 30
0.0
  0
XRECORD
  5
231
102
{ACAD_REACTORS
330
212
102
}
330
212
100
AcDbXrecord
 10
0.0
 20
0.0
 30
0.0
  0
XRECORD
  5
22F
102
{ACAD_REACTORS
330
212
102
}
330
212
100
AcDbXrecord
 10
0.0
 20
0.0
 30
0.0
  0
XRECORD
  5
230
102
{ACAD_REACTORS
330
212
102
}
330
212
100
AcDbXrecord
 10
0.0
 20
0.0
 30
0.0
  0
XRECORD
  5
22D
102
{ACAD_REACTORS
330
212
102
}
330
212
100
AcDbXrecord
 10
0.0
 20
0.0
 30
0.0
  0
XRECORD
  5
22A
102
{ACAD_REACTORS
330
212
102
}
330
212
100
AcDbXrecord
340
0
  0
XRECORD
  5
22B
102
{ACAD_REACTORS
330
212
102
}
330
212
100
AcDbXrecord
 70
     0
  0
XRECORD
  5
21E
102
{ACAD_REACTORS
330
212
102
}
330
212
100
AcDbXrecord
  1
{A5F2D547-2A2A-42D6-A05A-A3336F6E6F6C}
  0
DICTIONARYVAR
  5
F2
102
{ACAD_REACTORS
330
F0
102
}
330
F0
100
DictionaryVariables
280
     0
  1
2
  0
DICTIONARYVAR
  5
F1
102
{ACAD_REACTORS
330
F0
102
}
330
F0
100
DictionaryVariables
280
     0
  1
1
  0
ENDSEC
  0
EOF
