  0
SECTION
  2
HEADER
  9
$ACADVER
  1
AC1014
  9
$ACADMAINTVER
 70
     9
  9
$DWGCODEPAGE
  3
ANSI_1252
  9
$INSBASE
 10
11.89919239213293
 20
1.044844125729765
 30
0.0
  9
$EXTMIN
 10
3.467268447383148
 20
-2.207910932822939
 30
0.0
  9
$EXTMAX
 10
16.85829846102571
 20
2.063216221534464
 30
0.0
  9
$LIMMIN
 10
0.0
 20
0.0
  9
$LIMMAX
 10
36.0
 20
36.0
  9
$ORTHOMODE
 70
     1
  9
$REGENMODE
 70
     1
  9
$FILLMODE
 70
     1
  9
$QTEXTMODE
 70
     0
  9
$MIRRTEXT
 70
     1
  9
$DRAGMODE
 70
     0
  9
$LTSCALE
 40
1.0
  9
$OSMODE
 70
    37
  9
$ATTMODE
 70
     1
  9
$TEXTSIZE
 40
0.2
  9
$TRACEWID
 40
0.05
  9
$TEXTSTYLE
  7
STANDARD
  9
$CLAYER
  8
ADP1DETAIL
  9
$CELTYPE
  6
BYLAYER
  9
$CECOLOR
 62
   256
  9
$CELTSCALE
 40
1.0
  9
$DELOBJ
 70
     1
  9
$DISPSILH
 70
     0
  9
$DIMSCALE
 40
1.0
  9
$DIMASZ
 40
0.125
  9
$DIMEXO
 40
0.0625
  9
$DIMDLI
 40
0.38
  9
$DIMRND
 40
0.0
  9
$DIMDLE
 40
0.0
  9
$DIMEXE
 40
0.18
  9
$DIMTP
 40
0.0
  9
$DIMTM
 40
0.0
  9
$DIMTXT
 40
0.125
  9
$DIMCEN
 40
0.1875
  9
$DIMTSZ
 40
0.125
  9
$DIMTOL
 70
     0
  9
$DIMLIM
 70
     0
  9
$DIMTIH
 70
     0
  9
$DIMTOH
 70
     0
  9
$DIMSE1
 70
     0
  9
$DIMSE2
 70
     0
  9
$DIMTAD
 70
     0
  9
$DIMZIN
 70
     2
  9
$DIMBLK
  1

  9
$DIMASO
 70
     1
  9
$DIMSHO
 70
     1
  9
$DIMPOST
  1

  9
$DIMAPOST
  1

  9
$DIMALT
 70
     0
  9
$DIMALTD
 70
     1
  9
$DIMALTF
 40
25.4
  9
$DIMLFAC
 40
1.0
  9
$DIMTOFL
 70
     0
  9
$DIMTVP
 40
0.0
  9
$DIMTIX
 70
     0
  9
$DIMSOXD
 70
     0
  9
$DIMSAH
 70
     0
  9
$DIMBLK1
  1

  9
$DIMBLK2
  1

  9
$DIMSTYLE
  2
STANDARD
  9
$DIMCLRD
 70
     0
  9
$DIMCLRE
 70
     0
  9
$DIMCLRT
 70
     0
  9
$DIMTFAC
 40
1.0
  9
$DIMGAP
 40
0.125
  9
$DIMJUST
 70
     0
  9
$DIMSD1
 70
     0
  9
$DIMSD2
 70
     0
  9
$DIMTOLJ
 70
     1
  9
$DIMTZIN
 70
     0
  9
$DIMALTZ
 70
     0
  9
$DIMALTTZ
 70
     0
  9
$DIMFIT
 70
     3
  9
$DIMUPT
 70
     0
  9
$DIMUNIT
 70
     7
  9
$DIMDEC
 70
     2
  9
$DIMTDEC
 70
     4
  9
$DIMALTU
 70
     2
  9
$DIMALTTD
 70
     2
  9
$DIMTXSTY
  7
STANDARD
  9
$DIMAUNIT
 70
     0
  9
$LUNITS
 70
     5
  9
$LUPREC
 70
     4
  9
$SKETCHINC
 40
0.1
  9
$FILLETRAD
 40
0.062
  9
$AUNITS
 70
     0
  9
$AUPREC
 70
     0
  9
$MENU
  1
acad
  9
$ELEVATION
 40
0.0
  9
$PELEVATION
 40
0.0
  9
$THICKNESS
 40
0.0
  9
$LIMCHECK
 70
     0
  9
$BLIPMODE
 70
     0
  9
$CHAMFERA
 40
0.0
  9
$CHAMFERB
 40
0.0
  9
$CHAMFERC
 40
0.0
  9
$CHAMFERD
 40
0.0
  9
$SKPOLY
 70
     0
  9
$TDCREATE
 40
2450364.057033171
  9
$TDUPDATE
 40
2452297.085429143
  9
$TDINDWG
 40
0.1302186921
  9
$TDUSRTIMER
 40
0.1302186921
  9
$USRTIMER
 70
     1
  9
$ANGBASE
 50
0.0
  9
$ANGDIR
 70
     0
  9
$PDMODE
 70
     0
  9
$PDSIZE
 40
0.0
  9
$PLINEWID
 40
0.0
  9
$COORDS
 70
     2
  9
$SPLFRAME
 70
     0
  9
$SPLINETYPE
 70
     6
  9
$SPLINESEGS
 70
     8
  9
$ATTDIA
 70
     0
  9
$ATTREQ
 70
     1
  9
$HANDLING
 70
 22529
  9
$HANDSEED
  5
3F5
  9
$SURFTAB1
 70
     6
  9
$SURFTAB2
 70
     6
  9
$SURFTYPE
 70
     6
  9
$SURFU
 70
     6
  9
$SURFV
 70
     6
  9
$UCSNAME
  2

  9
$UCSORG
 10
0.0
 20
0.0
 30
0.0
  9
$UCSXDIR
 10
1.0
 20
0.0
 30
0.0
  9
$UCSYDIR
 10
0.0
 20
1.0
 30
0.0
  9
$PUCSNAME
  2

  9
$PUCSORG
 10
0.0
 20
0.0
 30
0.0
  9
$PUCSXDIR
 10
1.0
 20
0.0
 30
0.0
  9
$PUCSYDIR
 10
0.0
 20
1.0
 30
0.0
  9
$USERI1
 70
     0
  9
$USERI2
 70
     0
  9
$USERI3
 70
     0
  9
$USERI4
 70
     0
  9
$USERI5
 70
     0
  9
$USERR1
 40
0.0
  9
$USERR2
 40
0.0
  9
$USERR3
 40
0.0
  9
$USERR4
 40
0.0
  9
$USERR5
 40
0.0
  9
$WORLDVIEW
 70
     1
  9
$SHADEDGE
 70
     3
  9
$SHADEDIF
 70
    70
  9
$TILEMODE
 70
     1
  9
$MAXACTVP
 70
    15
  9
$PINSBASE
 10
-1.038494034028074E+34
 20
0.0
 30
0.0
  9
$PLIMCHECK
 70
     0
  9
$PEXTMIN
 10
1.000000000000000E+20
 20
1.000000000000000E+20
 30
1.000000000000000E+20
  9
$PEXTMAX
 10
-1.000000000000000E+20
 20
-1.000000000000000E+20
 30
-1.000000000000000E+20
  9
$PLIMMIN
 10
0.0
 20
0.0
  9
$PLIMMAX
 10
12.0
 20
9.0
  9
$UNITMODE
 70
     0
  9
$VISRETAIN
 70
     0
  9
$PLINEGEN
 70
     0
  9
$PSLTSCALE
 70
     1
  9
$TREEDEPTH
 70
  3020
  9
$PICKSTYLE
 70
     1
  9
$CMLSTYLE
  2
STANDARD
  9
$CMLJUST
 70
     0
  9
$CMLSCALE
 40
1.0
  9
$PROXYGRAPHICS
 70
     1
  9
$MEASUREMENT
 70
     0
  0
ENDSEC
  0
SECTION
  2
CLASSES
  0
CLASS
  1
ACDBDICTIONARYWDFLT
  2
AcDbDictionaryWithDefault
  3
AutoCAD 2000
 90
        0
280
     0
281
     0
  0
CLASS
  1
ACDBPLACEHOLDER
  2
AcDbPlaceHolder
  3
AutoCAD 2000
 90
        0
280
     0
281
     0
  0
CLASS
  1
LAYOUT
  2
AcDbLayout
  3
AutoCAD 2000
 90
        0
280
     0
281
     0
  0
CLASS
  1
DICTIONARYVAR
  2
AcDbDictionaryVar
  3
AutoCAD 2000
 90
        0
280
     0
281
     0
  0
CLASS
  1
LONG_TRANSACTION
  2
AcDbLongTransaction
  3
AutoCAD 2000
 90
        0
280
     0
281
     0
  0
CLASS
  1
LWPOLYLINE
  2
AcDbPolyline
  3
AutoCAD 2000
 90
        0
280
     0
281
     1
  0
CLASS
  1
HATCH
  2
AcDbHatch
  3
AutoCAD 2000
 90
        0
280
     0
281
     1
  0
CLASS
  1
XRECORD
  2
AcDbXrecord
  3
AutoCAD 2000
 90
        0
280
     0
281
     0
  0
CLASS
  1
LONG_TRANSACTION
  2
AcDbLongTransaction
  3
AutoCAD 2000
 90
        0
280
     0
281
     0
  0
CLASS
  1
LWPOLYLINE
  2
AcDbPolyline
  3
AutoCAD 2000
 90
        0
280
     0
281
     1
  0
CLASS
  1
HATCH
  2
AcDbHatch
  3
AutoCAD 2000
 90
        0
280
     0
281
     1
  0
CLASS
  1
XRECORD
  2
AcDbXrecord
  3
AutoCAD 2000
 90
        0
280
     0
281
     0
  0
CLASS
  1
LONG_TRANSACTION
  2
AcDbLongTransaction
  3
AutoCAD 2000
 90
        0
280
     0
281
     0
  0
CLASS
  1
LWPOLYLINE
  2
AcDbPolyline
  3
AutoCAD 2000
 90
        0
280
     0
281
     1
  0
CLASS
  1
HATCH
  2
AcDbHatch
  3
AutoCAD 2000
 90
        0
280
     0
281
     1
  0
CLASS
  1
XRECORD
  2
AcDbXrecord
  3
AutoCAD 2000
 90
        0
280
     0
281
     0
  0
CLASS
  1
LONG_TRANSACTION
  2
AcDbLongTransaction
  3
AutoCAD 2000
 90
        0
280
     0
281
     0
  0
CLASS
  1
LWPOLYLINE
  2
AcDbPolyline
  3
AutoCAD 2000
 90
        0
280
     0
281
     1
  0
CLASS
  1
HATCH
  2
AcDbHatch
  3
AutoCAD 2000
 90
        0
280
     0
281
     1
  0
CLASS
  1
XRECORD
  2
AcDbXrecord
  3
AutoCAD 2000
 90
        0
280
     0
281
     0
  0
CLASS
  1
LONG_TRANSACTION
  2
AcDbLongTransaction
  3
AutoCAD 2000
 90
        0
280
     0
281
     0
  0
CLASS
  1
LWPOLYLINE
  2
AcDbPolyline
  3
AutoCAD 2000
 90
        0
280
     0
281
     1
  0
CLASS
  1
HATCH
  2
AcDbHatch
  3
AutoCAD 2000
 90
        0
280
     0
281
     1
  0
CLASS
  1
XRECORD
  2
AcDbXrecord
  3
AutoCAD 2000
 90
        0
280
     0
281
     0
  0
ENDSEC
  0
SECTION
  2
TABLES
  0
TABLE
  2
VPORT
  5
8
330
0
100
AcDbSymbolTable
 70
     2
  0
VPORT
  5
3BD
330
8
100
AcDbSymbolTableRecord
100
AcDbViewportTableRecord
  2
*ACTIVE
 70
     0
 10
0.0
 20
0.0
 11
1.0
 21
1.0
 12
10.17343913522554
 22
-0.0723372023371347
 13
0.0
 23
0.0
 14
0.5740882589684922
 24
0.5740882589684922
 15
0.5
 25
0.5
 16
0.0
 26
0.0
 36
1.0
 17
0.0
 27
0.0
 37
0.0
 40
8.583844041612568
 41
1.570528967254408
 42
50.0
 43
0.0
 44
0.0
 50
0.0
 51
0.0
 71
     0
 72
   100
 73
     1
 74
     0
 75
     0
 76
     0
 77
     0
 78
     0
  0
ENDTAB
  0
TABLE
  2
LTYPE
  5
5
330
0
100
AcDbSymbolTable
 70
     1
  0
LTYPE
  5
12
330
5
100
AcDbSymbolTableRecord
100
AcDbLinetypeTableRecord
  2
BYBLOCK
 70
     0
  3

 72
    65
 73
     0
 40
0.0
  0
LTYPE
  5
13
330
5
100
AcDbSymbolTableRecord
100
AcDbLinetypeTableRecord
  2
BYLAYER
 70
     0
  3

 72
    65
 73
     0
 40
0.0
  0
LTYPE
  5
14
330
5
100
AcDbSymbolTableRecord
100
AcDbLinetypeTableRecord
  2
CONTINUOUS
 70
     0
  3
Solid line
 72
    65
 73
     0
 40
0.0
  0
ENDTAB
  0
TABLE
  2
LAYER
  5
2
330
0
100
AcDbSymbolTable
 70
     4
  0
LAYER
  5
F
330
2
100
AcDbSymbolTableRecord
100
AcDbLayerTableRecord
  2
0
 70
     0
 62
     7
  6
CONTINUOUS
  0
LAYER
  5
29
330
2
100
AcDbSymbolTableRecord
100
AcDbLayerTableRecord
  2
ADPDIM
 70
     0
 62
     3
  6
CONTINUOUS
  0
LAYER
  5
2B
330
2
100
AcDbSymbolTableRecord
100
AcDbLayerTableRecord
  2
ADP1DETAIL
 70
     0
 62
     7
  6
CONTINUOUS
  0
LAYER
  5
2D
330
2
100
AcDbSymbolTableRecord
100
AcDbLayerTableRecord
  2
DEFPOINTS
 70
     0
 62
     7
  6
CONTINUOUS
  0
ENDTAB
  0
TABLE
  2
STYLE
  5
3
330
0
100
AcDbSymbolTable
 70
     2
  0
STYLE
  5
10
330
3
100
AcDbSymbolTableRecord
100
AcDbTextStyleTableRecord
  2
STANDARD
 70
     0
 40
0.0
 41
1.0
 50
0.0
 71
     0
 42
0.2
  3
txt
  4

  0
STYLE
  5
1E6
330
3
100
AcDbSymbolTableRecord
100
AcDbTextStyleTableRecord
  2
ARIAL_WIDE
 70
     0
 40
0.0
 41
1.25
 50
0.0
 71
     0
 42
0.2
  3
ARIAL.TTF
  4

1001
ACAD
1000
Arial
1071
       34
  0
ENDTAB
  0
TABLE
  2
VIEW
  5
6
330
0
100
AcDbSymbolTable
 70
     0
  0
ENDTAB
  0
TABLE
  2
UCS
  5
7
330
0
100
AcDbSymbolTable
 70
     0
  0
ENDTAB
  0
TABLE
  2
APPID
  5
9
330
0
100
AcDbSymbolTable
 70
     1
  0
APPID
  5
11
330
9
100
AcDbSymbolTableRecord
100
AcDbRegAppTableRecord
  2
ACAD
 70
     0
  0
ENDTAB
  0
TABLE
  2
DIMSTYLE
  5
A
330
0
100
AcDbSymbolTable
 70
     1
  0
DIMSTYLE
105
8A
102
{ACAD_REACTORS
330
C5
330
175
102
}
330
A
100
AcDbSymbolTableRecord
100
AcDbDimStyleTableRecord
  2
STANDARD
 70
     0
  3

  4

  5

  6

  7

 40
1.0
 41
0.18
 42
0.0625
 43
0.38
 44
0.18
 45
0.0
 46
0.0
 47
0.0
 48
0.0
140
0.18
141
0.09
142
0.0
143
25.4
144
1.0
145
0.0
146
1.0
147
0.09
 71
     0
 72
     0
 73
     1
 74
     1
 75
     0
 76
     0
 77
     0
 78
     0
170
     0
171
     2
172
     0
173
     0
174
     0
175
     0
176
     0
177
     0
178
     0
270
     2
271
     4
272
     4
273
     2
274
     2
340
10
275
     0
280
     0
281
     0
282
     0
283
     1
284
     0
285
     0
286
     0
287
     3
288
     0
  0
ENDTAB
  0
TABLE
  2
BLOCK_RECORD
  5
1
330
0
100
AcDbSymbolTable
 70
     2
  0
BLOCK_RECORD
  5
18
102
{ACAD_XDICTIONARY
360
251
102
}
330
1
100
AcDbSymbolTableRecord
100
AcDbBlockTableRecord
  2
*MODEL_SPACE
  0
BLOCK_RECORD
  5
15
102
{ACAD_XDICTIONARY
360
24F
102
}
330
1
100
AcDbSymbolTableRecord
100
AcDbBlockTableRecord
  2
*PAPER_SPACE
  0
BLOCK_RECORD
  5
DD
330
1
100
AcDbSymbolTableRecord
100
AcDbBlockTableRecord
  2
*D0
  0
BLOCK_RECORD
  5
168
330
1
100
AcDbSymbolTableRecord
100
AcDbBlockTableRecord
  2
*D1
  0
ENDTAB
  0
ENDSEC
  0
SECTION
  2
BLOCKS
  0
BLOCK
  5
30
330
18
100
AcDbEntity
  8
0
100
AcDbBlockBegin
  2
*MODEL_SPACE
 70
     0
 10
0.0
 20
0.0
 30
0.0
  3
*MODEL_SPACE
  1

  0
ENDBLK
  5
31
330
18
100
AcDbEntity
  8
0
100
AcDbBlockEnd
  0
BLOCK
  5
2E
330
15
100
AcDbEntity
 67
     1
  8
0
100
AcDbBlockBegin
  2
*PAPER_SPACE
 70
     0
 10
0.0
 20
0.0
 30
0.0
  3
*PAPER_SPACE
  1

  0
ENDBLK
  5
2F
330
15
100
AcDbEntity
 67
     1
  8
0
100
AcDbBlockEnd
  0
BLOCK
  5
10F
330
DD
100
AcDbEntity
  8
0
100
AcDbBlockBegin
  2
*D0
 70
     1
 10
0.0
 20
0.0
 30
0.0
  3
*D0
  1

  0
LINE
  5
3E1
330
DD
100
AcDbEntity
  8
ADPDIM
 62
     0
100
AcDbLine
 10
12.01543165039314
 20
1.440881926035457
 30
0.0
 11
12.01543165039314
 21
2.063216221534464
 31
0.0
  0
LINE
  5
3E2
330
DD
100
AcDbEntity
  8
ADPDIM
 62
     0
100
AcDbLine
 10
13.76011447132156
 20
1.440881926035457
 30
0.0
 11
13.76011447132156
 21
2.063216221534464
 31
0.0
  0
LINE
  5
3E3
330
DD
100
AcDbEntity
  8
ADPDIM
 62
     0
100
AcDbLine
 10
12.01543165039314
 20
1.883216221534464
 30
0.0
 11
12.49193972752402
 21
1.883216221534464
 31
0.0
  0
LINE
  5
3E4
330
DD
100
AcDbEntity
  8
ADPDIM
 62
     0
100
AcDbLine
 10
13.76011447132156
 20
1.883216221534464
 30
0.0
 11
13.28360639419069
 21
1.883216221534464
 31
0.0
  0
LINE
  5
3E5
330
DD
100
AcDbEntity
  8
ADPDIM
 62
     0
100
AcDbLine
 10
13.63511447132156
 20
1.758216221534464
 30
0.0
 11
13.88511447132156
 21
2.008216221534464
 31
0.0
  0
LINE
  5
3E6
330
DD
100
AcDbEntity
  8
ADPDIM
 62
     0
100
AcDbLine
 10
11.89043165039314
 20
1.758216221534464
 30
0.0
 11
12.14043165039314
 21
2.008216221534464
 31
0.0
  0
MTEXT
  5
3E7
330
DD
100
AcDbEntity
  8
ADPDIM
 62
     0
100
AcDbMText
 10
12.88777306085735
 20
1.883216221534464
 30
0.0
 40
0.125
 41
0.0
 71
     5
 72
     1
  1
\A1;1 3/4
  0
POINT
  5
3E8
330
DD
100
AcDbEntity
  8
DEFPOINTS
 62
     0
100
AcDbPoint
 10
12.01543165039314
 20
1.378381926035457
 30
0.0
  0
POINT
  5
3E9
330
DD
100
AcDbEntity
  8
DEFPOINTS
 62
     0
100
AcDbPoint
 10
13.76011447132156
 20
1.378381926035457
 30
0.0
  0
POINT
  5
3EA
330
DD
100
AcDbEntity
  8
DEFPOINTS
 62
     0
100
AcDbPoint
 10
13.76011447132156
 20
1.883216221534464
 30
0.0
  0
ENDBLK
  5
11A
330
DD
100
AcDbEntity
  8
0
100
AcDbBlockEnd
  0
BLOCK
  5
1D0
330
168
100
AcDbEntity
  8
0
100
AcDbBlockBegin
  2
*D1
 70
     1
 10
0.0
 20
0.0
 30
0.0
  3
*D1
  1

  0
LINE
  5
3EB
330
168
100
AcDbEntity
  8
ADPDIM
 62
     0
100
AcDbLine
 10
12.95027306085735
 20
1.696488617246849
 30
0.0
 11
14.1743057981743
 21
1.696488617246849
 31
0.0
  0
LINE
  5
3EC
330
168
100
AcDbEntity
  8
ADPDIM
 62
     0
100
AcDbLine
 10
13.07821376554322
 20
-1.6880319479301
 30
0.0
 11
14.1743057981743
 21
-1.6880319479301
 31
0.0
  0
LINE
  5
3ED
330
168
100
AcDbEntity
  8
ADPDIM
 62
     0
100
AcDbLine
 10
13.9943057981743
 20
1.696488617246849
 30
0.0
 11
13.9943057981743
 21
0.4000616679917079
 31
0.0
  0
LINE
  5
3EE
330
168
100
AcDbEntity
  8
ADPDIM
 62
     0
100
AcDbLine
 10
13.9943057981743
 20
-1.6880319479301
 30
0.0
 11
13.9943057981743
 21
-0.3916049986749588
 31
0.0
  0
LINE
  5
3EF
330
168
100
AcDbEntity
  8
ADPDIM
 62
     0
100
AcDbLine
 10
14.11930579817429
 20
-1.8130319479301
 30
0.0
 11
13.8693057981743
 21
-1.5630319479301
 31
0.0
  0
LINE
  5
3F0
330
168
100
AcDbEntity
  8
ADPDIM
 62
     0
100
AcDbLine
 10
14.11930579817429
 20
1.571488617246849
 30
0.0
 11
13.8693057981743
 21
1.821488617246849
 31
0.0
  0
MTEXT
  5
3F1
330
168
100
AcDbEntity
  8
ADPDIM
 62
     0
100
AcDbMText
 10
13.9943057981743
 20
0.0042283346583767
 30
0.0
 40
0.125
 41
0.0
 71
     5
 72
     1
  1
\A1;3 1/2
 11
0.0000000000000001
 21
1.0
 31
0.0
  0
POINT
  5
3F2
330
168
100
AcDbEntity
  8
DEFPOINTS
 62
     0
100
AcDbPoint
 10
12.88777306085735
 20
1.696488617246849
 30
0.0
  0
POINT
  5
3F3
330
168
100
AcDbEntity
  8
DEFPOINTS
 62
     0
100
AcDbPoint
 10
13.01571376554322
 20
-1.6880319479301
 30
0.0
  0
POINT
  5
3F4
330
168
100
AcDbEntity
  8
DEFPOINTS
 62
     0
100
AcDbPoint
 10
13.9943057981743
 20
-1.6880319479301
 30
0.0
  0
ENDBLK
  5
1DB
330
168
100
AcDbEntity
  8
0
100
AcDbBlockEnd
  0
ENDSEC
  0
SECTION
  2
ENTITIES
  0
ARC
  5
4E
330
18
100
AcDbEntity
  8
ADP1DETAIL
100
AcDbCircle
 10
5.883338899783685
 20
-1.212993791973122
 30
0.0
 40
0.1343724932431098
100
AcDbArc
 50
356.0623594808129
 51
163.4580912611069
  0
ARC
  5
4F
330
18
100
AcDbEntity
  8
ADP1DETAIL
100
AcDbCircle
 10
5.967513900555932
 20
-1.262123041781034
 30
0.0
 40
0.1911194089939357
100
AcDbArc
 50
108.3877494889408
 51
227.80150315744
  0
LWPOLYLINE
  5
52
330
18
100
AcDbEntity
  8
ADP1DETAIL
100
AcDbPolyline
 90
        3
 70
     0
 43
0.0
 10
12.01543165039314
 20
1.378381926035457
 10
12.51425526267232
 20
-1.503410462077691
 42
0.4904165650250128
 10
13.26717226841413
 20
-1.503410462077691
 42
1.059329006092663
  0
LINE
  5
5C
330
18
100
AcDbEntity
  8
ADP1DETAIL
100
AcDbLine
 10
9.524192392132931
 20
1.117120190439729
 30
0.0
 11
11.39919239213293
 21
1.117120190439729
 31
0.0
  0
LINE
  5
5D
330
18
100
AcDbEntity
  8
ADP1DETAIL
100
AcDbLine
 10
11.39919239213293
 20
1.688523908420375
 30
0.0
 11
9.071908142203788
 21
1.688523908420375
 31
0.0
  0
LINE
  5
5E
330
18
100
AcDbEntity
  8
ADP1DETAIL
100
AcDbLine
 10
11.39919239213293
 20
1.465118134696764
 30
0.0
 11
9.053540759753694
 21
1.465118134696764
 31
0.0
  0
ARC
  5
5F
330
18
100
AcDbEntity
  8
ADP1DETAIL
100
AcDbCircle
 10
9.045203160773063
 20
-0.0289300435474834
 30
0.0
 40
1.717661559552181
100
AcDbArc
 50
89.10917004131084
 51
152.3146549020116
  0
ARC
  5
60
330
18
100
AcDbEntity
  8
ADP1DETAIL
100
AcDbCircle
 10
9.6510354112383
 20
-0.9426822329977868
 30
0.0
 40
2.063704236341736
100
AcDbArc
 50
93.52383506335609
 51
141.1724403903395
  0
ARC
  5
61
330
18
100
AcDbEntity
  8
ADP1DETAIL
100
AcDbCircle
 10
9.086218102279838
 20
0.3609224802079018
 30
0.0
 40
1.104679071996323
100
AcDbArc
 50
91.69510495463725
 51
157.0324859449322
  0
LWPOLYLINE
  5
62
330
18
100
AcDbEntity
  8
ADP1DETAIL
100
AcDbPolyline
 90
        3
 70
     0
 43
0.0
 10
8.043334538262751
 20
0.3512161703277956
 42
-0.1596853213323668
 10
9.524192392132931
 20
0.7463636363636363
 10
9.524192392132931
 20
1.117120190439729
  0
LINE
  5
6B
330
18
100
AcDbEntity
  8
ADP1DETAIL
100
AcDbLine
 10
11.39919239213293
 20
1.117120190439729
 30
0.0
 11
11.39919239213293
 21
1.688523908420375
 31
0.0
  0
LINE
  5
6F
330
18
100
AcDbEntity
  8
ADP1DETAIL
100
AcDbLine
 10
13.76011447132156
 20
1.378381926035456
 30
0.0
 11
13.26717226841413
 21
-1.503410462077691
 31
0.0
  0
LINE
  5
71
330
18
100
AcDbEntity
  8
ADP1DETAIL
100
AcDbLine
 10
13.44180926705492
 20
0.7902226203449434
 30
0.0
 11
12.35105048140616
 21
0.7902546141487559
 31
0.0
  0
DIMENSION
  5
C5
330
18
100
AcDbEntity
  8
ADPDIM
100
AcDbDimension
  2
*D0
 10
13.76011447132156
 20
1.883216221534464
 30
0.0
 11
12.88777306085735
 21
1.883216221534464
 31
0.0
 70
    32
  3
STANDARD
100
AcDbAlignedDimension
 13
12.01543165039314
 23
1.378381926035457
 33
0.0
 14
13.76011447132156
 24
1.378381926035457
 34
0.0
100
AcDbRotatedDimension
1001
ACAD
1000
DSTYLE
1002
{
1070
   270
1070
     7
1070
   270
1070
     7
1070
   270
1070
     7
1070
   270
1070
     7
1070
   270
1070
     7
1070
    41
1040
0.125
1070
    73
1070
     0
1070
    74
1070
     0
1070
    78
1070
     2
1070
   140
1040
0.125
1070
   141
1040
0.1875
1070
   142
1040
0.125
1070
   147
1040
0.125
1070
   171
1070
     1
1070
   271
1070
     2
1070
   276
1070
     2
1070
   277
1070
     5
1002
}
  0
ARC
  5
C7
330
18
100
AcDbEntity
  8
ADP1DETAIL
100
AcDbCircle
 10
12.88777306085735
 20
1.071488617246849
 30
0.0
 40
0.40625
100
AcDbArc
 50
32.57221494780893
 51
90.03299209357448
  0
ARC
  5
C8
330
18
100
AcDbEntity
  8
ADP1DETAIL
100
AcDbCircle
 10
12.88777306085735
 20
1.290238617246849
 30
0.0
 40
0.40625
100
AcDbArc
 50
54.7034709189056
 51
90.0
  0
LINE
  5
C9
330
18
100
AcDbEntity
  8
ADP1DETAIL
100
AcDbLine
 10
12.19597803828492
 20
1.102682309060083
 30
0.0
 11
12.3224353066176
 21
1.102738617246849
 31
0.0
  0
LINE
  5
CA
330
18
100
AcDbEntity
  8
ADP1DETAIL
100
AcDbLine
 10
12.13777306085735
 20
1.47783619042338
 30
0.0
 11
12.2774194418464
 21
1.47783619042338
 31
0.0
  0
ARC
  5
CB
330
18
100
AcDbEntity
  8
ADP1DETAIL
100
AcDbCircle
 10
12.13777306085735
 20
1.352738617246849
 30
0.0
 40
0.125
100
AcDbArc
 50
90.0
 51
246.3238531733126
  0
ARC
  5
CC
330
18
100
AcDbEntity
  8
ADP1DETAIL
100
AcDbCircle
 10
11.95866226614774
 20
1.024061546567356
 30
0.0
 40
0.2500000000000005
100
AcDbArc
 50
18.32960882129964
 51
58.95842546434906
  0
ARC
  5
CD
330
18
100
AcDbEntity
  8
ADP1DETAIL
100
AcDbCircle
 10
12.34255458183239
 20
2.169561410629786
 30
0.0
 40
0.6296294546398661
100
AcDbArc
 50
270.9972411168814
 51
299.5459647873847
  0
ARC
  5
CE
330
18
100
AcDbEntity
  8
ADP1DETAIL
100
AcDbCircle
 10
12.88777306085735
 20
1.071488617246849
 30
0.0
 40
0.40625
100
AcDbArc
 50
89.96700790642552
 51
147.427785052191
  0
LINE
  5
CF
330
18
100
AcDbEntity
  8
ADP1DETAIL
100
AcDbLine
 10
12.29402306085735
 20
1.540238617246849
 30
0.0
 11
12.35351281792252
 21
1.540027323219192
 31
0.0
  0
LINE
  5
D0
330
18
100
AcDbEntity
  8
ADP1DETAIL
100
AcDbLine
 10
12.2774194418464
 20
1.47783619042338
 30
0.0
 11
12.2941401217195
 21
1.540238617246849
 31
0.0
  0
LINE
  5
D1
330
18
100
AcDbEntity
  8
ADP1DETAIL
100
AcDbLine
 10
12.34214235072992
 20
1.290238617246849
 30
0.0
 11
12.35105048140616
 21
0.7902546141487559
 31
0.0
  0
LINE
  5
D2
330
18
100
AcDbEntity
  8
ADP1DETAIL
100
AcDbLine
 10
12.54542067313039
 20
1.290198253791853
 30
0.0
 11
12.34214235072992
 21
1.290238617246849
 31
0.0
  0
ARC
  5
D3
330
18
100
AcDbEntity
  8
ADP1DETAIL
100
AcDbCircle
 10
12.88777306085735
 20
1.290238617246849
 30
0.0
 40
0.40625
100
AcDbArc
 50
90.0
 51
125.2965290810944
  0
ARC
  5
D4
330
18
100
AcDbEntity
  8
ADP1DETAIL
100
AcDbCircle
 10
13.81688385556696
 20
1.024061546567356
 30
0.0
 40
0.2500000000000005
100
AcDbArc
 50
121.0415745356509
 51
161.6703911787003
  0
ARC
  5
D5
330
18
100
AcDbEntity
  8
ADP1DETAIL
100
AcDbCircle
 10
13.63777306085735
 20
1.352738617246849
 30
0.0
 40
0.125
100
AcDbArc
 50
293.6761468266873
 51
90.0
  0
ARC
  5
D6
330
18
100
AcDbEntity
  8
ADP1DETAIL
100
AcDbCircle
 10
13.43299153988231
 20
2.169561410629786
 30
0.0
 40
0.6296294546398661
100
AcDbArc
 50
240.4540352126153
 51
269.0027588831185
  0
LINE
  5
D7
330
18
100
AcDbEntity
  8
ADP1DETAIL
100
AcDbLine
 10
13.23012544858432
 20
1.290198253791853
 30
0.0
 11
13.43340377098479
 21
1.290238617246849
 31
0.0
  0
LINE
  5
D8
330
18
100
AcDbEntity
  8
ADP1DETAIL
100
AcDbLine
 10
13.63777306085735
 20
1.47783619042338
 30
0.0
 11
13.4981266798683
 21
1.47783619042338
 31
0.0
  0
LINE
  5
D9
330
18
100
AcDbEntity
  8
ADP1DETAIL
100
AcDbLine
 10
13.57956808342979
 20
1.102682309060083
 30
0.0
 11
13.4531108150971
 21
1.102738617246849
 31
0.0
  0
LINE
  5
DA
330
18
100
AcDbEntity
  8
ADP1DETAIL
100
AcDbLine
 10
13.48152306085735
 20
1.540238617246849
 30
0.0
 11
13.42203330379218
 21
1.540027323219192
 31
0.0
  0
LINE
  5
DB
330
18
100
AcDbEntity
  8
ADP1DETAIL
100
AcDbLine
 10
13.4981266798683
 20
1.47783619042338
 30
0.0
 11
13.48140599999521
 21
1.540238617246849
 31
0.0
  0
LINE
  5
DC
330
18
100
AcDbEntity
  8
ADP1DETAIL
100
AcDbLine
 10
13.43340377098479
 20
1.290238617246849
 30
0.0
 11
13.44180926705492
 21
0.7902226203449434
 31
0.0
  0
ARC
  5
145
330
18
100
AcDbEntity
  8
ADP1DETAIL
100
AcDbCircle
 10
13.54038688478329
 20
1.454012086239233
 30
0.0
 40
1.362018745155143
100
AcDbArc
 50
209.1654757269249
 51
237.0546842159639
  0
ARC
  5
146
330
18
100
AcDbEntity
  8
ADP1DETAIL
100
AcDbCircle
 10
12.25247286367779
 20
1.454012086239233
 30
0.0
 40
1.362018745155143
100
AcDbArc
 50
302.945315784036
 51
330.834524273075
  0
DIMENSION
  5
175
330
18
100
AcDbEntity
  8
ADPDIM
100
AcDbDimension
  2
*D1
 10
13.9943057981743
 20
-1.6880319479301
 30
0.0
 11
13.9943057981743
 21
0.0042283346583767
 31
0.0
 70
    32
  3
STANDARD
100
AcDbAlignedDimension
 13
12.88777306085735
 23
1.696488617246849
 33
0.0
 14
13.01571376554322
 24
-1.6880319479301
 34
0.0
 50
90.0
100
AcDbRotatedDimension
1001
ACAD
1000
DSTYLE
1002
{
1070
   270
1070
     7
1070
   270
1070
     7
1070
   270
1070
     7
1070
   270
1070
     7
1070
   270
1070
     7
1070
    41
1040
0.125
1070
    73
1070
     0
1070
    74
1070
     0
1070
    78
1070
     2
1070
   140
1040
0.125
1070
   141
1040
0.1875
1070
   142
1040
0.125
1070
   147
1040
0.125
1070
   171
1070
     1
1070
   271
1070
     2
1070
   276
1070
     2
1070
   277
1070
     5
1002
}
  0
LINE
  5
1B4
330
18
100
AcDbEntity
  8
ADP1DETAIL
100
AcDbLine
 10
11.39919239213293
 20
1.53838086038718
 30
0.0
 11
9.053540759753694
 21
1.53838086038718
 31
0.0
  0
ARC
  5
1B5
330
18
100
AcDbEntity
  8
ADP1DETAIL
100
AcDbCircle
 10
9.086218102279838
 20
0.4341852058983178
 30
0.0
 40
1.104679071996323
100
AcDbArc
 50
91.69510495463725
 51
157.0324859449322
  0
LWPOLYLINE
  5
1BA
330
18
100
AcDbEntity
  8
ADP1DETAIL
100
AcDbPolyline
 90
        3
 70
     0
 43
0.0
 10
5.754527850677031
 20
-1.174735713500562
 42
0.6116791912103784
 10
6.169861128205088
 20
-1.703494676557859
 42
0.2847757116342317
 10
6.812719647341072
 20
-1.392128100690909
  0
LWPOLYLINE
  5
1C2
330
18
100
AcDbEntity
  8
ADP1DETAIL
100
AcDbPolyline
 90
        3
 70
     0
 43
0.0
 10
7.524192392132931
 20
0.7691222572724499
 10
6.592311004586868
 20
-1.078494676557859
 42
-0.4227671848358311
 10
6.041289424377893
 20
-1.263918333505122
 42
-2.885464500885548
  0
LINE
  5
1C7
330
18
100
AcDbEntity
  8
ADP1DETAIL
100
AcDbLine
 10
8.043334538262751
 20
0.3512161703277956
 30
0.0
 11
6.812719647341072
 21
-1.392128100690909
 31
0.0
  0
ARC
  5
1C9
330
18
100
AcDbEntity
  8
ADP1DETAIL
100
AcDbCircle
 10
6.319086672006294
 20
-0.8226585748943927
 30
0.0
 40
0.7536372171998793
100
AcDbArc
 50
230.4432570192221
 51
310.9197101280902
  0
LINE
  5
1CA
330
18
100
AcDbEntity
  8
ADP1DETAIL
100
AcDbLine
 10
11.39919239213293
 20
1.22701428452023
 30
0.0
 11
9.053540759753694
 21
1.22701428452023
 31
0.0
  0
ARC
  5
1CB
330
18
100
AcDbEntity
  8
ADP1DETAIL
100
AcDbCircle
 10
9.086218102279838
 20
0.1228186300313676
 30
0.0
 40
1.104679071996323
100
AcDbArc
 50
91.69510495463725
 51
157.0324859449322
  0
LINE
  5
1CC
330
18
100
AcDbEntity
  8
ADP1DETAIL
100
AcDbLine
 10
8.069111088573478
 20
0.5538745136195505
 30
0.0
 11
7.428027092801912
 21
-0.520455965181557
 31
0.0
  0
TEXT
  5
1E7
330
18
100
AcDbEntity
  8
ADPDIM
100
AcDbText
 10
3.467268447383148
 20
-2.170905475797018
 30
0.0
 40
0.125
  1
J U L I U S  B L U M  &  C O . ,  I N C .      ( 8 0 0 )  5 2 6 - 6 2 9 3        W W W . J U L I U S B L U M . C O M        P A R T  N o .  4 4 2 9 - B
 41
1.25
  7
ARIAL_WIDE
 72
     1
 11
10.16278345420442
 21
-2.045905475797018
 31
0.0
100
AcDbText
 73
     3
  0
ENDSEC
  0
SECTION
  2
OBJECTS
  0
DICTIONARY
  5
C
330
0
100
AcDbDictionary
  3
ACAD_GROUP
350
D
  3
ACAD_LAYOUT
350
1E0
  3
ACAD_MLINESTYLE
350
E
  3
ACAD_PLOTSETTINGS
350
1E1
  3
ACAD_PLOTSTYLENAME
350
1DE
  3
ACDBHEADERROUNDTRIPXREC
350
3BE
  3
ACDBVARIABLEDICTIONARY
350
26B
  0
DICTIONARY
  5
251
330
18
100
AcDbDictionary
280
     1
  3
ACAD_LAYOUTSELFREF
360
3E0
  0
DICTIONARY
  5
24F
330
15
100
AcDbDictionary
280
     1
  3
ACAD_LAYOUTSELFREF
360
3DF
  0
DICTIONARY
  5
D
102
{ACAD_REACTORS
330
C
102
}
330
C
100
AcDbDictionary
  0
DICTIONARY
  5
1E0
102
{ACAD_REACTORS
330
C
102
}
330
C
100
AcDbDictionary
  0
DICTIONARY
  5
E
102
{ACAD_REACTORS
330
C
102
}
330
C
100
AcDbDictionary
  3
STANDARD
350
1B
  0
DICTIONARY
  5
1E1
102
{ACAD_REACTORS
330
C
102
}
330
C
100
AcDbDictionary
  0
ACDBDICTIONARYWDFLT
  5
1DE
102
{ACAD_REACTORS
330
C
102
}
330
C
100
AcDbDictionary
281
     1
  3
Normal
350
1DF
100
AcDbDictionaryWithDefault
340
1DF
  0
DICTIONARY
  5
3BE
102
{ACAD_REACTORS
330
C
102
}
330
C
100
AcDbDictionary
  3
CEPSNTYPE
350
3C8
  3
DIMSTYLEDATA
350
3CC
  3
FINGERPRINTGUID
350
3C9
  3
HYPERLINKBASE
350
3C1
  3
INSUNITS
350
3C7
  3
LAYOUTDICT
350
3C3
  3
LWETCUNION
350
3C6
  3
PLOTSETDICT
350
3C4
  3
PLOTSTYLNAMDICT
350
3C5
  3
PSVPSCALE
350
3CB
  3
PUCSBASE
350
3CF
  3
PUCSORGBACK
350
3D5
  3
PUCSORGBOTTOM
350
3D1
  3
PUCSORGFRONT
350
3D4
  3
PUCSORGLEFT
350
3D2
  3
PUCSORGRIGHT
350
3D3
  3
PUCSORGTOP
350
3D0
  3
PUCSORTHOREF
350
3CD
  3
PUCSORTHOVIEW
350
3CE
  3
STYLESHEET
350
3C2
  3
TSTACKALIGN
350
3BF
  3
TSTACKSIZE
350
3C0
  3
UCSBASE
350
3D8
  3
UCSORGBACK
350
3DE
  3
UCSORGBOTTOM
350
3DA
  3
UCSORGFRONT
350
3DD
  3
UCSORGLEFT
350
3DB
  3
UCSORGRIGHT
350
3DC
  3
UCSORGTOP
350
3D9
  3
UCSORTHOREF
350
3D6
  3
UCSORTHOVIEW
350
3D7
  3
VERSIONGUID
350
3CA
  0
DICTIONARY
  5
26B
102
{ACAD_REACTORS
330
C
102
}
330
C
100
AcDbDictionary
  3
DIMASSOC
350
26C
  0
XRECORD
  5
3E0
102
{ACAD_REACTORS
330
251
102
}
330
251
100
AcDbXrecord
340
18
  0
XRECORD
  5
3DF
102
{ACAD_REACTORS
330
24F
102
}
330
24F
100
AcDbXrecord
340
15
  0
MLINESTYLE
  5
1B
102
{ACAD_REACTORS
330
E
102
}
330
E
100
AcDbMlineStyle
  2
STANDARD
 70
     0
  3

 62
     0
 51
90.0
 52
90.0
 71
     2
 49
0.5
 62
   256
  6
BYLAYER
 49
-0.5
 62
   256
  6
BYLAYER
  0
ACDBPLACEHOLDER
  5
1DF
102
{ACAD_REACTORS
330
1DE
102
}
330
1DE
100
AcDbPlaceHolder
280
     0
  0
XRECORD
  5
3C8
102
{ACAD_REACTORS
330
3BE
102
}
330
3BE
100
AcDbXrecord
 90
        0
  0
XRECORD
  5
3CC
102
{ACAD_REACTORS
330
3BE
102
}
330
3BE
100
AcDbXrecord
1000
DSTYLE
1002
{
1070
   276
 70
     2
1070
   277
 70
     5
1002
}
  0
XRECORD
  5
3C9
102
{ACAD_REACTORS
330
3BE
102
}
330
3BE
100
AcDbXrecord
  1
{21A3E980-C2E2-4E1A-8C45-57BB03C98CAB}
  0
XRECORD
  5
3C1
102
{ACAD_REACTORS
330
3BE
102
}
330
3BE
100
AcDbXrecord
  1

  0
XRECORD
  5
3C7
102
{ACAD_REACTORS
330
3BE
102
}
330
3BE
100
AcDbXrecord
 90
        0
  0
XRECORD
  5
3C3
102
{ACAD_REACTORS
330
3BE
102
}
330
3BE
100
AcDbXrecord
340
1E0
  0
XRECORD
  5
3C6
102
{ACAD_REACTORS
330
3BE
102
}
330
3BE
100
AcDbXrecord
 90
    14877
  0
XRECORD
  5
3C4
102
{ACAD_REACTORS
330
3BE
102
}
330
3BE
100
AcDbXrecord
340
1E1
  0
XRECORD
  5
3C5
102
{ACAD_REACTORS
330
3BE
102
}
330
3BE
100
AcDbXrecord
340
1DE
  0
XRECORD
  5
3CB
102
{ACAD_REACTORS
330
3BE
102
}
330
3BE
100
AcDbXrecord
 40
0.0
  0
XRECORD
  5
3CF
102
{ACAD_REACTORS
330
3BE
102
}
330
3BE
100
AcDbXrecord
340
0
  0
XRECORD
  5
3D5
102
{ACAD_REACTORS
330
3BE
102
}
330
3BE
100
AcDbXrecord
 10
0.0
 20
0.0
 30
0.0
  0
XRECORD
  5
3D1
102
{ACAD_REACTORS
330
3BE
102
}
330
3BE
100
AcDbXrecord
 10
0.0
 20
0.0
 30
0.0
  0
XRECORD
  5
3D4
102
{ACAD_REACTORS
330
3BE
102
}
330
3BE
100
AcDbXrecord
 10
0.0
 20
0.0
 30
0.0
  0
XRECORD
  5
3D2
102
{ACAD_REACTORS
330
3BE
102
}
330
3BE
100
AcDbXrecord
 10
0.0
 20
0.0
 30
0.0
  0
XRECORD
  5
3D3
102
{ACAD_REACTORS
330
3BE
102
}
330
3BE
100
AcDbXrecord
 10
0.0
 20
0.0
 30
0.0
  0
XRECORD
  5
3D0
102
{ACAD_REACTORS
330
3BE
102
}
330
3BE
100
AcDbXrecord
 10
0.0
 20
0.0
 30
0.0
  0
XRECORD
  5
3CD
102
{ACAD_REACTORS
330
3BE
102
}
330
3BE
100
AcDbXrecord
340
0
  0
XRECORD
  5
3CE
102
{ACAD_REACTORS
330
3BE
102
}
330
3BE
100
AcDbXrecord
 70
     0
  0
XRECORD
  5
3C2
102
{ACAD_REACTORS
330
3BE
102
}
330
3BE
100
AcDbXrecord
  1

  0
XRECORD
  5
3BF
102
{ACAD_REACTORS
330
3BE
102
}
330
3BE
100
AcDbXrecord
 90
        1
  0
XRECORD
  5
3C0
102
{ACAD_REACTORS
330
3BE
102
}
330
3BE
100
AcDbXrecord
 90
       70
  0
XRECORD
  5
3D8
102
{ACAD_REACTORS
330
3BE
102
}
330
3BE
100
AcDbXrecord
340
0
  0
XRECORD
  5
3DE
102
{ACAD_REACTORS
330
3BE
102
}
330
3BE
100
AcDbXrecord
 10
0.0
 20
0.0
 30
0.0
  0
XRECORD
  5
3DA
102
{ACAD_REACTORS
330
3BE
102
}
330
3BE
100
AcDbXrecord
 10
0.0
 20
0.0
 30
0.0
  0
XRECORD
  5
3DD
102
{ACAD_REACTORS
330
3BE
102
}
330
3BE
100
AcDbXrecord
 10
0.0
 20
0.0
 30
0.0
  0
XRECORD
  5
3DB
102
{ACAD_REACTORS
330
3BE
102
}
330
3BE
100
AcDbXrecord
 10
0.0
 20
0.0
 30
0.0
  0
XRECORD
  5
3DC
102
{ACAD_REACTORS
330
3BE
102
}
330
3BE
100
AcDbXrecord
 10
0.0
 20
0.0
 30
0.0
  0
XRECORD
  5
3D9
102
{ACAD_REACTORS
330
3BE
102
}
330
3BE
100
AcDbXrecord
 10
0.0
 20
0.0
 30
0.0
  0
XRECORD
  5
3D6
102
{ACAD_REACTORS
330
3BE
102
}
330
3BE
100
AcDbXrecord
340
0
  0
XRECORD
  5
3D7
102
{ACAD_REACTORS
330
3BE
102
}
330
3BE
100
AcDbXrecord
 70
     0
  0
XRECORD
  5
3CA
102
{ACAD_REACTORS
330
3BE
102
}
330
3BE
100
AcDbXrecord
  1
{535BEBD7-E214-4742-B533-E489E1B84DF0}
  0
DICTIONARYVAR
  5
26C
102
{ACAD_REACTORS
330
26B
102
}
330
26B
100
DictionaryVariables
280
     0
  1
1
  0
ENDSEC
  0
EOF
