  0
SECTION
  2
HEADER
  9
$ACADVER
  1
AC1015
  9
$ACADMAINTVER
 70
    20
  9
$DWGCODEPAGE
  3
ANSI_1252
  9
$INSBASE
 10
4.983465951759281
 20
20.04977263903564
 30
0.0
  9
$EXTMIN
 10
-0.9148081934916945
 20
17.44912804677085
 30
-0.0015258207003583
  9
$EXTMAX
 10
12.47953273295191
 20
21.14617852925784
 30
0.0000000349246037
  9
$LIMMIN
 10
-23.61579290080726
 20
-21.96805058542325
  9
$LIMMAX
 10
-4.61579290080726
 20
2.031949414576754
  9
$ORTHOMODE
 70
     1
  9
$REGENMODE
 70
     1
  9
$FILLMODE
 70
     1
  9
$QTEXTMODE
 70
     0
  9
$MIRRTEXT
 70
     1
  9
$LTSCALE
 40
1.0
  9
$ATTMODE
 70
     1
  9
$TEXTSIZE
 40
0.2
  9
$TRACEWID
 40
0.125
  9
$TEXTSTYLE
  7
STANDARD
  9
$CLAYER
  8
ADP1DETAIL
  9
$CELTYPE
  6
ByLayer
  9
$CECOLOR
 62
   256
  9
$CELTSCALE
 40
1.0
  9
$DISPSILH
 70
     0
  9
$DIMSCALE
 40
1.0
  9
$DIMASZ
 40
0.18
  9
$DIMEXO
 40
0.0625
  9
$DIMDLI
 40
0.38
  9
$DIMRND
 40
0.0
  9
$DIMDLE
 40
0.0
  9
$DIMEXE
 40
0.18
  9
$DIMTP
 40
0.0
  9
$DIMTM
 40
0.0
  9
$DIMTXT
 40
0.18
  9
$DIMCEN
 40
0.09
  9
$DIMTSZ
 40
0.0
  9
$DIMTOL
 70
     0
  9
$DIMLIM
 70
     0
  9
$DIMTIH
 70
     1
  9
$DIMTOH
 70
     1
  9
$DIMSE1
 70
     0
  9
$DIMSE2
 70
     0
  9
$DIMTAD
 70
     0
  9
$DIMZIN
 70
     0
  9
$DIMBLK
  1

  9
$DIMASO
 70
     1
  9
$DIMSHO
 70
     1
  9
$DIMPOST
  1

  9
$DIMAPOST
  1

  9
$DIMALT
 70
     0
  9
$DIMALTD
 70
     2
  9
$DIMALTF
 40
25.4
  9
$DIMLFAC
 40
1.0
  9
$DIMTOFL
 70
     0
  9
$DIMTVP
 40
0.0
  9
$DIMTIX
 70
     0
  9
$DIMSOXD
 70
     0
  9
$DIMSAH
 70
     0
  9
$DIMBLK1
  1

  9
$DIMBLK2
  1

  9
$DIMSTYLE
  2
Standard
  9
$DIMCLRD
 70
     0
  9
$DIMCLRE
 70
     0
  9
$DIMCLRT
 70
     0
  9
$DIMTFAC
 40
1.0
  9
$DIMGAP
 40
0.09
  9
$DIMJUST
 70
     0
  9
$DIMSD1
 70
     0
  9
$DIMSD2
 70
     0
  9
$DIMTOLJ
 70
     1
  9
$DIMTZIN
 70
     0
  9
$DIMALTZ
 70
     0
  9
$DIMALTTZ
 70
     0
  9
$DIMUPT
 70
     0
  9
$DIMDEC
 70
     5
  9
$DIMTDEC
 70
     5
  9
$DIMALTU
 70
     5
  9
$DIMALTTD
 70
     2
  9
$DIMTXSTY
  7
STANDARD
  9
$DIMAUNIT
 70
     0
  9
$DIMADEC
 70
     0
  9
$DIMALTRND
 40
0.0
  9
$DIMAZIN
 70
     0
  9
$DIMDSEP
 70
    46
  9
$DIMATFIT
 70
     3
  9
$DIMFRAC
 70
     0
  9
$DIMLDRBLK
  1

  9
$DIMLUNIT
 70
     5
  9
$DIMLWD
 70
    -2
  9
$DIMLWE
 70
    -2
  9
$DIMTMOVE
 70
     2
  9
$LUNITS
 70
     5
  9
$LUPREC
 70
     5
  9
$SKETCHINC
 40
0.1
  9
$FILLETRAD
 40
0.038
  9
$AUNITS
 70
     0
  9
$AUPREC
 70
     0
  9
$MENU
  1
acad
  9
$ELEVATION
 40
0.0
  9
$PELEVATION
 40
0.0
  9
$THICKNESS
 40
0.0
  9
$LIMCHECK
 70
     0
  9
$CHAMFERA
 40
0.0
  9
$CHAMFERB
 40
0.0
  9
$CHAMFERC
 40
0.0
  9
$CHAMFERD
 40
0.0
  9
$SKPOLY
 70
     0
  9
$TDCREATE
 40
2450359.946486493
  9
$TDUCREATE
 40
2450360.113153160
  9
$TDUPDATE
 40
2453963.980871586
  9
$TDUUPDATE
 40
2453964.147538252
  9
$TDINDWG
 40
0.0967227546
  9
$TDUSRTIMER
 40
0.0967227546
  9
$USRTIMER
 70
     1
  9
$ANGBASE
 50
0.0
  9
$ANGDIR
 70
     0
  9
$PDMODE
 70
    34
  9
$PDSIZE
 40
0.0
  9
$PLINEWID
 40
0.0
  9
$SPLFRAME
 70
     0
  9
$SPLINETYPE
 70
     6
  9
$SPLINESEGS
 70
     8
  9
$HANDSEED
  5
2AF
  9
$SURFTAB1
 70
     6
  9
$SURFTAB2
 70
     6
  9
$SURFTYPE
 70
     6
  9
$SURFU
 70
     6
  9
$SURFV
 70
     6
  9
$UCSBASE
  2

  9
$UCSNAME
  2

  9
$UCSORG
 10
0.0
 20
0.0
 30
0.0
  9
$UCSXDIR
 10
1.0
 20
0.0
 30
0.0
  9
$UCSYDIR
 10
0.0
 20
1.0
 30
0.0
  9
$UCSORTHOREF
  2

  9
$UCSORTHOVIEW
 70
     0
  9
$UCSORGTOP
 10
0.0
 20
0.0
 30
0.0
  9
$UCSORGBOTTOM
 10
0.0
 20
0.0
 30
0.0
  9
$UCSORGLEFT
 10
0.0
 20
0.0
 30
0.0
  9
$UCSORGRIGHT
 10
0.0
 20
0.0
 30
0.0
  9
$UCSORGFRONT
 10
0.0
 20
0.0
 30
0.0
  9
$UCSORGBACK
 10
0.0
 20
0.0
 30
0.0
  9
$PUCSBASE
  2

  9
$PUCSNAME
  2

  9
$PUCSORG
 10
0.0
 20
0.0
 30
0.0
  9
$PUCSXDIR
 10
1.0
 20
0.0
 30
0.0
  9
$PUCSYDIR
 10
0.0
 20
1.0
 30
0.0
  9
$PUCSORTHOREF
  2

  9
$PUCSORTHOVIEW
 70
     0
  9
$PUCSORGTOP
 10
0.0
 20
0.0
 30
0.0
  9
$PUCSORGBOTTOM
 10
0.0
 20
0.0
 30
0.0
  9
$PUCSORGLEFT
 10
0.0
 20
0.0
 30
0.0
  9
$PUCSORGRIGHT
 10
0.0
 20
0.0
 30
0.0
  9
$PUCSORGFRONT
 10
0.0
 20
0.0
 30
0.0
  9
$PUCSORGBACK
 10
0.0
 20
0.0
 30
0.0
  9
$USERI1
 70
     0
  9
$USERI2
 70
     0
  9
$USERI3
 70
     0
  9
$USERI4
 70
     0
  9
$USERI5
 70
     0
  9
$USERR1
 40
0.0
  9
$USERR2
 40
0.0
  9
$USERR3
 40
0.0
  9
$USERR4
 40
0.0
  9
$USERR5
 40
0.0
  9
$WORLDVIEW
 70
     1
  9
$SHADEDGE
 70
     3
  9
$SHADEDIF
 70
    70
  9
$TILEMODE
 70
     1
  9
$MAXACTVP
 70
    15
  9
$PINSBASE
 10
0.0
 20
-0.0000000000727757
 30
0.0
  9
$PLIMCHECK
 70
     0
  9
$PEXTMIN
 10
1.000000000000000E+20
 20
1.000000000000000E+20
 30
1.000000000000000E+20
  9
$PEXTMAX
 10
-1.000000000000000E+20
 20
-1.000000000000000E+20
 30
-1.000000000000000E+20
  9
$PLIMMIN
 10
-21.61579290080726
 20
-19.96805058542324
  9
$PLIMMAX
 10
-9.61579290080726
 20
-10.96805058542324
  9
$UNITMODE
 70
     0
  9
$VISRETAIN
 70
     0
  9
$PLINEGEN
 70
     0
  9
$PSLTSCALE
 70
     1
  9
$TREEDEPTH
 70
  3020
  9
$CMLSTYLE
  2
Standard
  9
$CMLJUST
 70
     0
  9
$CMLSCALE
 40
1.0
  9
$PROXYGRAPHICS
 70
     1
  9
$MEASUREMENT
 70
     0
  9
$CELWEIGHT
370
    -1
  9
$ENDCAPS
280
     0
  9
$JOINSTYLE
280
     0
  9
$LWDISPLAY
290
     0
  9
$INSUNITS
 70
     0
  9
$HYPERLINKBASE
  1

  9
$STYLESHEET
  1

  9
$XEDIT
290
     1
  9
$CEPSNTYPE
380
     0
  9
$PSTYLEMODE
290
     1
  9
$FINGERPRINTGUID
  2
{C8797231-DF8B-415D-97E1-72020EB36B92}
  9
$VERSIONGUID
  2
{B4481E34-1594-428F-B46B-05E87C9C4A38}
  9
$EXTNAMES
290
     1
  9
$PSVPSCALE
 40
0.0
  9
$OLESTARTUP
290
     0
  0
ENDSEC
  0
SECTION
  2
CLASSES
  0
CLASS
  1
ACDBDICTIONARYWDFLT
  2
AcDbDictionaryWithDefault
  3
ObjectDBX Classes
 90
        0
280
     0
281
     0
  0
CLASS
  1
ACDBPLACEHOLDER
  2
AcDbPlaceHolder
  3
ObjectDBX Classes
 90
        0
280
     0
281
     0
  0
CLASS
  1
LAYOUT
  2
AcDbLayout
  3
ObjectDBX Classes
 90
        0
280
     0
281
     0
  0
CLASS
  1
DICTIONARYVAR
  2
AcDbDictionaryVar
  3
ObjectDBX Classes
 90
        0
280
     0
281
     0
  0
CLASS
  1
MATERIAL
  2
AcDbMaterial
  3
ObjectDBX Classes
 90
     1024
280
     0
281
     0
  0
CLASS
  1
VISUALSTYLE
  2
AcDbVisualStyle
  3
ObjectDBX Classes
 90
     4095
280
     0
281
     0
  0
CLASS
  1
TABLESTYLE
  2
AcDbTableStyle
  3
ObjectDBX Classes
 90
     4095
280
     0
281
     0
  0
ENDSEC
  0
SECTION
  2
TABLES
  0
TABLE
  2
VPORT
  5
8
330
0
100
AcDbSymbolTable
 70
     1
  0
VPORT
  5
1E2
330
8
100
AcDbSymbolTableRecord
100
AcDbViewportTableRecord
  2
*Active
 70
     0
 10
0.0
 20
0.0
 11
1.0
 21
1.0
 12
27.39815517053737
 22
39.25136133675898
 13
0.0
 23
0.0
 14
1.0
 24
1.0
 15
1.0
 25
1.0
 16
0.0
 26
0.0
 36
1.0
 17
-21.61579290080726
 27
-19.96805058542324
 37
0.0
 40
5.549863831615337
 41
2.432176656151419
 42
50.0
 43
0.0
 44
0.0
 50
0.0
 51
0.0
 71
     0
 72
   100
 73
     1
 74
     3
 75
     0
 76
     0
 77
     0
 78
     0
281
     0
 65
     1
110
0.0
120
0.0
130
0.0
111
1.0
121
0.0
131
0.0
112
0.0
122
1.0
132
0.0
 79
     0
146
0.0
  0
ENDTAB
  0
TABLE
  2
LTYPE
  5
5
330
0
100
AcDbSymbolTable
 70
     1
  0
LTYPE
  5
13
330
5
100
AcDbSymbolTableRecord
100
AcDbLinetypeTableRecord
  2
ByBlock
 70
     0
  3

 72
    65
 73
     0
 40
0.0
  0
LTYPE
  5
14
330
5
100
AcDbSymbolTableRecord
100
AcDbLinetypeTableRecord
  2
ByLayer
 70
     0
  3

 72
    65
 73
     0
 40
0.0
  0
LTYPE
  5
15
330
5
100
AcDbSymbolTableRecord
100
AcDbLinetypeTableRecord
  2
CONTINUOUS
 70
     0
  3
Solid line
 72
    65
 73
     0
 40
0.0
  0
ENDTAB
  0
TABLE
  2
LAYER
  5
2
330
0
100
AcDbSymbolTable
 70
     4
  0
LAYER
  5
10
330
2
100
AcDbSymbolTableRecord
100
AcDbLayerTableRecord
  2
0
 70
     0
 62
     7
  6
CONTINUOUS
370
    -3
390
F
  0
LAYER
  5
26
330
2
100
AcDbSymbolTableRecord
100
AcDbLayerTableRecord
  2
DEFPOINTS
 70
     0
 62
    -7
  6
CONTINUOUS
290
     0
370
    -3
390
F
  0
LAYER
  5
27
330
2
100
AcDbSymbolTableRecord
100
AcDbLayerTableRecord
  2
ADPDIM
 70
     0
 62
     3
  6
CONTINUOUS
370
    -3
390
F
  0
LAYER
  5
28
330
2
100
AcDbSymbolTableRecord
100
AcDbLayerTableRecord
  2
ADP1DETAIL
 70
     0
 62
     7
  6
CONTINUOUS
370
    -3
390
F
  0
ENDTAB
  0
TABLE
  2
STYLE
  5
3
330
0
100
AcDbSymbolTable
 70
     2
  0
STYLE
  5
11
330
3
100
AcDbSymbolTableRecord
100
AcDbTextStyleTableRecord
  2
STANDARD
 70
     0
 40
0.0
 41
1.0
 50
0.0
 71
     0
 42
0.2
  3
txt
  4

  0
STYLE
  5
89
330
3
100
AcDbSymbolTableRecord
100
AcDbTextStyleTableRecord
  2
ARIAL_WIDE
 70
     0
 40
0.0
 41
1.25
 50
0.0
 71
     0
 42
0.2
  3
ARIAL.TTF
  4

1001
ACAD
1000
Arial
1071
       34
  0
ENDTAB
  0
TABLE
  2
VIEW
  5
6
330
0
100
AcDbSymbolTable
 70
     0
  0
ENDTAB
  0
TABLE
  2
UCS
  5
7
330
0
100
AcDbSymbolTable
 70
     0
  0
ENDTAB
  0
TABLE
  2
APPID
  5
9
330
0
100
AcDbSymbolTable
 70
     2
  0
APPID
  5
12
330
9
100
AcDbSymbolTableRecord
100
AcDbRegAppTableRecord
  2
ACAD
 70
     0
  0
APPID
  5
283
330
9
100
AcDbSymbolTableRecord
100
AcDbRegAppTableRecord
  2
DCO15
 70
     0
  0
ENDTAB
  0
TABLE
  2
DIMSTYLE
  5
A
330
0
100
AcDbSymbolTable
 70
     1
100
AcDbDimStyleTable
 71
     1
340
87
  0
DIMSTYLE
105
87
102
{ACAD_REACTORS
330
234
330
67
102
}
330
A
100
AcDbSymbolTableRecord
100
AcDbDimStyleTableRecord
  2
Standard
 70
     0
340
11
  0
ENDTAB
  0
TABLE
  2
BLOCK_RECORD
  5
1
330
0
100
AcDbSymbolTable
 70
     5
  0
BLOCK_RECORD
  5
1E
102
{ACAD_XDICTIONARY
360
C6
102
}
330
1
100
AcDbSymbolTableRecord
100
AcDbBlockTableRecord
  2
*Model_Space
340
21
  0
BLOCK_RECORD
  5
1A
102
{ACAD_XDICTIONARY
360
C8
102
}
330
1
100
AcDbSymbolTableRecord
100
AcDbBlockTableRecord
  2
*Paper_Space
340
1D
  0
BLOCK_RECORD
  5
22
330
1
100
AcDbSymbolTableRecord
100
AcDbBlockTableRecord
  2
*D0
340
0
  0
BLOCK_RECORD
  5
24
330
1
100
AcDbSymbolTableRecord
100
AcDbBlockTableRecord
  2
4534-VX
340
0
102
{BLKREFS
331
66
102
}
  0
BLOCK_RECORD
  5
25
330
1
100
AcDbSymbolTableRecord
100
AcDbBlockTableRecord
  2
*D2
340
0
  0
BLOCK_RECORD
  5
235
330
1
100
AcDbSymbolTableRecord
100
AcDbBlockTableRecord
  2
*D3
340
0
  0
BLOCK_RECORD
  5
24C
330
1
100
AcDbSymbolTableRecord
100
AcDbBlockTableRecord
  2
*D4
340
0
  0
ENDTAB
  0
ENDSEC
  0
SECTION
  2
BLOCKS
  0
BLOCK
  5
2B
330
1E
100
AcDbEntity
  8
0
100
AcDbBlockBegin
  2
*Model_Space
 70
     0
 10
0.0
 20
0.0
 30
0.0
  3
*Model_Space
  1

  0
ENDBLK
  5
2C
330
1E
100
AcDbEntity
  8
0
100
AcDbBlockEnd
  0
BLOCK
  5
29
330
1A
100
AcDbEntity
 67
     1
  8
0
100
AcDbBlockBegin
  2
*Paper_Space
 70
     0
 10
0.0
 20
0.0
 30
0.0
  3
*Paper_Space
  1

  0
ENDBLK
  5
2A
330
1A
100
AcDbEntity
 67
     1
  8
0
100
AcDbBlockEnd
  0
BLOCK
  5
2E
330
22
100
AcDbEntity
  8
0
100
AcDbBlockBegin
  2
*D0
 70
     1
 10
0.0
 20
0.0
 30
0.0
  3
*D0
  1

  0
LINE
  5
2F
330
22
100
AcDbEntity
  8
0
  6
ByBlock
 62
     0
100
AcDbLine
 10
9.819639271290983
 20
20.92657591983663
 30
0.0
 11
9.819639271290983
 21
21.58400661649438
 31
0.0
  0
LINE
  5
30
330
22
100
AcDbEntity
  8
0
  6
ByBlock
 62
     0
100
AcDbLine
 10
11.75168229410927
 20
20.92657591983663
 30
0.0
 11
11.75168229410927
 21
21.58400661649438
 31
0.0
  0
LINE
  5
31
330
22
100
AcDbEntity
  8
0
  6
ByBlock
 62
     0
100
AcDbLine
 10
9.999639271290982
 20
21.40400661649438
 30
0.0
 11
10.18566078270013
 21
21.40400661649438
 31
0.0
  0
LINE
  5
32
330
22
100
AcDbEntity
  8
0
  6
ByBlock
 62
     0
100
AcDbLine
 10
11.57168229410927
 20
21.40400661649438
 30
0.0
 11
11.38566078270013
 21
21.40400661649438
 31
0.0
  0
SOLID
  5
33
330
22
100
AcDbEntity
  8
0
  6
ByBlock
 62
     0
100
AcDbTrace
 10
9.999639271290982
 20
21.43400661649438
 30
0.0
 11
9.999639271290982
 21
21.37400661649438
 31
0.0
 12
9.819639271290983
 22
21.40400661649438
 32
0.0
 13
9.819639271290983
 23
21.40400661649438
 33
0.0
  0
SOLID
  5
34
330
22
100
AcDbEntity
  8
0
  6
ByBlock
 62
     0
100
AcDbTrace
 10
11.57168229410927
 20
21.43400661649438
 30
0.0
 11
11.57168229410927
 21
21.37400661649438
 31
0.0
 12
11.75168229410927
 22
21.40400661649438
 32
0.0
 13
11.75168229410927
 23
21.40400661649438
 33
0.0
  0
TEXT
  5
35
330
22
100
AcDbEntity
  8
0
  6
ByBlock
 62
     0
100
AcDbText
 10
10.27566078270013
 20
21.31400661649438
 30
0.0
 40
0.18
  1
1 15/16
 72
     1
 11
10.78566078270013
 21
21.40400661649438
 31
0.0
100
AcDbText
 73
     2
  0
POINT
  5
37
330
22
100
AcDbEntity
  8
DEFPOINTS
  6
ByBlock
 62
     0
100
AcDbPoint
 10
9.819639271290983
 20
20.86407591983663
 30
0.0
  0
POINT
  5
38
330
22
100
AcDbEntity
  8
DEFPOINTS
  6
ByBlock
 62
     0
100
AcDbPoint
 10
11.75168229410927
 20
20.86407591983663
 30
0.0
  0
POINT
  5
39
330
22
100
AcDbEntity
  8
DEFPOINTS
  6
ByBlock
 62
     0
100
AcDbPoint
 10
11.75168229410927
 20
21.40400661649438
 30
0.0
  0
ENDBLK
  5
3A
330
22
100
AcDbEntity
  8
0
100
AcDbBlockEnd
  0
BLOCK
  5
3B
330
24
100
AcDbEntity
  8
0
100
AcDbBlockBegin
  2
4534-VX
 70
     0
 10
0.0
 20
0.0
 30
0.0
  3
4534-VX
  1

  0
ARC
  5
3C
330
24
100
AcDbEntity
  8
ADP1DETAIL
100
AcDbCircle
 10
2.984369519272243
 20
-0.6466189486712225
 30
0.0
 40
0.3912896229210079
100
AcDbArc
 50
82.44919070684273
 51
157.2380208550085
  0
LINE
  5
3D
330
24
100
AcDbEntity
  8
ADP1DETAIL
100
AcDbLine
 10
0.0
 20
0.2682732471766744
 30
0.0
 11
3.07948398667329
 21
0.2682732471766731
 31
0.0
  0
LINE
  5
3E
330
24
100
AcDbEntity
  8
ADP1DETAIL
100
AcDbLine
 10
0.0000000000000018
 20
0.3841333946138237
 30
0.0
 11
3.087164806886546
 21
0.3841333946138228
 31
0.0
  0
LINE
  5
3F
330
24
100
AcDbEntity
  8
ADP1DETAIL
100
AcDbLine
 10
0.0
 20
0.4792436112262531
 30
0.0
 11
3.09310629266149
 21
0.4792436112262531
 31
0.0
  0
ARC
  5
40
330
24
100
AcDbEntity
  8
ADP1DETAIL
100
AcDbCircle
 10
3.131301715677908
 20
-0.6553123697077322
 30
0.0
 40
1.04229025383034
100
AcDbArc
 50
190.5823549113867
 51
311.8776290055511
  0
LINE
  5
41
330
24
100
AcDbEntity
  8
ADP1DETAIL
100
AcDbLine
 10
0.0
 20
0.7392065906574135
 30
0.0
 11
3.108027710718667
 21
0.7392065906574135
 31
0.0
  0
LINE
  5
42
330
24
100
AcDbEntity
  8
ADP1DETAIL
100
AcDbLine
 10
3.03746708161046
 20
0.0
 30
0.0
 11
0.0
 21
0.0
 31
0.0
  0
ARC
  5
43
330
24
100
AcDbEntity
  8
ADP1DETAIL
100
AcDbCircle
 10
3.131301715677908
 20
-0.655312369707734
 30
0.0
 40
0.7823272743991796
100
AcDbArc
 50
190.478886453533
 51
311.7154694145282
  0
ARC
  5
44
330
24
100
AcDbEntity
  8
ADP1DETAIL
100
AcDbCircle
 10
3.131301715677908
 20
-0.6553123697077331
 30
0.0
 40
0.6872170577867501
100
AcDbArc
 50
190.4191079442777
 51
311.6273613151874
  0
ARC
  5
45
330
24
100
AcDbEntity
  8
ADP1DETAIL
100
AcDbCircle
 10
3.131301715677908
 20
-0.6553123697077346
 30
0.0
 40
0.5713569103496001
100
AcDbArc
 50
190.3151017276877
 51
311.483185074061
  0
ARC
  5
46
330
24
100
AcDbEntity
  8
ADP1DETAIL
100
AcDbCircle
 10
2.939179462173212
 20
-0.5540432195845052
 30
0.0
 40
0.4954190100972865
100
AcDbArc
 50
34.67874676907758
 51
114.7580377615327
  0
ARC
  5
47
330
24
100
AcDbEntity
  8
ADP1DETAIL
100
AcDbCircle
 10
2.989895915835885
 20
-0.6235057136837588
 30
0.0
 40
0.5006722074412647
100
AcDbArc
 50
44.56702423403871
 51
157.1115962654142
  0
CIRCLE
  5
48
330
24
100
AcDbEntity
  8
ADP1DETAIL
100
AcDbCircle
 10
3.101809904962921
 20
-0.6139404549463706
 30
0.0
 40
0.1932530045301785
  0
DIMENSION
  5
49
330
24
100
AcDbEntity
  8
ADPDIM
100
AcDbDimension
  2
*D2
 10
1.747856368448266
 20
-1.856281094207384
 30
0.0
 11
0.8739281842241322
 21
-1.856281094207384
 31
0.0
 12
-15.08056303245388
 22
-2.260099767724089
 32
0.0
 71
     5
 42
-1.0
100
AcDbAlignedDimension
 13
0.0
 23
0.0
 33
0.0
 14
1.747856368448266
 24
-0.2486422168574927
 34
0.0
100
AcDbRotatedDimension
  0
LINE
  5
4A
330
24
100
AcDbEntity
  8
ADP1DETAIL
100
AcDbLine
 10
0.0
 20
0.0
 30
0.0
 11
0.0
 21
0.7392065906574135
 31
0.0
  0
LINE
  5
4B
330
24
100
AcDbEntity
  8
ADP1DETAIL
100
AcDbLine
 10
2.219299786951006
 20
-0.2486422168574927
 30
0.0
 11
1.747856368448266
 21
-0.2486422168574927
 31
0.0
  0
ARC
  5
4C
330
24
100
AcDbEntity
  8
ADP1DETAIL
100
AcDbCircle
 10
2.901132934403287
 20
-0.6895792058344725
 30
0.0
 40
0.809788657023313
100
AcDbArc
 50
145.0015973469563
 51
191.1898712220605
  0
LINE
  5
4D
330
24
100
AcDbEntity
  8
ADP1DETAIL
100
AcDbLine
 10
1.747856368448266
 20
-0.2486422168574927
 30
0.0
 11
1.747856368448266
 21
0.0
 31
0.0
  0
ARC
  5
4E
330
24
100
AcDbEntity
  8
ADP1DETAIL
100
AcDbCircle
 10
2.901132934403287
 20
-0.6895792058344719
 30
0.0
 40
0.5498256775921539
100
AcDbArc
 50
145.0015973469565
 51
191.3298938569174
  0
ARC
  5
4F
330
24
100
AcDbEntity
  8
ADP1DETAIL
100
AcDbCircle
 10
2.901132934403287
 20
-0.6895792058344698
 30
0.0
 40
0.4547154609797227
100
AcDbArc
 50
145.0015973469567
 51
191.4175543551538
  0
ARC
  5
50
330
24
100
AcDbEntity
  8
ADP1DETAIL
100
AcDbCircle
 10
2.901132934403287
 20
-0.6895792058344716
 30
0.0
 40
0.3388553135425742
100
AcDbArc
 50
145.0015973469565
 51
191.5835830246702
  0
ARC
  5
51
330
24
100
AcDbEntity
  8
ADP1DETAIL
100
AcDbCircle
 10
2.96575465013783
 20
-0.6288552811570219
 30
0.0
 40
0.5745291149710093
100
AcDbArc
 50
114.0402061374981
 51
153.691848780566
  0
ARC
  5
52
330
24
100
AcDbEntity
  8
ADP1DETAIL
100
AcDbCircle
 10
2.304251487764121
 20
-0.5613270801815134
 30
0.0
 40
0.3240194673518897
100
AcDbArc
 50
55.06888034338729
 51
105.1995057704438
  0
ARC
  5
53
330
24
100
AcDbEntity
  8
ADP1DETAIL
100
AcDbCircle
 10
2.97206831904411
 20
-0.5102212834370559
 30
0.0
 40
1.256803472603708
100
AcDbArc
 50
312.8672398426568
 51
83.78966258560543
  0
ARC
  5
54
330
24
100
AcDbEntity
  8
ADP1DETAIL
100
AcDbCircle
 10
2.972068319044106
 20
-0.5102212834370626
 30
0.0
 40
0.996840493172548
100
AcDbArc
 50
312.9980630047573
 51
83.02584540120161
  0
ARC
  5
55
330
24
100
AcDbEntity
  8
ADP1DETAIL
100
AcDbCircle
 10
2.972068319044096
 20
-0.5102212834370717
 30
0.0
 40
0.9017302765601174
100
AcDbArc
 50
313.0662035893412
 51
82.66678522213396
  0
ARC
  5
56
330
24
100
AcDbEntity
  8
ADP1DETAIL
100
AcDbCircle
 10
2.972068319044092
 20
-0.5102212834370774
 30
0.0
 40
0.7858701291229683
100
AcDbArc
 50
313.1735235830392
 51
82.14400635682402
  0
ARC
  5
57
330
24
100
AcDbEntity
  8
ADP1DETAIL
100
AcDbCircle
 10
2.980467407322175
 20
-0.3763727788949915
 30
0.0
 40
0.3806644605976618
100
AcDbArc
 50
15.88807705287161
 51
81.38829610285792
  0
ARC
  5
58
330
24
100
AcDbEntity
  8
ADP1DETAIL
100
AcDbCircle
 10
2.945937685769903
 20
-0.6066326909390448
 30
0.0
 40
0.3593251267051409
100
AcDbArc
 50
3.508179988478755
 51
75.51950716151314
  0
ENDBLK
  5
59
330
24
100
AcDbEntity
  8
0
100
AcDbBlockEnd
  0
BLOCK
  5
5A
330
25
100
AcDbEntity
  8
0
100
AcDbBlockBegin
  2
*D2
 70
     1
 10
0.0
 20
0.0
 30
0.0
  3
*D2
  1
*U
  0
LINE
  5
5B
330
25
100
AcDbEntity
  8
0
  6
ByBlock
 62
     0
100
AcDbLine
 10
15.08056303245388
 20
2.197599767724089
 30
0.0
 11
15.08056303245388
 21
0.2238186735167047
 31
0.0
  0
LINE
  5
5C
330
25
100
AcDbEntity
  8
0
  6
ByBlock
 62
     0
100
AcDbLine
 10
16.82841940090214
 20
1.948957550866596
 30
0.0
 11
16.82841940090214
 21
0.2238186735167049
 31
0.0
  0
LINE
  5
5D
330
25
100
AcDbEntity
  8
0
  6
ByBlock
 62
     0
100
AcDbLine
 10
15.08056303245388
 20
0.4038186735167049
 30
0.0
 11
15.55865788334467
 21
0.4038186735167049
 31
0.0
  0
LINE
  5
5E
330
25
100
AcDbEntity
  8
0
  6
ByBlock
 62
     0
100
AcDbLine
 10
16.82841940090214
 20
0.4038186735167049
 30
0.0
 11
16.35032455001134
 21
0.4038186735167049
 31
0.0
  0
LINE
  5
5F
330
25
100
AcDbEntity
  8
0
  6
ByBlock
 62
     0
100
AcDbLine
 10
14.95556303245388
 20
0.2788186735167049
 30
0.0
 11
15.20556303245388
 21
0.5288186735167049
 31
0.0
  0
LINE
  5
60
330
25
100
AcDbEntity
  8
0
  6
ByBlock
 62
     0
100
AcDbLine
 10
16.70341940090214
 20
0.2788186735167049
 30
0.0
 11
16.95341940090214
 21
0.5288186735167049
 31
0.0
  0
TEXT
  5
61
330
25
100
AcDbEntity
  8
0
  6
ByBlock
 62
     0
100
AcDbText
 10
15.68365788334468
 20
0.3413186735167049
 30
0.0
 40
0.125
  1
1 3/4
 72
     1
 11
15.95449121667801
 21
0.4038186735167049
 31
0.0
100
AcDbText
 73
     2
  0
POINT
  5
62
330
25
100
AcDbEntity
  8
DEFPOINTS
  6
ByBlock
 62
     0
100
AcDbPoint
 10
15.08056303245388
 20
2.260099767724089
 30
0.0
  0
POINT
  5
63
330
25
100
AcDbEntity
  8
DEFPOINTS
  6
ByBlock
 62
     0
100
AcDbPoint
 10
16.82841940090214
 20
2.011457550866596
 30
0.0
  0
POINT
  5
64
330
25
100
AcDbEntity
  8
DEFPOINTS
  6
ByBlock
 62
     0
100
AcDbPoint
 10
16.82841940090214
 20
0.4038186735167049
 30
0.0
  0
ENDBLK
  5
65
330
25
100
AcDbEntity
  8
0
100
AcDbBlockEnd
  0
BLOCK
  5
240
330
235
100
AcDbEntity
  8
0
 62
     3
100
AcDbBlockBegin
  2
*D3
 70
     1
 10
0.0
 20
0.0
 30
0.0
  3
*D3
  1

  0
LINE
  5
26D
330
235
100
AcDbEntity
  8
ADPDIM
 62
     0
370
    -2
100
AcDbLine
 10
3.050721072059015
 20
19.96461491736513
 30
0.0
 11
3.050721072059015
 21
19.6704261390186
 31
0.0
  0
LINE
  5
26E
330
235
100
AcDbEntity
  8
ADPDIM
 62
     0
370
    -2
100
AcDbLine
 10
4.363221072059015
 20
19.96461491736513
 30
0.0
 11
4.363221072059015
 21
19.6704261390186
 31
0.0
  0
LINE
  5
26F
330
235
100
AcDbEntity
  8
ADPDIM
 62
     0
370
    -2
100
AcDbLine
 10
2.870721072059015
 20
19.8504261390186
 30
0.0
 11
2.690721072059016
 21
19.8504261390186
 31
0.0
  0
LINE
  5
270
330
235
100
AcDbEntity
  8
ADPDIM
 62
     0
370
    -2
100
AcDbLine
 10
4.543221072059015
 20
19.8504261390186
 30
0.0
 11
4.723221072059016
 21
19.8504261390186
 31
0.0
  0
SOLID
  5
271
330
235
100
AcDbEntity
  8
ADPDIM
 62
     0
100
AcDbTrace
 10
2.870721072059015
 20
19.8804261390186
 30
0.0
 11
2.870721072059015
 21
19.8204261390186
 31
0.0
 12
3.050721072059015
 22
19.8504261390186
 32
0.0
 13
3.050721072059015
 23
19.8504261390186
 33
0.0
  0
SOLID
  5
272
330
235
100
AcDbEntity
  8
ADPDIM
 62
     0
100
AcDbTrace
 10
4.543221072059015
 20
19.8804261390186
 30
0.0
 11
4.543221072059015
 21
19.8204261390186
 31
0.0
 12
4.363221072059015
 22
19.8504261390186
 32
0.0
 13
4.363221072059015
 23
19.8504261390186
 33
0.0
  0
MTEXT
  5
273
330
235
100
AcDbEntity
  8
ADPDIM
 62
     0
100
AcDbMText
 10
3.706971072059015
 20
19.8504261390186
 30
0.0
 40
0.125
 41
0.0
 71
     5
 72
     1
  1
\A1;1 5/16
 73
     1
 44
1.0
1001
ACAD
1000
MTEXTBEGIN
1070
    73
1070
     1
1070
    44
1040
1.0
1070
    74
1070
     0
1000
MTEXTEND
  0
POINT
  5
274
330
235
100
AcDbEntity
  8
DEFPOINTS
 62
     0
100
AcDbPoint
 10
3.050721072059015
 20
20.02711491736514
 30
0.0
  0
POINT
  5
275
330
235
100
AcDbEntity
  8
DEFPOINTS
 62
     0
100
AcDbPoint
 10
4.363221072059015
 20
20.02711491736514
 30
0.0
  0
POINT
  5
276
330
235
100
AcDbEntity
  8
DEFPOINTS
 62
     0
100
AcDbPoint
 10
4.363221072059015
 20
19.8504261390186
 30
0.0
  0
ENDBLK
  5
241
330
235
100
AcDbEntity
  8
0
 62
     3
100
AcDbBlockEnd
  0
BLOCK
  5
257
330
24C
100
AcDbEntity
  8
0
100
AcDbBlockBegin
  2
*D4
 70
     1
 10
0.0
 20
0.0
 30
0.0
  3
*D4
  1

  0
LINE
  5
277
330
24C
100
AcDbEntity
  8
ADPDIM
 62
     0
370
    -2
100
AcDbLine
 10
2.742034189107468
 20
20.45874783260009
 30
0.0
 11
2.742034189107468
 21
21.11617852925784
 31
0.0
  0
LINE
  5
278
330
24C
100
AcDbEntity
  8
ADPDIM
 62
     0
370
    -2
100
AcDbLine
 10
4.67407721192576
 20
20.45874783260009
 30
0.0
 11
4.67407721192576
 21
21.11617852925784
 31
0.0
  0
LINE
  5
279
330
24C
100
AcDbEntity
  8
ADPDIM
 62
     0
370
    -2
100
AcDbLine
 10
2.922034189107468
 20
20.93617852925784
 30
0.0
 11
3.263889033849947
 21
20.93617852925784
 31
0.0
  0
LINE
  5
27A
330
24C
100
AcDbEntity
  8
ADPDIM
 62
     0
370
    -2
100
AcDbLine
 10
4.49407721192576
 20
20.93617852925784
 30
0.0
 11
4.152222367183281
 21
20.93617852925784
 31
0.0
  0
SOLID
  5
27B
330
24C
100
AcDbEntity
  8
ADPDIM
 62
     0
100
AcDbTrace
 10
2.922034189107468
 20
20.96617852925784
 30
0.0
 11
2.922034189107468
 21
20.90617852925784
 31
0.0
 12
2.742034189107468
 22
20.93617852925784
 32
0.0
 13
2.742034189107468
 23
20.93617852925784
 33
0.0
  0
SOLID
  5
27C
330
24C
100
AcDbEntity
  8
ADPDIM
 62
     0
100
AcDbTrace
 10
4.49407721192576
 20
20.96617852925784
 30
0.0
 11
4.49407721192576
 21
20.90617852925784
 31
0.0
 12
4.67407721192576
 22
20.93617852925784
 32
0.0
 13
4.67407721192576
 23
20.93617852925784
 33
0.0
  0
MTEXT
  5
27D
330
24C
100
AcDbEntity
  8
ADPDIM
 62
     0
100
AcDbMText
 10
3.708055700516614
 20
20.93617852925784
 30
0.0
 40
0.125
 41
0.0
 71
     5
 72
     1
  1
\A1;1 15/16
 73
     1
 44
1.0
1001
ACAD
1000
MTEXTBEGIN
1070
    73
1070
     1
1070
    44
1040
1.0
1070
    74
1070
     0
1000
MTEXTEND
  0
POINT
  5
27E
330
24C
100
AcDbEntity
  8
DEFPOINTS
 62
     0
100
AcDbPoint
 10
2.742034189107468
 20
20.39624783260009
 30
0.0
  0
POINT
  5
27F
330
24C
100
AcDbEntity
  8
DEFPOINTS
 62
     0
100
AcDbPoint
 10
4.67407721192576
 20
20.39624783260009
 30
0.0
  0
POINT
  5
280
330
24C
100
AcDbEntity
  8
DEFPOINTS
 62
     0
100
AcDbPoint
 10
4.67407721192576
 20
20.93617852925784
 30
0.0
  0
ENDBLK
  5
258
330
24C
100
AcDbEntity
  8
0
100
AcDbBlockEnd
  0
ENDSEC
  0
SECTION
  2
ENTITIES
  0
INSERT
  5
66
330
1E
100
AcDbEntity
  8
ADP1DETAIL
100
AcDbBlockReference
  2
4534-VX
 10
4.983465951759281
 20
20.04977263903564
 30
0.0
  0
DIMENSION
  5
67
330
1E
100
AcDbEntity
  8
ADPDIM
100
AcDbDimension
  2
*D4
 10
4.67407721192576
 20
20.93617852925784
 30
0.0
 11
3.708055700516614
 21
20.93617852925784
 31
0.0
 70
    32
 71
     5
 42
1.932043022818291
  3
Standard
100
AcDbAlignedDimension
 13
2.742034189107468
 23
20.39624783260009
 33
0.0
 14
4.67407721192576
 24
20.39624783260009
 34
0.0
100
AcDbRotatedDimension
1001
ACAD
1000
DSTYLE
1002
{
1070
   276
1070
     2
1070
   140
1040
0.125
1070
   271
1070
     5
1070
   272
1070
     5
1070
   273
1070
     5
1070
   277
1070
     5
1070
   279
1070
     2
1002
}
  0
ARC
  5
68
330
1E
100
AcDbEntity
  8
ADP1DETAIL
100
AcDbCircle
 10
4.503943325249475
 20
20.37098005461267
 30
0.0
 40
0.172
100
AcDbArc
 50
286.8952977170249
 51
90.0
  0
ARC
  5
69
330
1E
100
AcDbEntity
  8
ADP1DETAIL
100
AcDbCircle
 10
2.912168075783752
 20
20.37098005461267
 30
0.0
 40
0.172
100
AcDbArc
 50
90.0
 51
253.1047022829751
  0
LINE
  5
6A
330
1E
100
AcDbEntity
  8
ADP1DETAIL
100
AcDbLine
 10
4.314630220840505
 20
20.21680207021198
 30
0.0
 11
3.07086408393934
 21
20.21680207021198
 31
0.0
  0
LINE
  5
6B
330
1E
100
AcDbEntity
  8
ADP1DETAIL
100
AcDbLine
 10
3.030816349708628
 20
20.02703028883765
 30
0.0
 11
2.946191784456977
 21
20.02723226383899
 31
0.0
  0
ARC
  5
6C
330
1E
100
AcDbEntity
  8
ADP1DETAIL
100
AcDbCircle
 10
2.946239518687685
 20
20.04723220687499
 30
0.0
 40
0.02
100
AcDbArc
 50
183.8579406329851
 51
269.863251372273
  0
ARC
  5
6D
330
1E
100
AcDbEntity
  8
ADP1DETAIL
100
AcDbCircle
 10
2.645921603256812
 20
20.02698005461267
 30
0.0
 40
0.281
100
AcDbArc
 50
3.857940632984877
 51
39.68150569509935
  0
ARC
  5
6E
330
1E
100
AcDbEntity
  8
ADP1DETAIL
100
AcDbCircle
 10
3.07086408393934
 20
20.19680207021198
 30
0.0
 40
0.02
100
AcDbArc
 50
90.0
 51
179.9999999999988
  0
ARC
  5
6F
330
1E
100
AcDbEntity
  8
ADP1DETAIL
100
AcDbCircle
 10
3.030864083939337
 20
20.04703023187365
 30
0.0
 40
0.02
100
AcDbArc
 50
269.8632513722728
 51
0.000000000000007
  0
LINE
  5
70
330
1E
100
AcDbEntity
  8
ADP1DETAIL
100
AcDbLine
 10
3.05086408393934
 20
20.19680207021198
 30
0.0
 11
3.050864083939337
 21
20.04703023187365
 31
0.0
  0
LINE
  5
71
330
1E
100
AcDbEntity
  8
ADP1DETAIL
100
AcDbLine
 10
3.051547888272138
 20
20.04702859982531
 30
0.0
 11
3.051547888272138
 21
20.16608574317587
 31
0.0
  0
LINE
  5
72
330
1E
100
AcDbEntity
  8
ADP1DETAIL
100
AcDbLine
 10
4.385295051324599
 20
20.02703028883765
 30
0.0
 11
4.469919616576251
 21
20.02723226383899
 31
0.0
  0
ARC
  5
73
330
1E
100
AcDbEntity
  8
ADP1DETAIL
100
AcDbCircle
 10
4.345247317093888
 20
20.19680207021198
 30
0.0
 40
0.02
100
AcDbArc
 50
0.0000000000012213
 51
90.0
  0
ARC
  5
74
330
1E
100
AcDbEntity
  8
ADP1DETAIL
100
AcDbCircle
 10
4.385247317093891
 20
20.04703023187365
 30
0.0
 40
0.02
100
AcDbArc
 50
180.0
 51
270.1367486277272
  0
LINE
  5
75
330
1E
100
AcDbEntity
  8
ADP1DETAIL
100
AcDbLine
 10
4.36456351276109
 20
20.04702859982531
 30
0.0
 11
4.36456351276109
 21
20.16608574317587
 31
0.0
  0
LINE
  5
76
330
1E
100
AcDbEntity
  8
ADP1DETAIL
100
AcDbLine
 10
4.365247317093888
 20
20.19680207021198
 30
0.0
 11
4.365247317093891
 21
20.04703023187365
 31
0.0
  0
ARC
  5
77
330
1E
100
AcDbEntity
  8
ADP1DETAIL
100
AcDbCircle
 10
4.469871882345542
 20
20.04723220687499
 30
0.0
 40
0.02
100
AcDbArc
 50
270.136748627727
 51
356.1420593670149
  0
ARC
  5
78
330
1E
100
AcDbEntity
  8
ADP1DETAIL
100
AcDbCircle
 10
4.770189797776416
 20
20.02698005461267
 30
0.0
 40
0.281
100
AcDbArc
 50
140.3184943049006
 51
176.1420593670151
  0
ARC
  5
79
330
1E
100
AcDbEntity
  8
ADP1DETAIL
100
AcDbCircle
 10
3.712526841728815
 20
20.03483894399939
 30
0.0
 40
0.7541535398112679
100
AcDbArc
 50
90.33969080341311
 51
122.9566245269621
  0
LINE
  5
7A
330
1E
100
AcDbEntity
  8
ADP1DETAIL
100
AcDbLine
 10
2.912168075783752
 20
20.54298005461267
 30
0.0
 11
2.974991244772758
 21
20.54298005461267
 31
0.0
  0
ARC
  5
7B
330
1E
100
AcDbEntity
  8
ADP1DETAIL
100
AcDbCircle
 10
2.994949972861511
 20
20.56894285374917
 30
0.0
 40
0.02
100
AcDbArc
 50
90.72830638748687
 51
180.0911363201224
  0
LINE
  5
7C
330
1E
100
AcDbEntity
  8
ADP1DETAIL
100
AcDbLine
 10
2.976009050025715
 20
20.58954067464695
 30
0.0
 11
2.974918075783754
 21
20.58898005461267
 31
0.0
  0
LINE
  5
7D
330
1E
100
AcDbEntity
  8
ADP1DETAIL
100
AcDbLine
 10
2.97494999816251
 20
20.5689110411855
 30
0.0
 11
2.974991244772758
 21
20.54298005461267
 31
0.0
  0
LINE
  5
7E
330
1E
100
AcDbEntity
  8
ADP1DETAIL
100
AcDbLine
 10
2.976009050025715
 20
20.58954067464695
 30
0.0
 11
2.974489913480645
 21
20.58954067464695
 31
0.0
  0
ARC
  5
7F
330
1E
100
AcDbEntity
  8
ADP1DETAIL
100
AcDbCircle
 10
2.986129452950229
 20
21.26281476400418
 30
0.0
 40
0.6739279713431704
100
AcDbArc
 50
270.7283063874851
 51
297.9754350771305
  0
ARC
  5
80
330
1E
100
AcDbEntity
  8
ADP1DETAIL
100
AcDbCircle
 10
3.703584559304416
 20
20.0348389439994
 30
0.0
 40
0.7541535398112624
100
AcDbArc
 50
57.04337547303806
 51
89.66030919658718
  0
ARC
  5
81
330
1E
100
AcDbEntity
  8
ADP1DETAIL
100
AcDbCircle
 10
4.429981948082999
 20
21.26281476400418
 30
0.0
 40
0.6739279713431704
100
AcDbArc
 50
242.0245649228695
 51
269.2716936125149
  0
ARC
  5
82
330
1E
100
AcDbEntity
  8
ADP1DETAIL
100
AcDbCircle
 10
4.421161428171717
 20
20.56894285374917
 30
0.0
 40
0.02
100
AcDbArc
 50
359.9088636798776
 51
89.27169361251312
  0
LINE
  5
83
330
1E
100
AcDbEntity
  8
ADP1DETAIL
100
AcDbLine
 10
4.440102351007513
 20
20.58954067464695
 30
0.0
 11
4.441621487552583
 21
20.58954067464695
 31
0.0
  0
LINE
  5
84
330
1E
100
AcDbEntity
  8
ADP1DETAIL
100
AcDbLine
 10
4.441161402870718
 20
20.5689110411855
 30
0.0
 11
4.44112015626047
 21
20.54298005461267
 31
0.0
  0
LINE
  5
85
330
1E
100
AcDbEntity
  8
ADP1DETAIL
100
AcDbLine
 10
4.440102351007513
 20
20.58954067464695
 30
0.0
 11
4.441193325249474
 21
20.58898005461267
 31
0.0
  0
LINE
  5
86
330
1E
100
AcDbEntity
  8
ADP1DETAIL
100
AcDbLine
 10
4.503943325249475
 20
20.54298005461267
 30
0.0
 11
4.44112015626047
 21
20.54298005461267
 31
0.0
  0
TEXT
  5
8A
330
1E
100
AcDbEntity
  8
ADPDIM
100
AcDbText
 10
-0.9125988730323904
 20
17.48850329703147
 30
0.0
 40
0.125
  1
J U L I U S  B L U M  &  C O . ,  I N C .      ( 8 0 0 )  5 2 6 - 6 2 9 3        W W W . J U L I U S B L U M . C O M        P A R T  N o .  4 4 2 8 - V
 41
1.25
  7
ARIAL_WIDE
 72
     1
 11
5.782916133788891
 21
17.61350329703147
 31
0.0
100
AcDbText
 73
     3
  0
DIMENSION
  5
234
330
1E
100
AcDbEntity
  8
ADPDIM
 62
     3
100
AcDbDimension
  2
*D3
 10
4.363221072059015
 20
19.8504261390186
 30
0.0
 11
3.706971072059015
 21
19.8504261390186
 31
0.0
 70
    32
 71
     5
 42
1.3125
  3
Standard
100
AcDbAlignedDimension
 13
3.050721072059015
 23
20.02711491736514
 33
0.0
 14
4.363221072059015
 24
20.02711491736514
 34
0.0
100
AcDbRotatedDimension
1001
ACAD
1000
DSTYLE
1002
{
1070
   276
1070
     2
1070
   140
1040
0.125
1070
   271
1070
     5
1070
   272
1070
     5
1070
   273
1070
     5
1070
   277
1070
     5
1070
   279
1070
     2
1002
}
  0
ENDSEC
  0
SECTION
  2
OBJECTS
  0
DICTIONARY
  5
C
330
0
100
AcDbDictionary
281
     1
  3
ACAD_COLOR
350
22E
  3
ACAD_GROUP
350
D
  3
ACAD_LAYOUT
350
19
  3
ACAD_MATERIAL
350
219
  3
ACAD_MLINESTYLE
350
16
  3
ACAD_PLOTSETTINGS
350
18
  3
ACAD_PLOTSTYLENAME
350
E
  3
ACAD_TABLESTYLE
350
22F
  3
ACAD_VISUALSTYLE
350
21D
  3
AcDbVariableDictionary
350
FB
  3
ASE_INDEX_DICTIONARY
350
282
  3
DWGPROPS
350
2A2
  0
DICTIONARY
  5
C6
330
1E
100
AcDbDictionary
280
     1
281
     1
  3
ACAD_LAYOUTSELFREF
360
215
  0
DICTIONARY
  5
C8
330
1A
100
AcDbDictionary
280
     1
281
     1
  3
ACAD_LAYOUTSELFREF
360
214
  0
DICTIONARY
  5
22E
102
{ACAD_REACTORS
330
C
102
}
330
C
100
AcDbDictionary
281
     1
  0
DICTIONARY
  5
D
102
{ACAD_REACTORS
330
C
102
}
330
C
100
AcDbDictionary
281
     1
  0
DICTIONARY
  5
19
102
{ACAD_REACTORS
330
C
102
}
330
C
100
AcDbDictionary
281
     1
  3
Layout1
350
1D
  3
Model
350
21
  0
DICTIONARY
  5
219
102
{ACAD_REACTORS
330
C
102
}
330
C
100
AcDbDictionary
281
     1
  3
ByBlock
350
21B
  3
ByLayer
350
21A
  3
Global
350
21C
  0
DICTIONARY
  5
16
102
{ACAD_REACTORS
330
C
102
}
330
C
100
AcDbDictionary
281
     1
  3
Standard
350
17
  0
DICTIONARY
  5
18
102
{ACAD_REACTORS
330
C
102
}
330
C
100
AcDbDictionary
281
     1
  0
ACDBDICTIONARYWDFLT
  5
E
102
{ACAD_REACTORS
330
C
102
}
330
C
100
AcDbDictionary
281
     1
  3
Normal
350
F
100
AcDbDictionaryWithDefault
340
F
  0
DICTIONARY
  5
22F
102
{ACAD_REACTORS
330
C
102
}
330
C
100
AcDbDictionary
281
     1
  3
Standard
350
230
  0
DICTIONARY
  5
21D
102
{ACAD_REACTORS
330
C
102
}
330
C
100
AcDbDictionary
281
     1
  3
2dWireframe
350
223
  3
3D Hidden
350
225
  3
3dWireframe
350
224
  3
Basic
350
222
  3
Brighten
350
229
  3
ColorChange
350
22D
  3
Conceptual
350
226
  3
Dim
350
228
  3
Facepattern
350
22C
  3
Flat
350
21E
  3
FlatWithEdges
350
21F
  3
Gouraud
350
220
  3
GouraudWithEdges
350
221
  3
Linepattern
350
22B
  3
Realistic
350
227
  3
Thicken
350
22A
  0
DICTIONARY
  5
FB
102
{ACAD_REACTORS
330
C
102
}
330
C
100
AcDbDictionary
281
     1
  3
CTABLESTYLE
350
29F
  3
DIMASSOC
350
FD
  3
HIDETEXT
350
FC
  3
INDEXCTL
350
2A1
  3
SORTENTS
350
2A0
  0
DICTIONARY
  5
282
102
{ACAD_REACTORS
330
C
102
}
330
C
100
AcDbDictionary
281
     1
  3
ASEBlockHierarchyIndexRecord
350
284
1001
DCO15
1040
1569090443.305
  0
XRECORD
  5
2A2
102
{ACAD_REACTORS
330
C
102
}
330
C
100
AcDbXrecord
280
     1
  1
DWGPROPS COOKIE
  2

  3

  4

  6

  7

  8
Yu Hu
  9

300
=
301
=
302
=
303
=
304
=
305
=
306
=
307
=
308
=
309
=
 40
0.0967227546296297
 41
2450359.946486493
 42
2453963.980871586
  1

 90
        0
  0
XRECORD
  5
215
102
{ACAD_REACTORS
330
C6
102
}
330
C6
100
AcDbXrecord
280
     1
340
1E
  0
XRECORD
  5
214
102
{ACAD_REACTORS
330
C8
102
}
330
C8
100
AcDbXrecord
280
     1
340
1A
  0
LAYOUT
  5
1D
102
{ACAD_XDICTIONARY
360
2A3
102
}
102
{ACAD_REACTORS
330
19
102
}
330
19
100
AcDbPlotSettings
  1

  2
Fax
  4

  6

 40
0.0
 41
0.0
 42
0.0
 43
0.0
 44
0.0
 45
0.0
 46
0.0
 47
0.0
 48
0.0
 49
0.0
140
0.0
141
0.0
142
1.0
143
1.0
 70
   688
 72
     0
 73
     0
 74
     5
  7
Default R14 pen assignments.ctb
 75
    16
147
1.0
148
0.0
149
0.0
100
AcDbLayout
  1
Layout1
 70
     1
 71
     1
 10
-21.61579290080726
 20
-19.96805058542324
 11
-9.61579290080726
 21
-10.96805058542324
 12
0.0
 22
-0.0000000000727757
 32
0.0
 14
1.000000000000000E+20
 24
1.000000000000000E+20
 34
1.000000000000000E+20
 15
-1.000000000000000E+20
 25
-1.000000000000000E+20
 35
-1.000000000000000E+20
146
0.0
 13
0.0
 23
0.0
 33
0.0
 16
1.0
 26
0.0
 36
0.0
 17
0.0
 27
1.0
 37
0.0
 76
     0
330
1A
  0
LAYOUT
  5
21
102
{ACAD_XDICTIONARY
360
2A5
102
}
102
{ACAD_REACTORS
330
19
102
}
330
19
100
AcDbPlotSettings
  1

  2
Fax
  4

  6

 40
0.0
 41
0.0
 42
0.0
 43
0.0
 44
0.0
 45
0.0
 46
0.0
 47
0.0
 48
0.0
 49
0.0
140
0.0
141
0.0
142
1.0
143
1.0
 70
  1712
 72
     0
 73
     0
 74
     0
  7
Default R14 pen assignments.ctb
 75
     0
147
1.0
148
0.0
149
0.0
100
AcDbLayout
  1
Model
 70
     1
 71
     0
 10
0.0
 20
0.0
 11
12.0
 21
9.0
 12
0.0
 22
0.0
 32
0.0
 14
0.0
 24
0.0
 34
0.0
 15
0.0
 25
0.0
 35
0.0
146
0.0
 13
0.0
 23
0.0
 33
0.0
 16
1.0
 26
0.0
 36
0.0
 17
0.0
 27
1.0
 37
0.0
 76
     0
330
1E
331
1E2
  0
MATERIAL
  5
21B
102
{ACAD_XDICTIONARY
360
2A9
102
}
102
{ACAD_REACTORS
330
219
102
}
330
219
100
AcDbMaterial
  1
ByBlock
  0
MATERIAL
  5
21A
102
{ACAD_XDICTIONARY
360
2A7
102
}
102
{ACAD_REACTORS
330
219
102
}
330
219
100
AcDbMaterial
  1
ByLayer
  0
MATERIAL
  5
21C
102
{ACAD_XDICTIONARY
360
2AB
102
}
102
{ACAD_REACTORS
330
219
102
}
330
219
100
AcDbMaterial
  1
Global
  0
MLINESTYLE
  5
17
102
{ACAD_REACTORS
330
16
102
}
330
16
100
AcDbMlineStyle
  2
STANDARD
 70
     0
  3

 62
   256
 51
90.0
 52
90.0
 71
     2
 49
0.5
 62
   256
  6
BYLAYER
 49
-0.5
 62
   256
  6
BYLAYER
  0
ACDBPLACEHOLDER
  5
F
102
{ACAD_REACTORS
330
E
102
}
330
E
  0
TABLESTYLE
  5
230
102
{ACAD_XDICTIONARY
360
2AD
102
}
102
{ACAD_REACTORS
330
22F
102
}
330
22F
100
AcDbTableStyle
  3
Standard
 70
     0
 71
     0
 40
0.06
 41
0.06
280
     0
281
     0
  7
STANDARD
140
0.18
170
     2
 62
     0
 63
     7
283
     0
274
    -2
284
     1
 64
     0
275
    -2
285
     1
 65
     0
276
    -2
286
     1
 66
     0
277
    -2
287
     1
 67
     0
278
    -2
288
     1
 68
     0
279
    -2
289
     1
 69
     0
  7
STANDARD
140
0.25
170
     5
 62
     0
 63
     7
283
     0
274
    -2
284
     1
 64
     0
275
    -2
285
     1
 65
     0
276
    -2
286
     1
 66
     0
277
    -2
287
     1
 67
     0
278
    -2
288
     1
 68
     0
279
    -2
289
     1
 69
     0
  7
STANDARD
140
0.18
170
     5
 62
     0
 63
     7
283
     0
274
    -2
284
     1
 64
     0
275
    -2
285
     1
 65
     0
276
    -2
286
     1
 66
     0
277
    -2
287
     1
 67
     0
278
    -2
288
     1
 68
     0
279
    -2
289
     1
 69
     0
  0
VISUALSTYLE
  5
223
102
{ACAD_REACTORS
330
21D
102
}
330
21D
100
AcDbVisualStyle
  2
2dWireframe
 70
     4
 71
     0
 72
     2
 73
     0
 90
        0
 40
-0.6
 41
-30.0
 62
     5
 63
     7
 74
     1
 91
        4
 64
     7
 65
   257
 75
     1
175
     1
 42
1.0
 92
        0
 66
   257
 43
1.0
 76
     1
 77
     6
 78
     2
 67
     7
 79
     5
170
     0
171
     0
290
     0
174
     0
 93
        1
 44
0.0
173
     0
291
     0
 45
0.0
1001
ACAD
1000
AcDbSavedByObjectVersion
1070
     0
  0
VISUALSTYLE
  5
225
102
{ACAD_REACTORS
330
21D
102
}
330
21D
100
AcDbVisualStyle
  2
3D Hidden
 70
     6
 71
     1
 72
     2
 73
     2
 90
        0
 40
-0.6
 41
-30.0
 62
     5
 63
     7
 74
     2
 91
        2
 64
     7
 65
   257
 75
     2
175
     1
 42
40.0
 92
        0
 66
   257
 43
1.0
 76
     1
 77
     6
 78
     2
 67
     7
 79
     3
170
     0
171
     0
290
     0
174
     0
 93
        1
 44
0.0
173
     0
291
     0
 45
0.0
1001
ACAD
1000
AcDbSavedByObjectVersion
1070
     0
  0
VISUALSTYLE
  5
224
102
{ACAD_REACTORS
330
21D
102
}
330
21D
100
AcDbVisualStyle
  2
3dWireframe
 70
     5
 71
     0
 72
     2
 73
     0
 90
        0
 40
-0.6
 41
-30.0
 62
     5
 63
     7
 74
     1
 91
        4
 64
     7
 65
   257
 75
     1
175
     1
 42
1.0
 92
        0
 66
   257
 43
1.0
 76
     1
 77
     6
 78
     2
 67
     7
 79
     5
170
     0
171
     0
290
     0
174
     0
 93
        1
 44
0.0
173
     0
291
     0
 45
0.0
1001
ACAD
1000
AcDbSavedByObjectVersion
1070
     0
  0
VISUALSTYLE
  5
222
102
{ACAD_REACTORS
330
21D
102
}
330
21D
100
AcDbVisualStyle
  2
Basic
 70
     7
 71
     1
 72
     0
 73
     1
 90
        0
 40
-0.6
 41
-30.0
 62
     5
 63
     7
 74
     0
 91
        4
 64
     7
 65
   257
 75
     1
175
     1
 42
1.0
 92
        8
 66
     7
 43
1.0
 76
     1
 77
     6
 78
     2
 67
     7
 79
     5
170
     0
171
     0
290
     0
174
     0
 93
        1
 44
0.0
173
     0
291
     1
 45
0.0
1001
ACAD
1000
AcDbSavedByObjectVersion
1070
     0
  0
VISUALSTYLE
  5
229
102
{ACAD_REACTORS
330
21D
102
}
330
21D
100
AcDbVisualStyle
  2
Brighten
 70
    12
 71
     2
 72
     2
 73
     0
 90
        0
 40
-0.6
 41
-30.0
 62
     5
 63
     7
 74
     1
 91
        4
 64
     7
 65
   257
 75
     1
175
     1
 42
1.0
 92
        8
 66
     7
 43
1.0
 76
     1
 77
     6
 78
     2
 67
     7
 79
     5
170
     0
171
     0
290
     0
174
     0
 93
        1
 44
50.0
173
     0
291
     1
 45
0.0
1001
ACAD
1000
AcDbSavedByObjectVersion
1070
     0
  0
VISUALSTYLE
  5
22D
102
{ACAD_REACTORS
330
21D
102
}
330
21D
100
AcDbVisualStyle
  2
ColorChange
 70
    16
 71
     2
 72
     2
 73
     3
 90
        0
 40
-0.6
 41
-30.0
 62
     5
 63
     8
 74
     1
 91
        4
 64
     7
 65
   257
 75
     1
175
     1
 42
1.0
 92
        8
 66
     8
 43
1.0
 76
     1
 77
     6
 78
     2
 67
     7
 79
     5
170
     0
171
     0
290
     0
174
     0
 93
        1
 44
0.0
173
     0
291
     1
 45
0.0
1001
ACAD
1000
AcDbSavedByObjectVersion
1070
     0
  0
VISUALSTYLE
  5
226
102
{ACAD_REACTORS
330
21D
102
}
330
21D
100
AcDbVisualStyle
  2
Conceptual
 70
     9
 71
     3
 72
     2
 73
     0
 90
        0
 40
-0.6
 41
-30.0
 62
     5
 63
     7
 74
     2
 91
        2
 64
     7
 65
   257
 75
     1
175
     1
 42
40.0
 92
        8
 66
     7
 43
1.0
 76
     1
 77
     6
 78
     2
 67
     7
 79
     3
170
     0
171
     0
290
     0
174
     0
 93
        1
 44
0.0
173
     0
291
     0
 45
0.0
1001
ACAD
1000
AcDbSavedByObjectVersion
1070
     0
  0
VISUALSTYLE
  5
228
102
{ACAD_REACTORS
330
21D
102
}
330
21D
100
AcDbVisualStyle
  2
Dim
 70
    11
 71
     2
 72
     2
 73
     0
 90
        0
 40
-0.6
 41
-30.0
 62
     5
 63
     7
 74
     1
 91
        4
 64
     7
 65
   257
 75
     1
175
     1
 42
1.0
 92
        8
 66
     7
 43
1.0
 76
     1
 77
     6
 78
     2
 67
     7
 79
     5
170
     0
171
     0
290
     0
174
     0
 93
        1
 44
-50.0
173
     0
291
     1
 45
0.0
1001
ACAD
1000
AcDbSavedByObjectVersion
1070
     0
  0
VISUALSTYLE
  5
22C
102
{ACAD_REACTORS
330
21D
102
}
330
21D
100
AcDbVisualStyle
  2
Facepattern
 70
    15
 71
     2
 72
     2
 73
     0
 90
        0
 40
-0.6
 41
-30.0
 62
     5
 63
     7
 74
     1
 91
        4
 64
     7
 65
   257
 75
     1
175
     1
 42
1.0
 92
        8
 66
     7
 43
1.0
 76
     1
 77
     6
 78
     2
 67
     7
 79
     5
170
     0
171
     0
290
     0
174
     0
 93
        1
 44
0.0
173
     0
291
     1
 45
0.0
1001
ACAD
1000
AcDbSavedByObjectVersion
1070
     0
  0
VISUALSTYLE
  5
21E
102
{ACAD_REACTORS
330
21D
102
}
330
21D
100
AcDbVisualStyle
  2
Flat
 70
     0
 71
     2
 72
     1
 73
     1
 90
        2
 40
-0.6
 41
30.0
 62
     5
 63
     7
 74
     0
 91
        4
 64
     7
 65
   257
 75
     1
175
     1
 42
1.0
 92
        8
 66
     7
 43
1.0
 76
     1
 77
     6
 78
     2
 67
     7
 79
     5
170
     0
171
     0
290
     0
174
     0
 93
       13
 44
0.0
173
     0
291
     1
 45
0.0
1001
ACAD
1000
AcDbSavedByObjectVersion
1070
     0
  0
VISUALSTYLE
  5
21F
102
{ACAD_REACTORS
330
21D
102
}
330
21D
100
AcDbVisualStyle
  2
FlatWithEdges
 70
     1
 71
     2
 72
     1
 73
     1
 90
        2
 40
-0.6
 41
30.0
 62
     5
 63
     7
 74
     1
 91
        4
 64
     7
 65
   257
 75
     1
175
     1
 42
1.0
 92
        0
 66
   257
 43
1.0
 76
     1
 77
     6
 78
     2
 67
     7
 79
     5
170
     0
171
     0
290
     0
174
     0
 93
       13
 44
0.0
173
     0
291
     1
 45
0.0
1001
ACAD
1000
AcDbSavedByObjectVersion
1070
     0
  0
VISUALSTYLE
  5
220
102
{ACAD_REACTORS
330
21D
102
}
330
21D
100
AcDbVisualStyle
  2
Gouraud
 70
     2
 71
     2
 72
     2
 73
     1
 90
        2
 40
-0.6
 41
30.0
 62
     5
 63
     7
 74
     0
 91
        4
 64
     7
 65
   257
 75
     1
175
     1
 42
1.0
 92
        0
 66
     7
 43
1.0
 76
     1
 77
     6
 78
     2
 67
     7
 79
     5
170
     0
171
     0
290
     0
174
     0
 93
       13
 44
0.0
173
     0
291
     1
 45
0.0
1001
ACAD
1000
AcDbSavedByObjectVersion
1070
     0
  0
VISUALSTYLE
  5
221
102
{ACAD_REACTORS
330
21D
102
}
330
21D
100
AcDbVisualStyle
  2
GouraudWithEdges
 70
     3
 71
     2
 72
     2
 73
     1
 90
        2
 40
-0.6
 41
30.0
 62
     5
 63
     7
 74
     1
 91
        4
 64
     7
 65
   257
 75
     1
175
     1
 42
1.0
 92
        0
 66
   257
 43
1.0
 76
     1
 77
     6
 78
     2
 67
     7
 79
     5
170
     0
171
     0
290
     0
174
     0
 93
       13
 44
0.0
173
     0
291
     1
 45
0.0
1001
ACAD
1000
AcDbSavedByObjectVersion
1070
     0
  0
VISUALSTYLE
  5
22B
102
{ACAD_REACTORS
330
21D
102
}
330
21D
100
AcDbVisualStyle
  2
Linepattern
 70
    14
 71
     2
 72
     2
 73
     0
 90
        0
 40
-0.6
 41
-30.0
 62
     5
 63
     7
 74
     1
 91
        4
 64
     7
 65
   257
 75
     7
175
     7
 42
1.0
 92
        8
 66
     7
 43
1.0
 76
     1
 77
     6
 78
     2
 67
     7
 79
     5
170
     0
171
     0
290
     0
174
     0
 93
        1
 44
0.0
173
     0
291
     1
 45
0.0
1001
ACAD
1000
AcDbSavedByObjectVersion
1070
     0
  0
VISUALSTYLE
  5
227
102
{ACAD_REACTORS
330
21D
102
}
330
21D
100
AcDbVisualStyle
  2
Realistic
 70
     8
 71
     2
 72
     2
 73
     0
 90
        0
 40
-0.6
 41
-30.0
 62
     5
 63
     7
 74
     1
 91
        0
 64
     7
 65
   257
 75
     1
175
     1
 42
1.0
 92
        8
 66
     8
 43
1.0
 76
     1
 77
     6
 78
     2
 67
     7
 79
     5
170
     0
171
     0
290
     0
174
     0
 93
       13
 44
0.0
173
     0
291
     0
 45
0.0
1001
ACAD
1000
AcDbSavedByObjectVersion
1070
     0
  0
VISUALSTYLE
  5
22A
102
{ACAD_REACTORS
330
21D
102
}
330
21D
100
AcDbVisualStyle
  2
Thicken
 70
    13
 71
     2
 72
     2
 73
     0
 90
        0
 40
-0.6
 41
-30.0
 62
     5
 63
     7
 74
     1
 91
        4
 64
     7
 65
   257
 75
     1
175
     1
 42
1.0
 92
       12
 66
     7
 43
1.0
 76
     1
 77
     6
 78
     2
 67
     7
 79
     5
170
     0
171
     0
290
     0
174
     0
 93
        1
 44
0.0
173
     0
291
     1
 45
0.0
1001
ACAD
1000
AcDbSavedByObjectVersion
1070
     0
  0
DICTIONARYVAR
  5
29F
102
{ACAD_REACTORS
330
FB
102
}
330
FB
100
DictionaryVariables
280
     0
  1
STANDARD
  0
DICTIONARYVAR
  5
FD
102
{ACAD_REACTORS
330
FB
102
}
330
FB
100
DictionaryVariables
280
     0
  1
2
  0
DICTIONARYVAR
  5
FC
102
{ACAD_REACTORS
330
FB
102
}
330
FB
100
DictionaryVariables
280
     0
  1
1
  0
DICTIONARYVAR
  5
2A1
102
{ACAD_REACTORS
330
FB
102
}
330
FB
100
DictionaryVariables
280
     0
  1
0
  0
DICTIONARYVAR
  5
2A0
102
{ACAD_REACTORS
330
FB
102
}
330
FB
100
DictionaryVariables
280
     0
  1
127
  0
XRECORD
  5
284
102
{ACAD_REACTORS
330
282
102
}
330
282
100
AcDbXrecord
280
     1
330
66
  0
DICTIONARY
  5
2A3
330
1D
100
AcDbDictionary
280
     1
281
     1
  3
ACAD_XREC_ROUNDTRIP
360
2A4
  0
DICTIONARY
  5
2A5
330
21
100
AcDbDictionary
280
     1
281
     1
  3
ACAD_XREC_ROUNDTRIP
360
2A6
  0
DICTIONARY
  5
2A9
330
21B
100
AcDbDictionary
280
     1
281
     1
  3
ACAD_XREC_ROUNDTRIP
360
2AA
  0
DICTIONARY
  5
2A7
330
21A
100
AcDbDictionary
280
     1
281
     1
  3
ACAD_XREC_ROUNDTRIP
360
2A8
  0
DICTIONARY
  5
2AB
330
21C
100
AcDbDictionary
280
     1
281
     1
  3
ACAD_XREC_ROUNDTRIP
360
2AC
  0
DICTIONARY
  5
2AD
330
230
100
AcDbDictionary
280
     1
281
     1
  3
ACAD_XREC_ROUNDTRIP
360
2AE
  0
XRECORD
  5
2A4
102
{ACAD_REACTORS
330
2A3
102
}
330
2A3
100
AcDbXrecord
280
     1
102
SHADEPLOT
 70
     0
102
SHADEPLOTRESLEVEL
 70
     2
102
SHADEPLOTCUSTOMDPI
 70
   300
  0
XRECORD
  5
2A6
102
{ACAD_REACTORS
330
2A5
102
}
330
2A5
100
AcDbXrecord
280
     1
102
SHADEPLOT
 70
     0
102
SHADEPLOTRESLEVEL
 70
     2
102
SHADEPLOTCUSTOMDPI
 70
   300
  0
XRECORD
  5
2AA
102
{ACAD_REACTORS
330
2A9
102
}
330
2A9
100
AcDbXrecord
280
     1
102
MATERIAL
148
0.0
149
0.0
149
0.0
 93
        0
 94
       63
282
     0
 72
     1
 77
     1
171
     1
175
     1
179
     1
273
     0
  0
XRECORD
  5
2A8
102
{ACAD_REACTORS
330
2A7
102
}
330
2A7
100
AcDbXrecord
280
     1
102
MATERIAL
148
0.0
149
0.0
149
0.0
 93
        0
 94
       63
282
     0
 72
     1
 77
     1
171
     1
175
     1
179
     1
273
     0
  0
XRECORD
  5
2AC
102
{ACAD_REACTORS
330
2AB
102
}
330
2AB
100
AcDbXrecord
280
     1
102
MATERIAL
148
0.0
149
0.0
149
0.0
 93
        0
 94
       63
282
     0
 72
     1
 77
     1
171
     1
175
     1
179
     1
273
     0
  0
XRECORD
  5
2AE
102
{ACAD_REACTORS
330
2AD
102
}
330
2AD
100
AcDbXrecord
280
     1
102
ACAD_ROUNDTRIP_PRE2007_TABLESTYLE
 90
      512
 91
        0
  1

 92
      512
 93
        0
  2

 94
      512
 95
        0
  3

  0
ENDSEC
  0
EOF
