  0
SECTION
  2
HEADER
  9
$ACADVER
  1
AC1015
  9
$ACADMAINTVER
 70
    20
  9
$DWGCODEPAGE
  3
ANSI_1252
  9
$INSBASE
 10
0.0
 20
0.0
 30
0.0
  9
$EXTMIN
 10
6.730774017435933
 20
-0.1009096097117919
 30
-0.0015258207003583
  9
$EXTMAX
 10
20.1258545575266
 20
5.346891582461779
 30
0.0000000349246037
  9
$LIMMIN
 10
0.0
 20
0.0
  9
$LIMMAX
 10
36.0
 20
36.0
  9
$ORTHOMODE
 70
     1
  9
$REGENMODE
 70
     1
  9
$FILLMODE
 70
     1
  9
$QTEXTMODE
 70
     0
  9
$MIRRTEXT
 70
     1
  9
$LTSCALE
 40
1.0
  9
$ATTMODE
 70
     1
  9
$TEXTSIZE
 40
0.2
  9
$TRACEWID
 40
0.05
  9
$TEXTSTYLE
  7
STANDARD
  9
$CLAYER
  8
ADP1DETAIL
  9
$CELTYPE
  6
ByLayer
  9
$CECOLOR
 62
   256
  9
$CELTSCALE
 40
1.0
  9
$DISPSILH
 70
     0
  9
$DIMSCALE
 40
1.0
  9
$DIMASZ
 40
0.125
  9
$DIMEXO
 40
0.0625
  9
$DIMDLI
 40
0.38
  9
$DIMRND
 40
0.0
  9
$DIMDLE
 40
0.0
  9
$DIMEXE
 40
0.18
  9
$DIMTP
 40
0.0
  9
$DIMTM
 40
0.0
  9
$DIMTXT
 40
0.125
  9
$DIMCEN
 40
0.1875
  9
$DIMTSZ
 40
0.125
  9
$DIMTOL
 70
     0
  9
$DIMLIM
 70
     0
  9
$DIMTIH
 70
     0
  9
$DIMTOH
 70
     0
  9
$DIMSE1
 70
     0
  9
$DIMSE2
 70
     0
  9
$DIMTAD
 70
     0
  9
$DIMZIN
 70
     3
  9
$DIMBLK
  1

  9
$DIMASO
 70
     1
  9
$DIMSHO
 70
     1
  9
$DIMPOST
  1

  9
$DIMAPOST
  1

  9
$DIMALT
 70
     0
  9
$DIMALTD
 70
     1
  9
$DIMALTF
 40
25.4
  9
$DIMLFAC
 40
1.0
  9
$DIMTOFL
 70
     0
  9
$DIMTVP
 40
0.0
  9
$DIMTIX
 70
     0
  9
$DIMSOXD
 70
     0
  9
$DIMSAH
 70
     0
  9
$DIMBLK1
  1

  9
$DIMBLK2
  1

  9
$DIMSTYLE
  2
ADPDIM
  9
$DIMCLRD
 70
     0
  9
$DIMCLRE
 70
     0
  9
$DIMCLRT
 70
     0
  9
$DIMTFAC
 40
1.0
  9
$DIMGAP
 40
0.125
  9
$DIMJUST
 70
     0
  9
$DIMSD1
 70
     0
  9
$DIMSD2
 70
     0
  9
$DIMTOLJ
 70
     1
  9
$DIMTZIN
 70
     3
  9
$DIMALTZ
 70
     3
  9
$DIMALTTZ
 70
     3
  9
$DIMUPT
 70
     0
  9
$DIMDEC
 70
     4
  9
$DIMTDEC
 70
     4
  9
$DIMALTU
 70
     5
  9
$DIMALTTD
 70
     1
  9
$DIMTXSTY
  7
STANDARD
  9
$DIMAUNIT
 70
     0
  9
$DIMADEC
 70
     0
  9
$DIMALTRND
 40
0.0
  9
$DIMAZIN
 70
     0
  9
$DIMDSEP
 70
    46
  9
$DIMATFIT
 70
     3
  9
$DIMFRAC
 70
     0
  9
$DIMLDRBLK
  1

  9
$DIMLUNIT
 70
     5
  9
$DIMLWD
 70
    -2
  9
$DIMLWE
 70
    -2
  9
$DIMTMOVE
 70
     2
  9
$LUNITS
 70
     5
  9
$LUPREC
 70
     4
  9
$SKETCHINC
 40
0.1
  9
$FILLETRAD
 40
0.0
  9
$AUNITS
 70
     0
  9
$AUPREC
 70
     0
  9
$MENU
  1
acad
  9
$ELEVATION
 40
0.0
  9
$PELEVATION
 40
0.0
  9
$THICKNESS
 40
0.0
  9
$LIMCHECK
 70
     0
  9
$CHAMFERA
 40
0.0
  9
$CHAMFERB
 40
0.0
  9
$CHAMFERC
 40
0.0
  9
$CHAMFERD
 40
0.0
  9
$SKPOLY
 70
     0
  9
$TDCREATE
 40
2450212.400891782
  9
$TDUCREATE
 40
2450212.567558450
  9
$TDUPDATE
 40
2453963.979794121
  9
$TDUUPDATE
 40
2453964.146460787
  9
$TDINDWG
 40
0.3461157986
  9
$TDUSRTIMER
 40
0.3461157986
  9
$USRTIMER
 70
     1
  9
$ANGBASE
 50
0.0
  9
$ANGDIR
 70
     0
  9
$PDMODE
 70
     0
  9
$PDSIZE
 40
0.0
  9
$PLINEWID
 40
0.0
  9
$SPLFRAME
 70
     0
  9
$SPLINETYPE
 70
     6
  9
$SPLINESEGS
 70
     8
  9
$HANDSEED
  5
332
  9
$SURFTAB1
 70
     6
  9
$SURFTAB2
 70
     6
  9
$SURFTYPE
 70
     6
  9
$SURFU
 70
     6
  9
$SURFV
 70
     6
  9
$UCSBASE
  2

  9
$UCSNAME
  2

  9
$UCSORG
 10
0.0
 20
0.0
 30
0.0
  9
$UCSXDIR
 10
1.0
 20
0.0
 30
0.0
  9
$UCSYDIR
 10
0.0
 20
1.0
 30
0.0
  9
$UCSORTHOREF
  2

  9
$UCSORTHOVIEW
 70
     0
  9
$UCSORGTOP
 10
0.0
 20
0.0
 30
0.0
  9
$UCSORGBOTTOM
 10
0.0
 20
0.0
 30
0.0
  9
$UCSORGLEFT
 10
0.0
 20
0.0
 30
0.0
  9
$UCSORGRIGHT
 10
0.0
 20
0.0
 30
0.0
  9
$UCSORGFRONT
 10
0.0
 20
0.0
 30
0.0
  9
$UCSORGBACK
 10
0.0
 20
0.0
 30
0.0
  9
$PUCSBASE
  2

  9
$PUCSNAME
  2

  9
$PUCSORG
 10
0.0
 20
0.0
 30
0.0
  9
$PUCSXDIR
 10
1.0
 20
0.0
 30
0.0
  9
$PUCSYDIR
 10
0.0
 20
1.0
 30
0.0
  9
$PUCSORTHOREF
  2

  9
$PUCSORTHOVIEW
 70
     0
  9
$PUCSORGTOP
 10
0.0
 20
0.0
 30
0.0
  9
$PUCSORGBOTTOM
 10
0.0
 20
0.0
 30
0.0
  9
$PUCSORGLEFT
 10
0.0
 20
0.0
 30
0.0
  9
$PUCSORGRIGHT
 10
0.0
 20
0.0
 30
0.0
  9
$PUCSORGFRONT
 10
0.0
 20
0.0
 30
0.0
  9
$PUCSORGBACK
 10
0.0
 20
0.0
 30
0.0
  9
$USERI1
 70
     0
  9
$USERI2
 70
     0
  9
$USERI3
 70
     0
  9
$USERI4
 70
     0
  9
$USERI5
 70
     0
  9
$USERR1
 40
0.0
  9
$USERR2
 40
0.0
  9
$USERR3
 40
0.0
  9
$USERR4
 40
0.0
  9
$USERR5
 40
0.0
  9
$WORLDVIEW
 70
     1
  9
$SHADEDGE
 70
     3
  9
$SHADEDIF
 70
    70
  9
$TILEMODE
 70
     1
  9
$MAXACTVP
 70
    15
  9
$PINSBASE
 10
0.0
 20
0.0
 30
0.0
  9
$PLIMCHECK
 70
     0
  9
$PEXTMIN
 10
1.000000000000000E+20
 20
1.000000000000000E+20
 30
1.000000000000000E+20
  9
$PEXTMAX
 10
-1.000000000000000E+20
 20
-1.000000000000000E+20
 30
-1.000000000000000E+20
  9
$PLIMMIN
 10
0.0
 20
0.0
  9
$PLIMMAX
 10
12.0
 20
9.0
  9
$UNITMODE
 70
     0
  9
$VISRETAIN
 70
     0
  9
$PLINEGEN
 70
     0
  9
$PSLTSCALE
 70
     1
  9
$TREEDEPTH
 70
  3020
  9
$CMLSTYLE
  2
Standard
  9
$CMLJUST
 70
     0
  9
$CMLSCALE
 40
1.0
  9
$PROXYGRAPHICS
 70
     1
  9
$MEASUREMENT
 70
     0
  9
$CELWEIGHT
370
    -1
  9
$ENDCAPS
280
     0
  9
$JOINSTYLE
280
     0
  9
$LWDISPLAY
290
     0
  9
$INSUNITS
 70
     0
  9
$HYPERLINKBASE
  1

  9
$STYLESHEET
  1

  9
$XEDIT
290
     1
  9
$CEPSNTYPE
380
     0
  9
$PSTYLEMODE
290
     1
  9
$FINGERPRINTGUID
  2
{F8705253-4060-48B3-9190-B15B2C323AA4}
  9
$VERSIONGUID
  2
{FB2EB595-4BD5-4042-BC41-8E2D08675279}
  9
$EXTNAMES
290
     1
  9
$PSVPSCALE
 40
0.0
  9
$OLESTARTUP
290
     0
  0
ENDSEC
  0
SECTION
  2
CLASSES
  0
CLASS
  1
ACDBDICTIONARYWDFLT
  2
AcDbDictionaryWithDefault
  3
ObjectDBX Classes
 90
        0
280
     0
281
     0
  0
CLASS
  1
ACDBPLACEHOLDER
  2
AcDbPlaceHolder
  3
ObjectDBX Classes
 90
        0
280
     0
281
     0
  0
CLASS
  1
LAYOUT
  2
AcDbLayout
  3
ObjectDBX Classes
 90
        0
280
     0
281
     0
  0
CLASS
  1
DICTIONARYVAR
  2
AcDbDictionaryVar
  3
ObjectDBX Classes
 90
        0
280
     0
281
     0
  0
CLASS
  1
MATERIAL
  2
AcDbMaterial
  3
ObjectDBX Classes
 90
     1024
280
     0
281
     0
  0
CLASS
  1
VISUALSTYLE
  2
AcDbVisualStyle
  3
ObjectDBX Classes
 90
     4095
280
     0
281
     0
  0
CLASS
  1
TABLESTYLE
  2
AcDbTableStyle
  3
ObjectDBX Classes
 90
     4095
280
     0
281
     0
  0
ENDSEC
  0
SECTION
  2
TABLES
  0
TABLE
  2
VPORT
  5
8
330
0
100
AcDbSymbolTable
 70
     1
  0
VPORT
  5
29D
330
8
100
AcDbSymbolTableRecord
100
AcDbViewportTableRecord
  2
*Active
 70
     0
 10
0.0
 20
0.0
 11
1.0
 21
1.0
 12
13.42831428748126
 22
2.622990986374993
 13
0.0
 23
0.0
 14
0.5740882589684922
 24
0.5740882589684922
 15
0.5
 25
0.5
 16
0.0
 26
0.0
 36
1.0
 17
0.0
 27
0.0
 37
0.0
 40
6.931058036342286
 41
1.944785276073619
 42
50.0
 43
0.0
 44
0.0
 50
0.0
 51
0.0
 71
     0
 72
   100
 73
     1
 74
     0
 75
     0
 76
     0
 77
     0
 78
     0
281
     0
 65
     1
110
0.0
120
0.0
130
0.0
111
1.0
121
0.0
131
0.0
112
0.0
122
1.0
132
0.0
 79
     0
146
0.0
  0
ENDTAB
  0
TABLE
  2
LTYPE
  5
5
330
0
100
AcDbSymbolTable
 70
     2
  0
LTYPE
  5
13
330
5
100
AcDbSymbolTableRecord
100
AcDbLinetypeTableRecord
  2
ByBlock
 70
     0
  3

 72
    65
 73
     0
 40
0.0
  0
LTYPE
  5
14
330
5
100
AcDbSymbolTableRecord
100
AcDbLinetypeTableRecord
  2
ByLayer
 70
     0
  3

 72
    65
 73
     0
 40
0.0
  0
LTYPE
  5
15
330
5
100
AcDbSymbolTableRecord
100
AcDbLinetypeTableRecord
  2
CONTINUOUS
 70
     0
  3
Solid line
 72
    65
 73
     0
 40
0.0
  0
ENDTAB
  0
TABLE
  2
LAYER
  5
2
330
0
100
AcDbSymbolTable
 70
     4
  0
LAYER
  5
10
330
2
100
AcDbSymbolTableRecord
100
AcDbLayerTableRecord
  2
0
 70
     0
 62
     7
  6
CONTINUOUS
370
    -3
390
F
  0
LAYER
  5
3A
330
2
100
AcDbSymbolTableRecord
100
AcDbLayerTableRecord
  2
ADPDIM
 70
     0
 62
     3
  6
CONTINUOUS
370
    -3
390
F
  0
LAYER
  5
3C
330
2
100
AcDbSymbolTableRecord
100
AcDbLayerTableRecord
  2
ADP1DETAIL
 70
     0
 62
     7
  6
CONTINUOUS
370
    -3
390
F
  0
LAYER
  5
3E
330
2
100
AcDbSymbolTableRecord
100
AcDbLayerTableRecord
  2
DEFPOINTS
 70
     0
 62
     7
  6
CONTINUOUS
290
     0
370
    -3
390
F
  0
ENDTAB
  0
TABLE
  2
STYLE
  5
3
330
0
100
AcDbSymbolTable
 70
     2
  0
STYLE
  5
11
330
3
100
AcDbSymbolTableRecord
100
AcDbTextStyleTableRecord
  2
STANDARD
 70
     0
 40
0.0
 41
1.0
 50
0.0
 71
     0
 42
0.2
  3
txt
  4

  0
STYLE
  5
143
330
3
100
AcDbSymbolTableRecord
100
AcDbTextStyleTableRecord
  2
ARIAL_WIDE
 70
     0
 40
0.0
 41
1.25
 50
0.0
 71
     0
 42
0.2
  3
ARIAL.TTF
  4

1001
ACAD
1000
Arial
1071
       34
  0
ENDTAB
  0
TABLE
  2
VIEW
  5
6
330
0
100
AcDbSymbolTable
 70
     0
  0
ENDTAB
  0
TABLE
  2
UCS
  5
7
330
0
100
AcDbSymbolTable
 70
     0
  0
ENDTAB
  0
TABLE
  2
APPID
  5
9
330
0
100
AcDbSymbolTable
 70
     4
  0
APPID
  5
12
330
9
100
AcDbSymbolTableRecord
100
AcDbRegAppTableRecord
  2
ACAD
 70
     0
  0
APPID
  5
36
330
9
100
AcDbSymbolTableRecord
100
AcDbRegAppTableRecord
  2
AUTOCAD_POSTSCRIPT_FIGURE
 70
     0
  0
APPID
  5
2FE
330
9
100
AcDbSymbolTableRecord
100
AcDbRegAppTableRecord
  2
ACAD_EXEMPT_FROM_CAD_STANDARDS
 70
     0
  0
APPID
  5
306
330
9
100
AcDbSymbolTableRecord
100
AcDbRegAppTableRecord
  2
DCO15
 70
     0
  0
ENDTAB
  0
TABLE
  2
DIMSTYLE
  5
A
330
0
100
AcDbSymbolTable
 70
     2
100
AcDbDimStyleTable
 71
     1
340
37
  0
DIMSTYLE
105
37
102
{ACAD_REACTORS
330
2EF
102
}
330
A
100
AcDbSymbolTableRecord
100
AcDbDimStyleTableRecord
  2
ADPDIM
 70
     0
 41
0.125
 73
     0
 74
     0
 78
     3
140
0.125
141
0.1875
142
0.125
147
0.125
171
     1
273
     5
274
     1
277
     5
279
     2
284
     3
285
     3
286
     3
340
11
  0
ENDTAB
  0
TABLE
  2
BLOCK_RECORD
  5
1
330
0
100
AcDbSymbolTable
 70
     5
  0
BLOCK_RECORD
  5
1E
102
{ACAD_XDICTIONARY
360
181
102
}
330
1
100
AcDbSymbolTableRecord
100
AcDbBlockTableRecord
  2
*Model_Space
340
21
  0
BLOCK_RECORD
  5
1A
102
{ACAD_XDICTIONARY
360
183
102
}
330
1
100
AcDbSymbolTableRecord
100
AcDbBlockTableRecord
  2
*Paper_Space
340
1D
  0
BLOCK_RECORD
  5
29
330
1
100
AcDbSymbolTableRecord
100
AcDbBlockTableRecord
  2
*D0
340
0
  0
BLOCK_RECORD
  5
2A
330
1
100
AcDbSymbolTableRecord
100
AcDbBlockTableRecord
  2
*D1
340
0
  0
BLOCK_RECORD
  5
31
330
1
100
AcDbSymbolTableRecord
100
AcDbBlockTableRecord
  2
*D2
340
0
  0
BLOCK_RECORD
  5
2F0
330
1
100
AcDbSymbolTableRecord
100
AcDbBlockTableRecord
  2
*D3
340
0
  0
ENDTAB
  0
ENDSEC
  0
SECTION
  2
BLOCKS
  0
BLOCK
  5
42
330
1E
100
AcDbEntity
  8
0
100
AcDbBlockBegin
  2
*Model_Space
 70
     0
 10
0.0
 20
0.0
 30
0.0
  3
*Model_Space
  1

  0
ENDBLK
  5
43
330
1E
100
AcDbEntity
  8
0
100
AcDbBlockEnd
  0
BLOCK
  5
40
330
1A
100
AcDbEntity
 67
     1
  8
0
100
AcDbBlockBegin
  2
*Paper_Space
 70
     0
 10
0.0
 20
0.0
 30
0.0
  3
*Paper_Space
  1

  0
ENDBLK
  5
41
330
1A
100
AcDbEntity
 67
     1
  8
0
100
AcDbBlockEnd
  0
BLOCK
  5
8B
330
29
100
AcDbEntity
  8
0
100
AcDbBlockBegin
  2
*D0
 70
     1
 10
0.0
 20
0.0
 30
0.0
  3
*D0
  1

  0
LINE
  5
8C
330
29
100
AcDbEntity
  8
0
  6
ByBlock
 62
     0
100
AcDbLine
 10
11.74695824214021
 20
5.658071882193281
 30
0.0
 11
11.74695824214021
 21
5.247765966350192
 31
0.0
  0
LINE
  5
8D
330
29
100
AcDbEntity
  8
0
  6
ByBlock
 62
     0
100
AcDbLine
 10
13.06239942498616
 20
5.658071882193281
 30
0.0
 11
13.06239942498616
 21
5.247765966350192
 31
0.0
  0
LINE
  5
8E
330
29
100
AcDbEntity
  8
0
  6
ByBlock
 62
     0
100
AcDbLine
 10
11.74695824214021
 20
5.427765966350191
 30
0.0
 11
11.49695824214021
 21
5.427765966350191
 31
0.0
  0
LINE
  5
8F
330
29
100
AcDbEntity
  8
0
  6
ByBlock
 62
     0
100
AcDbLine
 10
13.06239942498616
 20
5.427765966350191
 30
0.0
 11
13.31239942498616
 21
5.427765966350191
 31
0.0
  0
LINE
  5
90
330
29
100
AcDbEntity
  8
0
  6
ByBlock
 62
     0
100
AcDbLine
 10
11.62195824214021
 20
5.302765966350191
 30
0.0
 11
11.87195824214021
 21
5.552765966350191
 31
0.0
  0
LINE
  5
91
330
29
100
AcDbEntity
  8
0
  6
ByBlock
 62
     0
100
AcDbLine
 10
12.93739942498616
 20
5.302765966350191
 30
0.0
 11
13.18739942498616
 21
5.552765966350191
 31
0.0
  0
TEXT
  5
92
330
29
100
AcDbEntity
  8
0
  6
ByBlock
 62
     0
100
AcDbText
 10
13.43739942498616
 20
5.365265966350191
 30
0.0
 40
0.125
  1
1 5/16
 72
     1
 11
13.74989942498616
 21
5.427765966350191
 31
0.0
100
AcDbText
 73
     2
  0
POINT
  5
93
330
29
100
AcDbEntity
  8
DEFPOINTS
  6
ByBlock
 62
     0
100
AcDbPoint
 10
11.74695824214021
 20
5.720571882193281
 30
0.0
  0
POINT
  5
94
330
29
100
AcDbEntity
  8
DEFPOINTS
  6
ByBlock
 62
     0
100
AcDbPoint
 10
13.06239942498616
 20
5.720571882193281
 30
0.0
  0
POINT
  5
95
330
29
100
AcDbEntity
  8
DEFPOINTS
  6
ByBlock
 62
     0
100
AcDbPoint
 10
13.06239942498616
 20
5.427765966350191
 30
0.0
  0
ENDBLK
  5
96
330
29
100
AcDbEntity
  8
0
100
AcDbBlockEnd
  0
BLOCK
  5
97
330
2A
100
AcDbEntity
  8
0
100
AcDbBlockBegin
  2
*D1
 70
     1
 10
0.0
 20
0.0
 30
0.0
  3
*D1
  1

  0
LINE
  5
98
330
2A
100
AcDbEntity
  8
0
  6
ByBlock
 62
     0
100
AcDbLine
 10
11.4389395579671
 20
5.999463809881073
 30
0.0
 11
11.4389395579671
 21
6.630349470066036
 31
0.0
  0
LINE
  5
99
330
2A
100
AcDbEntity
  8
0
  6
ByBlock
 62
     0
100
AcDbLine
 10
13.37041810915927
 20
5.999463809881073
 30
0.0
 11
13.37041810915927
 21
6.630349470066036
 31
0.0
  0
LINE
  5
9A
330
2A
100
AcDbEntity
  8
0
  6
ByBlock
 62
     0
100
AcDbLine
 10
11.4389395579671
 20
6.450349470066036
 30
0.0
 11
11.92551216689652
 21
6.450349470066036
 31
0.0
  0
LINE
  5
9B
330
2A
100
AcDbEntity
  8
0
  6
ByBlock
 62
     0
100
AcDbLine
 10
13.37041810915927
 20
6.450349470066036
 30
0.0
 11
12.88384550022985
 21
6.450349470066036
 31
0.0
  0
LINE
  5
9C
330
2A
100
AcDbEntity
  8
0
  6
ByBlock
 62
     0
100
AcDbLine
 10
11.3139395579671
 20
6.325349470066036
 30
0.0
 11
11.5639395579671
 21
6.575349470066036
 31
0.0
  0
LINE
  5
9D
330
2A
100
AcDbEntity
  8
0
  6
ByBlock
 62
     0
100
AcDbLine
 10
13.24541810915927
 20
6.325349470066036
 30
0.0
 11
13.49541810915927
 21
6.575349470066036
 31
0.0
  0
TEXT
  5
9E
330
2A
100
AcDbEntity
  8
0
  6
ByBlock
 62
     0
100
AcDbText
 10
12.05051216689652
 20
6.387849470066036
 30
0.0
 40
0.125
  1
1 15/16
 72
     1
 11
12.40467883356319
 21
6.450349470066036
 31
0.0
100
AcDbText
 73
     2
  0
POINT
  5
9F
330
2A
100
AcDbEntity
  8
DEFPOINTS
  6
ByBlock
 62
     0
100
AcDbPoint
 10
11.4389395579671
 20
5.936963809881073
 30
0.0
  0
POINT
  5
A0
330
2A
100
AcDbEntity
  8
DEFPOINTS
  6
ByBlock
 62
     0
100
AcDbPoint
 10
13.37041810915927
 20
5.936963809881073
 30
0.0
  0
POINT
  5
A1
330
2A
100
AcDbEntity
  8
DEFPOINTS
  6
ByBlock
 62
     0
100
AcDbPoint
 10
13.37041810915927
 20
6.450349470066036
 30
0.0
  0
ENDBLK
  5
A2
330
2A
100
AcDbEntity
  8
0
100
AcDbBlockEnd
  0
BLOCK
  5
DF
330
31
100
AcDbEntity
  8
0
100
AcDbBlockBegin
  2
*D2
 70
     1
 10
0.0
 20
0.0
 30
0.0
  3
*D2
  1

  0
LINE
  5
E0
330
31
100
AcDbEntity
  8
0
  6
ByBlock
 62
     0
100
AcDbLine
 10
11.28500810074115
 20
0.4577756721224936
 30
0.0
 11
9.541807201298215
 21
0.4577756721224936
 31
0.0
  0
LINE
  5
E1
330
31
100
AcDbEntity
  8
0
  6
ByBlock
 62
     0
100
AcDbLine
 10
11.06423750030613
 20
5.023627479153348
 30
0.0
 11
9.541807201298215
 21
5.023627479153348
 31
0.0
  0
LINE
  5
E2
330
31
100
AcDbEntity
  8
0
  6
ByBlock
 62
     0
100
AcDbLine
 10
9.721807201298215
 20
0.4577756721224936
 30
0.0
 11
9.721807201298215
 21
2.282368242304587
 31
0.0
  0
LINE
  5
E3
330
31
100
AcDbEntity
  8
0
  6
ByBlock
 62
     0
100
AcDbLine
 10
9.721807201298215
 20
5.023627479153348
 30
0.0
 11
9.721807201298215
 21
3.199034908971254
 31
0.0
  0
LINE
  5
E4
330
31
100
AcDbEntity
  8
0
  6
ByBlock
 62
     0
100
AcDbLine
 10
9.846807201298215
 20
0.3327756721224936
 30
0.0
 11
9.596807201298215
 21
0.5827756721224936
 31
0.0
  0
LINE
  5
E5
330
31
100
AcDbEntity
  8
0
  6
ByBlock
 62
     0
100
AcDbLine
 10
9.846807201298215
 20
4.898627479153348
 30
0.0
 11
9.596807201298215
 21
5.148627479153348
 31
0.0
  0
TEXT
  5
E6
330
31
100
AcDbEntity
  8
0
  6
ByBlock
 62
     0
100
AcDbText
 10
9.784307201298215
 20
2.407368242304587
 30
0.0
 40
0.125
  1
4 9/16
 50
90.0
 72
     1
 11
9.721807201298215
 21
2.740701575637921
 31
0.0
100
AcDbText
 73
     2
  0
POINT
  5
E7
330
31
100
AcDbEntity
  8
DEFPOINTS
  6
ByBlock
 62
     0
100
AcDbPoint
 10
11.34750810074115
 20
0.4577756721224935
 30
0.0
  0
POINT
  5
E8
330
31
100
AcDbEntity
  8
DEFPOINTS
  6
ByBlock
 62
     0
100
AcDbPoint
 10
11.12673750030614
 20
5.023627479153348
 30
0.0
  0
POINT
  5
E9
330
31
100
AcDbEntity
  8
DEFPOINTS
  6
ByBlock
 62
     0
100
AcDbPoint
 10
9.721807201298215
 20
5.023627479153348
 30
0.0
  0
ENDBLK
  5
EA
330
31
100
AcDbEntity
  8
0
100
AcDbBlockEnd
  0
BLOCK
  5
2FB
330
2F0
100
AcDbEntity
  8
0
 62
     3
100
AcDbBlockBegin
  2
*D3
 70
     1
 10
0.0
 20
0.0
 30
0.0
  3
*D3
  1

  0
LINE
  5
2F1
330
2F0
100
AcDbEntity
  8
ADPDIM
 62
     0
370
    -2
100
AcDbLine
 10
11.06111389992713
 20
5.022373752423614
 30
0.0
 11
9.459676805416139
 21
5.022373752423615
 31
0.0
  0
LINE
  5
2F2
330
2F0
100
AcDbEntity
  8
ADPDIM
 62
     0
370
    -2
100
AcDbLine
 10
11.06111389992713
 20
0.2723737524236149
 30
0.0
 11
9.459676805416137
 21
0.2723737524236154
 31
0.0
  0
LINE
  5
2F3
330
2F0
100
AcDbEntity
  8
ADPDIM
 62
     0
370
    -2
100
AcDbLine
 10
9.639676805416138
 20
5.022373752423615
 30
0.0
 11
9.639676805416137
 21
2.876540419090281
 31
0.0
  0
LINE
  5
2F4
330
2F0
100
AcDbEntity
  8
ADPDIM
 62
     0
370
    -2
100
AcDbLine
 10
9.639676805416137
 20
0.2723737524236153
 30
0.0
 11
9.639676805416137
 21
2.418207085756948
 31
0.0
  0
LINE
  5
2F5
330
2F0
100
AcDbEntity
  8
ADPDIM
 62
     0
370
    -2
100
AcDbLine
 10
9.764676805416137
 20
0.1473737524236153
 30
0.0
 11
9.514676805416137
 21
0.3973737524236154
 31
0.0
  0
LINE
  5
2F6
330
2F0
100
AcDbEntity
  8
ADPDIM
 62
     0
370
    -2
100
AcDbLine
 10
9.764676805416138
 20
4.897373752423615
 30
0.0
 11
9.514676805416138
 21
5.147373752423615
 31
0.0
  0
MTEXT
  5
2F7
330
2F0
100
AcDbEntity
  8
ADPDIM
 62
     0
100
AcDbMText
 10
9.639676805416137
 20
2.647373752423617
 30
0.0
 40
0.125
 41
0.0
 71
     5
 72
     1
  1
\A1;4{\H1.000000x;\S3/4;}
 11
0.0000000000000001
 21
1.0
 31
0.0
 73
     1
 44
1.0
1001
ACAD
1000
MTEXTBEGIN
1070
    73
1070
     1
1070
    44
1040
1.0
1070
    74
1070
     0
1000
MTEXTEND
  0
POINT
  5
2F8
330
2F0
100
AcDbEntity
  8
DEFPOINTS
 62
     0
100
AcDbPoint
 10
11.12361389992713
 20
5.022373752423614
 30
0.0
  0
POINT
  5
2F9
330
2F0
100
AcDbEntity
  8
DEFPOINTS
 62
     0
100
AcDbPoint
 10
11.12361389992713
 20
0.2723737524236149
 30
0.0
  0
POINT
  5
2FA
330
2F0
100
AcDbEntity
  8
DEFPOINTS
 62
     0
100
AcDbPoint
 10
9.639676805416137
 20
0.2723737524236153
 30
0.0
  0
ENDBLK
  5
2FC
330
2F0
100
AcDbEntity
  8
0
 62
     3
100
AcDbBlockEnd
  0
ENDSEC
  0
SECTION
  2
ENTITIES
  0
LWPOLYLINE
  5
EB
330
1E
100
AcDbEntity
  8
ADP1DETAIL
100
AcDbPolyline
 90
        5
 70
     0
 43
0.0
 10
14.25518366958725
 20
4.832578061775286
 10
11.40013580448508
 20
4.832578061775286
 42
0.3558792607978527
 10
10.30983654324132
 20
3.768630444307808
 42
0.2708007889395851
 10
10.7248749327178
 20
2.559748786070769
 42
-0.0955637096892023
 10
11.48742562449403
 20
1.551798411627895
 42
0.6225520335470591
  0
LINE
  5
F2
330
1E
100
AcDbEntity
  8
ADP1DETAIL
100
AcDbLine
 10
14.9472501104849
 20
4.490006692683592
 30
0.0
 11
15.42816760940208
 21
0.6327848349299812
 31
0.0
  0
LINE
  5
F3
330
1E
100
AcDbEntity
  8
ADP1DETAIL
100
AcDbLine
 10
16.81492286312905
 20
4.490006692683592
 30
0.0
 11
16.36035700798814
 21
0.6327848349299812
 31
0.0
  0
LINE
  5
F4
330
1E
100
AcDbEntity
  8
ADP1DETAIL
100
AcDbLine
 10
14.25518366958725
 20
4.415892694562791
 30
0.0
 11
14.25518366958725
 21
5.023627479153347
 31
0.0
  0
LINE
  5
F5
330
1E
100
AcDbEntity
  8
ADP1DETAIL
100
AcDbLine
 10
14.25518366958725
 20
5.023627479153347
 30
0.0
 11
11.12673750030614
 21
5.023627479153347
 31
0.0
  0
ARC
  5
F6
330
1E
100
AcDbEntity
  8
ADP1DETAIL
100
AcDbCircle
 10
11.48109970420768
 20
3.61911027694891
 30
0.0
 40
1.448530684121721
100
AcDbArc
 50
104.160301110581
 51
178.3851894958992
  0
ARC
  5
F7
330
1E
100
AcDbEntity
  8
ADP1DETAIL
100
AcDbCircle
 10
11.76397497840457
 20
3.669938311468971
 30
0.0
 40
1.730859630974273
100
AcDbArc
 50
180.3313048241461
 51
230.256588055841
  0
ARC
  5
F8
330
1E
100
AcDbEntity
  8
ADP1DETAIL
100
AcDbCircle
 10
7.82460957624642
 20
-0.9924107346034869
 30
0.0
 40
4.372992969298596
100
AcDbArc
 50
34.47052327246427
 51
49.62553585141567
  0
ARC
  5
F9
330
1E
100
AcDbEntity
  8
ADP1DETAIL
100
AcDbCircle
 10
10.83772314380614
 20
1.096999278725276
 30
0.0
 40
0.706569492308745
100
AcDbArc
 50
324.5502031142425
 51
33.07745679312749
  0
ARC
  5
FA
330
1E
100
AcDbEntity
  8
ADP1DETAIL
100
AcDbCircle
 10
11.20377649263674
 20
1.000882371543451
 30
0.0
 40
0.3851450690154471
100
AcDbArc
 50
220.6898496937809
 51
305.4658295368015
  0
ARC
  5
FB
330
1E
100
AcDbEntity
  8
ADP1DETAIL
100
AcDbCircle
 10
11.39488543137793
 20
0.7941141099805873
 30
0.0
 40
0.4851747984873693
100
AcDbArc
 50
185.2426725325432
 51
304.4510931905081
  0
ARC
  5
FC
330
1E
100
AcDbEntity
  8
ADP1DETAIL
100
AcDbCircle
 10
10.85760831164763
 20
1.218459464064878
 30
0.0
 40
1.147247099625936
100
AcDbArc
 50
314.0600324928681
 51
39.64050506043456
  0
ARC
  5
FD
330
1E
100
AcDbEntity
  8
ADP1DETAIL
100
AcDbCircle
 10
24.67257076495387
 20
13.62298893639227
 30
0.0
 40
17.42050710842586
100
AcDbArc
 50
217.4540746329363
 51
222.0709732334387
  0
ARC
  5
FE
330
1E
100
AcDbEntity
  8
ADP1DETAIL
100
AcDbCircle
 10
11.53906152797308
 20
3.558884678171045
 30
0.0
 40
0.8743553831846723
100
AcDbArc
 50
114.1680592208397
 51
217.2915993923613
  0
ARC
  5
FF
330
1E
100
AcDbEntity
  8
ADP1DETAIL
100
AcDbCircle
 10
11.56321551076226
 20
3.32792209500913
 30
0.0
 40
1.097361801679764
100
AcDbArc
 50
82.49875214387053
 51
110.3787270583477
  0
LINE
  5
100
330
1E
100
AcDbEntity
  8
ADP1DETAIL
100
AcDbLine
 10
11.70647366338439
 20
4.415892694562791
 30
0.0
 11
14.25518366958725
 21
4.415892694562791
 31
0.0
  0
ARC
  5
101
330
1E
100
AcDbEntity
  8
ADP1DETAIL
100
AcDbCircle
 10
15.12501153928282
 20
4.810053717652917
 30
0.0
 40
0.031
100
AcDbArc
 50
270.0
 51
345.0
  0
LINE
  5
102
330
1E
100
AcDbEntity
  8
ADP1DETAIL
100
AcDbLine
 10
15.19591189680867
 20
4.279053717652917
 30
0.0
 11
15.11885787533701
 21
4.279053717652917
 31
0.0
  0
DIMENSION
  5
103
330
1E
100
AcDbEntity
  8
ADPDIM
100
AcDbDimension
  2
*D0
 10
16.54201609186008
 20
4.144131059048384
 30
0.0
 11
17.22951609186008
 21
4.144131059048384
 31
0.0
 12
3.479616666873921
 22
-1.283634907301807
 32
0.0
 71
     5
 42
-1.0
100
AcDbAlignedDimension
 13
15.22657490901413
 23
4.436936974891474
 33
0.0
 14
16.54201609186008
 24
4.436936974891474
 34
0.0
100
AcDbRotatedDimension
  0
DIMENSION
  5
104
330
1E
100
AcDbEntity
  8
ADPDIM
100
AcDbDimension
  2
*D1
 10
16.85003477603319
 20
5.166714562764229
 30
0.0
 11
15.88429550043711
 21
5.166714562764229
 31
0.0
 12
3.479616666873921
 22
-1.283634907301807
 32
0.0
 71
     5
 42
-1.0
100
AcDbAlignedDimension
 13
14.91855622484103
 23
4.653328902579266
 33
0.0
 14
16.85003477603319
 24
4.653328902579266
 34
0.0
100
AcDbRotatedDimension
  0
ARC
  5
105
330
1E
100
AcDbEntity
  8
ADP1DETAIL
100
AcDbCircle
 10
15.07179550043711
 20
4.622803717652917
 30
0.0
 40
0.15625
100
AcDbArc
 50
90.0
 51
247.4683526082813
  0
ARC
  5
106
330
1E
100
AcDbEntity
  8
ADP1DETAIL
100
AcDbCircle
 10
14.96402227796043
 20
4.363022088169628
 30
0.0
 40
0.125
100
AcDbArc
 50
19.62566268510293
 51
67.46835260828124
  0
LINE
  5
107
330
1E
100
AcDbEntity
  8
ADP1DETAIL
100
AcDbLine
 10
15.07179550043711
 20
4.779053717652917
 30
0.0
 11
15.12501153928282
 21
4.779053717652917
 31
0.0
  0
ARC
  5
108
330
1E
100
AcDbEntity
  8
ADP1DETAIL
100
AcDbCircle
 10
14.72854550043711
 20
4.279053717652917
 30
0.0
 40
0.375
100
AcDbArc
 50
59.87480961453986
 51
60.08817348724779
  0
ARC
  5
109
330
1E
100
AcDbEntity
  8
ADP1DETAIL
100
AcDbCircle
 10
15.11885787533701
 20
4.294678717652917
 30
0.0
 40
0.015625
100
AcDbArc
 50
182.2924427759558
 51
270.0
  0
ARC
  5
10A
330
1E
100
AcDbEntity
  8
ADP1DETAIL
100
AcDbCircle
 10
14.72854550043711
 20
4.279053717652917
 30
0.0
 40
0.375
100
AcDbArc
 50
2.292442775955886
 51
19.62566268510293
  0
ARC
  5
10B
330
1E
100
AcDbEntity
  8
ADP1DETAIL
100
AcDbCircle
 10
16.6435794615914
 20
4.810053717652917
 30
0.0
 40
0.031
100
AcDbArc
 50
195.0
 51
270.0
  0
ARC
  5
10C
330
1E
100
AcDbEntity
  8
ADP1DETAIL
100
AcDbCircle
 10
16.69679550043711
 20
4.622803717652917
 30
0.0
 40
0.15625
100
AcDbArc
 50
292.5316473917188
 51
90.0
  0
LINE
  5
10D
330
1E
100
AcDbEntity
  8
ADP1DETAIL
100
AcDbLine
 10
16.57267910406555
 20
4.279053717652917
 30
0.0
 11
16.64973312553721
 21
4.279053717652917
 31
0.0
  0
LINE
  5
10E
330
1E
100
AcDbEntity
  8
ADP1DETAIL
100
AcDbLine
 10
15.35157490901413
 20
4.608811974891474
 30
0.0
 11
15.3364513014238
 21
4.46492046041436
 31
0.0
  0
ARC
  5
10F
330
1E
100
AcDbEntity
  8
ADP1DETAIL
100
AcDbCircle
 10
15.36711431362926
 20
4.607178717652917
 30
0.0
 40
0.015625
100
AcDbArc
 50
90.0
 51
174.0
  0
LINE
  5
110
330
1E
100
AcDbEntity
  8
ADP1DETAIL
100
AcDbLine
 10
16.29868470262449
 20
4.624559571331064
 30
0.0
 11
15.36711431362926
 21
4.622803717652917
 31
0.0
  0
ARC
  5
111
330
1E
100
AcDbEntity
  8
ADP1DETAIL
100
AcDbCircle
 10
15.46270995158611
 20
4.638428717652917
 30
0.0
 40
0.015625
100
AcDbArc
 50
270.0
 51
324.8472970332199
  0
ARC
  5
112
330
1E
100
AcDbEntity
  8
ADP1DETAIL
100
AcDbCircle
 10
15.24211431362926
 20
4.435303717652917
 30
0.0
 40
0.015625
100
AcDbArc
 50
90.0
 51
174.0
  0
LINE
  5
113
330
1E
100
AcDbEntity
  8
ADP1DETAIL
100
AcDbLine
 10
15.32091189680867
 20
4.450928717652917
 30
0.0
 11
15.24211431362926
 21
4.450928717652917
 31
0.0
  0
ARC
  5
114
330
1E
100
AcDbEntity
  8
ADP1DETAIL
100
AcDbCircle
 10
15.32091189680867
 20
4.466553717652917
 30
0.0
 40
0.015625
100
AcDbArc
 50
270.0
 51
354.0
  0
ARC
  5
115
330
1E
100
AcDbEntity
  8
ADP1DETAIL
100
AcDbCircle
 10
15.19591189680867
 20
4.294678717652917
 30
0.0
 40
0.015625
100
AcDbArc
 50
270.0
 51
354.0
  0
LINE
  5
116
330
1E
100
AcDbEntity
  8
ADP1DETAIL
100
AcDbLine
 10
15.22657490901413
 20
4.436936974891474
 30
0.0
 11
15.2114513014238
 21
4.29304546041436
 31
0.0
  0
LINE
  5
117
330
1E
100
AcDbEntity
  8
ADP1DETAIL
100
AcDbLine
 10
16.41701609186008
 20
4.608811974891474
 30
0.0
 11
16.43213969945042
 21
4.46492046041436
 31
0.0
  0
LINE
  5
118
330
1E
100
AcDbEntity
  8
ADP1DETAIL
100
AcDbLine
 10
16.44767910406555
 20
4.450928717652917
 30
0.0
 11
16.52647668724496
 21
4.450928717652917
 31
0.0
  0
ARC
  5
119
330
1E
100
AcDbEntity
  8
ADP1DETAIL
100
AcDbCircle
 10
16.52647668724496
 20
4.435303717652917
 30
0.0
 40
0.015625
100
AcDbArc
 50
5.99999999999999
 51
90.0
  0
ARC
  5
11A
330
1E
100
AcDbEntity
  8
ADP1DETAIL
100
AcDbCircle
 10
16.44767910406555
 20
4.466553717652917
 30
0.0
 40
0.015625
100
AcDbArc
 50
186.0
 51
270.0
  0
ARC
  5
11B
330
1E
100
AcDbEntity
  8
ADP1DETAIL
100
AcDbCircle
 10
16.57267910406555
 20
4.294678717652917
 30
0.0
 40
0.015625
100
AcDbArc
 50
186.0
 51
270.0
  0
LINE
  5
11C
330
1E
100
AcDbEntity
  8
ADP1DETAIL
100
AcDbLine
 10
16.54201609186008
 20
4.436936974891474
 30
0.0
 11
16.55713969945042
 21
4.29304546041436
 31
0.0
  0
ARC
  5
11D
330
1E
100
AcDbEntity
  8
ADP1DETAIL
100
AcDbCircle
 10
16.30588104928811
 20
4.638428717652917
 30
0.0
 40
0.015625
100
AcDbArc
 50
215.1527029667801
 51
270.0
  0
LINE
  5
11E
330
1E
100
AcDbEntity
  8
ADP1DETAIL
100
AcDbLine
 10
16.30588104928811
 20
4.622803717652917
 30
0.0
 11
16.40147668724496
 21
4.622803717652917
 31
0.0
  0
ARC
  5
11F
330
1E
100
AcDbEntity
  8
ADP1DETAIL
100
AcDbCircle
 10
16.40147668724496
 20
4.607178717652917
 30
0.0
 40
0.015625
100
AcDbArc
 50
6.000000000000015
 51
90.0
  0
ARC
  5
120
330
1E
100
AcDbEntity
  8
ADP1DETAIL
100
AcDbCircle
 10
17.04004550043711
 20
4.279053717652917
 30
0.0
 40
0.375
100
AcDbArc
 50
119.9118265127522
 51
120.1251903854601
  0
LINE
  5
121
330
1E
100
AcDbEntity
  8
ADP1DETAIL
100
AcDbLine
 10
16.69679550043711
 20
4.779053717652917
 30
0.0
 11
16.6435794615914
 21
4.779053717652917
 31
0.0
  0
ARC
  5
122
330
1E
100
AcDbEntity
  8
ADP1DETAIL
100
AcDbCircle
 10
16.80456872291379
 20
4.363022088169628
 30
0.0
 40
0.125
100
AcDbArc
 50
112.5316473917187
 51
160.374337314897
  0
ARC
  5
123
330
1E
100
AcDbEntity
  8
ADP1DETAIL
100
AcDbCircle
 10
16.64973312553721
 20
4.294678717652917
 30
0.0
 40
0.015625
100
AcDbArc
 50
270.0
 51
357.7075572240441
  0
ARC
  5
124
330
1E
100
AcDbEntity
  8
ADP1DETAIL
100
AcDbCircle
 10
17.04004550043711
 20
4.279053717652917
 30
0.0
 40
0.375
100
AcDbArc
 50
160.374337314897
 51
177.7075572240441
  0
ARC
  5
125
330
1E
100
AcDbEntity
  8
ADP1DETAIL
100
AcDbCircle
 10
15.88429550043711
 20
4.404053717652917
 30
0.0
 40
0.625
100
AcDbArc
 50
90.0
 51
114.0167723698596
  0
ARC
  5
126
330
1E
100
AcDbEntity
  8
ADP1DETAIL
100
AcDbCircle
 10
15.16554550043711
 20
5.716553717652917
 30
0.0
 40
0.875
100
AcDbArc
 50
270.0
 51
302.0535333564838
  0
LINE
  5
127
330
1E
100
AcDbEntity
  8
ADP1DETAIL
100
AcDbLine
 10
15.16554550043711
 20
4.841553717652917
 30
0.0
 11
15.15495523989778
 21
4.802030327254739
 31
0.0
  0
ARC
  5
128
330
1E
100
AcDbEntity
  8
ADP1DETAIL
100
AcDbCircle
 10
16.60304550043711
 20
5.716553717652917
 30
0.0
 40
0.875
100
AcDbArc
 50
237.9464666435162
 51
270.0
  0
ARC
  5
129
330
1E
100
AcDbEntity
  8
ADP1DETAIL
100
AcDbCircle
 10
15.88429550043711
 20
4.404053717652917
 30
0.0
 40
0.625
100
AcDbArc
 50
65.98322763014036
 51
90.0
  0
LINE
  5
12A
330
1E
100
AcDbEntity
  8
ADP1DETAIL
100
AcDbLine
 10
16.60304550043711
 20
4.841553717652917
 30
0.0
 11
16.61363576097644
 21
4.802030327254739
 31
0.0
  0
LWPOLYLINE
  5
12B
330
1E
100
AcDbEntity
  8
ADP1DETAIL
100
AcDbPolyline
 90
        5
 70
     0
 43
0.0
 10
14.25518366958725
 20
4.791660437127004
 10
11.4019810579766
 20
4.791660437127004
 42
0.3558582042177265
 10
10.35029455732227
 20
3.762267508151816
 42
0.2712740252951785
 10
10.75191075160853
 20
2.590465400130845
 42
-0.0955967996209406
 10
11.52414208772341
 20
1.569858127428069
 42
-0.0955967996209406
  0
LWPOLYLINE
  5
132
330
1E
100
AcDbEntity
  8
ADP1DETAIL
100
AcDbPolyline
 90
        5
 70
     0
 43
0.0
 10
15.89426230869511
 20
0.3535987741826538
 10
15.57310165017165
 20
0.3912637095725131
 42
-0.2448915567161541
 10
15.42816760940208
 20
0.6327848349299812
 42
-0.0084945574236286
 10
15.52369231809112
 20
1.357455038777798
 42
-0.3638914524203979
 10
15.88273346454299
 20
1.647323120316924
 42
1.018971158134237
  0
LWPOLYLINE
  5
139
330
1E
100
AcDbEntity
  8
ADP1DETAIL
100
AcDbPolyline
 90
        5
 70
     0
 43
0.0
 10
15.89426230869511
 20
0.3535987741826538
 10
16.21542296721858
 20
0.3878396190863924
 42
0.2643124209717213
 10
16.36035700798814
 20
0.6327848349299812
 42
0.0084945574236286
 10
16.26483229929911
 20
1.357455038777798
 42
0.3638914524203979
 10
15.90579115284724
 20
1.647323120316924
 42
-1.018971158134237
  0
LINE
  5
141
330
1E
100
AcDbEntity
  8
ADP1DETAIL
100
AcDbLine
 10
14.26150023858389
 20
4.273303397736077
 30
0.0
 11
11.47020247427016
 21
4.273303397736077
 31
0.0
  0
TEXT
  5
145
330
1E
100
AcDbEntity
  8
ADPDIM
100
AcDbText
 10
6.733203551938061
 20
-0.0628025580246083
 30
0.0
 40
0.125
  1
J U L I U S  B L U M  &  C O . ,  I N C .      ( 8 0 0 )  5 2 6 - 6 2 9 3        W W W . J U L I U S B L U M . C O M        P A R T  N o .  4 4 2 8 - S
 41
1.25
  7
ARIAL_WIDE
 72
     1
 11
13.42871855875934
 21
0.0621974419753917
 31
0.0
100
AcDbText
 73
     3
  0
DIMENSION
  5
2EF
330
1E
100
AcDbEntity
  8
ADPDIM
 62
     3
100
AcDbDimension
  2
*D3
 10
9.639676805416137
 20
0.2723737524236153
 30
0.0
 11
9.639676805416137
 21
2.647373752423617
 31
0.0
 70
    32
 71
     5
 42
4.75
  3
ADPDIM
100
AcDbAlignedDimension
 13
11.12361389992713
 23
5.022373752423614
 33
0.0
 14
11.12361389992713
 24
0.2723737524236149
 34
0.0
 50
90.0
100
AcDbRotatedDimension
  0
ENDSEC
  0
SECTION
  2
OBJECTS
  0
DICTIONARY
  5
C
330
0
100
AcDbDictionary
281
     1
  3
ACAD_COLOR
350
2E9
  3
ACAD_GROUP
350
D
  3
ACAD_LAYOUT
350
19
  3
ACAD_MATERIAL
350
2D4
  3
ACAD_MLINESTYLE
350
16
  3
ACAD_PLOTSETTINGS
350
18
  3
ACAD_PLOTSTYLENAME
350
E
  3
ACAD_TABLESTYLE
350
2EA
  3
ACAD_VISUALSTYLE
350
2D8
  3
AcDbVariableDictionary
350
1B6
  3
ASE_INDEX_DICTIONARY
350
305
  3
DWGPROPS
350
325
  0
DICTIONARY
  5
181
330
1E
100
AcDbDictionary
280
     1
281
     1
  3
ACAD_LAYOUTSELFREF
360
2CE
  0
DICTIONARY
  5
183
330
1A
100
AcDbDictionary
280
     1
281
     1
  3
ACAD_LAYOUTSELFREF
360
2CD
  0
DICTIONARY
  5
2E9
102
{ACAD_REACTORS
330
C
102
}
330
C
100
AcDbDictionary
281
     1
  0
DICTIONARY
  5
D
102
{ACAD_REACTORS
330
C
102
}
330
C
100
AcDbDictionary
281
     1
  0
DICTIONARY
  5
19
102
{ACAD_REACTORS
330
C
102
}
330
C
100
AcDbDictionary
281
     1
  3
Layout1
350
1D
  3
Model
350
21
  0
DICTIONARY
  5
2D4
102
{ACAD_REACTORS
330
C
102
}
330
C
100
AcDbDictionary
281
     1
  3
ByBlock
350
2D6
  3
ByLayer
350
2D5
  3
Global
350
2D7
  0
DICTIONARY
  5
16
102
{ACAD_REACTORS
330
C
102
}
330
C
100
AcDbDictionary
281
     1
  3
Standard
350
17
  0
DICTIONARY
  5
18
102
{ACAD_REACTORS
330
C
102
}
330
C
100
AcDbDictionary
281
     1
  0
ACDBDICTIONARYWDFLT
  5
E
102
{ACAD_REACTORS
330
C
102
}
330
C
100
AcDbDictionary
281
     1
  3
Normal
350
F
100
AcDbDictionaryWithDefault
340
F
  0
DICTIONARY
  5
2EA
102
{ACAD_REACTORS
330
C
102
}
330
C
100
AcDbDictionary
281
     1
  3
Standard
350
2EB
  0
DICTIONARY
  5
2D8
102
{ACAD_REACTORS
330
C
102
}
330
C
100
AcDbDictionary
281
     1
  3
2dWireframe
350
2DE
  3
3D Hidden
350
2E0
  3
3dWireframe
350
2DF
  3
Basic
350
2DD
  3
Brighten
350
2E4
  3
ColorChange
350
2E8
  3
Conceptual
350
2E1
  3
Dim
350
2E3
  3
Facepattern
350
2E7
  3
Flat
350
2D9
  3
FlatWithEdges
350
2DA
  3
Gouraud
350
2DB
  3
GouraudWithEdges
350
2DC
  3
Linepattern
350
2E6
  3
Realistic
350
2E2
  3
Thicken
350
2E5
  0
DICTIONARY
  5
1B6
102
{ACAD_REACTORS
330
C
102
}
330
C
100
AcDbDictionary
281
     1
  3
CTABLESTYLE
350
322
  3
DIMASSOC
350
1B8
  3
HIDETEXT
350
1B7
  3
INDEXCTL
350
324
  3
SORTENTS
350
323
  0
DICTIONARY
  5
305
102
{ACAD_REACTORS
330
C
102
}
330
C
100
AcDbDictionary
281
     1
  3
ASEBlockHierarchyIndexRecord
350
307
1001
DCO15
1040
1569090350.212
  0
XRECORD
  5
325
102
{ACAD_REACTORS
330
C
102
}
330
C
100
AcDbXrecord
280
     1
  1
DWGPROPS COOKIE
  2

  3

  4

  6

  7

  8
Yu Hu
  9

300
=
301
=
302
=
303
=
304
=
305
=
306
=
307
=
308
=
309
=
 40
0.3461156828703704
 41
2450212.400891782
 42
2453963.979794121
  1

 90
        0
  0
XRECORD
  5
2CE
102
{ACAD_REACTORS
330
181
102
}
330
181
100
AcDbXrecord
280
     1
340
1E
  0
XRECORD
  5
2CD
102
{ACAD_REACTORS
330
183
102
}
330
183
100
AcDbXrecord
280
     1
340
1A
  0
LAYOUT
  5
1D
102
{ACAD_XDICTIONARY
360
326
102
}
102
{ACAD_REACTORS
330
19
102
}
330
19
100
AcDbPlotSettings
  1

  2
Fax
  4

  6

 40
0.0
 41
0.0
 42
0.0
 43
0.0
 44
0.0
 45
0.0
 46
0.0
 47
0.0
 48
0.0
 49
0.0
140
0.0
141
0.0
142
1.0
143
1.0
 70
   688
 72
     0
 73
     0
 74
     5
  7
Default R14 pen assignments.ctb
 75
    16
147
1.0
148
0.0
149
0.0
100
AcDbLayout
  1
Layout1
 70
     1
 71
     1
 10
0.0
 20
0.0
 11
12.0
 21
9.0
 12
0.0
 22
0.0
 32
0.0
 14
1.000000000000000E+20
 24
1.000000000000000E+20
 34
1.000000000000000E+20
 15
-1.000000000000000E+20
 25
-1.000000000000000E+20
 35
-1.000000000000000E+20
146
0.0
 13
0.0
 23
0.0
 33
0.0
 16
1.0
 26
0.0
 36
0.0
 17
0.0
 27
1.0
 37
0.0
 76
     0
330
1A
  0
LAYOUT
  5
21
102
{ACAD_XDICTIONARY
360
328
102
}
102
{ACAD_REACTORS
330
19
102
}
330
19
100
AcDbPlotSettings
  1

  2
Fax
  4

  6

 40
0.0
 41
0.0
 42
0.0
 43
0.0
 44
0.0
 45
0.0
 46
0.0
 47
0.0
 48
0.0
 49
0.0
140
0.0
141
0.0
142
1.0
143
1.0
 70
  1712
 72
     0
 73
     0
 74
     0
  7
Default R14 pen assignments.ctb
 75
     0
147
1.0
148
0.0
149
0.0
100
AcDbLayout
  1
Model
 70
     1
 71
     0
 10
0.0
 20
0.0
 11
12.0
 21
9.0
 12
0.0
 22
0.0
 32
0.0
 14
0.0
 24
0.0
 34
0.0
 15
0.0
 25
0.0
 35
0.0
146
0.0
 13
0.0
 23
0.0
 33
0.0
 16
1.0
 26
0.0
 36
0.0
 17
0.0
 27
1.0
 37
0.0
 76
     0
330
1E
331
29D
  0
MATERIAL
  5
2D6
102
{ACAD_XDICTIONARY
360
32C
102
}
102
{ACAD_REACTORS
330
2D4
102
}
330
2D4
100
AcDbMaterial
  1
ByBlock
  0
MATERIAL
  5
2D5
102
{ACAD_XDICTIONARY
360
32A
102
}
102
{ACAD_REACTORS
330
2D4
102
}
330
2D4
100
AcDbMaterial
  1
ByLayer
  0
MATERIAL
  5
2D7
102
{ACAD_XDICTIONARY
360
32E
102
}
102
{ACAD_REACTORS
330
2D4
102
}
330
2D4
100
AcDbMaterial
  1
Global
  0
MLINESTYLE
  5
17
102
{ACAD_REACTORS
330
16
102
}
330
16
100
AcDbMlineStyle
  2
STANDARD
 70
     0
  3

 62
   256
 51
90.0
 52
90.0
 71
     2
 49
0.5
 62
   256
  6
BYLAYER
 49
-0.5
 62
   256
  6
BYLAYER
  0
ACDBPLACEHOLDER
  5
F
102
{ACAD_REACTORS
330
E
102
}
330
E
  0
TABLESTYLE
  5
2EB
102
{ACAD_XDICTIONARY
360
330
102
}
102
{ACAD_REACTORS
330
2EA
102
}
330
2EA
100
AcDbTableStyle
  3
Standard
 70
     0
 71
     0
 40
0.06
 41
0.06
280
     0
281
     0
  7
STANDARD
140
0.18
170
     2
 62
     0
 63
     7
283
     0
274
    -2
284
     1
 64
     0
275
    -2
285
     1
 65
     0
276
    -2
286
     1
 66
     0
277
    -2
287
     1
 67
     0
278
    -2
288
     1
 68
     0
279
    -2
289
     1
 69
     0
  7
STANDARD
140
0.25
170
     5
 62
     0
 63
     7
283
     0
274
    -2
284
     1
 64
     0
275
    -2
285
     1
 65
     0
276
    -2
286
     1
 66
     0
277
    -2
287
     1
 67
     0
278
    -2
288
     1
 68
     0
279
    -2
289
     1
 69
     0
  7
STANDARD
140
0.18
170
     5
 62
     0
 63
     7
283
     0
274
    -2
284
     1
 64
     0
275
    -2
285
     1
 65
     0
276
    -2
286
     1
 66
     0
277
    -2
287
     1
 67
     0
278
    -2
288
     1
 68
     0
279
    -2
289
     1
 69
     0
  0
VISUALSTYLE
  5
2DE
102
{ACAD_REACTORS
330
2D8
102
}
330
2D8
100
AcDbVisualStyle
  2
2dWireframe
 70
     4
 71
     0
 72
     2
 73
     0
 90
        0
 40
-0.6
 41
-30.0
 62
     5
 63
     7
 74
     1
 91
        4
 64
     7
 65
   257
 75
     1
175
     1
 42
1.0
 92
        0
 66
   257
 43
1.0
 76
     1
 77
     6
 78
     2
 67
     7
 79
     5
170
     0
171
     0
290
     0
174
     0
 93
        1
 44
0.0
173
     0
291
     0
 45
0.0
1001
ACAD
1000
AcDbSavedByObjectVersion
1070
     0
  0
VISUALSTYLE
  5
2E0
102
{ACAD_REACTORS
330
2D8
102
}
330
2D8
100
AcDbVisualStyle
  2
3D Hidden
 70
     6
 71
     1
 72
     2
 73
     2
 90
        0
 40
-0.6
 41
-30.0
 62
     5
 63
     7
 74
     2
 91
        2
 64
     7
 65
   257
 75
     2
175
     1
 42
40.0
 92
        0
 66
   257
 43
1.0
 76
     1
 77
     6
 78
     2
 67
     7
 79
     3
170
     0
171
     0
290
     0
174
     0
 93
        1
 44
0.0
173
     0
291
     0
 45
0.0
1001
ACAD
1000
AcDbSavedByObjectVersion
1070
     0
  0
VISUALSTYLE
  5
2DF
102
{ACAD_REACTORS
330
2D8
102
}
330
2D8
100
AcDbVisualStyle
  2
3dWireframe
 70
     5
 71
     0
 72
     2
 73
     0
 90
        0
 40
-0.6
 41
-30.0
 62
     5
 63
     7
 74
     1
 91
        4
 64
     7
 65
   257
 75
     1
175
     1
 42
1.0
 92
        0
 66
   257
 43
1.0
 76
     1
 77
     6
 78
     2
 67
     7
 79
     5
170
     0
171
     0
290
     0
174
     0
 93
        1
 44
0.0
173
     0
291
     0
 45
0.0
1001
ACAD
1000
AcDbSavedByObjectVersion
1070
     0
  0
VISUALSTYLE
  5
2DD
102
{ACAD_REACTORS
330
2D8
102
}
330
2D8
100
AcDbVisualStyle
  2
Basic
 70
     7
 71
     1
 72
     0
 73
     1
 90
        0
 40
-0.6
 41
-30.0
 62
     5
 63
     7
 74
     0
 91
        4
 64
     7
 65
   257
 75
     1
175
     1
 42
1.0
 92
        8
 66
     7
 43
1.0
 76
     1
 77
     6
 78
     2
 67
     7
 79
     5
170
     0
171
     0
290
     0
174
     0
 93
        1
 44
0.0
173
     0
291
     1
 45
0.0
1001
ACAD
1000
AcDbSavedByObjectVersion
1070
     0
  0
VISUALSTYLE
  5
2E4
102
{ACAD_REACTORS
330
2D8
102
}
330
2D8
100
AcDbVisualStyle
  2
Brighten
 70
    12
 71
     2
 72
     2
 73
     0
 90
        0
 40
-0.6
 41
-30.0
 62
     5
 63
     7
 74
     1
 91
        4
 64
     7
 65
   257
 75
     1
175
     1
 42
1.0
 92
        8
 66
     7
 43
1.0
 76
     1
 77
     6
 78
     2
 67
     7
 79
     5
170
     0
171
     0
290
     0
174
     0
 93
        1
 44
50.0
173
     0
291
     1
 45
0.0
1001
ACAD
1000
AcDbSavedByObjectVersion
1070
     0
  0
VISUALSTYLE
  5
2E8
102
{ACAD_REACTORS
330
2D8
102
}
330
2D8
100
AcDbVisualStyle
  2
ColorChange
 70
    16
 71
     2
 72
     2
 73
     3
 90
        0
 40
-0.6
 41
-30.0
 62
     5
 63
     8
 74
     1
 91
        4
 64
     7
 65
   257
 75
     1
175
     1
 42
1.0
 92
        8
 66
     8
 43
1.0
 76
     1
 77
     6
 78
     2
 67
     7
 79
     5
170
     0
171
     0
290
     0
174
     0
 93
        1
 44
0.0
173
     0
291
     1
 45
0.0
1001
ACAD
1000
AcDbSavedByObjectVersion
1070
     0
  0
VISUALSTYLE
  5
2E1
102
{ACAD_REACTORS
330
2D8
102
}
330
2D8
100
AcDbVisualStyle
  2
Conceptual
 70
     9
 71
     3
 72
     2
 73
     0
 90
        0
 40
-0.6
 41
-30.0
 62
     5
 63
     7
 74
     2
 91
        2
 64
     7
 65
   257
 75
     1
175
     1
 42
40.0
 92
        8
 66
     7
 43
1.0
 76
     1
 77
     6
 78
     2
 67
     7
 79
     3
170
     0
171
     0
290
     0
174
     0
 93
        1
 44
0.0
173
     0
291
     0
 45
0.0
1001
ACAD
1000
AcDbSavedByObjectVersion
1070
     0
  0
VISUALSTYLE
  5
2E3
102
{ACAD_REACTORS
330
2D8
102
}
330
2D8
100
AcDbVisualStyle
  2
Dim
 70
    11
 71
     2
 72
     2
 73
     0
 90
        0
 40
-0.6
 41
-30.0
 62
     5
 63
     7
 74
     1
 91
        4
 64
     7
 65
   257
 75
     1
175
     1
 42
1.0
 92
        8
 66
     7
 43
1.0
 76
     1
 77
     6
 78
     2
 67
     7
 79
     5
170
     0
171
     0
290
     0
174
     0
 93
        1
 44
-50.0
173
     0
291
     1
 45
0.0
1001
ACAD
1000
AcDbSavedByObjectVersion
1070
     0
  0
VISUALSTYLE
  5
2E7
102
{ACAD_REACTORS
330
2D8
102
}
330
2D8
100
AcDbVisualStyle
  2
Facepattern
 70
    15
 71
     2
 72
     2
 73
     0
 90
        0
 40
-0.6
 41
-30.0
 62
     5
 63
     7
 74
     1
 91
        4
 64
     7
 65
   257
 75
     1
175
     1
 42
1.0
 92
        8
 66
     7
 43
1.0
 76
     1
 77
     6
 78
     2
 67
     7
 79
     5
170
     0
171
     0
290
     0
174
     0
 93
        1
 44
0.0
173
     0
291
     1
 45
0.0
1001
ACAD
1000
AcDbSavedByObjectVersion
1070
     0
  0
VISUALSTYLE
  5
2D9
102
{ACAD_REACTORS
330
2D8
102
}
330
2D8
100
AcDbVisualStyle
  2
Flat
 70
     0
 71
     2
 72
     1
 73
     1
 90
        2
 40
-0.6
 41
30.0
 62
     5
 63
     7
 74
     0
 91
        4
 64
     7
 65
   257
 75
     1
175
     1
 42
1.0
 92
        8
 66
     7
 43
1.0
 76
     1
 77
     6
 78
     2
 67
     7
 79
     5
170
     0
171
     0
290
     0
174
     0
 93
       13
 44
0.0
173
     0
291
     1
 45
0.0
1001
ACAD
1000
AcDbSavedByObjectVersion
1070
     0
  0
VISUALSTYLE
  5
2DA
102
{ACAD_REACTORS
330
2D8
102
}
330
2D8
100
AcDbVisualStyle
  2
FlatWithEdges
 70
     1
 71
     2
 72
     1
 73
     1
 90
        2
 40
-0.6
 41
30.0
 62
     5
 63
     7
 74
     1
 91
        4
 64
     7
 65
   257
 75
     1
175
     1
 42
1.0
 92
        0
 66
   257
 43
1.0
 76
     1
 77
     6
 78
     2
 67
     7
 79
     5
170
     0
171
     0
290
     0
174
     0
 93
       13
 44
0.0
173
     0
291
     1
 45
0.0
1001
ACAD
1000
AcDbSavedByObjectVersion
1070
     0
  0
VISUALSTYLE
  5
2DB
102
{ACAD_REACTORS
330
2D8
102
}
330
2D8
100
AcDbVisualStyle
  2
Gouraud
 70
     2
 71
     2
 72
     2
 73
     1
 90
        2
 40
-0.6
 41
30.0
 62
     5
 63
     7
 74
     0
 91
        4
 64
     7
 65
   257
 75
     1
175
     1
 42
1.0
 92
        0
 66
     7
 43
1.0
 76
     1
 77
     6
 78
     2
 67
     7
 79
     5
170
     0
171
     0
290
     0
174
     0
 93
       13
 44
0.0
173
     0
291
     1
 45
0.0
1001
ACAD
1000
AcDbSavedByObjectVersion
1070
     0
  0
VISUALSTYLE
  5
2DC
102
{ACAD_REACTORS
330
2D8
102
}
330
2D8
100
AcDbVisualStyle
  2
GouraudWithEdges
 70
     3
 71
     2
 72
     2
 73
     1
 90
        2
 40
-0.6
 41
30.0
 62
     5
 63
     7
 74
     1
 91
        4
 64
     7
 65
   257
 75
     1
175
     1
 42
1.0
 92
        0
 66
   257
 43
1.0
 76
     1
 77
     6
 78
     2
 67
     7
 79
     5
170
     0
171
     0
290
     0
174
     0
 93
       13
 44
0.0
173
     0
291
     1
 45
0.0
1001
ACAD
1000
AcDbSavedByObjectVersion
1070
     0
  0
VISUALSTYLE
  5
2E6
102
{ACAD_REACTORS
330
2D8
102
}
330
2D8
100
AcDbVisualStyle
  2
Linepattern
 70
    14
 71
     2
 72
     2
 73
     0
 90
        0
 40
-0.6
 41
-30.0
 62
     5
 63
     7
 74
     1
 91
        4
 64
     7
 65
   257
 75
     7
175
     7
 42
1.0
 92
        8
 66
     7
 43
1.0
 76
     1
 77
     6
 78
     2
 67
     7
 79
     5
170
     0
171
     0
290
     0
174
     0
 93
        1
 44
0.0
173
     0
291
     1
 45
0.0
1001
ACAD
1000
AcDbSavedByObjectVersion
1070
     0
  0
VISUALSTYLE
  5
2E2
102
{ACAD_REACTORS
330
2D8
102
}
330
2D8
100
AcDbVisualStyle
  2
Realistic
 70
     8
 71
     2
 72
     2
 73
     0
 90
        0
 40
-0.6
 41
-30.0
 62
     5
 63
     7
 74
     1
 91
        0
 64
     7
 65
   257
 75
     1
175
     1
 42
1.0
 92
        8
 66
     8
 43
1.0
 76
     1
 77
     6
 78
     2
 67
     7
 79
     5
170
     0
171
     0
290
     0
174
     0
 93
       13
 44
0.0
173
     0
291
     0
 45
0.0
1001
ACAD
1000
AcDbSavedByObjectVersion
1070
     0
  0
VISUALSTYLE
  5
2E5
102
{ACAD_REACTORS
330
2D8
102
}
330
2D8
100
AcDbVisualStyle
  2
Thicken
 70
    13
 71
     2
 72
     2
 73
     0
 90
        0
 40
-0.6
 41
-30.0
 62
     5
 63
     7
 74
     1
 91
        4
 64
     7
 65
   257
 75
     1
175
     1
 42
1.0
 92
       12
 66
     7
 43
1.0
 76
     1
 77
     6
 78
     2
 67
     7
 79
     5
170
     0
171
     0
290
     0
174
     0
 93
        1
 44
0.0
173
     0
291
     1
 45
0.0
1001
ACAD
1000
AcDbSavedByObjectVersion
1070
     0
  0
DICTIONARYVAR
  5
322
102
{ACAD_REACTORS
330
1B6
102
}
330
1B6
100
DictionaryVariables
280
     0
  1
STANDARD
  0
DICTIONARYVAR
  5
1B8
102
{ACAD_REACTORS
330
1B6
102
}
330
1B6
100
DictionaryVariables
280
     0
  1
2
  0
DICTIONARYVAR
  5
1B7
102
{ACAD_REACTORS
330
1B6
102
}
330
1B6
100
DictionaryVariables
280
     0
  1
1
  0
DICTIONARYVAR
  5
324
102
{ACAD_REACTORS
330
1B6
102
}
330
1B6
100
DictionaryVariables
280
     0
  1
0
  0
DICTIONARYVAR
  5
323
102
{ACAD_REACTORS
330
1B6
102
}
330
1B6
100
DictionaryVariables
280
     0
  1
127
  0
XRECORD
  5
307
102
{ACAD_REACTORS
330
305
102
}
330
305
100
AcDbXrecord
280
     1
  0
DICTIONARY
  5
326
330
1D
100
AcDbDictionary
280
     1
281
     1
  3
ACAD_XREC_ROUNDTRIP
360
327
  0
DICTIONARY
  5
328
330
21
100
AcDbDictionary
280
     1
281
     1
  3
ACAD_XREC_ROUNDTRIP
360
329
  0
DICTIONARY
  5
32C
330
2D6
100
AcDbDictionary
280
     1
281
     1
  3
ACAD_XREC_ROUNDTRIP
360
32D
  0
DICTIONARY
  5
32A
330
2D5
100
AcDbDictionary
280
     1
281
     1
  3
ACAD_XREC_ROUNDTRIP
360
32B
  0
DICTIONARY
  5
32E
330
2D7
100
AcDbDictionary
280
     1
281
     1
  3
ACAD_XREC_ROUNDTRIP
360
32F
  0
DICTIONARY
  5
330
330
2EB
100
AcDbDictionary
280
     1
281
     1
  3
ACAD_XREC_ROUNDTRIP
360
331
  0
XRECORD
  5
327
102
{ACAD_REACTORS
330
326
102
}
330
326
100
AcDbXrecord
280
     1
102
SHADEPLOT
 70
     0
102
SHADEPLOTRESLEVEL
 70
     2
102
SHADEPLOTCUSTOMDPI
 70
   300
  0
XRECORD
  5
329
102
{ACAD_REACTORS
330
328
102
}
330
328
100
AcDbXrecord
280
     1
102
SHADEPLOT
 70
     0
102
SHADEPLOTRESLEVEL
 70
     2
102
SHADEPLOTCUSTOMDPI
 70
   300
  0
XRECORD
  5
32D
102
{ACAD_REACTORS
330
32C
102
}
330
32C
100
AcDbXrecord
280
     1
102
MATERIAL
148
0.0
149
0.0
149
0.0
 93
        0
 94
       63
282
     0
 72
     1
 77
     1
171
     1
175
     1
179
     1
273
     0
  0
XRECORD
  5
32B
102
{ACAD_REACTORS
330
32A
102
}
330
32A
100
AcDbXrecord
280
     1
102
MATERIAL
148
0.0
149
0.0
149
0.0
 93
        0
 94
       63
282
     0
 72
     1
 77
     1
171
     1
175
     1
179
     1
273
     0
  0
XRECORD
  5
32F
102
{ACAD_REACTORS
330
32E
102
}
330
32E
100
AcDbXrecord
280
     1
102
MATERIAL
148
0.0
149
0.0
149
0.0
 93
        0
 94
       63
282
     0
 72
     1
 77
     1
171
     1
175
     1
179
     1
273
     0
  0
XRECORD
  5
331
102
{ACAD_REACTORS
330
330
102
}
330
330
100
AcDbXrecord
280
     1
102
ACAD_ROUNDTRIP_PRE2007_TABLESTYLE
 90
      512
 91
        0
  1

 92
      512
 93
        0
  2

 94
      512
 95
        0
  3

  0
ENDSEC
  0
EOF
