  0
SECTION
  2
HEADER
  9
$ACADVER
  1
AC1014
  9
$ACADMAINTVER
 70
     9
  9
$DWGCODEPAGE
  3
ANSI_1252
  9
$INSBASE
 10
15.9377190679907
 20
18.83001016065053
 30
0.0
  9
$EXTMIN
 10
3.735960302357653
 20
9.305346605471232
 30
0.0
  9
$EXTMAX
 10
30.46963185761004
 20
23.64251016065053
 30
0.0
  9
$LIMMIN
 10
0.0
 20
0.0
  9
$LIMMAX
 10
36.0
 20
36.0
  9
$ORTHOMODE
 70
     1
  9
$REGENMODE
 70
     1
  9
$FILLMODE
 70
     1
  9
$QTEXTMODE
 70
     0
  9
$MIRRTEXT
 70
     1
  9
$DRAGMODE
 70
     0
  9
$LTSCALE
 40
1.0
  9
$OSMODE
 70
    37
  9
$ATTMODE
 70
     1
  9
$TEXTSIZE
 40
0.2
  9
$TRACEWID
 40
0.05
  9
$TEXTSTYLE
  7
STANDARD
  9
$CLAYER
  8
ADP1DETAIL
  9
$CELTYPE
  6
BYLAYER
  9
$CECOLOR
 62
   256
  9
$CELTSCALE
 40
1.0
  9
$DELOBJ
 70
     1
  9
$DISPSILH
 70
     0
  9
$DIMSCALE
 40
1.0
  9
$DIMASZ
 40
0.125
  9
$DIMEXO
 40
0.0625
  9
$DIMDLI
 40
0.38
  9
$DIMRND
 40
0.0
  9
$DIMDLE
 40
0.0
  9
$DIMEXE
 40
0.18
  9
$DIMTP
 40
0.0
  9
$DIMTM
 40
0.0
  9
$DIMTXT
 40
0.125
  9
$DIMCEN
 40
0.1875
  9
$DIMTSZ
 40
0.125
  9
$DIMTOL
 70
     0
  9
$DIMLIM
 70
     0
  9
$DIMTIH
 70
     0
  9
$DIMTOH
 70
     0
  9
$DIMSE1
 70
     0
  9
$DIMSE2
 70
     0
  9
$DIMTAD
 70
     0
  9
$DIMZIN
 70
     3
  9
$DIMBLK
  1

  9
$DIMASO
 70
     1
  9
$DIMSHO
 70
     1
  9
$DIMPOST
  1

  9
$DIMAPOST
  1

  9
$DIMALT
 70
     0
  9
$DIMALTD
 70
     1
  9
$DIMALTF
 40
25.4
  9
$DIMLFAC
 40
1.0
  9
$DIMTOFL
 70
     0
  9
$DIMTVP
 40
0.0
  9
$DIMTIX
 70
     0
  9
$DIMSOXD
 70
     0
  9
$DIMSAH
 70
     0
  9
$DIMBLK1
  1

  9
$DIMBLK2
  1

  9
$DIMSTYLE
  2
STANDARD
  9
$DIMCLRD
 70
     0
  9
$DIMCLRE
 70
     0
  9
$DIMCLRT
 70
     0
  9
$DIMTFAC
 40
1.0
  9
$DIMGAP
 40
0.125
  9
$DIMJUST
 70
     0
  9
$DIMSD1
 70
     0
  9
$DIMSD2
 70
     0
  9
$DIMTOLJ
 70
     1
  9
$DIMTZIN
 70
     3
  9
$DIMALTZ
 70
     3
  9
$DIMALTTZ
 70
     3
  9
$DIMFIT
 70
     5
  9
$DIMUPT
 70
     0
  9
$DIMUNIT
 70
     5
  9
$DIMDEC
 70
     4
  9
$DIMTDEC
 70
     4
  9
$DIMALTU
 70
     5
  9
$DIMALTTD
 70
     1
  9
$DIMTXSTY
  7
STANDARD
  9
$DIMAUNIT
 70
     0
  9
$LUNITS
 70
     5
  9
$LUPREC
 70
     4
  9
$SKETCHINC
 40
0.1
  9
$FILLETRAD
 40
0.062
  9
$AUNITS
 70
     0
  9
$AUPREC
 70
     0
  9
$MENU
  1
acad
  9
$ELEVATION
 40
0.0
  9
$PELEVATION
 40
0.0
  9
$THICKNESS
 40
0.0
  9
$LIMCHECK
 70
     0
  9
$BLIPMODE
 70
     0
  9
$CHAMFERA
 40
0.0
  9
$CHAMFERB
 40
0.0
  9
$CHAMFERC
 40
0.0
  9
$CHAMFERD
 40
0.0
  9
$SKPOLY
 70
     0
  9
$TDCREATE
 40
2450406.657190775
  9
$TDUPDATE
 40
2452297.085323889
  9
$TDINDWG
 40
0.0967724653
  9
$TDUSRTIMER
 40
0.0967724653
  9
$USRTIMER
 70
     1
  9
$ANGBASE
 50
0.0
  9
$ANGDIR
 70
     0
  9
$PDMODE
 70
     0
  9
$PDSIZE
 40
0.0
  9
$PLINEWID
 40
0.0
  9
$COORDS
 70
     2
  9
$SPLFRAME
 70
     0
  9
$SPLINETYPE
 70
     6
  9
$SPLINESEGS
 70
     8
  9
$ATTDIA
 70
     0
  9
$ATTREQ
 70
     1
  9
$HANDLING
 70
 22529
  9
$HANDSEED
  5
3D8
  9
$SURFTAB1
 70
     6
  9
$SURFTAB2
 70
     6
  9
$SURFTYPE
 70
     6
  9
$SURFU
 70
     6
  9
$SURFV
 70
     6
  9
$UCSNAME
  2

  9
$UCSORG
 10
0.0
 20
0.0
 30
0.0
  9
$UCSXDIR
 10
1.0
 20
0.0
 30
0.0
  9
$UCSYDIR
 10
0.0
 20
1.0
 30
0.0
  9
$PUCSNAME
  2

  9
$PUCSORG
 10
0.0
 20
0.0
 30
0.0
  9
$PUCSXDIR
 10
1.0
 20
0.0
 30
0.0
  9
$PUCSYDIR
 10
0.0
 20
1.0
 30
0.0
  9
$USERI1
 70
     0
  9
$USERI2
 70
     0
  9
$USERI3
 70
     0
  9
$USERI4
 70
     0
  9
$USERI5
 70
     0
  9
$USERR1
 40
0.0
  9
$USERR2
 40
0.0
  9
$USERR3
 40
0.0
  9
$USERR4
 40
0.0
  9
$USERR5
 40
0.0
  9
$WORLDVIEW
 70
     1
  9
$SHADEDGE
 70
     3
  9
$SHADEDIF
 70
    70
  9
$TILEMODE
 70
     1
  9
$MAXACTVP
 70
    15
  9
$PINSBASE
 10
0.0008545028977096
 20
1.250283272183907
 30
0.0
  9
$PLIMCHECK
 70
     0
  9
$PEXTMIN
 10
1.000000000000000E+20
 20
1.000000000000000E+20
 30
1.000000000000000E+20
  9
$PEXTMAX
 10
-1.000000000000000E+20
 20
-1.000000000000000E+20
 30
-1.000000000000000E+20
  9
$PLIMMIN
 10
0.0
 20
0.0
  9
$PLIMMAX
 10
12.0
 20
9.0
  9
$UNITMODE
 70
     0
  9
$VISRETAIN
 70
     0
  9
$PLINEGEN
 70
     0
  9
$PSLTSCALE
 70
     1
  9
$TREEDEPTH
 70
  3020
  9
$PICKSTYLE
 70
     1
  9
$CMLSTYLE
  2
STANDARD
  9
$CMLJUST
 70
     0
  9
$CMLSCALE
 40
1.0
  9
$PROXYGRAPHICS
 70
     1
  9
$MEASUREMENT
 70
     0
  0
ENDSEC
  0
SECTION
  2
CLASSES
  0
CLASS
  1
ACDBDICTIONARYWDFLT
  2
AcDbDictionaryWithDefault
  3
AutoCAD 2000
 90
        0
280
     0
281
     0
  0
CLASS
  1
ACDBPLACEHOLDER
  2
AcDbPlaceHolder
  3
AutoCAD 2000
 90
        0
280
     0
281
     0
  0
CLASS
  1
LAYOUT
  2
AcDbLayout
  3
AutoCAD 2000
 90
        0
280
     0
281
     0
  0
CLASS
  1
DICTIONARYVAR
  2
AcDbDictionaryVar
  3
AutoCAD 2000
 90
        0
280
     0
281
     0
  0
CLASS
  1
LONG_TRANSACTION
  2
AcDbLongTransaction
  3
AutoCAD 2000
 90
        0
280
     0
281
     0
  0
CLASS
  1
LWPOLYLINE
  2
AcDbPolyline
  3
AutoCAD 2000
 90
        0
280
     0
281
     1
  0
CLASS
  1
HATCH
  2
AcDbHatch
  3
AutoCAD 2000
 90
        0
280
     0
281
     1
  0
CLASS
  1
XRECORD
  2
AcDbXrecord
  3
AutoCAD 2000
 90
        0
280
     0
281
     0
  0
CLASS
  1
LONG_TRANSACTION
  2
AcDbLongTransaction
  3
AutoCAD 2000
 90
        0
280
     0
281
     0
  0
CLASS
  1
LWPOLYLINE
  2
AcDbPolyline
  3
AutoCAD 2000
 90
        0
280
     0
281
     1
  0
CLASS
  1
HATCH
  2
AcDbHatch
  3
AutoCAD 2000
 90
        0
280
     0
281
     1
  0
CLASS
  1
XRECORD
  2
AcDbXrecord
  3
AutoCAD 2000
 90
        0
280
     0
281
     0
  0
CLASS
  1
LONG_TRANSACTION
  2
AcDbLongTransaction
  3
AutoCAD 2000
 90
        0
280
     0
281
     0
  0
CLASS
  1
LWPOLYLINE
  2
AcDbPolyline
  3
AutoCAD 2000
 90
        0
280
     0
281
     1
  0
CLASS
  1
HATCH
  2
AcDbHatch
  3
AutoCAD 2000
 90
        0
280
     0
281
     1
  0
CLASS
  1
XRECORD
  2
AcDbXrecord
  3
AutoCAD 2000
 90
        0
280
     0
281
     0
  0
CLASS
  1
LONG_TRANSACTION
  2
AcDbLongTransaction
  3
AutoCAD 2000
 90
        0
280
     0
281
     0
  0
CLASS
  1
LWPOLYLINE
  2
AcDbPolyline
  3
AutoCAD 2000
 90
        0
280
     0
281
     1
  0
CLASS
  1
HATCH
  2
AcDbHatch
  3
AutoCAD 2000
 90
        0
280
     0
281
     1
  0
CLASS
  1
XRECORD
  2
AcDbXrecord
  3
AutoCAD 2000
 90
        0
280
     0
281
     0
  0
CLASS
  1
LONG_TRANSACTION
  2
AcDbLongTransaction
  3
AutoCAD 2000
 90
        0
280
     0
281
     0
  0
CLASS
  1
LWPOLYLINE
  2
AcDbPolyline
  3
AutoCAD 2000
 90
        0
280
     0
281
     1
  0
CLASS
  1
HATCH
  2
AcDbHatch
  3
AutoCAD 2000
 90
        0
280
     0
281
     1
  0
CLASS
  1
XRECORD
  2
AcDbXrecord
  3
AutoCAD 2000
 90
        0
280
     0
281
     0
  0
ENDSEC
  0
SECTION
  2
TABLES
  0
TABLE
  2
VPORT
  5
8
330
0
100
AcDbSymbolTable
 70
     2
  0
VPORT
  5
3B4
330
8
100
AcDbSymbolTableRecord
100
AcDbViewportTableRecord
  2
*ACTIVE
 70
     0
 10
0.0
 20
0.0
 11
1.0
 21
1.0
 12
17.12482070555124
 22
16.47427376368348
 13
0.0
 23
0.0
 14
0.5740882589684922
 24
0.5740882589684922
 15
0.5
 25
0.5
 16
0.0
 26
0.0
 36
1.0
 17
0.0
 27
0.0
 37
0.0
 40
17.13424684756349
 41
1.570528967254408
 42
50.0
 43
0.0
 44
0.0
 50
0.0
 51
0.0
 71
     0
 72
   100
 73
     1
 74
     0
 75
     0
 76
     0
 77
     0
 78
     0
  0
ENDTAB
  0
TABLE
  2
LTYPE
  5
5
330
0
100
AcDbSymbolTable
 70
     1
  0
LTYPE
  5
13
330
5
100
AcDbSymbolTableRecord
100
AcDbLinetypeTableRecord
  2
BYBLOCK
 70
     0
  3

 72
    65
 73
     0
 40
0.0
  0
LTYPE
  5
14
330
5
100
AcDbSymbolTableRecord
100
AcDbLinetypeTableRecord
  2
BYLAYER
 70
     0
  3

 72
    65
 73
     0
 40
0.0
  0
LTYPE
  5
15
330
5
100
AcDbSymbolTableRecord
100
AcDbLinetypeTableRecord
  2
CONTINUOUS
 70
     0
  3
Solid line
 72
    65
 73
     0
 40
0.0
  0
ENDTAB
  0
TABLE
  2
LAYER
  5
2
330
0
100
AcDbSymbolTable
 70
     4
  0
LAYER
  5
10
330
2
100
AcDbSymbolTableRecord
100
AcDbLayerTableRecord
  2
0
 70
     0
 62
     7
  6
CONTINUOUS
  0
LAYER
  5
136
330
2
100
AcDbSymbolTableRecord
100
AcDbLayerTableRecord
  2
ADP1DETAIL
 70
     0
 62
     7
  6
CONTINUOUS
  0
LAYER
  5
138
330
2
100
AcDbSymbolTableRecord
100
AcDbLayerTableRecord
  2
DEFPOINTS
 70
     0
 62
     7
  6
CONTINUOUS
  0
LAYER
  5
13B
330
2
100
AcDbSymbolTableRecord
100
AcDbLayerTableRecord
  2
ADPDIM
 70
     0
 62
     3
  6
CONTINUOUS
  0
ENDTAB
  0
TABLE
  2
STYLE
  5
3
330
0
100
AcDbSymbolTable
 70
     2
  0
STYLE
  5
11
330
3
100
AcDbSymbolTableRecord
100
AcDbTextStyleTableRecord
  2
STANDARD
 70
     0
 40
0.0
 41
1.0
 50
0.0
 71
     0
 42
0.2
  3
txt
  4

  0
STYLE
  5
221
330
3
100
AcDbSymbolTableRecord
100
AcDbTextStyleTableRecord
  2
ARIAL_WIDE
 70
     0
 40
0.0
 41
1.25
 50
0.0
 71
     0
 42
0.2
  3
ARIAL.TTF
  4

1001
ACAD
1000
Arial
1071
       34
  0
ENDTAB
  0
TABLE
  2
VIEW
  5
6
330
0
100
AcDbSymbolTable
 70
     0
  0
ENDTAB
  0
TABLE
  2
UCS
  5
7
330
0
100
AcDbSymbolTable
 70
     0
  0
ENDTAB
  0
TABLE
  2
APPID
  5
9
330
0
100
AcDbSymbolTable
 70
     1
  0
APPID
  5
12
330
9
100
AcDbSymbolTableRecord
100
AcDbRegAppTableRecord
  2
ACAD
 70
     0
  0
ENDTAB
  0
TABLE
  2
DIMSTYLE
  5
A
330
0
100
AcDbSymbolTable
 70
     1
  0
DIMSTYLE
105
21F
330
A
100
AcDbSymbolTableRecord
100
AcDbDimStyleTableRecord
  2
STANDARD
 70
     0
  3

  4

  5

  6

  7

 40
1.0
 41
0.18
 42
0.0625
 43
0.38
 44
0.18
 45
0.0
 46
0.0
 47
0.0
 48
0.0
140
0.18
141
0.09
142
0.0
143
25.4
144
1.0
145
0.0
146
1.0
147
0.09
 71
     0
 72
     0
 73
     1
 74
     1
 75
     0
 76
     0
 77
     0
 78
     0
170
     0
171
     2
172
     0
173
     0
174
     0
175
     0
176
     0
177
     0
178
     0
270
     2
271
     4
272
     4
273
     2
274
     2
340
11
275
     0
280
     0
281
     0
282
     0
283
     1
284
     0
285
     0
286
     0
287
     3
288
     0
  0
ENDTAB
  0
TABLE
  2
BLOCK_RECORD
  5
1
330
0
100
AcDbSymbolTable
 70
     5
  0
BLOCK_RECORD
  5
1E
102
{ACAD_XDICTIONARY
360
25E
102
}
330
1
100
AcDbSymbolTableRecord
100
AcDbBlockTableRecord
  2
*MODEL_SPACE
  0
BLOCK_RECORD
  5
1A
102
{ACAD_XDICTIONARY
360
260
102
}
330
1
100
AcDbSymbolTableRecord
100
AcDbBlockTableRecord
  2
*PAPER_SPACE
  0
BLOCK_RECORD
  5
12E
330
1
100
AcDbSymbolTableRecord
100
AcDbBlockTableRecord
  2
*D0
  0
BLOCK_RECORD
  5
12F
330
1
100
AcDbSymbolTableRecord
100
AcDbBlockTableRecord
  2
*D1
  0
BLOCK_RECORD
  5
130
330
1
100
AcDbSymbolTableRecord
100
AcDbBlockTableRecord
  2
*D2
  0
BLOCK_RECORD
  5
131
330
1
100
AcDbSymbolTableRecord
100
AcDbBlockTableRecord
  2
*D3
  0
BLOCK_RECORD
  5
132
330
1
100
AcDbSymbolTableRecord
100
AcDbBlockTableRecord
  2
*D4
  0
ENDTAB
  0
ENDSEC
  0
SECTION
  2
BLOCKS
  0
BLOCK
  5
13E
330
1E
100
AcDbEntity
  8
0
100
AcDbBlockBegin
  2
*MODEL_SPACE
 70
     0
 10
0.0
 20
0.0
 30
0.0
  3
*MODEL_SPACE
  1

  0
ENDBLK
  5
13F
330
1E
100
AcDbEntity
  8
0
100
AcDbBlockEnd
  0
BLOCK
  5
13C
330
1A
100
AcDbEntity
 67
     1
  8
0
100
AcDbBlockBegin
  2
*PAPER_SPACE
 70
     0
 10
0.0
 20
0.0
 30
0.0
  3
*PAPER_SPACE
  1

  0
ENDBLK
  5
13D
330
1A
100
AcDbEntity
 67
     1
  8
0
100
AcDbBlockEnd
  0
BLOCK
  5
141
330
12E
100
AcDbEntity
  8
0
100
AcDbBlockBegin
  2
*D0
 70
     1
 10
0.0
 20
0.0
 30
0.0
  3
*D0
  1

  0
LINE
  5
142
330
12E
100
AcDbEntity
  8
0
  6
BYBLOCK
 62
     0
100
AcDbLine
 10
16.2499690679907
 20
17.03036868032692
 30
0.0
 11
16.2499690679907
 21
16.70822553532627
 31
0.0
  0
LINE
  5
143
330
12E
100
AcDbEntity
  8
0
  6
BYBLOCK
 62
     0
100
AcDbLine
 10
17.5629690679907
 20
17.03036868032692
 30
0.0
 11
17.5629690679907
 21
16.70822553532627
 31
0.0
  0
LINE
  5
144
330
12E
100
AcDbEntity
  8
0
  6
BYBLOCK
 62
     0
100
AcDbLine
 10
16.2499690679907
 20
16.88822553532627
 30
0.0
 11
15.9999690679907
 21
16.88822553532627
 31
0.0
  0
LINE
  5
145
330
12E
100
AcDbEntity
  8
0
  6
BYBLOCK
 62
     0
100
AcDbLine
 10
17.5629690679907
 20
16.88822553532627
 30
0.0
 11
17.8129690679907
 21
16.88822553532627
 31
0.0
  0
LINE
  5
146
330
12E
100
AcDbEntity
  8
0
  6
BYBLOCK
 62
     0
100
AcDbLine
 10
16.1249690679907
 20
16.76322553532627
 30
0.0
 11
16.3749690679907
 21
17.01322553532627
 31
0.0
  0
LINE
  5
147
330
12E
100
AcDbEntity
  8
0
  6
BYBLOCK
 62
     0
100
AcDbLine
 10
17.4379690679907
 20
16.76322553532627
 30
0.0
 11
17.6879690679907
 21
17.01322553532627
 31
0.0
  0
TEXT
  5
148
330
12E
100
AcDbEntity
  8
0
  6
BYBLOCK
 62
     0
100
AcDbText
 10
17.9379690679907
 20
16.82572553532627
 30
0.0
 40
0.125
  1
1 5/16
 72
     1
 11
18.2504690679907
 21
16.88822553532627
 31
0.0
100
AcDbText
 73
     2
  0
POINT
  5
14A
330
12E
100
AcDbEntity
  8
DEFPOINTS
  6
BYBLOCK
 62
     0
100
AcDbPoint
 10
16.2499690679907
 20
17.09286868032692
 30
0.0
  0
POINT
  5
14B
330
12E
100
AcDbEntity
  8
DEFPOINTS
  6
BYBLOCK
 62
     0
100
AcDbPoint
 10
17.5629690679907
 20
17.09286868032692
 30
0.0
  0
POINT
  5
14C
330
12E
100
AcDbEntity
  8
DEFPOINTS
  6
BYBLOCK
 62
     0
100
AcDbPoint
 10
17.5629690679907
 20
16.88822553532627
 30
0.0
  0
ENDBLK
  5
14D
330
12E
100
AcDbEntity
  8
0
100
AcDbBlockEnd
  0
BLOCK
  5
14E
330
12F
100
AcDbEntity
  8
0
100
AcDbBlockBegin
  2
*D1
 70
     1
 10
0.0
 20
0.0
 30
0.0
  3
*D1
  1

  0
LINE
  5
14F
330
12F
100
AcDbEntity
  8
0
  6
BYBLOCK
 62
     0
100
AcDbLine
 10
15.6252190679907
 20
11.11879479993462
 30
0.0
 11
15.6252190679907
 21
10.14659788832447
 31
0.0
  0
LINE
  5
150
330
12F
100
AcDbEntity
  8
0
  6
BYBLOCK
 62
     0
100
AcDbLine
 10
18.1877190679907
 20
11.11879479993462
 30
0.0
 11
18.1877190679907
 21
10.14659788832447
 31
0.0
  0
LINE
  5
151
330
12F
100
AcDbEntity
  8
0
  6
BYBLOCK
 62
     0
100
AcDbLine
 10
15.6252190679907
 20
10.32659788832447
 30
0.0
 11
16.44813573465737
 21
10.32659788832447
 31
0.0
  0
LINE
  5
152
330
12F
100
AcDbEntity
  8
0
  6
BYBLOCK
 62
     0
100
AcDbLine
 10
18.1877190679907
 20
10.32659788832447
 30
0.0
 11
17.36480240132403
 21
10.32659788832447
 31
0.0
  0
LINE
  5
153
330
12F
100
AcDbEntity
  8
0
  6
BYBLOCK
 62
     0
100
AcDbLine
 10
15.5002190679907
 20
10.20159788832447
 30
0.0
 11
15.7502190679907
 21
10.45159788832447
 31
0.0
  0
LINE
  5
154
330
12F
100
AcDbEntity
  8
0
  6
BYBLOCK
 62
     0
100
AcDbLine
 10
18.0627190679907
 20
10.20159788832447
 30
0.0
 11
18.3127190679907
 21
10.45159788832447
 31
0.0
  0
TEXT
  5
155
330
12F
100
AcDbEntity
  8
0
  6
BYBLOCK
 62
     0
100
AcDbText
 10
16.57313573465737
 20
10.26409788832447
 30
0.0
 40
0.125
  1
2 9/16
 72
     1
 11
16.9064690679907
 21
10.32659788832447
 31
0.0
100
AcDbText
 73
     2
  0
POINT
  5
156
330
12F
100
AcDbEntity
  8
DEFPOINTS
  6
BYBLOCK
 62
     0
100
AcDbPoint
 10
15.6252190679907
 20
11.18129479993462
 30
0.0
  0
POINT
  5
157
330
12F
100
AcDbEntity
  8
DEFPOINTS
  6
BYBLOCK
 62
     0
100
AcDbPoint
 10
18.1877190679907
 20
11.18129479993462
 30
0.0
  0
POINT
  5
158
330
12F
100
AcDbEntity
  8
DEFPOINTS
  6
BYBLOCK
 62
     0
100
AcDbPoint
 10
18.1877190679907
 20
10.32659788832447
 30
0.0
  0
ENDBLK
  5
159
330
12F
100
AcDbEntity
  8
0
100
AcDbBlockEnd
  0
BLOCK
  5
15A
330
130
100
AcDbEntity
  8
0
100
AcDbBlockBegin
  2
*D2
 70
     1
 10
0.0
 20
0.0
 30
0.0
  3
*D2
  1

  0
LINE
  5
15B
330
130
100
AcDbEntity
  8
0
  6
BYBLOCK
 62
     0
100
AcDbLine
 10
15.2502190679907
 20
23.51751016065052
 30
0.0
 11
14.34305990149897
 21
23.51751016065052
 31
0.0
  0
LINE
  5
15C
330
130
100
AcDbEntity
  8
0
  6
BYBLOCK
 62
     0
100
AcDbLine
 10
15.2502190679907
 20
20.33001016065053
 30
0.0
 11
14.34305990149897
 21
20.33001016065053
 31
0.0
  0
LINE
  5
15D
330
130
100
AcDbEntity
  8
0
  6
BYBLOCK
 62
     0
100
AcDbLine
 10
14.52305990149897
 20
23.51751016065052
 30
0.0
 11
14.52305990149897
 21
22.38209349398386
 31
0.0
  0
LINE
  5
15E
330
130
100
AcDbEntity
  8
0
  6
BYBLOCK
 62
     0
100
AcDbLine
 10
14.52305990149897
 20
20.33001016065053
 30
0.0
 11
14.52305990149897
 21
21.46542682731719
 31
0.0
  0
LINE
  5
15F
330
130
100
AcDbEntity
  8
0
  6
BYBLOCK
 62
     0
100
AcDbLine
 10
14.64805990149897
 20
23.39251016065053
 30
0.0
 11
14.39805990149897
 21
23.64251016065053
 31
0.0
  0
LINE
  5
160
330
130
100
AcDbEntity
  8
0
  6
BYBLOCK
 62
     0
100
AcDbLine
 10
14.64805990149897
 20
20.20501016065053
 30
0.0
 11
14.39805990149897
 21
20.45501016065053
 31
0.0
  0
TEXT
  5
161
330
130
100
AcDbEntity
  8
0
  6
BYBLOCK
 62
     0
100
AcDbText
 10
14.58555990149897
 20
21.59042682731719
 30
0.0
 40
0.125
  1
3 3/16
 50
90.0
 72
     1
 11
14.52305990149897
 21
21.92376016065053
 31
0.0
100
AcDbText
 73
     2
  0
POINT
  5
162
330
130
100
AcDbEntity
  8
DEFPOINTS
  6
BYBLOCK
 62
     0
100
AcDbPoint
 10
15.3127190679907
 20
23.51751016065052
 30
0.0
  0
POINT
  5
163
330
130
100
AcDbEntity
  8
DEFPOINTS
  6
BYBLOCK
 62
     0
100
AcDbPoint
 10
15.3127190679907
 20
20.33001016065053
 30
0.0
  0
POINT
  5
164
330
130
100
AcDbEntity
  8
DEFPOINTS
  6
BYBLOCK
 62
     0
100
AcDbPoint
 10
14.52305990149897
 20
20.33001016065053
 30
0.0
  0
ENDBLK
  5
165
330
130
100
AcDbEntity
  8
0
100
AcDbBlockEnd
  0
BLOCK
  5
166
330
131
100
AcDbEntity
  8
0
100
AcDbBlockBegin
  2
*D3
 70
     1
 10
0.0
 20
0.0
 30
0.0
  3
*D3
  1

  0
LINE
  5
167
330
131
100
AcDbEntity
  8
0
  6
BYBLOCK
 62
     0
100
AcDbLine
 10
15.94504153712908
 20
17.53405336984911
 30
0.0
 11
15.94504153712908
 21
18.39476891420258
 31
0.0
  0
LINE
  5
168
330
131
100
AcDbEntity
  8
0
  6
BYBLOCK
 62
     0
100
AcDbLine
 10
17.88254153712908
 20
17.53405336984911
 30
0.0
 11
17.88254153712908
 21
18.39476891420258
 31
0.0
  0
LINE
  5
169
330
131
100
AcDbEntity
  8
0
  6
BYBLOCK
 62
     0
100
AcDbLine
 10
15.94504153712908
 20
18.21476891420258
 30
0.0
 11
16.43462487046241
 21
18.21476891420258
 31
0.0
  0
LINE
  5
16A
330
131
100
AcDbEntity
  8
0
  6
BYBLOCK
 62
     0
100
AcDbLine
 10
17.88254153712908
 20
18.21476891420258
 30
0.0
 11
17.39295820379575
 21
18.21476891420258
 31
0.0
  0
LINE
  5
16B
330
131
100
AcDbEntity
  8
0
  6
BYBLOCK
 62
     0
100
AcDbLine
 10
15.82004153712908
 20
18.08976891420258
 30
0.0
 11
16.07004153712908
 21
18.33976891420258
 31
0.0
  0
LINE
  5
16C
330
131
100
AcDbEntity
  8
0
  6
BYBLOCK
 62
     0
100
AcDbLine
 10
17.75754153712908
 20
18.08976891420258
 30
0.0
 11
18.00754153712908
 21
18.33976891420258
 31
0.0
  0
TEXT
  5
16D
330
131
100
AcDbEntity
  8
0
  6
BYBLOCK
 62
     0
100
AcDbText
 10
16.55962487046241
 20
18.15226891420258
 30
0.0
 40
0.125
  1
1 15/16
 72
     1
 11
16.91379153712908
 21
18.21476891420258
 31
0.0
100
AcDbText
 73
     2
  0
POINT
  5
16E
330
131
100
AcDbEntity
  8
DEFPOINTS
  6
BYBLOCK
 62
     0
100
AcDbPoint
 10
15.94504153712908
 20
17.47155336984912
 30
0.0
  0
POINT
  5
16F
330
131
100
AcDbEntity
  8
DEFPOINTS
  6
BYBLOCK
 62
     0
100
AcDbPoint
 10
17.88254153712908
 20
17.47155336984912
 30
0.0
  0
POINT
  5
170
330
131
100
AcDbEntity
  8
DEFPOINTS
  6
BYBLOCK
 62
     0
100
AcDbPoint
 10
17.88254153712908
 20
18.21476891420258
 30
0.0
  0
ENDBLK
  5
171
330
131
100
AcDbEntity
  8
0
100
AcDbBlockEnd
  0
BLOCK
  5
172
330
132
100
AcDbEntity
  8
0
100
AcDbBlockBegin
  2
*D4
 70
     1
 10
0.0
 20
0.0
 30
0.0
  3
*D4
  1

  0
LINE
  5
173
330
132
100
AcDbEntity
  8
0
  6
BYBLOCK
 62
     0
100
AcDbLine
 10
15.2502190679907
 20
20.33001016065053
 30
0.0
 11
14.34305990149897
 21
20.33001016065053
 31
0.0
  0
LINE
  5
174
330
132
100
AcDbEntity
  8
0
  6
BYBLOCK
 62
     0
100
AcDbLine
 10
15.8752190679907
 20
18.83001016065053
 30
0.0
 11
14.34305990149897
 21
18.83001016065053
 31
0.0
  0
LINE
  5
175
330
132
100
AcDbEntity
  8
0
  6
BYBLOCK
 62
     0
100
AcDbLine
 10
14.52305990149897
 20
20.33001016065053
 30
0.0
 11
14.52305990149897
 21
19.95501016065053
 31
0.0
  0
LINE
  5
176
330
132
100
AcDbEntity
  8
0
  6
BYBLOCK
 62
     0
100
AcDbLine
 10
14.52305990149897
 20
18.83001016065053
 30
0.0
 11
14.52305990149897
 21
19.20501016065053
 31
0.0
  0
LINE
  5
177
330
132
100
AcDbEntity
  8
0
  6
BYBLOCK
 62
     0
100
AcDbLine
 10
14.64805990149897
 20
20.20501016065053
 30
0.0
 11
14.39805990149897
 21
20.45501016065053
 31
0.0
  0
LINE
  5
178
330
132
100
AcDbEntity
  8
0
  6
BYBLOCK
 62
     0
100
AcDbLine
 10
14.64805990149897
 20
18.70501016065053
 30
0.0
 11
14.39805990149897
 21
18.95501016065053
 31
0.0
  0
TEXT
  5
179
330
132
100
AcDbEntity
  8
0
  6
BYBLOCK
 62
     0
100
AcDbText
 10
14.58555990149897
 20
19.33001016065053
 30
0.0
 40
0.125
  1
1 1/2
 50
90.0
 72
     1
 11
14.52305990149897
 21
19.58001016065053
 31
0.0
100
AcDbText
 73
     2
  0
POINT
  5
17A
330
132
100
AcDbEntity
  8
DEFPOINTS
  6
BYBLOCK
 62
     0
100
AcDbPoint
 10
15.3127190679907
 20
20.33001016065053
 30
0.0
  0
POINT
  5
17B
330
132
100
AcDbEntity
  8
DEFPOINTS
  6
BYBLOCK
 62
     0
100
AcDbPoint
 10
15.9377190679907
 20
18.83001016065053
 30
0.0
  0
POINT
  5
17C
330
132
100
AcDbEntity
  8
DEFPOINTS
  6
BYBLOCK
 62
     0
100
AcDbPoint
 10
14.52305990149897
 20
18.83001016065053
 30
0.0
  0
ENDBLK
  5
17D
330
132
100
AcDbEntity
  8
0
100
AcDbBlockEnd
  0
ENDSEC
  0
SECTION
  2
ENTITIES
  0
DIMENSION
  5
17E
330
1E
100
AcDbEntity
  8
ADPDIM
100
AcDbDimension
  2
*D3
 10
17.88254153712908
 20
18.21476891420258
 30
0.0
 11
16.91379153712908
 21
18.21476891420258
 31
0.0
 70
   128
100
AcDbAlignedDimension
 13
15.94504153712908
 23
17.47155336984912
 33
0.0
 14
17.88254153712908
 24
17.47155336984912
 34
0.0
100
AcDbRotatedDimension
  0
DIMENSION
  5
17F
330
1E
100
AcDbEntity
  8
ADPDIM
100
AcDbDimension
  2
*D0
 10
17.5629690679907
 20
16.88822553532627
 30
0.0
 11
18.2504690679907
 21
16.88822553532627
 31
0.0
100
AcDbAlignedDimension
 13
16.2499690679907
 23
17.09286868032692
 33
0.0
 14
17.5629690679907
 24
17.09286868032692
 34
0.0
100
AcDbRotatedDimension
  0
DIMENSION
  5
180
330
1E
100
AcDbEntity
  8
ADPDIM
100
AcDbDimension
  2
*D1
 10
18.1877190679907
 20
10.32659788832447
 30
0.0
 11
16.9064690679907
 21
10.32659788832447
 31
0.0
100
AcDbAlignedDimension
 13
15.6252190679907
 23
11.18129479993462
 33
0.0
 14
18.1877190679907
 24
11.18129479993462
 34
0.0
100
AcDbRotatedDimension
  0
LINE
  5
181
330
1E
100
AcDbEntity
  8
ADP1DETAIL
100
AcDbLine
 10
15.56311454851611
 20
23.26711468012512
 30
0.0
 11
18.2498235874653
 21
23.26711468012512
 31
0.0
  0
LINE
  5
182
330
1E
100
AcDbEntity
  8
ADP1DETAIL
100
AcDbLine
 10
15.3127190679907
 20
23.51751016065052
 30
0.0
 11
18.5002190679907
 21
23.51751016065052
 31
0.0
  0
LINE
  5
183
330
1E
100
AcDbEntity
  8
ADP1DETAIL
100
AcDbLine
 10
15.9377190679907
 20
20.33001016065053
 30
0.0
 11
16.6564690679907
 21
21.04876016065053
 31
0.0
  0
ARC
  5
184
330
1E
100
AcDbEntity
  8
ADP1DETAIL
100
AcDbCircle
 10
16.18862777305522
 20
18.3763802958201
 30
0.0
 40
0.7499999999999969
100
AcDbArc
 50
271.1235186577001
 51
302.801651737942
  0
LINE
  5
185
330
1E
100
AcDbEntity
  8
ADP1DETAIL
100
AcDbLine
 10
15.3127190679907
 20
10.86879479993462
 30
0.0
 11
18.5002190679907
 21
10.86879479993462
 31
0.0
  0
LINE
  5
186
330
1E
100
AcDbEntity
  8
ADP1DETAIL
100
AcDbLine
 10
15.46951081358359
 20
11.02558654552751
 30
0.0
 11
18.34342732239782
 21
11.02558654552751
 31
0.0
  0
LINE
  5
187
330
1E
100
AcDbEntity
  8
ADP1DETAIL
100
AcDbLine
 10
15.9377190679907
 20
11.18129479993462
 30
0.0
 11
18.1877190679907
 21
11.18129479993462
 31
0.0
  0
LINE
  5
188
330
1E
100
AcDbEntity
  8
ADP1DETAIL
100
AcDbLine
 10
17.8752190679907
 20
15.55629479993462
 30
0.0
 11
15.9377190679907
 21
15.55629479993462
 31
0.0
  0
LINE
  5
189
330
1E
100
AcDbEntity
  8
ADP1DETAIL
100
AcDbLine
 10
18.1877190679907
 20
13.74379479993462
 30
0.0
 11
15.6252190679907
 21
13.74379479993462
 31
0.0
  0
LINE
  5
18A
330
1E
100
AcDbEntity
  8
ADP1DETAIL
100
AcDbLine
 10
17.7814690679907
 20
17.81426366556049
 30
0.0
 11
16.0314690679907
 21
17.81426366556049
 31
0.0
  0
LINE
  5
18B
330
1E
100
AcDbEntity
  8
ADP1DETAIL
100
AcDbLine
 10
15.48231075090236
 20
17.07786868032692
 30
0.0
 11
18.32451570741992
 21
17.07786868032692
 31
0.0
  0
LINE
  5
18C
330
1E
100
AcDbEntity
  8
ADP1DETAIL
100
AcDbLine
 10
16.3754690679907
 20
17.44958334645519
 30
0.0
 11
16.90762777305522
 21
17.44958334645519
 31
0.0
  0
LINE
  5
18D
330
1E
100
AcDbEntity
  8
ADP1DETAIL
100
AcDbLine
 10
17.8752190679907
 20
18.83001016065053
 30
0.0
 11
15.9377190679907
 21
18.83001016065053
 31
0.0
  0
LINE
  5
18E
330
1E
100
AcDbEntity
  8
ADP1DETAIL
100
AcDbLine
 10
16.0314690679907
 20
22.79876016065053
 30
0.0
 11
17.7814690679907
 21
22.79876016065053
 31
0.0
  0
LINE
  5
18F
330
1E
100
AcDbEntity
  8
ADP1DETAIL
100
AcDbLine
 10
17.7814690679907
 20
21.04876016065053
 30
0.0
 11
16.0314690679907
 21
21.04876016065053
 31
0.0
  0
ARC
  5
190
330
1E
100
AcDbEntity
  8
ADP1DETAIL
100
AcDbCircle
 10
15.90073355465245
 20
17.08490757465563
 30
0.0
 40
0.2196970135271751
100
AcDbArc
 50
358.1639806528343
 51
66.74166570965842
  0
ARC
  5
191
330
1E
100
AcDbEntity
  8
ADP1DETAIL
100
AcDbCircle
 10
16.2349690679907
 20
17.09286868032692
 30
0.0
 40
0.015
100
AcDbArc
 50
270.0
 51
0.0000000000002926
  0
ARC
  5
192
330
1E
100
AcDbEntity
  8
ADP1DETAIL
100
AcDbCircle
 10
15.26272652624269
 20
17.08490757465563
 30
0.0
 40
0.2196970135271751
100
AcDbArc
 50
358.1639806528343
 51
66.74166570965842
  0
LINE
  5
193
330
1E
100
AcDbEntity
  8
ADP1DETAIL
100
AcDbLine
 10
15.46951081358359
 20
13.89950305434174
 30
0.0
 11
15.46951081358359
 21
11.02558654552751
 31
0.0
  0
LINE
  5
194
330
1E
100
AcDbEntity
  8
ADP1DETAIL
100
AcDbLine
 10
15.6252190679907
 20
13.74379479993462
 30
0.0
 11
15.6252190679907
 21
11.18129479993462
 31
0.0
  0
LINE
  5
195
330
1E
100
AcDbEntity
  8
ADP1DETAIL
100
AcDbLine
 10
15.3127190679907
 20
14.05629479993462
 30
0.0
 11
15.3127190679907
 21
10.86879479993462
 31
0.0
  0
LINE
  5
196
330
1E
100
AcDbEntity
  8
ADP1DETAIL
100
AcDbLine
 10
15.7502190679907
 20
13.43129479993462
 30
0.0
 11
15.7502190679907
 21
11.49379479993463
 31
0.0
  0
LWPOLYLINE
  5
197
330
1E
100
AcDbEntity
  8
ADP1DETAIL
100
AcDbPolyline
 90
        4
 70
     0
 43
0.0
 10
15.7502190679907
 20
11.49379479993462
 10
15.9377190679907
 20
11.49379479993462
 10
15.9377190679907
 20
11.18129479993462
 10
15.7502190679907
 20
11.18129479993462
  0
LWPOLYLINE
  5
19D
330
1E
100
AcDbEntity
  8
ADP1DETAIL
100
AcDbPolyline
 90
        2
 70
     0
 43
0.0
 10
15.9377190679907
 20
11.18129479993462
 10
15.6252190679907
 20
11.18129479993462
  0
LINE
  5
1A1
330
1E
100
AcDbEntity
  8
ADP1DETAIL
100
AcDbLine
 10
15.9377190679907
 20
15.55629479993462
 30
0.0
 11
15.9377190679907
 21
14.05629479993462
 31
0.0
  0
LINE
  5
1A2
330
1E
100
AcDbEntity
  8
ADP1DETAIL
100
AcDbLine
 10
16.09451081358359
 20
15.55629479993462
 30
0.0
 11
16.09451081358359
 21
13.89950305434174
 31
0.0
  0
LINE
  5
1A3
330
1E
100
AcDbEntity
  8
ADP1DETAIL
100
AcDbLine
 10
16.2502190679907
 20
15.55629479993462
 30
0.0
 11
16.2502190679907
 21
13.74379479993462
 31
0.0
  0
LINE
  5
1A4
330
1E
100
AcDbEntity
  8
ADP1DETAIL
100
AcDbLine
 10
16.40592732239782
 20
15.55629479993462
 30
0.0
 11
16.40592732239782
 21
13.74379479993462
 31
0.0
  0
LWPOLYLINE
  5
1A5
330
1E
100
AcDbEntity
  8
ADP1DETAIL
100
AcDbPolyline
 90
        2
 70
     0
 43
0.0
 10
15.7502190679907
 20
13.74379479993462
 10
16.0627190679907
 20
13.74379479993462
  0
LWPOLYLINE
  5
1A9
330
1E
100
AcDbEntity
  8
ADP1DETAIL
100
AcDbPolyline
 90
        4
 70
     0
 43
0.0
 10
15.7502190679907
 20
13.74379479993462
 10
15.9377190679907
 20
13.74379479993462
 10
15.9377190679907
 20
13.43129479993462
 10
15.7502190679907
 20
13.43129479993462
  0
LINE
  5
1AF
330
1E
100
AcDbEntity
  8
ADP1DETAIL
100
AcDbLine
 10
16.09451081358359
 20
13.89950305434174
 30
0.0
 11
15.46951081358359
 21
13.89950305434174
 31
0.0
  0
LINE
  5
1B0
330
1E
100
AcDbEntity
  8
ADP1DETAIL
100
AcDbLine
 10
15.9377190679907
 20
14.05629479993462
 30
0.0
 11
15.3127190679907
 21
14.05629479993462
 31
0.0
  0
LINE
  5
1B1
330
1E
100
AcDbEntity
  8
ADP1DETAIL
100
AcDbLine
 10
16.12031777931212
 20
17.07786868032692
 30
0.0
 11
16.2349690679907
 21
17.07786868032692
 31
0.0
  0
DIMENSION
  5
1B2
330
1E
100
AcDbEntity
  8
ADPDIM
100
AcDbDimension
  2
*D2
 10
14.52305990149897
 20
20.33001016065053
 30
0.0
 11
14.52305990149897
 21
21.92376016065053
 31
0.0
100
AcDbAlignedDimension
 13
15.3127190679907
 23
23.51751016065052
 33
0.0
 14
15.3127190679907
 24
20.33001016065053
 34
0.0
 50
90.0
100
AcDbRotatedDimension
  0
LINE
  5
1B3
330
1E
100
AcDbEntity
  8
ADP1DETAIL
100
AcDbLine
 10
16.0314690679907
 20
21.04876016065053
 30
0.0
 11
16.0314690679907
 21
22.79876016065053
 31
0.0
  0
LINE
  5
1B4
330
1E
100
AcDbEntity
  8
ADP1DETAIL
100
AcDbLine
 10
15.3127190679907
 20
20.33001016065053
 30
0.0
 11
15.3127190679907
 21
23.51751016065052
 31
0.0
  0
LINE
  5
1B5
330
1E
100
AcDbEntity
  8
ADP1DETAIL
100
AcDbLine
 10
15.56311454851611
 20
20.58040564117594
 30
0.0
 11
15.56311454851611
 21
23.26711468012512
 31
0.0
  0
DIMENSION
  5
1B6
330
1E
100
AcDbEntity
  8
ADPDIM
100
AcDbDimension
  2
*D4
 10
14.52305990149897
 20
18.83001016065053
 30
0.0
 11
14.52305990149897
 21
19.58001016065053
 31
0.0
100
AcDbAlignedDimension
 13
15.3127190679907
 23
20.33001016065053
 33
0.0
 14
15.9377190679907
 24
18.83001016065053
 34
0.0
 50
90.0
100
AcDbRotatedDimension
  0
LINE
  5
1B7
330
1E
100
AcDbEntity
  8
ADP1DETAIL
100
AcDbLine
 10
16.18811454851611
 20
18.83001016065053
 30
0.0
 11
16.18811454851611
 21
20.58040564117593
 31
0.0
  0
LINE
  5
1B8
330
1E
100
AcDbEntity
  8
ADP1DETAIL
100
AcDbLine
 10
15.9377190679907
 20
18.83001016065053
 30
0.0
 11
15.9377190679907
 21
20.33001016065053
 31
0.0
  0
ARC
  5
1B9
330
1E
100
AcDbEntity
  8
ADP1DETAIL
100
AcDbCircle
 10
15.4489987932469
 20
17.40688388772212
 30
0.0
 40
0.1559999999999998
100
AcDbArc
 50
80.65678061822479
 51
230.3615138867189
  0
LINE
  5
1BA
330
1E
100
AcDbEntity
  8
ADP1DETAIL
100
AcDbLine
 10
16.18862777305522
 20
17.61152736878119
 30
0.0
 11
15.55062074464546
 21
17.61152736878119
 31
0.0
  0
LINE
  5
1BB
330
1E
100
AcDbEntity
  8
ADP1DETAIL
100
AcDbLine
 10
16.17362777305522
 20
17.56081431911676
 30
0.0
 11
15.53562074464546
 21
17.56081431911676
 31
0.0
  0
ARC
  5
1BC
330
1E
100
AcDbEntity
  8
ADP1DETAIL
100
AcDbCircle
 10
15.60580579504835
 20
18.15224415620107
 30
0.0
 40
0.5435255596433758
100
AcDbArc
 50
264.1726231069675
 51
321.5501068260153
  0
ARC
  5
1BD
330
1E
100
AcDbEntity
  8
ADP1DETAIL
100
AcDbCircle
 10
15.53562074464546
 20
17.57581431911676
 30
0.0
 40
0.015
100
AcDbArc
 50
270.0
 51
0.0
  0
LINE
  5
1BE
330
1E
100
AcDbEntity
  8
ADP1DETAIL
100
AcDbLine
 10
15.53562074464546
 20
17.56081431911676
 30
0.0
 11
15.47432510941526
 21
17.56081431911676
 31
0.0
  0
LINE
  5
1BF
330
1E
100
AcDbEntity
  8
ADP1DETAIL
100
AcDbLine
 10
15.55062074464546
 20
17.57581431911676
 30
0.0
 11
15.55062074464546
 21
17.61152736878119
 31
0.0
  0
ARC
  5
1C0
330
1E
100
AcDbEntity
  8
ADP1DETAIL
100
AcDbCircle
 10
16.20362777305522
 20
17.61152736878119
 30
0.0
 40
0.015
100
AcDbArc
 50
91.1235186577027
 51
180.0
  0
LINE
  5
1C1
330
1E
100
AcDbEntity
  8
ADP1DETAIL
100
AcDbLine
 10
16.3754690679907
 20
17.27658334645519
 30
0.0
 11
16.3754690679907
 21
17.44958334645519
 31
0.0
  0
ARC
  5
1C2
330
1E
100
AcDbEntity
  8
ADP1DETAIL
100
AcDbCircle
 10
16.3604690679907
 20
17.27658334645519
 30
0.0
 40
0.015
100
AcDbArc
 50
270.0
 51
0.0
  0
LINE
  5
1C3
330
1E
100
AcDbEntity
  8
ADP1DETAIL
100
AcDbLine
 10
16.2499690679907
 20
17.09286868032692
 30
0.0
 11
16.2499690679907
 21
17.24658334645519
 31
0.0
  0
ARC
  5
1C4
330
1E
100
AcDbEntity
  8
ADP1DETAIL
100
AcDbCircle
 10
16.2649690679907
 20
17.24658334645519
 30
0.0
 40
0.015
100
AcDbArc
 50
90.0
 51
180.0
  0
LINE
  5
1C5
330
1E
100
AcDbEntity
  8
ADP1DETAIL
100
AcDbLine
 10
16.17362777305522
 20
17.56081431911676
 30
0.0
 11
16.11233213782502
 21
17.56081431911676
 31
0.0
  0
ARC
  5
1C6
330
1E
100
AcDbEntity
  8
ADP1DETAIL
100
AcDbCircle
 10
16.17362777305522
 20
17.57581431911676
 30
0.0
 40
0.015
100
AcDbArc
 50
270.0
 51
0.0
  0
LINE
  5
1C7
330
1E
100
AcDbEntity
  8
ADP1DETAIL
100
AcDbLine
 10
16.2649690679907
 20
17.26158334645519
 30
0.0
 11
16.3604690679907
 21
17.26158334645519
 31
0.0
  0
ARC
  5
1C8
330
1E
100
AcDbEntity
  8
ADP1DETAIL
100
AcDbCircle
 10
16.08700582165666
 20
17.40688388772212
 30
0.0
 40
0.1559999999999998
100
AcDbArc
 50
80.65678061822479
 51
230.3615138867189
  0
LINE
  5
1C9
330
1E
100
AcDbEntity
  8
ADP1DETAIL
100
AcDbLine
 10
16.18862777305522
 20
17.57581431911676
 30
0.0
 11
16.18862777305522
 21
17.61152736878119
 31
0.0
  0
LINE
  5
1CA
330
1E
100
AcDbEntity
  8
ADP1DETAIL
100
AcDbLine
 10
15.3127190679907
 20
20.33001016065053
 30
0.0
 11
16.0314690679907
 21
21.04876016065053
 31
0.0
  0
LINE
  5
1CB
330
1E
100
AcDbEntity
  8
ADP1DETAIL
100
AcDbLine
 10
15.9377190679907
 20
20.33001016065053
 30
0.0
 11
15.3127190679907
 21
20.33001016065053
 31
0.0
  0
LINE
  5
1CC
330
1E
100
AcDbEntity
  8
ADP1DETAIL
100
AcDbLine
 10
16.18811454851611
 20
20.58040564117594
 30
0.0
 11
15.56311454851611
 21
20.58040564117594
 31
0.0
  0
LINE
  5
1CD
330
1E
100
AcDbEntity
  8
ADP1DETAIL
100
AcDbLine
 10
16.0314690679907
 20
22.79876016065053
 30
0.0
 11
15.3127190679907
 21
23.51751016065052
 31
0.0
  0
ARC
  5
1CE
330
1E
100
AcDbEntity
  8
ADP1DETAIL
100
AcDbCircle
 10
18.5440999320796
 20
17.08490757465562
 30
0.0
 40
0.2196970135271803
100
AcDbArc
 50
113.2583342903419
 51
181.8360193471644
  0
ARC
  5
1CF
330
1E
100
AcDbEntity
  8
ADP1DETAIL
100
AcDbCircle
 10
17.5779690679907
 20
17.09286868032692
 30
0.0
 40
0.015
100
AcDbArc
 50
179.9999999999996
 51
270.0
  0
ARC
  5
1D0
330
1E
100
AcDbEntity
  8
ADP1DETAIL
100
AcDbCircle
 10
17.91220458132895
 20
17.08490757465562
 30
0.0
 40
0.2196970135271803
100
AcDbArc
 50
113.2583342903419
 51
181.8360193471644
  0
LINE
  5
1D1
330
1E
100
AcDbEntity
  8
ADP1DETAIL
100
AcDbLine
 10
18.1877190679907
 20
11.18129479993462
 30
0.0
 11
18.1877190679907
 21
13.74379479993462
 31
0.0
  0
LINE
  5
1D2
330
1E
100
AcDbEntity
  8
ADP1DETAIL
100
AcDbLine
 10
18.06271906799071
 20
13.43129479993462
 30
0.0
 11
18.06271906799071
 21
11.49379479993463
 31
0.0
  0
LINE
  5
1D3
330
1E
100
AcDbEntity
  8
ADP1DETAIL
100
AcDbLine
 10
20.00021906799069
 20
11.49379479993462
 30
0.0
 11
20.00021906799069
 21
13.43129479993462
 31
0.0
  0
LINE
  5
1D4
330
1E
100
AcDbEntity
  8
ADP1DETAIL
100
AcDbLine
 10
18.1877190679907
 20
11.80629479993462
 30
0.0
 11
20.00021906799069
 21
11.80629479993462
 31
0.0
  0
LINE
  5
1D5
330
1E
100
AcDbEntity
  8
ADP1DETAIL
100
AcDbLine
 10
18.1877190679907
 20
11.96200305434174
 30
0.0
 11
20.00021906799069
 21
11.96200305434174
 31
0.0
  0
LINE
  5
1D6
330
1E
100
AcDbEntity
  8
ADP1DETAIL
100
AcDbLine
 10
18.5002190679907
 20
11.49379479993462
 30
0.0
 11
20.00021906799069
 21
11.49379479993462
 31
0.0
  0
LINE
  5
1D7
330
1E
100
AcDbEntity
  8
ADP1DETAIL
100
AcDbLine
 10
18.34342732239781
 20
11.65058654552751
 30
0.0
 11
20.00021906799069
 21
11.65058654552751
 31
0.0
  0
LWPOLYLINE
  5
1D8
330
1E
100
AcDbEntity
  8
ADP1DETAIL
100
AcDbPolyline
 90
        2
 70
     0
 43
0.0
 10
18.1877190679907
 20
11.18129479993462
 10
17.8752190679907
 20
11.18129479993462
  0
LWPOLYLINE
  5
1DC
330
1E
100
AcDbEntity
  8
ADP1DETAIL
100
AcDbPolyline
 90
        4
 70
     0
 43
0.0
 10
18.06271906799071
 20
11.49379479993462
 10
17.87521906799071
 20
11.49379479993462
 10
17.87521906799071
 20
11.18129479993462
 10
18.06271906799071
 20
11.18129479993462
  0
LINE
  5
1E2
330
1E
100
AcDbEntity
  8
ADP1DETAIL
100
AcDbLine
 10
18.5002190679907
 20
10.86879479993462
 30
0.0
 11
18.5002190679907
 21
11.49379479993462
 31
0.0
  0
LINE
  5
1E3
330
1E
100
AcDbEntity
  8
ADP1DETAIL
100
AcDbLine
 10
18.34342732239782
 20
11.02558654552751
 30
0.0
 11
18.34342732239782
 21
11.65058654552751
 31
0.0
  0
LINE
  5
1E4
330
1E
100
AcDbEntity
  8
ADP1DETAIL
100
AcDbLine
 10
20.00021906799069
 20
13.11879479993462
 30
0.0
 11
18.1877190679907
 21
13.11879479993462
 31
0.0
  0
LINE
  5
1E5
330
1E
100
AcDbEntity
  8
ADP1DETAIL
100
AcDbLine
 10
20.00021906799069
 20
12.96308654552751
 30
0.0
 11
18.1877190679907
 21
12.96308654552751
 31
0.0
  0
LINE
  5
1E6
330
1E
100
AcDbEntity
  8
ADP1DETAIL
100
AcDbLine
 10
20.00021906799069
 20
13.43129479993462
 30
0.0
 11
18.5002190679907
 21
13.43129479993462
 31
0.0
  0
LINE
  5
1E7
330
1E
100
AcDbEntity
  8
ADP1DETAIL
100
AcDbLine
 10
20.00021906799069
 20
13.27450305434174
 30
0.0
 11
18.34342732239782
 21
13.27450305434174
 31
0.0
  0
LINE
  5
1E8
330
1E
100
AcDbEntity
  8
ADP1DETAIL
100
AcDbLine
 10
17.8752190679907
 20
14.05629479993462
 30
0.0
 11
17.8752190679907
 21
15.55629479993462
 31
0.0
  0
LINE
  5
1E9
330
1E
100
AcDbEntity
  8
ADP1DETAIL
100
AcDbLine
 10
17.71842732239782
 20
13.89950305434174
 30
0.0
 11
17.71842732239782
 21
15.55629479993462
 31
0.0
  0
LINE
  5
1EA
330
1E
100
AcDbEntity
  8
ADP1DETAIL
100
AcDbLine
 10
17.5627190679907
 20
13.74379479993462
 30
0.0
 11
17.5627190679907
 21
15.55629479993462
 31
0.0
  0
LINE
  5
1EB
330
1E
100
AcDbEntity
  8
ADP1DETAIL
100
AcDbLine
 10
17.40701081358358
 20
13.74379479993462
 30
0.0
 11
17.40701081358358
 21
15.55629479993462
 31
0.0
  0
LINE
  5
1EC
330
1E
100
AcDbEntity
  8
ADP1DETAIL
100
AcDbLine
 10
18.5002190679907
 20
13.43129479993462
 30
0.0
 11
18.5002190679907
 21
14.05629479993462
 31
0.0
  0
LINE
  5
1ED
330
1E
100
AcDbEntity
  8
ADP1DETAIL
100
AcDbLine
 10
18.34342732239782
 20
13.27450305434174
 30
0.0
 11
18.34342732239782
 21
13.89950305434174
 31
0.0
  0
LWPOLYLINE
  5
1EE
330
1E
100
AcDbEntity
  8
ADP1DETAIL
100
AcDbPolyline
 90
        4
 70
     0
 43
0.0
 10
18.06271906799071
 20
13.74379479993462
 10
17.87521906799071
 20
13.74379479993462
 10
17.87521906799071
 20
13.43129479993462
 10
18.06271906799071
 20
13.43129479993462
  0
LINE
  5
1F4
330
1E
100
AcDbEntity
  8
ADP1DETAIL
100
AcDbLine
 10
18.34342732239782
 20
13.89950305434174
 30
0.0
 11
17.71842732239782
 21
13.89950305434174
 31
0.0
  0
LINE
  5
1F5
330
1E
100
AcDbEntity
  8
ADP1DETAIL
100
AcDbLine
 10
18.5002190679907
 20
14.05629479993462
 30
0.0
 11
17.8752190679907
 21
14.05629479993462
 31
0.0
  0
LINE
  5
1F6
330
1E
100
AcDbEntity
  8
ADP1DETAIL
100
AcDbLine
 10
17.69262035666928
 20
17.07786868032692
 30
0.0
 11
17.5779690679907
 21
17.07786868032692
 31
0.0
  0
LINE
  5
1F7
330
1E
100
AcDbEntity
  8
ADP1DETAIL
100
AcDbLine
 10
20.0002190679907
 20
20.95501016065053
 30
0.0
 11
20.0002190679907
 21
22.89251016065053
 31
0.0
  0
LINE
  5
1F8
330
1E
100
AcDbEntity
  8
ADP1DETAIL
100
AcDbLine
 10
17.7814690679907
 20
22.79876016065053
 30
0.0
 11
17.7814690679907
 21
21.04876016065053
 31
0.0
  0
LINE
  5
1F9
330
1E
100
AcDbEntity
  8
ADP1DETAIL
100
AcDbLine
 10
18.5002190679907
 20
20.95501016065053
 30
0.0
 11
17.7814690679907
 21
21.67376016065053
 31
0.0
  0
LINE
  5
1FA
330
1E
100
AcDbEntity
  8
ADP1DETAIL
100
AcDbLine
 10
18.2498235874653
 20
21.20540564117594
 30
0.0
 11
20.0002190679907
 21
21.20540564117594
 31
0.0
  0
LINE
  5
1FB
330
1E
100
AcDbEntity
  8
ADP1DETAIL
100
AcDbLine
 10
18.5002190679907
 20
20.95501016065053
 30
0.0
 11
20.0002190679907
 21
20.95501016065053
 31
0.0
  0
LINE
  5
1FC
330
1E
100
AcDbEntity
  8
ADP1DETAIL
100
AcDbLine
 10
17.62482358746529
 20
20.58040564117593
 30
0.0
 11
17.62482358746529
 21
18.83001016065053
 31
0.0
  0
LINE
  5
1FD
330
1E
100
AcDbEntity
  8
ADP1DETAIL
100
AcDbLine
 10
17.8752190679907
 20
20.33001016065053
 30
0.0
 11
17.8752190679907
 21
18.83001016065053
 31
0.0
  0
ARC
  5
1FE
330
1E
100
AcDbEntity
  8
ADP1DETAIL
100
AcDbCircle
 10
17.62431036292618
 20
18.3763802958201
 30
0.0
 40
0.75
100
AcDbArc
 50
237.198348262058
 51
268.8764813422996
  0
ARC
  5
1FF
330
1E
100
AcDbEntity
  8
ADP1DETAIL
100
AcDbCircle
 10
16.90531036292617
 20
17.06426456062597
 30
0.0
 40
0.7500000000000019
100
AcDbArc
 50
65.35881699432443
 51
89.91148141825666
  0
LINE
  5
200
330
1E
100
AcDbEntity
  8
ADP1DETAIL
100
AcDbLine
 10
17.4374690679907
 20
17.44958334645519
 30
0.0
 11
16.90531036292618
 21
17.44958334645519
 31
0.0
  0
ARC
  5
201
330
1E
100
AcDbEntity
  8
ADP1DETAIL
100
AcDbCircle
 10
16.90762777305522
 20
17.06426456062598
 30
0.0
 40
0.7499999999999986
100
AcDbArc
 50
90.08851858174335
 51
114.6411830056756
  0
LINE
  5
202
330
1E
100
AcDbEntity
  8
ADP1DETAIL
100
AcDbLine
 10
17.5479690679907
 20
17.26158334645519
 30
0.0
 11
17.4524690679907
 21
17.26158334645519
 31
0.0
  0
LINE
  5
203
330
1E
100
AcDbEntity
  8
ADP1DETAIL
100
AcDbLine
 10
17.5629690679907
 20
17.09286868032692
 30
0.0
 11
17.5629690679907
 21
17.24658334645519
 31
0.0
  0
ARC
  5
204
330
1E
100
AcDbEntity
  8
ADP1DETAIL
100
AcDbCircle
 10
17.5479690679907
 20
17.24658334645519
 30
0.0
 40
0.015
100
AcDbArc
 50
0.000000000000007
 51
90.0
  0
LINE
  5
205
330
1E
100
AcDbEntity
  8
ADP1DETAIL
100
AcDbLine
 10
17.4374690679907
 20
17.27658334645519
 30
0.0
 11
17.4374690679907
 21
17.44958334645519
 31
0.0
  0
ARC
  5
206
330
1E
100
AcDbEntity
  8
ADP1DETAIL
100
AcDbCircle
 10
17.4524690679907
 20
17.27658334645519
 30
0.0
 40
0.015
100
AcDbArc
 50
180.0
 51
270.0
  0
LINE
  5
207
330
1E
100
AcDbEntity
  8
ADP1DETAIL
100
AcDbLine
 10
18.25620571367682
 20
17.61152736878119
 30
0.0
 11
17.62431036292618
 21
17.61152736878119
 31
0.0
  0
LINE
  5
208
330
1E
100
AcDbEntity
  8
ADP1DETAIL
100
AcDbLine
 10
18.27120571367682
 20
17.56081431911676
 30
0.0
 11
17.63931036292618
 21
17.56081431911676
 31
0.0
  0
ARC
  5
209
330
1E
100
AcDbEntity
  8
ADP1DETAIL
100
AcDbCircle
 10
18.20559516012412
 20
18.15021610730297
 30
0.0
 40
0.5410609809819044
100
AcDbArc
 50
218.3829243804008
 51
275.3672628611653
  0
ARC
  5
20A
330
1E
100
AcDbEntity
  8
ADP1DETAIL
100
AcDbCircle
 10
17.60931036292618
 20
17.61152736878119
 30
0.0
 40
0.015
100
AcDbArc
 50
0.000000000000007
 51
88.87648134229731
  0
LINE
  5
20B
330
1E
100
AcDbEntity
  8
ADP1DETAIL
100
AcDbLine
 10
17.63931036292618
 20
17.56081431911676
 30
0.0
 11
17.70060599815638
 21
17.56081431911676
 31
0.0
  0
ARC
  5
20C
330
1E
100
AcDbEntity
  8
ADP1DETAIL
100
AcDbCircle
 10
17.63931036292618
 20
17.57581431911676
 30
0.0
 40
0.015
100
AcDbArc
 50
180.0
 51
270.0
  0
ARC
  5
20D
330
1E
100
AcDbEntity
  8
ADP1DETAIL
100
AcDbCircle
 10
17.72593231432474
 20
17.40688388772212
 30
0.0
 40
0.1559999999999996
100
AcDbArc
 50
309.6384861132801
 51
99.34321938177591
  0
LINE
  5
20E
330
1E
100
AcDbEntity
  8
ADP1DETAIL
100
AcDbLine
 10
17.62431036292618
 20
17.57581431911676
 30
0.0
 11
17.62431036292618
 21
17.61152736878119
 31
0.0
  0
LINE
  5
20F
330
1E
100
AcDbEntity
  8
ADP1DETAIL
100
AcDbLine
 10
18.27120571367682
 20
17.56081431911676
 30
0.0
 11
18.33250134890702
 21
17.56081431911676
 31
0.0
  0
ARC
  5
210
330
1E
100
AcDbEntity
  8
ADP1DETAIL
100
AcDbCircle
 10
18.27120571367682
 20
17.57581431911676
 30
0.0
 40
0.015
100
AcDbArc
 50
180.0
 51
270.0
  0
ARC
  5
211
330
1E
100
AcDbEntity
  8
ADP1DETAIL
100
AcDbCircle
 10
18.35782766507539
 20
17.40688388772212
 30
0.0
 40
0.1559999999999996
100
AcDbArc
 50
309.6384861132801
 51
99.34321938177591
  0
LINE
  5
212
330
1E
100
AcDbEntity
  8
ADP1DETAIL
100
AcDbLine
 10
18.25620571367682
 20
17.57581431911676
 30
0.0
 11
18.25620571367682
 21
17.61152736878119
 31
0.0
  0
LINE
  5
213
330
1E
100
AcDbEntity
  8
ADP1DETAIL
100
AcDbLine
 10
17.8752190679907
 20
20.33001016065053
 30
0.0
 11
17.1564690679907
 21
21.04876016065053
 31
0.0
  0
LINE
  5
214
330
1E
100
AcDbEntity
  8
ADP1DETAIL
100
AcDbLine
 10
18.5002190679907
 20
20.33001016065053
 30
0.0
 11
17.7814690679907
 21
21.04876016065053
 31
0.0
  0
LINE
  5
215
330
1E
100
AcDbEntity
  8
ADP1DETAIL
100
AcDbLine
 10
18.5002190679907
 20
20.33001016065053
 30
0.0
 11
17.8752190679907
 21
20.33001016065053
 31
0.0
  0
LINE
  5
216
330
1E
100
AcDbEntity
  8
ADP1DETAIL
100
AcDbLine
 10
18.2498235874653
 20
20.58040564117593
 30
0.0
 11
17.62482358746529
 21
20.58040564117593
 31
0.0
  0
LINE
  5
217
330
1E
100
AcDbEntity
  8
ADP1DETAIL
100
AcDbLine
 10
18.5002190679907
 20
20.95501016065053
 30
0.0
 11
18.5002190679907
 21
20.33001016065053
 31
0.0
  0
LINE
  5
218
330
1E
100
AcDbEntity
  8
ADP1DETAIL
100
AcDbLine
 10
18.2498235874653
 20
21.20540564117594
 30
0.0
 11
18.2498235874653
 21
20.58040564117593
 31
0.0
  0
LINE
  5
219
330
1E
100
AcDbEntity
  8
ADP1DETAIL
100
AcDbLine
 10
20.0002190679907
 20
22.64211468012512
 30
0.0
 11
18.2498235874653
 21
22.64211468012512
 31
0.0
  0
LINE
  5
21A
330
1E
100
AcDbEntity
  8
ADP1DETAIL
100
AcDbLine
 10
20.0002190679907
 20
22.89251016065053
 30
0.0
 11
18.5002190679907
 21
22.89251016065052
 31
0.0
  0
LINE
  5
21B
330
1E
100
AcDbEntity
  8
ADP1DETAIL
100
AcDbLine
 10
17.7814690679907
 20
22.17376016065053
 30
0.0
 11
18.5002190679907
 21
22.89251016065052
 31
0.0
  0
LINE
  5
21C
330
1E
100
AcDbEntity
  8
ADP1DETAIL
100
AcDbLine
 10
17.7814690679907
 20
22.79876016065053
 30
0.0
 11
18.5002190679907
 21
23.51751016065052
 31
0.0
  0
LINE
  5
21D
330
1E
100
AcDbEntity
  8
ADP1DETAIL
100
AcDbLine
 10
18.2498235874653
 20
23.26711468012512
 30
0.0
 11
18.2498235874653
 21
22.64211468012512
 31
0.0
  0
LINE
  5
21E
330
1E
100
AcDbEntity
  8
ADP1DETAIL
100
AcDbLine
 10
18.5002190679907
 20
23.51751016065052
 30
0.0
 11
18.5002190679907
 21
22.89251016065052
 31
0.0
  0
TEXT
  5
222
330
1E
100
AcDbEntity
  8
ADPDIM
100
AcDbText
 10
3.735960302357653
 20
9.379357519523074
 30
0.0
 40
0.25
  1
J U L I U S  B L U M  &  C O . ,  I N C .      ( 8 0 0 )  5 2 6 - 6 2 9 3        W W W . J U L I U S B L U M . C O M        P A R T  N o .  4 4 2 8 - L
 41
1.25
  7
ARIAL_WIDE
 72
     1
 11
17.10279607998384
 21
9.629357519523074
 31
0.0
100
AcDbText
 73
     3
  0
ENDSEC
  0
SECTION
  2
OBJECTS
  0
DICTIONARY
  5
C
330
0
100
AcDbDictionary
  3
ACAD_GROUP
350
D
  3
ACAD_LAYOUT
350
19
  3
ACAD_MLINESTYLE
350
16
  3
ACAD_PLOTSETTINGS
350
18
  3
ACAD_PLOTSTYLENAME
350
E
  3
ACDBHEADERROUNDTRIPXREC
350
3B5
  3
ACDBVARIABLEDICTIONARY
350
293
  0
DICTIONARY
  5
25E
330
1E
100
AcDbDictionary
280
     1
  3
ACAD_LAYOUTSELFREF
360
3D7
  0
DICTIONARY
  5
260
330
1A
100
AcDbDictionary
280
     1
  3
ACAD_LAYOUTSELFREF
360
3D6
  0
DICTIONARY
  5
D
102
{ACAD_REACTORS
330
C
102
}
330
C
100
AcDbDictionary
  0
DICTIONARY
  5
19
102
{ACAD_REACTORS
330
C
102
}
330
C
100
AcDbDictionary
  0
DICTIONARY
  5
16
102
{ACAD_REACTORS
330
C
102
}
330
C
100
AcDbDictionary
  3
STANDARD
350
17
  0
DICTIONARY
  5
18
102
{ACAD_REACTORS
330
C
102
}
330
C
100
AcDbDictionary
  0
ACDBDICTIONARYWDFLT
  5
E
102
{ACAD_REACTORS
330
C
102
}
330
C
100
AcDbDictionary
281
     1
  3
Normal
350
F
100
AcDbDictionaryWithDefault
340
F
  0
DICTIONARY
  5
3B5
102
{ACAD_REACTORS
330
C
102
}
330
C
100
AcDbDictionary
  3
CEPSNTYPE
350
3BF
  3
DIMSTYLEDATA
350
3C3
  3
FINGERPRINTGUID
350
3C0
  3
HYPERLINKBASE
350
3B8
  3
INSUNITS
350
3BE
  3
LAYOUTDICT
350
3BA
  3
LWETCUNION
350
3BD
  3
PLOTSETDICT
350
3BB
  3
PLOTSTYLNAMDICT
350
3BC
  3
PSVPSCALE
350
3C2
  3
PUCSBASE
350
3C6
  3
PUCSORGBACK
350
3CC
  3
PUCSORGBOTTOM
350
3C8
  3
PUCSORGFRONT
350
3CB
  3
PUCSORGLEFT
350
3C9
  3
PUCSORGRIGHT
350
3CA
  3
PUCSORGTOP
350
3C7
  3
PUCSORTHOREF
350
3C4
  3
PUCSORTHOVIEW
350
3C5
  3
STYLESHEET
350
3B9
  3
TSTACKALIGN
350
3B6
  3
TSTACKSIZE
350
3B7
  3
UCSBASE
350
3CF
  3
UCSORGBACK
350
3D5
  3
UCSORGBOTTOM
350
3D1
  3
UCSORGFRONT
350
3D4
  3
UCSORGLEFT
350
3D2
  3
UCSORGRIGHT
350
3D3
  3
UCSORGTOP
350
3D0
  3
UCSORTHOREF
350
3CD
  3
UCSORTHOVIEW
350
3CE
  3
VERSIONGUID
350
3C1
  0
DICTIONARY
  5
293
102
{ACAD_REACTORS
330
C
102
}
330
C
100
AcDbDictionary
  3
DIMASSOC
350
295
  3
HIDETEXT
350
294
  0
XRECORD
  5
3D7
102
{ACAD_REACTORS
330
25E
102
}
330
25E
100
AcDbXrecord
340
1E
  0
XRECORD
  5
3D6
102
{ACAD_REACTORS
330
260
102
}
330
260
100
AcDbXrecord
340
1A
  0
MLINESTYLE
  5
17
102
{ACAD_REACTORS
330
16
102
}
330
16
100
AcDbMlineStyle
  2
STANDARD
 70
     0
  3

 62
   256
 51
90.0
 52
90.0
 71
     2
 49
0.5
 62
   256
  6
BYLAYER
 49
-0.5
 62
   256
  6
BYLAYER
  0
ACDBPLACEHOLDER
  5
F
102
{ACAD_REACTORS
330
E
102
}
330
E
100
AcDbPlaceHolder
280
     0
  0
XRECORD
  5
3BF
102
{ACAD_REACTORS
330
3B5
102
}
330
3B5
100
AcDbXrecord
 90
        0
  0
XRECORD
  5
3C3
102
{ACAD_REACTORS
330
3B5
102
}
330
3B5
100
AcDbXrecord
1000
DSTYLE
1002
{
1070
   277
 70
     5
1070
   279
 70
     2
1002
}
  0
XRECORD
  5
3C0
102
{ACAD_REACTORS
330
3B5
102
}
330
3B5
100
AcDbXrecord
  1
{A161A9B5-4443-4413-A899-50B3C93FA03A}
  0
XRECORD
  5
3B8
102
{ACAD_REACTORS
330
3B5
102
}
330
3B5
100
AcDbXrecord
  1

  0
XRECORD
  5
3BE
102
{ACAD_REACTORS
330
3B5
102
}
330
3B5
100
AcDbXrecord
 90
        0
  0
XRECORD
  5
3BA
102
{ACAD_REACTORS
330
3B5
102
}
330
3B5
100
AcDbXrecord
340
19
  0
XRECORD
  5
3BD
102
{ACAD_REACTORS
330
3B5
102
}
330
3B5
100
AcDbXrecord
 90
    14877
  0
XRECORD
  5
3BB
102
{ACAD_REACTORS
330
3B5
102
}
330
3B5
100
AcDbXrecord
340
18
  0
XRECORD
  5
3BC
102
{ACAD_REACTORS
330
3B5
102
}
330
3B5
100
AcDbXrecord
340
E
  0
XRECORD
  5
3C2
102
{ACAD_REACTORS
330
3B5
102
}
330
3B5
100
AcDbXrecord
 40
0.0
  0
XRECORD
  5
3C6
102
{ACAD_REACTORS
330
3B5
102
}
330
3B5
100
AcDbXrecord
340
0
  0
XRECORD
  5
3CC
102
{ACAD_REACTORS
330
3B5
102
}
330
3B5
100
AcDbXrecord
 10
0.0
 20
0.0
 30
0.0
  0
XRECORD
  5
3C8
102
{ACAD_REACTORS
330
3B5
102
}
330
3B5
100
AcDbXrecord
 10
0.0
 20
0.0
 30
0.0
  0
XRECORD
  5
3CB
102
{ACAD_REACTORS
330
3B5
102
}
330
3B5
100
AcDbXrecord
 10
0.0
 20
0.0
 30
0.0
  0
XRECORD
  5
3C9
102
{ACAD_REACTORS
330
3B5
102
}
330
3B5
100
AcDbXrecord
 10
0.0
 20
0.0
 30
0.0
  0
XRECORD
  5
3CA
102
{ACAD_REACTORS
330
3B5
102
}
330
3B5
100
AcDbXrecord
 10
0.0
 20
0.0
 30
0.0
  0
XRECORD
  5
3C7
102
{ACAD_REACTORS
330
3B5
102
}
330
3B5
100
AcDbXrecord
 10
0.0
 20
0.0
 30
0.0
  0
XRECORD
  5
3C4
102
{ACAD_REACTORS
330
3B5
102
}
330
3B5
100
AcDbXrecord
340
0
  0
XRECORD
  5
3C5
102
{ACAD_REACTORS
330
3B5
102
}
330
3B5
100
AcDbXrecord
 70
     0
  0
XRECORD
  5
3B9
102
{ACAD_REACTORS
330
3B5
102
}
330
3B5
100
AcDbXrecord
  1

  0
XRECORD
  5
3B6
102
{ACAD_REACTORS
330
3B5
102
}
330
3B5
100
AcDbXrecord
 90
        1
  0
XRECORD
  5
3B7
102
{ACAD_REACTORS
330
3B5
102
}
330
3B5
100
AcDbXrecord
 90
       70
  0
XRECORD
  5
3CF
102
{ACAD_REACTORS
330
3B5
102
}
330
3B5
100
AcDbXrecord
340
0
  0
XRECORD
  5
3D5
102
{ACAD_REACTORS
330
3B5
102
}
330
3B5
100
AcDbXrecord
 10
0.0
 20
0.0
 30
0.0
  0
XRECORD
  5
3D1
102
{ACAD_REACTORS
330
3B5
102
}
330
3B5
100
AcDbXrecord
 10
0.0
 20
0.0
 30
0.0
  0
XRECORD
  5
3D4
102
{ACAD_REACTORS
330
3B5
102
}
330
3B5
100
AcDbXrecord
 10
0.0
 20
0.0
 30
0.0
  0
XRECORD
  5
3D2
102
{ACAD_REACTORS
330
3B5
102
}
330
3B5
100
AcDbXrecord
 10
0.0
 20
0.0
 30
0.0
  0
XRECORD
  5
3D3
102
{ACAD_REACTORS
330
3B5
102
}
330
3B5
100
AcDbXrecord
 10
0.0
 20
0.0
 30
0.0
  0
XRECORD
  5
3D0
102
{ACAD_REACTORS
330
3B5
102
}
330
3B5
100
AcDbXrecord
 10
0.0
 20
0.0
 30
0.0
  0
XRECORD
  5
3CD
102
{ACAD_REACTORS
330
3B5
102
}
330
3B5
100
AcDbXrecord
340
0
  0
XRECORD
  5
3CE
102
{ACAD_REACTORS
330
3B5
102
}
330
3B5
100
AcDbXrecord
 70
     0
  0
XRECORD
  5
3C1
102
{ACAD_REACTORS
330
3B5
102
}
330
3B5
100
AcDbXrecord
  1
{A376CB5B-43CF-4C3A-BC77-3CA9B89EAEF5}
  0
DICTIONARYVAR
  5
295
102
{ACAD_REACTORS
330
293
102
}
330
293
100
DictionaryVariables
280
     0
  1
2
  0
DICTIONARYVAR
  5
294
102
{ACAD_REACTORS
330
293
102
}
330
293
100
DictionaryVariables
280
     0
  1
1
  0
ENDSEC
  0
EOF
