  0
SECTION
  2
HEADER
  9
$ACADVER
  1
AC1014
  9
$ACADMAINTVER
 70
     9
  9
$DWGCODEPAGE
  3
ANSI_1252
  9
$INSBASE
 10
8.078610077193864
 20
18.55542424939017
 30
0.0
  9
$EXTMIN
 10
-6.124919936448696
 20
9.125091024386597
 30
0.0
  9
$EXTMAX
 10
20.65714009083642
 20
23.36792424939017
 30
0.0
  9
$LIMMIN
 10
0.0
 20
0.0
  9
$LIMMAX
 10
36.0
 20
36.0
  9
$ORTHOMODE
 70
     1
  9
$REGENMODE
 70
     1
  9
$FILLMODE
 70
     1
  9
$QTEXTMODE
 70
     0
  9
$MIRRTEXT
 70
     1
  9
$DRAGMODE
 70
     0
  9
$LTSCALE
 40
1.0
  9
$OSMODE
 70
    37
  9
$ATTMODE
 70
     1
  9
$TEXTSIZE
 40
0.2
  9
$TRACEWID
 40
0.05
  9
$TEXTSTYLE
  7
STANDARD
  9
$CLAYER
  8
ADP1DETAIL
  9
$CELTYPE
  6
BYLAYER
  9
$CECOLOR
 62
   256
  9
$CELTSCALE
 40
1.0
  9
$DELOBJ
 70
     1
  9
$DISPSILH
 70
     0
  9
$DIMSCALE
 40
1.0
  9
$DIMASZ
 40
0.125
  9
$DIMEXO
 40
0.0625
  9
$DIMDLI
 40
0.38
  9
$DIMRND
 40
0.0
  9
$DIMDLE
 40
0.0
  9
$DIMEXE
 40
0.18
  9
$DIMTP
 40
0.0
  9
$DIMTM
 40
0.0
  9
$DIMTXT
 40
0.125
  9
$DIMCEN
 40
0.1875
  9
$DIMTSZ
 40
0.125
  9
$DIMTOL
 70
     0
  9
$DIMLIM
 70
     0
  9
$DIMTIH
 70
     0
  9
$DIMTOH
 70
     0
  9
$DIMSE1
 70
     0
  9
$DIMSE2
 70
     0
  9
$DIMTAD
 70
     0
  9
$DIMZIN
 70
     3
  9
$DIMBLK
  1

  9
$DIMASO
 70
     1
  9
$DIMSHO
 70
     1
  9
$DIMPOST
  1

  9
$DIMAPOST
  1

  9
$DIMALT
 70
     0
  9
$DIMALTD
 70
     1
  9
$DIMALTF
 40
25.4
  9
$DIMLFAC
 40
1.0
  9
$DIMTOFL
 70
     0
  9
$DIMTVP
 40
0.0
  9
$DIMTIX
 70
     0
  9
$DIMSOXD
 70
     0
  9
$DIMSAH
 70
     0
  9
$DIMBLK1
  1

  9
$DIMBLK2
  1

  9
$DIMSTYLE
  2
STANDARD
  9
$DIMCLRD
 70
     0
  9
$DIMCLRE
 70
     0
  9
$DIMCLRT
 70
     0
  9
$DIMTFAC
 40
1.0
  9
$DIMGAP
 40
0.125
  9
$DIMJUST
 70
     0
  9
$DIMSD1
 70
     0
  9
$DIMSD2
 70
     0
  9
$DIMTOLJ
 70
     1
  9
$DIMTZIN
 70
     3
  9
$DIMALTZ
 70
     3
  9
$DIMALTTZ
 70
     3
  9
$DIMFIT
 70
     5
  9
$DIMUPT
 70
     0
  9
$DIMUNIT
 70
     5
  9
$DIMDEC
 70
     4
  9
$DIMTDEC
 70
     4
  9
$DIMALTU
 70
     5
  9
$DIMALTTD
 70
     1
  9
$DIMTXSTY
  7
STANDARD
  9
$DIMAUNIT
 70
     0
  9
$LUNITS
 70
     5
  9
$LUPREC
 70
     4
  9
$SKETCHINC
 40
0.1
  9
$FILLETRAD
 40
0.062
  9
$AUNITS
 70
     0
  9
$AUPREC
 70
     0
  9
$MENU
  1
acad
  9
$ELEVATION
 40
0.0
  9
$PELEVATION
 40
0.0
  9
$THICKNESS
 40
0.0
  9
$LIMCHECK
 70
     0
  9
$BLIPMODE
 70
     0
  9
$CHAMFERA
 40
0.0
  9
$CHAMFERB
 40
0.0
  9
$CHAMFERC
 40
0.0
  9
$CHAMFERD
 40
0.0
  9
$SKPOLY
 70
     0
  9
$TDCREATE
 40
2450406.656998067
  9
$TDUPDATE
 40
2452297.085237627
  9
$TDINDWG
 40
0.0978032523
  9
$TDUSRTIMER
 40
0.0978032523
  9
$USRTIMER
 70
     1
  9
$ANGBASE
 50
0.0
  9
$ANGDIR
 70
     0
  9
$PDMODE
 70
     0
  9
$PDSIZE
 40
0.0
  9
$PLINEWID
 40
0.0
  9
$COORDS
 70
     2
  9
$SPLFRAME
 70
     0
  9
$SPLINETYPE
 70
     6
  9
$SPLINESEGS
 70
     8
  9
$ATTDIA
 70
     0
  9
$ATTREQ
 70
     1
  9
$HANDLING
 70
 22529
  9
$HANDSEED
  5
3C9
  9
$SURFTAB1
 70
     6
  9
$SURFTAB2
 70
     6
  9
$SURFTYPE
 70
     6
  9
$SURFU
 70
     6
  9
$SURFV
 70
     6
  9
$UCSNAME
  2

  9
$UCSORG
 10
0.0
 20
0.0
 30
0.0
  9
$UCSXDIR
 10
1.0
 20
0.0
 30
0.0
  9
$UCSYDIR
 10
0.0
 20
1.0
 30
0.0
  9
$PUCSNAME
  2

  9
$PUCSORG
 10
0.0
 20
0.0
 30
0.0
  9
$PUCSXDIR
 10
1.0
 20
0.0
 30
0.0
  9
$PUCSYDIR
 10
0.0
 20
1.0
 30
0.0
  9
$USERI1
 70
     0
  9
$USERI2
 70
     0
  9
$USERI3
 70
     0
  9
$USERI4
 70
     0
  9
$USERI5
 70
     0
  9
$USERR1
 40
0.0
  9
$USERR2
 40
0.0
  9
$USERR3
 40
0.0
  9
$USERR4
 40
0.0
  9
$USERR5
 40
0.0
  9
$WORLDVIEW
 70
     1
  9
$SHADEDGE
 70
     3
  9
$SHADEDIF
 70
    70
  9
$TILEMODE
 70
     1
  9
$MAXACTVP
 70
    15
  9
$PINSBASE
 10
0.0008545028977096
 20
1.250283272183907
 30
0.0
  9
$PLIMCHECK
 70
     0
  9
$PEXTMIN
 10
1.000000000000000E+20
 20
1.000000000000000E+20
 30
1.000000000000000E+20
  9
$PEXTMAX
 10
-1.000000000000000E+20
 20
-1.000000000000000E+20
 30
-1.000000000000000E+20
  9
$PLIMMIN
 10
0.0
 20
0.0
  9
$PLIMMAX
 10
12.0
 20
9.0
  9
$UNITMODE
 70
     0
  9
$VISRETAIN
 70
     0
  9
$PLINEGEN
 70
     0
  9
$PSLTSCALE
 70
     1
  9
$TREEDEPTH
 70
  3020
  9
$PICKSTYLE
 70
     1
  9
$CMLSTYLE
  2
STANDARD
  9
$CMLJUST
 70
     0
  9
$CMLSCALE
 40
1.0
  9
$PROXYGRAPHICS
 70
     1
  9
$MEASUREMENT
 70
     0
  0
ENDSEC
  0
SECTION
  2
CLASSES
  0
CLASS
  1
ACDBDICTIONARYWDFLT
  2
AcDbDictionaryWithDefault
  3
AutoCAD 2000
 90
        0
280
     0
281
     0
  0
CLASS
  1
ACDBPLACEHOLDER
  2
AcDbPlaceHolder
  3
AutoCAD 2000
 90
        0
280
     0
281
     0
  0
CLASS
  1
LAYOUT
  2
AcDbLayout
  3
AutoCAD 2000
 90
        0
280
     0
281
     0
  0
CLASS
  1
DICTIONARYVAR
  2
AcDbDictionaryVar
  3
AutoCAD 2000
 90
        0
280
     0
281
     0
  0
CLASS
  1
LONG_TRANSACTION
  2
AcDbLongTransaction
  3
AutoCAD 2000
 90
        0
280
     0
281
     0
  0
CLASS
  1
LWPOLYLINE
  2
AcDbPolyline
  3
AutoCAD 2000
 90
        0
280
     0
281
     1
  0
CLASS
  1
HATCH
  2
AcDbHatch
  3
AutoCAD 2000
 90
        0
280
     0
281
     1
  0
CLASS
  1
XRECORD
  2
AcDbXrecord
  3
AutoCAD 2000
 90
        0
280
     0
281
     0
  0
CLASS
  1
LONG_TRANSACTION
  2
AcDbLongTransaction
  3
AutoCAD 2000
 90
        0
280
     0
281
     0
  0
CLASS
  1
LWPOLYLINE
  2
AcDbPolyline
  3
AutoCAD 2000
 90
        0
280
     0
281
     1
  0
CLASS
  1
HATCH
  2
AcDbHatch
  3
AutoCAD 2000
 90
        0
280
     0
281
     1
  0
CLASS
  1
XRECORD
  2
AcDbXrecord
  3
AutoCAD 2000
 90
        0
280
     0
281
     0
  0
CLASS
  1
LONG_TRANSACTION
  2
AcDbLongTransaction
  3
AutoCAD 2000
 90
        0
280
     0
281
     0
  0
CLASS
  1
LWPOLYLINE
  2
AcDbPolyline
  3
AutoCAD 2000
 90
        0
280
     0
281
     1
  0
CLASS
  1
HATCH
  2
AcDbHatch
  3
AutoCAD 2000
 90
        0
280
     0
281
     1
  0
CLASS
  1
XRECORD
  2
AcDbXrecord
  3
AutoCAD 2000
 90
        0
280
     0
281
     0
  0
CLASS
  1
LONG_TRANSACTION
  2
AcDbLongTransaction
  3
AutoCAD 2000
 90
        0
280
     0
281
     0
  0
CLASS
  1
LWPOLYLINE
  2
AcDbPolyline
  3
AutoCAD 2000
 90
        0
280
     0
281
     1
  0
CLASS
  1
HATCH
  2
AcDbHatch
  3
AutoCAD 2000
 90
        0
280
     0
281
     1
  0
CLASS
  1
XRECORD
  2
AcDbXrecord
  3
AutoCAD 2000
 90
        0
280
     0
281
     0
  0
CLASS
  1
LONG_TRANSACTION
  2
AcDbLongTransaction
  3
AutoCAD 2000
 90
        0
280
     0
281
     0
  0
CLASS
  1
LWPOLYLINE
  2
AcDbPolyline
  3
AutoCAD 2000
 90
        0
280
     0
281
     1
  0
CLASS
  1
HATCH
  2
AcDbHatch
  3
AutoCAD 2000
 90
        0
280
     0
281
     1
  0
CLASS
  1
XRECORD
  2
AcDbXrecord
  3
AutoCAD 2000
 90
        0
280
     0
281
     0
  0
ENDSEC
  0
SECTION
  2
TABLES
  0
TABLE
  2
VPORT
  5
8
330
0
100
AcDbSymbolTable
 70
     2
  0
VPORT
  5
3A5
330
8
100
AcDbSymbolTableRecord
100
AcDbViewportTableRecord
  2
*ACTIVE
 70
     0
 10
0.0
 20
0.0
 11
1.0
 21
1.0
 12
7.286621181392059
 22
16.24630745482434
 13
0.0
 23
0.0
 14
0.5740882589684922
 24
0.5740882589684922
 15
0.5
 25
0.5
 16
0.0
 26
0.0
 36
1.0
 17
0.0
 27
0.0
 37
0.0
 40
17.16433616777261
 41
1.570528967254408
 42
50.0
 43
0.0
 44
0.0
 50
0.0
 51
0.0
 71
     0
 72
   100
 73
     1
 74
     0
 75
     0
 76
     0
 77
     0
 78
     0
  0
ENDTAB
  0
TABLE
  2
LTYPE
  5
5
330
0
100
AcDbSymbolTable
 70
     1
  0
LTYPE
  5
13
330
5
100
AcDbSymbolTableRecord
100
AcDbLinetypeTableRecord
  2
BYBLOCK
 70
     0
  3

 72
    65
 73
     0
 40
0.0
  0
LTYPE
  5
14
330
5
100
AcDbSymbolTableRecord
100
AcDbLinetypeTableRecord
  2
BYLAYER
 70
     0
  3

 72
    65
 73
     0
 40
0.0
  0
LTYPE
  5
15
330
5
100
AcDbSymbolTableRecord
100
AcDbLinetypeTableRecord
  2
CONTINUOUS
 70
     0
  3
Solid line
 72
    65
 73
     0
 40
0.0
  0
ENDTAB
  0
TABLE
  2
LAYER
  5
2
330
0
100
AcDbSymbolTable
 70
     4
  0
LAYER
  5
10
330
2
100
AcDbSymbolTableRecord
100
AcDbLayerTableRecord
  2
0
 70
     0
 62
     7
  6
CONTINUOUS
  0
LAYER
  5
13B
330
2
100
AcDbSymbolTableRecord
100
AcDbLayerTableRecord
  2
ADP1DETAIL
 70
     0
 62
     7
  6
CONTINUOUS
  0
LAYER
  5
13D
330
2
100
AcDbSymbolTableRecord
100
AcDbLayerTableRecord
  2
DEFPOINTS
 70
     0
 62
     7
  6
CONTINUOUS
  0
LAYER
  5
140
330
2
100
AcDbSymbolTableRecord
100
AcDbLayerTableRecord
  2
ADPDIM
 70
     0
 62
     3
  6
CONTINUOUS
  0
ENDTAB
  0
TABLE
  2
STYLE
  5
3
330
0
100
AcDbSymbolTable
 70
     2
  0
STYLE
  5
11
330
3
100
AcDbSymbolTableRecord
100
AcDbTextStyleTableRecord
  2
STANDARD
 70
     0
 40
0.0
 41
1.0
 50
0.0
 71
     0
 42
0.2
  3
txt
  4

  0
STYLE
  5
212
330
3
100
AcDbSymbolTableRecord
100
AcDbTextStyleTableRecord
  2
ARIAL_WIDE
 70
     0
 40
0.0
 41
1.25
 50
0.0
 71
     0
 42
0.2
  3
ARIAL.TTF
  4

1001
ACAD
1000
Arial
1071
       34
  0
ENDTAB
  0
TABLE
  2
VIEW
  5
6
330
0
100
AcDbSymbolTable
 70
     0
  0
ENDTAB
  0
TABLE
  2
UCS
  5
7
330
0
100
AcDbSymbolTable
 70
     0
  0
ENDTAB
  0
TABLE
  2
APPID
  5
9
330
0
100
AcDbSymbolTable
 70
     1
  0
APPID
  5
12
330
9
100
AcDbSymbolTableRecord
100
AcDbRegAppTableRecord
  2
ACAD
 70
     0
  0
ENDTAB
  0
TABLE
  2
DIMSTYLE
  5
A
330
0
100
AcDbSymbolTable
 70
     1
  0
DIMSTYLE
105
210
330
A
100
AcDbSymbolTableRecord
100
AcDbDimStyleTableRecord
  2
STANDARD
 70
     0
  3

  4

  5

  6

  7

 40
1.0
 41
0.18
 42
0.0625
 43
0.38
 44
0.18
 45
0.0
 46
0.0
 47
0.0
 48
0.0
140
0.18
141
0.09
142
0.0
143
25.4
144
1.0
145
0.0
146
1.0
147
0.09
 71
     0
 72
     0
 73
     1
 74
     1
 75
     0
 76
     0
 77
     0
 78
     0
170
     0
171
     2
172
     0
173
     0
174
     0
175
     0
176
     0
177
     0
178
     0
270
     2
271
     4
272
     4
273
     2
274
     2
340
11
275
     0
280
     0
281
     0
282
     0
283
     1
284
     0
285
     0
286
     0
287
     3
288
     0
  0
ENDTAB
  0
TABLE
  2
BLOCK_RECORD
  5
1
330
0
100
AcDbSymbolTable
 70
     5
  0
BLOCK_RECORD
  5
1E
102
{ACAD_XDICTIONARY
360
24F
102
}
330
1
100
AcDbSymbolTableRecord
100
AcDbBlockTableRecord
  2
*MODEL_SPACE
  0
BLOCK_RECORD
  5
1A
102
{ACAD_XDICTIONARY
360
251
102
}
330
1
100
AcDbSymbolTableRecord
100
AcDbBlockTableRecord
  2
*PAPER_SPACE
  0
BLOCK_RECORD
  5
133
330
1
100
AcDbSymbolTableRecord
100
AcDbBlockTableRecord
  2
*D0
  0
BLOCK_RECORD
  5
134
330
1
100
AcDbSymbolTableRecord
100
AcDbBlockTableRecord
  2
*D1
  0
BLOCK_RECORD
  5
135
330
1
100
AcDbSymbolTableRecord
100
AcDbBlockTableRecord
  2
*D2
  0
BLOCK_RECORD
  5
136
330
1
100
AcDbSymbolTableRecord
100
AcDbBlockTableRecord
  2
*D3
  0
BLOCK_RECORD
  5
137
330
1
100
AcDbSymbolTableRecord
100
AcDbBlockTableRecord
  2
*D4
  0
ENDTAB
  0
ENDSEC
  0
SECTION
  2
BLOCKS
  0
BLOCK
  5
143
330
1E
100
AcDbEntity
  8
0
100
AcDbBlockBegin
  2
*MODEL_SPACE
 70
     0
 10
0.0
 20
0.0
 30
0.0
  3
*MODEL_SPACE
  1

  0
ENDBLK
  5
144
330
1E
100
AcDbEntity
  8
0
100
AcDbBlockEnd
  0
BLOCK
  5
141
330
1A
100
AcDbEntity
 67
     1
  8
0
100
AcDbBlockBegin
  2
*PAPER_SPACE
 70
     0
 10
0.0
 20
0.0
 30
0.0
  3
*PAPER_SPACE
  1

  0
ENDBLK
  5
142
330
1A
100
AcDbEntity
 67
     1
  8
0
100
AcDbBlockEnd
  0
BLOCK
  5
146
330
133
100
AcDbEntity
  8
0
100
AcDbBlockBegin
  2
*D0
 70
     1
 10
0.0
 20
0.0
 30
0.0
  3
*D0
  1

  0
LINE
  5
147
330
133
100
AcDbEntity
  8
0
  6
BYBLOCK
 62
     0
100
AcDbLine
 10
5.453610077193865
 20
23.24292424939017
 30
0.0
 11
4.613517697819608
 21
23.24292424939017
 31
0.0
  0
LINE
  5
148
330
133
100
AcDbEntity
  8
0
  6
BYBLOCK
 62
     0
100
AcDbLine
 10
5.391110077193865
 20
20.05542424939017
 30
0.0
 11
4.613517697819607
 21
20.05542424939017
 31
0.0
  0
LINE
  5
149
330
133
100
AcDbEntity
  8
0
  6
BYBLOCK
 62
     0
100
AcDbLine
 10
4.793517697819607
 20
23.24292424939017
 30
0.0
 11
4.793517697819607
 21
22.10750758272351
 31
0.0
  0
LINE
  5
14A
330
133
100
AcDbEntity
  8
0
  6
BYBLOCK
 62
     0
100
AcDbLine
 10
4.793517697819607
 20
20.05542424939017
 30
0.0
 11
4.793517697819607
 21
21.19084091605684
 31
0.0
  0
LINE
  5
14B
330
133
100
AcDbEntity
  8
0
  6
BYBLOCK
 62
     0
100
AcDbLine
 10
4.918517697819607
 20
23.11792424939017
 30
0.0
 11
4.668517697819607
 21
23.36792424939017
 31
0.0
  0
LINE
  5
14C
330
133
100
AcDbEntity
  8
0
  6
BYBLOCK
 62
     0
100
AcDbLine
 10
4.918517697819607
 20
19.93042424939017
 30
0.0
 11
4.668517697819607
 21
20.18042424939018
 31
0.0
  0
TEXT
  5
14D
330
133
100
AcDbEntity
  8
0
  6
BYBLOCK
 62
     0
100
AcDbText
 10
4.856017697819607
 20
21.31584091605684
 30
0.0
 40
0.125
  1
3 3/16
 50
90.0
 72
     1
 11
4.793517697819607
 21
21.64917424939017
 31
0.0
100
AcDbText
 73
     2
  0
POINT
  5
14F
330
133
100
AcDbEntity
  8
DEFPOINTS
  6
BYBLOCK
 62
     0
100
AcDbPoint
 10
5.516110077193865
 20
23.24292424939017
 30
0.0
  0
POINT
  5
150
330
133
100
AcDbEntity
  8
DEFPOINTS
  6
BYBLOCK
 62
     0
100
AcDbPoint
 10
5.453610077193865
 20
20.05542424939017
 30
0.0
  0
POINT
  5
151
330
133
100
AcDbEntity
  8
DEFPOINTS
  6
BYBLOCK
 62
     0
100
AcDbPoint
 10
4.793517697819607
 20
20.05542424939017
 30
0.0
  0
ENDBLK
  5
152
330
133
100
AcDbEntity
  8
0
100
AcDbBlockEnd
  0
BLOCK
  5
153
330
134
100
AcDbEntity
  8
0
100
AcDbBlockBegin
  2
*D1
 70
     1
 10
0.0
 20
0.0
 30
0.0
  3
*D1
  1

  0
LINE
  5
154
330
134
100
AcDbEntity
  8
0
  6
BYBLOCK
 62
     0
100
AcDbLine
 10
5.828610077193865
 20
10.84420888867427
 30
0.0
 11
5.828610077193865
 21
9.872011977064119
 31
0.0
  0
LINE
  5
155
330
134
100
AcDbEntity
  8
0
  6
BYBLOCK
 62
     0
100
AcDbLine
 10
8.391110077193864
 20
10.84420888867427
 30
0.0
 11
8.391110077193864
 21
9.872011977064119
 31
0.0
  0
LINE
  5
156
330
134
100
AcDbEntity
  8
0
  6
BYBLOCK
 62
     0
100
AcDbLine
 10
5.828610077193865
 20
10.05201197706411
 30
0.0
 11
6.651526743860531
 21
10.05201197706411
 31
0.0
  0
LINE
  5
157
330
134
100
AcDbEntity
  8
0
  6
BYBLOCK
 62
     0
100
AcDbLine
 10
8.391110077193864
 20
10.05201197706411
 30
0.0
 11
7.568193410527197
 21
10.05201197706411
 31
0.0
  0
LINE
  5
158
330
134
100
AcDbEntity
  8
0
  6
BYBLOCK
 62
     0
100
AcDbLine
 10
5.703610077193865
 20
9.927011977064118
 30
0.0
 11
5.953610077193865
 21
10.17701197706411
 31
0.0
  0
LINE
  5
159
330
134
100
AcDbEntity
  8
0
  6
BYBLOCK
 62
     0
100
AcDbLine
 10
8.266110077193864
 20
9.927011977064118
 30
0.0
 11
8.516110077193864
 21
10.17701197706411
 31
0.0
  0
TEXT
  5
15A
330
134
100
AcDbEntity
  8
0
  6
BYBLOCK
 62
     0
100
AcDbText
 10
6.776526743860531
 20
9.989511977064118
 30
0.0
 40
0.125
  1
2 9/16
 72
     1
 11
7.109860077193864
 21
10.05201197706411
 31
0.0
100
AcDbText
 73
     2
  0
POINT
  5
15B
330
134
100
AcDbEntity
  8
DEFPOINTS
  6
BYBLOCK
 62
     0
100
AcDbPoint
 10
5.828610077193865
 20
10.90670888867427
 30
0.0
  0
POINT
  5
15C
330
134
100
AcDbEntity
  8
DEFPOINTS
  6
BYBLOCK
 62
     0
100
AcDbPoint
 10
8.391110077193864
 20
10.90670888867427
 30
0.0
  0
POINT
  5
15D
330
134
100
AcDbEntity
  8
DEFPOINTS
  6
BYBLOCK
 62
     0
100
AcDbPoint
 10
8.391110077193864
 20
10.05201197706411
 30
0.0
  0
ENDBLK
  5
15E
330
134
100
AcDbEntity
  8
0
100
AcDbBlockEnd
  0
BLOCK
  5
15F
330
135
100
AcDbEntity
  8
0
100
AcDbBlockBegin
  2
*D2
 70
     1
 10
0.0
 20
0.0
 30
0.0
  3
*D2
  1

  0
LINE
  5
160
330
135
100
AcDbEntity
  8
0
  6
BYBLOCK
 62
     0
100
AcDbLine
 10
6.453360077193868
 20
16.75578276906657
 30
0.0
 11
6.453360077193868
 21
16.43363962406592
 31
0.0
  0
LINE
  5
161
330
135
100
AcDbEntity
  8
0
  6
BYBLOCK
 62
     0
100
AcDbLine
 10
7.766360077193863
 20
16.75578276906657
 30
0.0
 11
7.766360077193863
 21
16.43363962406592
 31
0.0
  0
LINE
  5
162
330
135
100
AcDbEntity
  8
0
  6
BYBLOCK
 62
     0
100
AcDbLine
 10
6.453360077193868
 20
16.61363962406592
 30
0.0
 11
6.203360077193868
 21
16.61363962406592
 31
0.0
  0
LINE
  5
163
330
135
100
AcDbEntity
  8
0
  6
BYBLOCK
 62
     0
100
AcDbLine
 10
7.766360077193863
 20
16.61363962406592
 30
0.0
 11
8.016360077193862
 21
16.61363962406592
 31
0.0
  0
LINE
  5
164
330
135
100
AcDbEntity
  8
0
  6
BYBLOCK
 62
     0
100
AcDbLine
 10
6.328360077193868
 20
16.48863962406592
 30
0.0
 11
6.578360077193868
 21
16.73863962406592
 31
0.0
  0
LINE
  5
165
330
135
100
AcDbEntity
  8
0
  6
BYBLOCK
 62
     0
100
AcDbLine
 10
7.641360077193863
 20
16.48863962406592
 30
0.0
 11
7.891360077193863
 21
16.73863962406592
 31
0.0
  0
TEXT
  5
166
330
135
100
AcDbEntity
  8
0
  6
BYBLOCK
 62
     0
100
AcDbText
 10
8.141360077193862
 20
16.55113962406592
 30
0.0
 40
0.125
  1
1 5/16
 72
     1
 11
8.453860077193862
 21
16.61363962406592
 31
0.0
100
AcDbText
 73
     2
  0
POINT
  5
167
330
135
100
AcDbEntity
  8
DEFPOINTS
  6
BYBLOCK
 62
     0
100
AcDbPoint
 10
6.453360077193868
 20
16.81828276906657
 30
0.0
  0
POINT
  5
168
330
135
100
AcDbEntity
  8
DEFPOINTS
  6
BYBLOCK
 62
     0
100
AcDbPoint
 10
7.766360077193863
 20
16.81828276906657
 30
0.0
  0
POINT
  5
169
330
135
100
AcDbEntity
  8
DEFPOINTS
  6
BYBLOCK
 62
     0
100
AcDbPoint
 10
7.766360077193863
 20
16.61363962406592
 30
0.0
  0
ENDBLK
  5
16A
330
135
100
AcDbEntity
  8
0
100
AcDbBlockEnd
  0
BLOCK
  5
16B
330
136
100
AcDbEntity
  8
0
100
AcDbBlockBegin
  2
*D3
 70
     1
 10
0.0
 20
0.0
 30
0.0
  3
*D3
  1

  0
LINE
  5
16C
330
136
100
AcDbEntity
  8
0
  6
BYBLOCK
 62
     0
100
AcDbLine
 10
6.148432546332249
 20
17.25946745858875
 30
0.0
 11
6.148432546332249
 21
18.12018300294223
 31
0.0
  0
LINE
  5
16D
330
136
100
AcDbEntity
  8
0
  6
BYBLOCK
 62
     0
100
AcDbLine
 10
8.085932546332248
 20
17.25946745858875
 30
0.0
 11
8.085932546332248
 21
18.12018300294223
 31
0.0
  0
LINE
  5
16E
330
136
100
AcDbEntity
  8
0
  6
BYBLOCK
 62
     0
100
AcDbLine
 10
6.148432546332249
 20
17.94018300294223
 30
0.0
 11
6.638015879665582
 21
17.94018300294223
 31
0.0
  0
LINE
  5
16F
330
136
100
AcDbEntity
  8
0
  6
BYBLOCK
 62
     0
100
AcDbLine
 10
8.085932546332248
 20
17.94018300294223
 30
0.0
 11
7.596349212998916
 21
17.94018300294223
 31
0.0
  0
LINE
  5
170
330
136
100
AcDbEntity
  8
0
  6
BYBLOCK
 62
     0
100
AcDbLine
 10
6.023432546332249
 20
17.81518300294223
 30
0.0
 11
6.273432546332249
 21
18.06518300294223
 31
0.0
  0
LINE
  5
171
330
136
100
AcDbEntity
  8
0
  6
BYBLOCK
 62
     0
100
AcDbLine
 10
7.960932546332248
 20
17.81518300294223
 30
0.0
 11
8.210932546332248
 21
18.06518300294223
 31
0.0
  0
TEXT
  5
172
330
136
100
AcDbEntity
  8
0
  6
BYBLOCK
 62
     0
100
AcDbText
 10
6.763015879665582
 20
17.87768300294223
 30
0.0
 40
0.125
  1
1 15/16
 72
     1
 11
7.117182546332249
 21
17.94018300294223
 31
0.0
100
AcDbText
 73
     2
  0
POINT
  5
173
330
136
100
AcDbEntity
  8
DEFPOINTS
  6
BYBLOCK
 62
     0
100
AcDbPoint
 10
6.148432546332249
 20
17.19696745858875
 30
0.0
  0
POINT
  5
174
330
136
100
AcDbEntity
  8
DEFPOINTS
  6
BYBLOCK
 62
     0
100
AcDbPoint
 10
8.085932546332248
 20
17.19696745858875
 30
0.0
  0
POINT
  5
175
330
136
100
AcDbEntity
  8
DEFPOINTS
  6
BYBLOCK
 62
     0
100
AcDbPoint
 10
8.085932546332248
 20
17.94018300294223
 30
0.0
  0
ENDBLK
  5
176
330
136
100
AcDbEntity
  8
0
100
AcDbBlockEnd
  0
BLOCK
  5
177
330
137
100
AcDbEntity
  8
0
100
AcDbBlockBegin
  2
*D4
 70
     1
 10
0.0
 20
0.0
 30
0.0
  3
*D4
  1

  0
LINE
  5
178
330
137
100
AcDbEntity
  8
0
  6
BYBLOCK
 62
     0
100
AcDbLine
 10
6.078610077193865
 20
18.55542424939017
 30
0.0
 11
4.613517697819607
 21
18.55542424939017
 31
0.0
  0
LINE
  5
179
330
137
100
AcDbEntity
  8
0
  6
BYBLOCK
 62
     0
100
AcDbLine
 10
5.453610077193865
 20
20.05542424939017
 30
0.0
 11
4.613517697819607
 21
20.05542424939017
 31
0.0
  0
LINE
  5
17A
330
137
100
AcDbEntity
  8
0
  6
BYBLOCK
 62
     0
100
AcDbLine
 10
4.793517697819607
 20
18.55542424939017
 30
0.0
 11
4.793517697819607
 21
18.93042424939017
 31
0.0
  0
LINE
  5
17B
330
137
100
AcDbEntity
  8
0
  6
BYBLOCK
 62
     0
100
AcDbLine
 10
4.793517697819607
 20
20.05542424939017
 30
0.0
 11
4.793517697819607
 21
19.68042424939017
 31
0.0
  0
LINE
  5
17C
330
137
100
AcDbEntity
  8
0
  6
BYBLOCK
 62
     0
100
AcDbLine
 10
4.918517697819607
 20
18.43042424939017
 30
0.0
 11
4.668517697819607
 21
18.68042424939017
 31
0.0
  0
LINE
  5
17D
330
137
100
AcDbEntity
  8
0
  6
BYBLOCK
 62
     0
100
AcDbLine
 10
4.918517697819607
 20
19.93042424939017
 30
0.0
 11
4.668517697819607
 21
20.18042424939018
 31
0.0
  0
TEXT
  5
17E
330
137
100
AcDbEntity
  8
0
  6
BYBLOCK
 62
     0
100
AcDbText
 10
4.856017697819607
 20
19.05542424939017
 30
0.0
 40
0.125
  1
1 1/2
 50
90.0
 72
     1
 11
4.793517697819607
 21
19.30542424939017
 31
0.0
100
AcDbText
 73
     2
  0
POINT
  5
17F
330
137
100
AcDbEntity
  8
DEFPOINTS
  6
BYBLOCK
 62
     0
100
AcDbPoint
 10
6.141110077193865
 20
18.55542424939017
 30
0.0
  0
POINT
  5
180
330
137
100
AcDbEntity
  8
DEFPOINTS
  6
BYBLOCK
 62
     0
100
AcDbPoint
 10
5.516110077193865
 20
20.05542424939017
 30
0.0
  0
POINT
  5
181
330
137
100
AcDbEntity
  8
DEFPOINTS
  6
BYBLOCK
 62
     0
100
AcDbPoint
 10
4.793517697819607
 20
20.05542424939017
 30
0.0
  0
ENDBLK
  5
182
330
137
100
AcDbEntity
  8
0
100
AcDbBlockEnd
  0
ENDSEC
  0
SECTION
  2
ENTITIES
  0
DIMENSION
  5
183
330
1E
100
AcDbEntity
  8
ADPDIM
100
AcDbDimension
  2
*D3
 10
8.085932546332248
 20
17.94018300294223
 30
0.0
 11
7.117182546332249
 21
17.94018300294223
 31
0.0
 70
   128
100
AcDbAlignedDimension
 13
6.148432546332249
 23
17.19696745858875
 33
0.0
 14
8.085932546332248
 24
17.19696745858875
 34
0.0
100
AcDbRotatedDimension
  0
DIMENSION
  5
184
330
1E
100
AcDbEntity
  8
ADPDIM
100
AcDbDimension
  2
*D2
 10
7.766360077193863
 20
16.61363962406592
 30
0.0
 11
8.453860077193862
 21
16.61363962406592
 31
0.0
100
AcDbAlignedDimension
 13
6.453360077193868
 23
16.81828276906657
 33
0.0
 14
7.766360077193863
 24
16.81828276906657
 34
0.0
100
AcDbRotatedDimension
  0
DIMENSION
  5
185
330
1E
100
AcDbEntity
  8
ADPDIM
100
AcDbDimension
  2
*D1
 10
8.391110077193864
 20
10.05201197706411
 30
0.0
 11
7.109860077193864
 21
10.05201197706411
 31
0.0
100
AcDbAlignedDimension
 13
5.828610077193865
 23
10.90670888867427
 33
0.0
 14
8.391110077193864
 24
10.90670888867427
 34
0.0
100
AcDbRotatedDimension
  0
ARC
  5
186
330
1E
100
AcDbEntity
  8
ADP1DETAIL
100
AcDbCircle
 10
7.108701372129343
 20
16.78967864936562
 30
0.0
 40
0.7500000000000019
100
AcDbArc
 50
65.35881699432443
 51
89.91148141825666
  0
LINE
  5
187
330
1E
100
AcDbEntity
  8
ADP1DETAIL
100
AcDbLine
 10
8.391110077193868
 20
13.46920888867427
 30
0.0
 11
5.828610077193865
 21
13.46920888867427
 31
0.0
  0
LINE
  5
188
330
1E
100
AcDbEntity
  8
ADP1DETAIL
100
AcDbLine
 10
5.516110077193865
 20
10.59420888867427
 30
0.0
 11
8.703610077193868
 21
10.59420888867427
 31
0.0
  0
LINE
  5
189
330
1E
100
AcDbEntity
  8
ADP1DETAIL
100
AcDbLine
 10
5.672901822786749
 20
10.75100063426715
 30
0.0
 11
8.546818331600981
 21
10.75100063426715
 31
0.0
  0
LINE
  5
18A
330
1E
100
AcDbEntity
  8
ADP1DETAIL
100
AcDbLine
 10
6.141110077193865
 20
10.90670888867427
 30
0.0
 11
8.391110077193868
 21
10.90670888867427
 31
0.0
  0
LINE
  5
18B
330
1E
100
AcDbEntity
  8
ADP1DETAIL
100
AcDbLine
 10
5.685701760105524
 20
16.80328276906656
 30
0.0
 11
8.527906716623089
 21
16.80328276906656
 31
0.0
  0
LINE
  5
18C
330
1E
100
AcDbEntity
  8
ADP1DETAIL
100
AcDbLine
 10
8.078610077193864
 20
15.28170888867427
 30
0.0
 11
6.141110077193865
 21
15.28170888867427
 31
0.0
  0
LINE
  5
18D
330
1E
100
AcDbEntity
  8
ADP1DETAIL
100
AcDbLine
 10
7.984860077193865
 20
17.53967775430013
 30
0.0
 11
6.234860077193865
 21
17.53967775430014
 31
0.0
  0
LINE
  5
18E
330
1E
100
AcDbEntity
  8
ADP1DETAIL
100
AcDbLine
 10
7.640860077193864
 20
17.17499743519484
 30
0.0
 11
7.108701372129346
 21
17.17499743519484
 31
0.0
  0
LINE
  5
18F
330
1E
100
AcDbEntity
  8
ADP1DETAIL
100
AcDbLine
 10
8.078610077193864
 20
18.55542424939017
 30
0.0
 11
6.141110077193865
 21
18.55542424939017
 31
0.0
  0
LINE
  5
190
330
1E
100
AcDbEntity
  8
ADP1DETAIL
100
AcDbLine
 10
7.984860077193869
 20
20.77417424939017
 30
0.0
 11
6.234860077193869
 21
20.77417424939017
 31
0.0
  0
LINE
  5
191
330
1E
100
AcDbEntity
  8
ADP1DETAIL
100
AcDbLine
 10
5.516110077193865
 20
23.24292424939017
 30
0.0
 11
8.703610077193868
 21
23.24292424939017
 31
0.0
  0
LINE
  5
192
330
1E
100
AcDbEntity
  8
ADP1DETAIL
100
AcDbLine
 10
5.766505557719274
 20
22.99252876886477
 30
0.0
 11
8.453214596668459
 21
22.99252876886477
 31
0.0
  0
LINE
  5
193
330
1E
100
AcDbEntity
  8
ADP1DETAIL
100
AcDbLine
 10
6.234860077193869
 20
22.52417424939018
 30
0.0
 11
7.984860077193869
 21
22.52417424939018
 31
0.0
  0
LINE
  5
194
330
1E
100
AcDbEntity
  8
ADP1DETAIL
100
AcDbLine
 10
6.578860077193867
 20
17.00199743519484
 30
0.0
 11
6.578860077193867
 21
17.17499743519484
 31
0.0
  0
ARC
  5
195
330
1E
100
AcDbEntity
  8
ADP1DETAIL
100
AcDbCircle
 10
6.290396830859823
 20
17.13229797646176
 30
0.0
 40
0.1559999999999998
100
AcDbArc
 50
80.65678061822479
 51
230.3615138867189
  0
ARC
  5
196
330
1E
100
AcDbEntity
  8
ADP1DETAIL
100
AcDbCircle
 10
5.65238980245006
 20
17.13229797646176
 30
0.0
 40
0.1559999999999998
100
AcDbArc
 50
80.65678061822479
 51
230.3615138867189
  0
LINE
  5
197
330
1E
100
AcDbEntity
  8
ADP1DETAIL
100
AcDbLine
 10
5.516110077193865
 20
13.78170888867427
 30
0.0
 11
5.516110077193865
 21
10.59420888867427
 31
0.0
  0
LINE
  5
198
330
1E
100
AcDbEntity
  8
ADP1DETAIL
100
AcDbLine
 10
5.672901822786752
 20
13.62491714308138
 30
0.0
 11
5.672901822786749
 21
10.75100063426715
 31
0.0
  0
LINE
  5
199
330
1E
100
AcDbEntity
  8
ADP1DETAIL
100
AcDbLine
 10
5.828610077193865
 20
13.46920888867427
 30
0.0
 11
5.828610077193865
 21
10.90670888867427
 31
0.0
  0
LINE
  5
19A
330
1E
100
AcDbEntity
  8
ADP1DETAIL
100
AcDbLine
 10
5.953610077193865
 20
13.15670888867427
 30
0.0
 11
5.953610077193865
 21
11.21920888867427
 31
0.0
  0
LWPOLYLINE
  5
19B
330
1E
100
AcDbEntity
  8
ADP1DETAIL
100
AcDbPolyline
 90
        4
 70
     0
 43
0.0
 10
5.953610077193865
 20
11.21920888867427
 10
6.141110077193865
 20
11.21920888867427
 10
6.141110077193865
 20
10.90670888867427
 10
5.953610077193865
 20
10.90670888867427
  0
LWPOLYLINE
  5
1A1
330
1E
100
AcDbEntity
  8
ADP1DETAIL
100
AcDbPolyline
 90
        2
 70
     0
 43
0.0
 10
6.141110077193865
 20
10.90670888867427
 10
5.828610077193865
 20
10.90670888867427
  0
LINE
  5
1A5
330
1E
100
AcDbEntity
  8
ADP1DETAIL
100
AcDbLine
 10
6.141110077193865
 20
15.28170888867427
 30
0.0
 11
6.141110077193865
 21
13.78170888867427
 31
0.0
  0
LINE
  5
1A6
330
1E
100
AcDbEntity
  8
ADP1DETAIL
100
AcDbLine
 10
6.297901822786749
 20
15.28170888867427
 30
0.0
 11
6.297901822786749
 21
13.62491714308138
 31
0.0
  0
LINE
  5
1A7
330
1E
100
AcDbEntity
  8
ADP1DETAIL
100
AcDbLine
 10
6.453610077193865
 20
15.28170888867427
 30
0.0
 11
6.453610077193869
 21
13.46920888867427
 31
0.0
  0
LINE
  5
1A8
330
1E
100
AcDbEntity
  8
ADP1DETAIL
100
AcDbLine
 10
6.609318331600982
 20
15.28170888867427
 30
0.0
 11
6.609318331600982
 21
13.46920888867427
 31
0.0
  0
LINE
  5
1A9
330
1E
100
AcDbEntity
  8
ADP1DETAIL
100
AcDbLine
 10
6.297901822786749
 20
13.62491714308138
 30
0.0
 11
5.672901822786752
 21
13.62491714308138
 31
0.0
  0
LWPOLYLINE
  5
1AA
330
1E
100
AcDbEntity
  8
ADP1DETAIL
100
AcDbPolyline
 90
        2
 70
     0
 43
0.0
 10
5.953610077193865
 20
13.46920888867427
 10
6.266110077193865
 20
13.46920888867427
  0
LINE
  5
1AE
330
1E
100
AcDbEntity
  8
ADP1DETAIL
100
AcDbLine
 10
6.141110077193865
 20
13.78170888867427
 30
0.0
 11
5.516110077193865
 21
13.78170888867427
 31
0.0
  0
LWPOLYLINE
  5
1AF
330
1E
100
AcDbEntity
  8
ADP1DETAIL
100
AcDbPolyline
 90
        4
 70
     0
 43
0.0
 10
5.953610077193865
 20
13.46920888867427
 10
6.141110077193865
 20
13.46920888867427
 10
6.141110077193865
 20
13.15670888867427
 10
5.953610077193865
 20
13.15670888867427
  0
ARC
  5
1B5
330
1E
100
AcDbEntity
  8
ADP1DETAIL
100
AcDbCircle
 10
5.466117535445854
 20
16.81032166339527
 30
0.0
 40
0.2196970135271751
100
AcDbArc
 50
358.1639806528343
 51
66.74166570965842
  0
ARC
  5
1B6
330
1E
100
AcDbEntity
  8
ADP1DETAIL
100
AcDbCircle
 10
6.563860077193866
 20
17.00199743519484
 30
0.0
 40
0.015
100
AcDbArc
 50
270.0
 51
0.0
  0
ARC
  5
1B7
330
1E
100
AcDbEntity
  8
ADP1DETAIL
100
AcDbCircle
 10
6.104124563855614
 20
16.81032166339527
 30
0.0
 40
0.2196970135271751
100
AcDbArc
 50
358.1639806528343
 51
66.74166570965842
  0
LINE
  5
1B8
330
1E
100
AcDbEntity
  8
ADP1DETAIL
100
AcDbLine
 10
6.323708788515287
 20
16.80328276906656
 30
0.0
 11
6.438360077193867
 21
16.80328276906656
 31
0.0
  0
ARC
  5
1B9
330
1E
100
AcDbEntity
  8
ADP1DETAIL
100
AcDbCircle
 10
6.438360077193867
 20
16.81828276906657
 30
0.0
 40
0.015
100
AcDbArc
 50
270.0
 51
0.0000000000002926
  0
LINE
  5
1BA
330
1E
100
AcDbEntity
  8
ADP1DETAIL
100
AcDbLine
 10
6.453360077193864
 20
16.81828276906657
 30
0.0
 11
6.453360077193864
 21
16.97199743519484
 31
0.0
  0
ARC
  5
1BB
330
1E
100
AcDbEntity
  8
ADP1DETAIL
100
AcDbCircle
 10
6.468360077193865
 20
16.97199743519484
 30
0.0
 40
0.015
100
AcDbArc
 50
90.0
 51
180.0
  0
LINE
  5
1BC
330
1E
100
AcDbEntity
  8
ADP1DETAIL
100
AcDbLine
 10
6.468360077193865
 20
16.98699743519484
 30
0.0
 11
6.563860077193866
 21
16.98699743519484
 31
0.0
  0
DIMENSION
  5
1BD
330
1E
100
AcDbEntity
  8
ADPDIM
100
AcDbDimension
  2
*D0
 10
4.793517697819607
 20
20.05542424939017
 30
0.0
 11
4.793517697819607
 21
21.64917424939017
 31
0.0
100
AcDbAlignedDimension
 13
5.516110077193865
 23
23.24292424939017
 33
0.0
 14
5.453610077193865
 24
20.05542424939017
 34
0.0
 50
90.0
100
AcDbRotatedDimension
  0
LINE
  5
1BE
330
1E
100
AcDbEntity
  8
ADP1DETAIL
100
AcDbLine
 10
6.234860077193869
 20
20.77417424939017
 30
0.0
 11
6.234860077193869
 21
22.52417424939018
 31
0.0
  0
LINE
  5
1BF
330
1E
100
AcDbEntity
  8
ADP1DETAIL
100
AcDbLine
 10
5.766505557719278
 20
20.30581972991558
 30
0.0
 11
5.766505557719274
 21
22.99252876886477
 31
0.0
  0
LINE
  5
1C0
330
1E
100
AcDbEntity
  8
ADP1DETAIL
100
AcDbLine
 10
5.516110077193865
 20
20.05542424939017
 30
0.0
 11
5.516110077193865
 21
23.24292424939017
 31
0.0
  0
DIMENSION
  5
1C1
330
1E
100
AcDbEntity
  8
ADPDIM
100
AcDbDimension
  2
*D4
 10
4.793517697819607
 20
20.05542424939017
 30
0.0
 11
4.793517697819607
 21
19.30542424939017
 31
0.0
100
AcDbAlignedDimension
 13
6.141110077193865
 23
18.55542424939017
 33
0.0
 14
5.516110077193865
 24
20.05542424939017
 34
0.0
 50
90.0
100
AcDbRotatedDimension
  0
LINE
  5
1C2
330
1E
100
AcDbEntity
  8
ADP1DETAIL
100
AcDbLine
 10
6.141110077193865
 20
18.55542424939017
 30
0.0
 11
6.141110077193865
 21
20.05542424939017
 31
0.0
  0
LINE
  5
1C3
330
1E
100
AcDbEntity
  8
ADP1DETAIL
100
AcDbLine
 10
6.391505557719271
 20
18.55542424939017
 30
0.0
 11
6.391505557719274
 21
20.30581972991558
 31
0.0
  0
LINE
  5
1C4
330
1E
100
AcDbEntity
  8
ADP1DETAIL
100
AcDbLine
 10
6.392018782258383
 20
17.33694145752083
 30
0.0
 11
5.754011753848623
 21
17.33694145752083
 31
0.0
  0
LINE
  5
1C5
330
1E
100
AcDbEntity
  8
ADP1DETAIL
100
AcDbLine
 10
6.377018782258386
 20
17.2862284078564
 30
0.0
 11
5.739011753848623
 21
17.2862284078564
 31
0.0
  0
ARC
  5
1C6
330
1E
100
AcDbEntity
  8
ADP1DETAIL
100
AcDbCircle
 10
5.809196804251507
 20
17.87765824494071
 30
0.0
 40
0.5435255596433758
100
AcDbArc
 50
264.1726231069675
 51
321.5501068260153
  0
LINE
  5
1C7
330
1E
100
AcDbEntity
  8
ADP1DETAIL
100
AcDbLine
 10
5.739011753848623
 20
17.2862284078564
 30
0.0
 11
5.677716118618428
 21
17.2862284078564
 31
0.0
  0
ARC
  5
1C8
330
1E
100
AcDbEntity
  8
ADP1DETAIL
100
AcDbCircle
 10
5.739011753848623
 20
17.3012284078564
 30
0.0
 40
0.015
100
AcDbArc
 50
270.0
 51
0.0
  0
LINE
  5
1C9
330
1E
100
AcDbEntity
  8
ADP1DETAIL
100
AcDbLine
 10
5.754011753848623
 20
17.3012284078564
 30
0.0
 11
5.754011753848623
 21
17.33694145752083
 31
0.0
  0
LINE
  5
1CA
330
1E
100
AcDbEntity
  8
ADP1DETAIL
100
AcDbLine
 10
6.578860077193867
 20
17.17499743519484
 30
0.0
 11
7.111018782258384
 21
17.17499743519484
 31
0.0
  0
ARC
  5
1CB
330
1E
100
AcDbEntity
  8
ADP1DETAIL
100
AcDbCircle
 10
6.392018782258387
 20
18.10179438455975
 30
0.0
 40
0.7499999999999969
100
AcDbArc
 50
271.1235186577001
 51
302.801651737942
  0
LINE
  5
1CC
330
1E
100
AcDbEntity
  8
ADP1DETAIL
100
AcDbLine
 10
6.377018782258386
 20
17.2862284078564
 30
0.0
 11
6.315723147028188
 21
17.2862284078564
 31
0.0
  0
ARC
  5
1CD
330
1E
100
AcDbEntity
  8
ADP1DETAIL
100
AcDbCircle
 10
6.377018782258386
 20
17.3012284078564
 30
0.0
 40
0.015
100
AcDbArc
 50
270.0
 51
0.0
  0
ARC
  5
1CE
330
1E
100
AcDbEntity
  8
ADP1DETAIL
100
AcDbCircle
 10
6.407018782258384
 20
17.33694145752083
 30
0.0
 40
0.015
100
AcDbArc
 50
91.1235186577027
 51
180.0
  0
LINE
  5
1CF
330
1E
100
AcDbEntity
  8
ADP1DETAIL
100
AcDbLine
 10
6.392018782258383
 20
17.3012284078564
 30
0.0
 11
6.392018782258383
 21
17.33694145752083
 31
0.0
  0
ARC
  5
1D0
330
1E
100
AcDbEntity
  8
ADP1DETAIL
100
AcDbCircle
 10
7.111018782258388
 20
16.78967864936562
 30
0.0
 40
0.7499999999999986
100
AcDbArc
 50
90.08851858174335
 51
114.6411830056756
  0
LINE
  5
1D1
330
1E
100
AcDbEntity
  8
ADP1DETAIL
100
AcDbLine
 10
6.391505557719278
 20
20.30581972991558
 30
0.0
 11
5.766505557719278
 21
20.30581972991558
 31
0.0
  0
LINE
  5
1D2
330
1E
100
AcDbEntity
  8
ADP1DETAIL
100
AcDbLine
 10
5.516110077193865
 20
20.05542424939017
 30
0.0
 11
6.234860077193869
 21
20.77417424939017
 31
0.0
  0
LINE
  5
1D3
330
1E
100
AcDbEntity
  8
ADP1DETAIL
100
AcDbLine
 10
6.141110077193865
 20
20.05542424939017
 30
0.0
 11
6.859860077193869
 21
20.77417424939017
 31
0.0
  0
LINE
  5
1D4
330
1E
100
AcDbEntity
  8
ADP1DETAIL
100
AcDbLine
 10
6.141110077193865
 20
20.05542424939017
 30
0.0
 11
5.516110077193865
 21
20.05542424939017
 31
0.0
  0
LINE
  5
1D5
330
1E
100
AcDbEntity
  8
ADP1DETAIL
100
AcDbLine
 10
6.234860077193869
 20
22.52417424939018
 30
0.0
 11
5.516110077193865
 21
23.24292424939017
 31
0.0
  0
ARC
  5
1D6
330
1E
100
AcDbEntity
  8
ADP1DETAIL
100
AcDbCircle
 10
8.561218674278553
 20
17.13229797646176
 30
0.0
 40
0.1559999999999996
100
AcDbArc
 50
309.6384861132801
 51
99.34321938177591
  0
ARC
  5
1D7
330
1E
100
AcDbEntity
  8
ADP1DETAIL
100
AcDbCircle
 10
7.929323323527911
 20
17.13229797646176
 30
0.0
 40
0.1559999999999996
100
AcDbArc
 50
309.6384861132801
 51
99.34321938177591
  0
LINE
  5
1D8
330
1E
100
AcDbEntity
  8
ADP1DETAIL
100
AcDbLine
 10
7.640860077193864
 20
17.00199743519484
 30
0.0
 11
7.640860077193864
 21
17.17499743519484
 31
0.0
  0
LINE
  5
1D9
330
1E
100
AcDbEntity
  8
ADP1DETAIL
100
AcDbLine
 10
8.266110077193872
 20
13.15670888867427
 30
0.0
 11
8.266110077193872
 21
11.21920888867427
 31
0.0
  0
LINE
  5
1DA
330
1E
100
AcDbEntity
  8
ADP1DETAIL
100
AcDbLine
 10
8.703610077193868
 20
10.59420888867427
 30
0.0
 11
8.703610077193868
 21
13.78170888867427
 31
0.0
  0
LINE
  5
1DB
330
1E
100
AcDbEntity
  8
ADP1DETAIL
100
AcDbLine
 10
8.546818331600981
 20
10.75100063426715
 30
0.0
 11
8.546818331600984
 21
13.62491714308138
 31
0.0
  0
LINE
  5
1DC
330
1E
100
AcDbEntity
  8
ADP1DETAIL
100
AcDbLine
 10
8.391110077193868
 20
10.90670888867427
 30
0.0
 11
8.391110077193868
 21
13.46920888867427
 31
0.0
  0
LWPOLYLINE
  5
1DD
330
1E
100
AcDbEntity
  8
ADP1DETAIL
100
AcDbPolyline
 90
        2
 70
     0
 43
0.0
 10
8.391110077193868
 20
10.90670888867427
 10
8.078610077193868
 20
10.90670888867427
  0
LWPOLYLINE
  5
1E1
330
1E
100
AcDbEntity
  8
ADP1DETAIL
100
AcDbPolyline
 90
        4
 70
     0
 43
0.0
 10
8.266110077193872
 20
11.21920888867427
 10
8.078610077193872
 20
11.21920888867427
 10
8.078610077193872
 20
10.90670888867427
 10
8.266110077193872
 20
10.90670888867427
  0
LINE
  5
1E7
330
1E
100
AcDbEntity
  8
ADP1DETAIL
100
AcDbLine
 10
8.078610077193864
 20
13.78170888867427
 30
0.0
 11
8.078610077193864
 21
15.28170888867427
 31
0.0
  0
LINE
  5
1E8
330
1E
100
AcDbEntity
  8
ADP1DETAIL
100
AcDbLine
 10
7.921818331600982
 20
13.62491714308138
 30
0.0
 11
7.921818331600982
 21
15.28170888867427
 31
0.0
  0
LINE
  5
1E9
330
1E
100
AcDbEntity
  8
ADP1DETAIL
100
AcDbLine
 10
7.766110077193865
 20
13.46920888867427
 30
0.0
 11
7.766110077193865
 21
15.28170888867427
 31
0.0
  0
LINE
  5
1EA
330
1E
100
AcDbEntity
  8
ADP1DETAIL
100
AcDbLine
 10
7.610401822786752
 20
13.46920888867427
 30
0.0
 11
7.610401822786749
 21
15.28170888867427
 31
0.0
  0
LINE
  5
1EB
330
1E
100
AcDbEntity
  8
ADP1DETAIL
100
AcDbLine
 10
8.546818331600984
 20
13.62491714308138
 30
0.0
 11
7.921818331600982
 21
13.62491714308138
 31
0.0
  0
LINE
  5
1EC
330
1E
100
AcDbEntity
  8
ADP1DETAIL
100
AcDbLine
 10
8.703610077193868
 20
13.78170888867427
 30
0.0
 11
8.078610077193864
 21
13.78170888867427
 31
0.0
  0
LWPOLYLINE
  5
1ED
330
1E
100
AcDbEntity
  8
ADP1DETAIL
100
AcDbPolyline
 90
        4
 70
     0
 43
0.0
 10
8.266110077193872
 20
13.46920888867427
 10
8.078610077193872
 20
13.46920888867427
 10
8.078610077193872
 20
13.15670888867427
 10
8.266110077193872
 20
13.15670888867427
  0
ARC
  5
1F3
330
1E
100
AcDbEntity
  8
ADP1DETAIL
100
AcDbCircle
 10
8.115595590532119
 20
16.81032166339527
 30
0.0
 40
0.2196970135271803
100
AcDbArc
 50
113.2583342903419
 51
181.8360193471644
  0
LINE
  5
1F4
330
1E
100
AcDbEntity
  8
ADP1DETAIL
100
AcDbLine
 10
7.896011365872444
 20
16.80328276906656
 30
0.0
 11
7.781360077193864
 21
16.80328276906656
 31
0.0
  0
ARC
  5
1F5
330
1E
100
AcDbEntity
  8
ADP1DETAIL
100
AcDbCircle
 10
7.655860077193865
 20
17.00199743519484
 30
0.0
 40
0.015
100
AcDbArc
 50
180.0
 51
270.0
  0
ARC
  5
1F6
330
1E
100
AcDbEntity
  8
ADP1DETAIL
100
AcDbCircle
 10
7.781360077193864
 20
16.81828276906657
 30
0.0
 40
0.015
100
AcDbArc
 50
179.9999999999996
 51
270.0
  0
ARC
  5
1F7
330
1E
100
AcDbEntity
  8
ADP1DETAIL
100
AcDbCircle
 10
7.751360077193866
 20
16.97199743519484
 30
0.0
 40
0.015
100
AcDbArc
 50
0.000000000000007
 51
90.0
  0
LINE
  5
1F8
330
1E
100
AcDbEntity
  8
ADP1DETAIL
100
AcDbLine
 10
7.751360077193866
 20
16.98699743519484
 30
0.0
 11
7.655860077193865
 21
16.98699743519484
 31
0.0
  0
LINE
  5
1F9
330
1E
100
AcDbEntity
  8
ADP1DETAIL
100
AcDbLine
 10
7.766360077193867
 20
16.81828276906657
 30
0.0
 11
7.766360077193867
 21
16.97199743519484
 31
0.0
  0
ARC
  5
1FA
330
1E
100
AcDbEntity
  8
ADP1DETAIL
100
AcDbCircle
 10
8.747490941282766
 20
16.81032166339527
 30
0.0
 40
0.2196970135271803
100
AcDbArc
 50
113.2583342903419
 51
181.8360193471644
  0
LINE
  5
1FB
330
1E
100
AcDbEntity
  8
ADP1DETAIL
100
AcDbLine
 10
7.984860077193869
 20
22.52417424939018
 30
0.0
 11
7.984860077193869
 21
20.77417424939017
 31
0.0
  0
LINE
  5
1FC
330
1E
100
AcDbEntity
  8
ADP1DETAIL
100
AcDbLine
 10
8.453214596668459
 20
22.99252876886477
 30
0.0
 11
8.453214596668459
 21
20.30581972991558
 31
0.0
  0
LINE
  5
1FD
330
1E
100
AcDbEntity
  8
ADP1DETAIL
100
AcDbLine
 10
8.703610077193868
 20
23.24292424939017
 30
0.0
 11
8.703610077193868
 21
20.05542424939017
 31
0.0
  0
LINE
  5
1FE
330
1E
100
AcDbEntity
  8
ADP1DETAIL
100
AcDbLine
 10
8.078610077193864
 20
20.05542424939017
 30
0.0
 11
8.078610077193864
 21
18.55542424939017
 31
0.0
  0
LINE
  5
1FF
330
1E
100
AcDbEntity
  8
ADP1DETAIL
100
AcDbLine
 10
7.82821459666846
 20
20.30581972991558
 30
0.0
 11
7.82821459666846
 21
18.55542424939017
 31
0.0
  0
ARC
  5
200
330
1E
100
AcDbEntity
  8
ADP1DETAIL
100
AcDbCircle
 10
8.408986169327285
 20
17.87563019604262
 30
0.0
 40
0.5410609809819044
100
AcDbArc
 50
218.3829243804008
 51
275.3672628611653
  0
LINE
  5
201
330
1E
100
AcDbEntity
  8
ADP1DETAIL
100
AcDbLine
 10
8.459596722879989
 20
17.33694145752083
 30
0.0
 11
7.827701372129348
 21
17.33694145752083
 31
0.0
  0
LINE
  5
202
330
1E
100
AcDbEntity
  8
ADP1DETAIL
100
AcDbLine
 10
8.474596722879986
 20
17.2862284078564
 30
0.0
 11
7.842701372129345
 21
17.2862284078564
 31
0.0
  0
LINE
  5
203
330
1E
100
AcDbEntity
  8
ADP1DETAIL
100
AcDbLine
 10
7.842701372129345
 20
17.2862284078564
 30
0.0
 11
7.903997007359543
 21
17.2862284078564
 31
0.0
  0
ARC
  5
204
330
1E
100
AcDbEntity
  8
ADP1DETAIL
100
AcDbCircle
 10
7.812701372129347
 20
17.33694145752083
 30
0.0
 40
0.015
100
AcDbArc
 50
0.000000000000007
 51
88.87648134229731
  0
ARC
  5
205
330
1E
100
AcDbEntity
  8
ADP1DETAIL
100
AcDbCircle
 10
7.842701372129345
 20
17.3012284078564
 30
0.0
 40
0.015
100
AcDbArc
 50
180.0
 51
270.0
  0
LINE
  5
206
330
1E
100
AcDbEntity
  8
ADP1DETAIL
100
AcDbLine
 10
7.827701372129348
 20
17.3012284078564
 30
0.0
 11
7.827701372129348
 21
17.33694145752083
 31
0.0
  0
ARC
  5
207
330
1E
100
AcDbEntity
  8
ADP1DETAIL
100
AcDbCircle
 10
7.827701372129348
 20
18.10179438455975
 30
0.0
 40
0.75
100
AcDbArc
 50
237.198348262058
 51
268.8764813422996
  0
LINE
  5
208
330
1E
100
AcDbEntity
  8
ADP1DETAIL
100
AcDbLine
 10
8.474596722879986
 20
17.2862284078564
 30
0.0
 11
8.535892358110189
 21
17.2862284078564
 31
0.0
  0
LINE
  5
209
330
1E
100
AcDbEntity
  8
ADP1DETAIL
100
AcDbLine
 10
8.459596722879989
 20
17.3012284078564
 30
0.0
 11
8.459596722879989
 21
17.33694145752083
 31
0.0
  0
ARC
  5
20A
330
1E
100
AcDbEntity
  8
ADP1DETAIL
100
AcDbCircle
 10
8.474596722879986
 20
17.3012284078564
 30
0.0
 40
0.015
100
AcDbArc
 50
180.0
 51
270.0
  0
LINE
  5
20B
330
1E
100
AcDbEntity
  8
ADP1DETAIL
100
AcDbLine
 10
8.703610077193868
 20
20.05542424939017
 30
0.0
 11
8.078610077193864
 21
20.05542424939017
 31
0.0
  0
LINE
  5
20C
330
1E
100
AcDbEntity
  8
ADP1DETAIL
100
AcDbLine
 10
8.703610077193868
 20
20.05542424939017
 30
0.0
 11
7.984860077193869
 21
20.77417424939017
 31
0.0
  0
LINE
  5
20D
330
1E
100
AcDbEntity
  8
ADP1DETAIL
100
AcDbLine
 10
8.078610077193864
 20
20.05542424939017
 30
0.0
 11
7.359860077193865
 21
20.77417424939017
 31
0.0
  0
LINE
  5
20E
330
1E
100
AcDbEntity
  8
ADP1DETAIL
100
AcDbLine
 10
8.453214596668459
 20
20.30581972991558
 30
0.0
 11
7.82821459666846
 21
20.30581972991558
 31
0.0
  0
LINE
  5
20F
330
1E
100
AcDbEntity
  8
ADP1DETAIL
100
AcDbLine
 10
7.984860077193869
 20
22.52417424939018
 30
0.0
 11
8.703610077193868
 21
23.24292424939017
 31
0.0
  0
TEXT
  5
213
330
1E
100
AcDbEntity
  8
ADPDIM
100
AcDbText
 10
-6.124919936448696
 20
9.199101938438438
 30
0.0
 40
0.25
  1
J U L I U S  B L U M  &  C O . ,  I N C .      ( 8 0 0 )  5 2 6 - 6 2 9 3        W W W . J U L I U S B L U M . C O M        P A R T  N o .  4 4 2 8 - E
 41
1.25
  7
ARIAL_WIDE
 72
     1
 11
7.266110077193866
 21
9.449101938438438
 31
0.0
100
AcDbText
 73
     3
  0
ENDSEC
  0
SECTION
  2
OBJECTS
  0
DICTIONARY
  5
C
330
0
100
AcDbDictionary
  3
ACAD_GROUP
350
D
  3
ACAD_LAYOUT
350
19
  3
ACAD_MLINESTYLE
350
16
  3
ACAD_PLOTSETTINGS
350
18
  3
ACAD_PLOTSTYLENAME
350
E
  3
ACDBHEADERROUNDTRIPXREC
350
3A6
  3
ACDBVARIABLEDICTIONARY
350
284
  0
DICTIONARY
  5
24F
330
1E
100
AcDbDictionary
280
     1
  3
ACAD_LAYOUTSELFREF
360
3C8
  0
DICTIONARY
  5
251
330
1A
100
AcDbDictionary
280
     1
  3
ACAD_LAYOUTSELFREF
360
3C7
  0
DICTIONARY
  5
D
102
{ACAD_REACTORS
330
C
102
}
330
C
100
AcDbDictionary
  0
DICTIONARY
  5
19
102
{ACAD_REACTORS
330
C
102
}
330
C
100
AcDbDictionary
  0
DICTIONARY
  5
16
102
{ACAD_REACTORS
330
C
102
}
330
C
100
AcDbDictionary
  3
STANDARD
350
17
  0
DICTIONARY
  5
18
102
{ACAD_REACTORS
330
C
102
}
330
C
100
AcDbDictionary
  0
ACDBDICTIONARYWDFLT
  5
E
102
{ACAD_REACTORS
330
C
102
}
330
C
100
AcDbDictionary
281
     1
  3
Normal
350
F
100
AcDbDictionaryWithDefault
340
F
  0
DICTIONARY
  5
3A6
102
{ACAD_REACTORS
330
C
102
}
330
C
100
AcDbDictionary
  3
CEPSNTYPE
350
3B0
  3
DIMSTYLEDATA
350
3B4
  3
FINGERPRINTGUID
350
3B1
  3
HYPERLINKBASE
350
3A9
  3
INSUNITS
350
3AF
  3
LAYOUTDICT
350
3AB
  3
LWETCUNION
350
3AE
  3
PLOTSETDICT
350
3AC
  3
PLOTSTYLNAMDICT
350
3AD
  3
PSVPSCALE
350
3B3
  3
PUCSBASE
350
3B7
  3
PUCSORGBACK
350
3BD
  3
PUCSORGBOTTOM
350
3B9
  3
PUCSORGFRONT
350
3BC
  3
PUCSORGLEFT
350
3BA
  3
PUCSORGRIGHT
350
3BB
  3
PUCSORGTOP
350
3B8
  3
PUCSORTHOREF
350
3B5
  3
PUCSORTHOVIEW
350
3B6
  3
STYLESHEET
350
3AA
  3
TSTACKALIGN
350
3A7
  3
TSTACKSIZE
350
3A8
  3
UCSBASE
350
3C0
  3
UCSORGBACK
350
3C6
  3
UCSORGBOTTOM
350
3C2
  3
UCSORGFRONT
350
3C5
  3
UCSORGLEFT
350
3C3
  3
UCSORGRIGHT
350
3C4
  3
UCSORGTOP
350
3C1
  3
UCSORTHOREF
350
3BE
  3
UCSORTHOVIEW
350
3BF
  3
VERSIONGUID
350
3B2
  0
DICTIONARY
  5
284
102
{ACAD_REACTORS
330
C
102
}
330
C
100
AcDbDictionary
  3
DIMASSOC
350
286
  3
HIDETEXT
350
285
  0
XRECORD
  5
3C8
102
{ACAD_REACTORS
330
24F
102
}
330
24F
100
AcDbXrecord
340
1E
  0
XRECORD
  5
3C7
102
{ACAD_REACTORS
330
251
102
}
330
251
100
AcDbXrecord
340
1A
  0
MLINESTYLE
  5
17
102
{ACAD_REACTORS
330
16
102
}
330
16
100
AcDbMlineStyle
  2
STANDARD
 70
     0
  3

 62
   256
 51
90.0
 52
90.0
 71
     2
 49
0.5
 62
   256
  6
BYLAYER
 49
-0.5
 62
   256
  6
BYLAYER
  0
ACDBPLACEHOLDER
  5
F
102
{ACAD_REACTORS
330
E
102
}
330
E
100
AcDbPlaceHolder
280
     0
  0
XRECORD
  5
3B0
102
{ACAD_REACTORS
330
3A6
102
}
330
3A6
100
AcDbXrecord
 90
        0
  0
XRECORD
  5
3B4
102
{ACAD_REACTORS
330
3A6
102
}
330
3A6
100
AcDbXrecord
1000
DSTYLE
1002
{
1070
   277
 70
     5
1070
   279
 70
     2
1002
}
  0
XRECORD
  5
3B1
102
{ACAD_REACTORS
330
3A6
102
}
330
3A6
100
AcDbXrecord
  1
{1DA456F2-42E3-4581-91E0-E93D6F6671B7}
  0
XRECORD
  5
3A9
102
{ACAD_REACTORS
330
3A6
102
}
330
3A6
100
AcDbXrecord
  1

  0
XRECORD
  5
3AF
102
{ACAD_REACTORS
330
3A6
102
}
330
3A6
100
AcDbXrecord
 90
        0
  0
XRECORD
  5
3AB
102
{ACAD_REACTORS
330
3A6
102
}
330
3A6
100
AcDbXrecord
340
19
  0
XRECORD
  5
3AE
102
{ACAD_REACTORS
330
3A6
102
}
330
3A6
100
AcDbXrecord
 90
    14877
  0
XRECORD
  5
3AC
102
{ACAD_REACTORS
330
3A6
102
}
330
3A6
100
AcDbXrecord
340
18
  0
XRECORD
  5
3AD
102
{ACAD_REACTORS
330
3A6
102
}
330
3A6
100
AcDbXrecord
340
E
  0
XRECORD
  5
3B3
102
{ACAD_REACTORS
330
3A6
102
}
330
3A6
100
AcDbXrecord
 40
0.0
  0
XRECORD
  5
3B7
102
{ACAD_REACTORS
330
3A6
102
}
330
3A6
100
AcDbXrecord
340
0
  0
XRECORD
  5
3BD
102
{ACAD_REACTORS
330
3A6
102
}
330
3A6
100
AcDbXrecord
 10
0.0
 20
0.0
 30
0.0
  0
XRECORD
  5
3B9
102
{ACAD_REACTORS
330
3A6
102
}
330
3A6
100
AcDbXrecord
 10
0.0
 20
0.0
 30
0.0
  0
XRECORD
  5
3BC
102
{ACAD_REACTORS
330
3A6
102
}
330
3A6
100
AcDbXrecord
 10
0.0
 20
0.0
 30
0.0
  0
XRECORD
  5
3BA
102
{ACAD_REACTORS
330
3A6
102
}
330
3A6
100
AcDbXrecord
 10
0.0
 20
0.0
 30
0.0
  0
XRECORD
  5
3BB
102
{ACAD_REACTORS
330
3A6
102
}
330
3A6
100
AcDbXrecord
 10
0.0
 20
0.0
 30
0.0
  0
XRECORD
  5
3B8
102
{ACAD_REACTORS
330
3A6
102
}
330
3A6
100
AcDbXrecord
 10
0.0
 20
0.0
 30
0.0
  0
XRECORD
  5
3B5
102
{ACAD_REACTORS
330
3A6
102
}
330
3A6
100
AcDbXrecord
340
0
  0
XRECORD
  5
3B6
102
{ACAD_REACTORS
330
3A6
102
}
330
3A6
100
AcDbXrecord
 70
     0
  0
XRECORD
  5
3AA
102
{ACAD_REACTORS
330
3A6
102
}
330
3A6
100
AcDbXrecord
  1

  0
XRECORD
  5
3A7
102
{ACAD_REACTORS
330
3A6
102
}
330
3A6
100
AcDbXrecord
 90
        1
  0
XRECORD
  5
3A8
102
{ACAD_REACTORS
330
3A6
102
}
330
3A6
100
AcDbXrecord
 90
       70
  0
XRECORD
  5
3C0
102
{ACAD_REACTORS
330
3A6
102
}
330
3A6
100
AcDbXrecord
340
0
  0
XRECORD
  5
3C6
102
{ACAD_REACTORS
330
3A6
102
}
330
3A6
100
AcDbXrecord
 10
0.0
 20
0.0
 30
0.0
  0
XRECORD
  5
3C2
102
{ACAD_REACTORS
330
3A6
102
}
330
3A6
100
AcDbXrecord
 10
0.0
 20
0.0
 30
0.0
  0
XRECORD
  5
3C5
102
{ACAD_REACTORS
330
3A6
102
}
330
3A6
100
AcDbXrecord
 10
0.0
 20
0.0
 30
0.0
  0
XRECORD
  5
3C3
102
{ACAD_REACTORS
330
3A6
102
}
330
3A6
100
AcDbXrecord
 10
0.0
 20
0.0
 30
0.0
  0
XRECORD
  5
3C4
102
{ACAD_REACTORS
330
3A6
102
}
330
3A6
100
AcDbXrecord
 10
0.0
 20
0.0
 30
0.0
  0
XRECORD
  5
3C1
102
{ACAD_REACTORS
330
3A6
102
}
330
3A6
100
AcDbXrecord
 10
0.0
 20
0.0
 30
0.0
  0
XRECORD
  5
3BE
102
{ACAD_REACTORS
330
3A6
102
}
330
3A6
100
AcDbXrecord
340
0
  0
XRECORD
  5
3BF
102
{ACAD_REACTORS
330
3A6
102
}
330
3A6
100
AcDbXrecord
 70
     0
  0
XRECORD
  5
3B2
102
{ACAD_REACTORS
330
3A6
102
}
330
3A6
100
AcDbXrecord
  1
{E65FE7EA-D028-469B-B8FB-36463AC4B64D}
  0
DICTIONARYVAR
  5
286
102
{ACAD_REACTORS
330
284
102
}
330
284
100
DictionaryVariables
280
     0
  1
2
  0
DICTIONARYVAR
  5
285
102
{ACAD_REACTORS
330
284
102
}
330
284
100
DictionaryVariables
280
     0
  1
1
  0
ENDSEC
  0
EOF
