  0
SECTION
  2
HEADER
  9
$ACADVER
  1
AC1014
  9
$ACADMAINTVER
 70
     9
  9
$DWGCODEPAGE
  3
ANSI_1252
  9
$INSBASE
 10
-0.32775509300125
 20
2.343656615630273
 30
0.0
  9
$EXTMIN
 10
-11.22842016803535
 20
-6.119672884681104
 30
0.0
  9
$EXTMAX
 10
14.51040998203285
 20
8.468656615630273
 30
0.0
  9
$LIMMIN
 10
0.0
 20
0.0
  9
$LIMMAX
 10
36.0
 20
36.0
  9
$ORTHOMODE
 70
     1
  9
$REGENMODE
 70
     1
  9
$FILLMODE
 70
     1
  9
$QTEXTMODE
 70
     0
  9
$MIRRTEXT
 70
     1
  9
$DRAGMODE
 70
     0
  9
$LTSCALE
 40
1.0
  9
$OSMODE
 70
    37
  9
$ATTMODE
 70
     1
  9
$TEXTSIZE
 40
0.2
  9
$TRACEWID
 40
0.05
  9
$TEXTSTYLE
  7
STANDARD
  9
$CLAYER
  8
ADPDIM
  9
$CELTYPE
  6
BYLAYER
  9
$CECOLOR
 62
   256
  9
$CELTSCALE
 40
1.0
  9
$DELOBJ
 70
     1
  9
$DISPSILH
 70
     0
  9
$DIMSCALE
 40
1.0
  9
$DIMASZ
 40
0.125
  9
$DIMEXO
 40
0.0625
  9
$DIMDLI
 40
0.38
  9
$DIMRND
 40
0.0
  9
$DIMDLE
 40
0.0
  9
$DIMEXE
 40
0.18
  9
$DIMTP
 40
0.0
  9
$DIMTM
 40
0.0
  9
$DIMTXT
 40
0.125
  9
$DIMCEN
 40
0.1875
  9
$DIMTSZ
 40
0.125
  9
$DIMTOL
 70
     0
  9
$DIMLIM
 70
     0
  9
$DIMTIH
 70
     0
  9
$DIMTOH
 70
     0
  9
$DIMSE1
 70
     0
  9
$DIMSE2
 70
     0
  9
$DIMTAD
 70
     0
  9
$DIMZIN
 70
     3
  9
$DIMBLK
  1

  9
$DIMASO
 70
     1
  9
$DIMSHO
 70
     1
  9
$DIMPOST
  1

  9
$DIMAPOST
  1

  9
$DIMALT
 70
     0
  9
$DIMALTD
 70
     1
  9
$DIMALTF
 40
25.4
  9
$DIMLFAC
 40
1.0
  9
$DIMTOFL
 70
     0
  9
$DIMTVP
 40
0.0
  9
$DIMTIX
 70
     0
  9
$DIMSOXD
 70
     0
  9
$DIMSAH
 70
     0
  9
$DIMBLK1
  1

  9
$DIMBLK2
  1

  9
$DIMSTYLE
  2
STANDARD
  9
$DIMCLRD
 70
     0
  9
$DIMCLRE
 70
     0
  9
$DIMCLRT
 70
     0
  9
$DIMTFAC
 40
1.0
  9
$DIMGAP
 40
0.125
  9
$DIMJUST
 70
     0
  9
$DIMSD1
 70
     0
  9
$DIMSD2
 70
     0
  9
$DIMTOLJ
 70
     1
  9
$DIMTZIN
 70
     3
  9
$DIMALTZ
 70
     3
  9
$DIMALTTZ
 70
     3
  9
$DIMFIT
 70
     5
  9
$DIMUPT
 70
     0
  9
$DIMUNIT
 70
     5
  9
$DIMDEC
 70
     4
  9
$DIMTDEC
 70
     4
  9
$DIMALTU
 70
     5
  9
$DIMALTTD
 70
     1
  9
$DIMTXSTY
  7
STANDARD
  9
$DIMAUNIT
 70
     0
  9
$LUNITS
 70
     5
  9
$LUPREC
 70
     4
  9
$SKETCHINC
 40
0.1
  9
$FILLETRAD
 40
0.25
  9
$AUNITS
 70
     0
  9
$AUPREC
 70
     0
  9
$MENU
  1
acad
  9
$ELEVATION
 40
0.0
  9
$PELEVATION
 40
0.0
  9
$THICKNESS
 40
0.0
  9
$LIMCHECK
 70
     0
  9
$BLIPMODE
 70
     0
  9
$CHAMFERA
 40
0.0
  9
$CHAMFERB
 40
0.0
  9
$CHAMFERC
 40
0.0
  9
$CHAMFERD
 40
0.0
  9
$SKPOLY
 70
     0
  9
$TDCREATE
 40
2450233.561309409
  9
$TDUPDATE
 40
2452297.070395868
  9
$TDINDWG
 40
0.0300588657
  9
$TDUSRTIMER
 40
0.0300588657
  9
$USRTIMER
 70
     1
  9
$ANGBASE
 50
0.0
  9
$ANGDIR
 70
     0
  9
$PDMODE
 70
     0
  9
$PDSIZE
 40
0.0
  9
$PLINEWID
 40
0.0
  9
$COORDS
 70
     2
  9
$SPLFRAME
 70
     0
  9
$SPLINETYPE
 70
     6
  9
$SPLINESEGS
 70
     8
  9
$ATTDIA
 70
     0
  9
$ATTREQ
 70
     1
  9
$HANDLING
 70
 22529
  9
$HANDSEED
  5
2EA
  9
$SURFTAB1
 70
     6
  9
$SURFTAB2
 70
     6
  9
$SURFTYPE
 70
     6
  9
$SURFU
 70
     6
  9
$SURFV
 70
     6
  9
$UCSNAME
  2

  9
$UCSORG
 10
0.0
 20
0.0
 30
0.0
  9
$UCSXDIR
 10
1.0
 20
0.0
 30
0.0
  9
$UCSYDIR
 10
0.0
 20
1.0
 30
0.0
  9
$PUCSNAME
  2

  9
$PUCSORG
 10
0.0
 20
0.0
 30
0.0
  9
$PUCSXDIR
 10
1.0
 20
0.0
 30
0.0
  9
$PUCSYDIR
 10
0.0
 20
1.0
 30
0.0
  9
$USERI1
 70
     0
  9
$USERI2
 70
     0
  9
$USERI3
 70
     0
  9
$USERI4
 70
     0
  9
$USERI5
 70
     0
  9
$USERR1
 40
0.0
  9
$USERR2
 40
0.0
  9
$USERR3
 40
0.0
  9
$USERR4
 40
0.0
  9
$USERR5
 40
0.0
  9
$WORLDVIEW
 70
     1
  9
$SHADEDGE
 70
     3
  9
$SHADEDIF
 70
    70
  9
$TILEMODE
 70
     1
  9
$MAXACTVP
 70
    15
  9
$PINSBASE
 10
0.0
 20
-3.941062727799726E+99
 30
0.0
  9
$PLIMCHECK
 70
     0
  9
$PEXTMIN
 10
1.000000000000000E+20
 20
1.000000000000000E+20
 30
1.000000000000000E+20
  9
$PEXTMAX
 10
-1.000000000000000E+20
 20
-1.000000000000000E+20
 30
-1.000000000000000E+20
  9
$PLIMMIN
 10
0.0
 20
0.0
  9
$PLIMMAX
 10
12.0
 20
9.0
  9
$UNITMODE
 70
     0
  9
$VISRETAIN
 70
     0
  9
$PLINEGEN
 70
     0
  9
$PSLTSCALE
 70
     1
  9
$TREEDEPTH
 70
  3020
  9
$PICKSTYLE
 70
     1
  9
$CMLSTYLE
  2
STANDARD
  9
$CMLJUST
 70
     0
  9
$CMLSCALE
 40
1.0
  9
$PROXYGRAPHICS
 70
     1
  9
$MEASUREMENT
 70
     0
  0
ENDSEC
  0
SECTION
  2
CLASSES
  0
CLASS
  1
ACDBDICTIONARYWDFLT
  2
AcDbDictionaryWithDefault
  3
AutoCAD 2000
 90
        0
280
     0
281
     0
  0
CLASS
  1
ACDBPLACEHOLDER
  2
AcDbPlaceHolder
  3
AutoCAD 2000
 90
        0
280
     0
281
     0
  0
CLASS
  1
LAYOUT
  2
AcDbLayout
  3
AutoCAD 2000
 90
        0
280
     0
281
     0
  0
CLASS
  1
DICTIONARYVAR
  2
AcDbDictionaryVar
  3
AutoCAD 2000
 90
        0
280
     0
281
     0
  0
CLASS
  1
LONG_TRANSACTION
  2
AcDbLongTransaction
  3
AutoCAD 2000
 90
        0
280
     0
281
     0
  0
CLASS
  1
LWPOLYLINE
  2
AcDbPolyline
  3
AutoCAD 2000
 90
        0
280
     0
281
     1
  0
CLASS
  1
HATCH
  2
AcDbHatch
  3
AutoCAD 2000
 90
        0
280
     0
281
     1
  0
CLASS
  1
XRECORD
  2
AcDbXrecord
  3
AutoCAD 2000
 90
        0
280
     0
281
     0
  0
CLASS
  1
LONG_TRANSACTION
  2
AcDbLongTransaction
  3
AutoCAD 2000
 90
        0
280
     0
281
     0
  0
CLASS
  1
LWPOLYLINE
  2
AcDbPolyline
  3
AutoCAD 2000
 90
        0
280
     0
281
     1
  0
CLASS
  1
HATCH
  2
AcDbHatch
  3
AutoCAD 2000
 90
        0
280
     0
281
     1
  0
CLASS
  1
XRECORD
  2
AcDbXrecord
  3
AutoCAD 2000
 90
        0
280
     0
281
     0
  0
CLASS
  1
LONG_TRANSACTION
  2
AcDbLongTransaction
  3
AutoCAD 2000
 90
        0
280
     0
281
     0
  0
CLASS
  1
LWPOLYLINE
  2
AcDbPolyline
  3
AutoCAD 2000
 90
        0
280
     0
281
     1
  0
CLASS
  1
HATCH
  2
AcDbHatch
  3
AutoCAD 2000
 90
        0
280
     0
281
     1
  0
CLASS
  1
XRECORD
  2
AcDbXrecord
  3
AutoCAD 2000
 90
        0
280
     0
281
     0
  0
CLASS
  1
LONG_TRANSACTION
  2
AcDbLongTransaction
  3
AutoCAD 2000
 90
        0
280
     0
281
     0
  0
CLASS
  1
LWPOLYLINE
  2
AcDbPolyline
  3
AutoCAD 2000
 90
        0
280
     0
281
     1
  0
CLASS
  1
HATCH
  2
AcDbHatch
  3
AutoCAD 2000
 90
        0
280
     0
281
     1
  0
CLASS
  1
XRECORD
  2
AcDbXrecord
  3
AutoCAD 2000
 90
        0
280
     0
281
     0
  0
CLASS
  1
LONG_TRANSACTION
  2
AcDbLongTransaction
  3
AutoCAD 2000
 90
        0
280
     0
281
     0
  0
CLASS
  1
LWPOLYLINE
  2
AcDbPolyline
  3
AutoCAD 2000
 90
        0
280
     0
281
     1
  0
CLASS
  1
HATCH
  2
AcDbHatch
  3
AutoCAD 2000
 90
        0
280
     0
281
     1
  0
CLASS
  1
XRECORD
  2
AcDbXrecord
  3
AutoCAD 2000
 90
        0
280
     0
281
     0
  0
CLASS
  1
LONG_TRANSACTION
  2
AcDbLongTransaction
  3
AutoCAD 2000
 90
        0
280
     0
281
     0
  0
CLASS
  1
LWPOLYLINE
  2
AcDbPolyline
  3
AutoCAD 2000
 90
        0
280
     0
281
     1
  0
CLASS
  1
HATCH
  2
AcDbHatch
  3
AutoCAD 2000
 90
        0
280
     0
281
     1
  0
CLASS
  1
XRECORD
  2
AcDbXrecord
  3
AutoCAD 2000
 90
        0
280
     0
281
     0
  0
ENDSEC
  0
SECTION
  2
TABLES
  0
TABLE
  2
VPORT
  5
8
330
0
100
AcDbSymbolTable
 70
     2
  0
VPORT
  5
2C6
330
8
100
AcDbSymbolTableRecord
100
AcDbViewportTableRecord
  2
*ACTIVE
 70
     0
 10
0.0
 20
0.0
 11
1.0
 21
1.0
 12
1.640590401061341
 22
1.173547337035526
 13
0.0
 23
0.0
 14
0.5740882589684922
 24
0.5740882589684922
 15
0.5
 25
0.5
 16
0.0
 26
0.0
 36
1.0
 17
0.0
 27
0.0
 37
0.0
 40
16.46930092537306
 41
1.570528967254408
 42
50.0
 43
0.0
 44
0.0
 50
0.0
 51
0.0
 71
     0
 72
   100
 73
     1
 74
     0
 75
     0
 76
     0
 77
     0
 78
     0
  0
ENDTAB
  0
TABLE
  2
LTYPE
  5
5
330
0
100
AcDbSymbolTable
 70
     2
  0
LTYPE
  5
13
330
5
100
AcDbSymbolTableRecord
100
AcDbLinetypeTableRecord
  2
BYBLOCK
 70
     0
  3

 72
    65
 73
     0
 40
0.0
  0
LTYPE
  5
14
330
5
100
AcDbSymbolTableRecord
100
AcDbLinetypeTableRecord
  2
BYLAYER
 70
     0
  3

 72
    65
 73
     0
 40
0.0
  0
LTYPE
  5
15
330
5
100
AcDbSymbolTableRecord
100
AcDbLinetypeTableRecord
  2
CONTINUOUS
 70
     0
  3
Solid line
 72
    65
 73
     0
 40
0.0
  0
LTYPE
  5
2B
330
5
100
AcDbSymbolTableRecord
100
AcDbLinetypeTableRecord
  2
HIDDEN2
 70
     0
  3
_ _ _ _ _ _ _ _ _ _ _ _ _ _ _ _ _ _ _ _ _ _ _ _
 72
    65
 73
     2
 40
0.1875
 49
0.125
 74
     0
 49
-0.0625
 74
     0
  0
ENDTAB
  0
TABLE
  2
LAYER
  5
2
330
0
100
AcDbSymbolTable
 70
     5
  0
LAYER
  5
10
330
2
100
AcDbSymbolTableRecord
100
AcDbLayerTableRecord
  2
0
 70
     0
 62
     7
  6
CONTINUOUS
  0
LAYER
  5
2D
330
2
100
AcDbSymbolTableRecord
100
AcDbLayerTableRecord
  2
ADP2DETAIL
 70
     0
 62
     5
  6
CONTINUOUS
  0
LAYER
  5
2E
330
2
100
AcDbSymbolTableRecord
100
AcDbLayerTableRecord
  2
ADPDIM
 70
     0
 62
     3
  6
CONTINUOUS
  0
LAYER
  5
2F
330
2
100
AcDbSymbolTableRecord
100
AcDbLayerTableRecord
  2
ADP1DETAIL
 70
     0
 62
     7
  6
CONTINUOUS
  0
LAYER
  5
30
330
2
100
AcDbSymbolTableRecord
100
AcDbLayerTableRecord
  2
DEFPOINTS
 70
     0
 62
     7
  6
CONTINUOUS
  0
ENDTAB
  0
TABLE
  2
STYLE
  5
3
330
0
100
AcDbSymbolTable
 70
     2
  0
STYLE
  5
11
330
3
100
AcDbSymbolTableRecord
100
AcDbTextStyleTableRecord
  2
STANDARD
 70
     0
 40
0.0
 41
1.0
 50
0.0
 71
     0
 42
0.2
  3
txt
  4

  0
STYLE
  5
F9
330
3
100
AcDbSymbolTableRecord
100
AcDbTextStyleTableRecord
  2
ARIAL_WIDE
 70
     0
 40
0.0
 41
1.25
 50
0.0
 71
     0
 42
0.2
  3
ARIAL.TTF
  4

1001
ACAD
1000
Arial
1071
       34
  0
ENDTAB
  0
TABLE
  2
VIEW
  5
6
330
0
100
AcDbSymbolTable
 70
     0
  0
ENDTAB
  0
TABLE
  2
UCS
  5
7
330
0
100
AcDbSymbolTable
 70
     0
  0
ENDTAB
  0
TABLE
  2
APPID
  5
9
330
0
100
AcDbSymbolTable
 70
     1
  0
APPID
  5
12
330
9
100
AcDbSymbolTableRecord
100
AcDbRegAppTableRecord
  2
ACAD
 70
     0
  0
ENDTAB
  0
TABLE
  2
DIMSTYLE
  5
A
330
0
100
AcDbSymbolTable
 70
     1
  0
DIMSTYLE
105
F7
330
A
100
AcDbSymbolTableRecord
100
AcDbDimStyleTableRecord
  2
STANDARD
 70
     0
  3

  4

  5

  6

  7

 40
1.0
 41
0.18
 42
0.0625
 43
0.38
 44
0.18
 45
0.0
 46
0.0
 47
0.0
 48
0.0
140
0.18
141
0.09
142
0.0
143
25.4
144
1.0
145
0.0
146
1.0
147
0.09
 71
     0
 72
     0
 73
     1
 74
     1
 75
     0
 76
     0
 77
     0
 78
     0
170
     0
171
     2
172
     0
173
     0
174
     0
175
     0
176
     0
177
     0
178
     0
270
     2
271
     4
272
     4
273
     2
274
     2
340
11
275
     0
280
     0
281
     0
282
     0
283
     1
284
     0
285
     0
286
     0
287
     3
288
     0
  0
ENDTAB
  0
TABLE
  2
BLOCK_RECORD
  5
1
330
0
100
AcDbSymbolTable
 70
     9
  0
BLOCK_RECORD
  5
1E
102
{ACAD_XDICTIONARY
360
136
102
}
330
1
100
AcDbSymbolTableRecord
100
AcDbBlockTableRecord
  2
*MODEL_SPACE
  0
BLOCK_RECORD
  5
1A
102
{ACAD_XDICTIONARY
360
138
102
}
330
1
100
AcDbSymbolTableRecord
100
AcDbBlockTableRecord
  2
*PAPER_SPACE
  0
BLOCK_RECORD
  5
22
330
1
100
AcDbSymbolTableRecord
100
AcDbBlockTableRecord
  2
*D0
  0
BLOCK_RECORD
  5
23
330
1
100
AcDbSymbolTableRecord
100
AcDbBlockTableRecord
  2
*D1
  0
BLOCK_RECORD
  5
24
330
1
100
AcDbSymbolTableRecord
100
AcDbBlockTableRecord
  2
*D2
  0
BLOCK_RECORD
  5
25
330
1
100
AcDbSymbolTableRecord
100
AcDbBlockTableRecord
  2
*D3
  0
BLOCK_RECORD
  5
26
330
1
100
AcDbSymbolTableRecord
100
AcDbBlockTableRecord
  2
*D4
  0
BLOCK_RECORD
  5
27
330
1
100
AcDbSymbolTableRecord
100
AcDbBlockTableRecord
  2
*D5
  0
BLOCK_RECORD
  5
28
330
1
100
AcDbSymbolTableRecord
100
AcDbBlockTableRecord
  2
*D6
  0
BLOCK_RECORD
  5
29
330
1
100
AcDbSymbolTableRecord
100
AcDbBlockTableRecord
  2
*D7
  0
BLOCK_RECORD
  5
2A
330
1
100
AcDbSymbolTableRecord
100
AcDbBlockTableRecord
  2
*D8
  0
ENDTAB
  0
ENDSEC
  0
SECTION
  2
BLOCKS
  0
BLOCK
  5
33
330
1E
100
AcDbEntity
  8
0
100
AcDbBlockBegin
  2
*MODEL_SPACE
 70
     0
 10
0.0
 20
0.0
 30
0.0
  3
*MODEL_SPACE
  1

  0
ENDBLK
  5
34
330
1E
100
AcDbEntity
  8
0
100
AcDbBlockEnd
  0
BLOCK
  5
31
330
1A
100
AcDbEntity
 67
     1
  8
0
100
AcDbBlockBegin
  2
*PAPER_SPACE
 70
     0
 10
0.0
 20
0.0
 30
0.0
  3
*PAPER_SPACE
  1

  0
ENDBLK
  5
32
330
1A
100
AcDbEntity
 67
     1
  8
0
100
AcDbBlockEnd
  0
BLOCK
  5
35
330
22
100
AcDbEntity
  8
0
100
AcDbBlockBegin
  2
*D0
 70
     1
 10
0.0
 20
0.0
 30
0.0
  3
*D0
  1

  0
LINE
  5
36
330
22
100
AcDbEntity
  8
0
  6
BYBLOCK
 62
     0
100
AcDbLine
 10
9.675207678035519
 20
0.6357954526405379
 30
0.0
 11
9.675207678035519
 21
1.006989844604314
 31
0.0
  0
LINE
  5
37
330
22
100
AcDbEntity
  8
0
  6
BYBLOCK
 62
     0
100
AcDbLine
 10
12.42520767803552
 20
0.6357954526405379
 30
0.0
 11
12.42520767803552
 21
1.006989844604314
 31
0.0
  0
LINE
  5
38
330
22
100
AcDbEntity
  8
0
  6
BYBLOCK
 62
     0
100
AcDbLine
 10
9.675207678035519
 20
0.8269898446043145
 30
0.0
 11
10.63354101136885
 21
0.8269898446043145
 31
0.0
  0
LINE
  5
39
330
22
100
AcDbEntity
  8
0
  6
BYBLOCK
 62
     0
100
AcDbLine
 10
12.42520767803552
 20
0.8269898446043145
 30
0.0
 11
11.46687434470218
 21
0.8269898446043145
 31
0.0
  0
LINE
  5
3A
330
22
100
AcDbEntity
  8
0
  6
BYBLOCK
 62
     0
100
AcDbLine
 10
9.550207678035519
 20
0.7019898446043146
 30
0.0
 11
9.800207678035519
 21
0.9519898446043145
 31
0.0
  0
LINE
  5
3B
330
22
100
AcDbEntity
  8
0
  6
BYBLOCK
 62
     0
100
AcDbLine
 10
12.30020767803551
 20
0.7019898446043146
 30
0.0
 11
12.55020767803552
 21
0.9519898446043145
 31
0.0
  0
TEXT
  5
3C
330
22
100
AcDbEntity
  8
0
  6
BYBLOCK
 62
     0
100
AcDbText
 10
10.75854101136885
 20
0.7644898446043146
 30
0.0
 40
0.125
  1
2 3/4
 72
     1
 11
11.05020767803551
 21
0.8269898446043145
 31
0.0
100
AcDbText
 73
     2
  0
POINT
  5
3E
330
22
100
AcDbEntity
  8
DEFPOINTS
  6
BYBLOCK
 62
     0
100
AcDbPoint
 10
9.675207678035519
 20
0.5732954526405379
 30
0.0
  0
POINT
  5
3F
330
22
100
AcDbEntity
  8
DEFPOINTS
  6
BYBLOCK
 62
     0
100
AcDbPoint
 10
12.42520767803552
 20
0.5732954526405379
 30
0.0
  0
POINT
  5
40
330
22
100
AcDbEntity
  8
DEFPOINTS
  6
BYBLOCK
 62
     0
100
AcDbPoint
 10
12.42520767803552
 20
0.8269898446043145
 30
0.0
  0
ENDBLK
  5
41
330
22
100
AcDbEntity
  8
0
100
AcDbBlockEnd
  0
BLOCK
  5
42
330
23
100
AcDbEntity
  8
0
100
AcDbBlockBegin
  2
*D1
 70
     1
 10
0.0
 20
0.0
 30
0.0
  3
*D1
  1

  0
LINE
  5
43
330
23
100
AcDbEntity
  8
0
  6
BYBLOCK
 62
     0
100
AcDbLine
 10
3.672244906998749
 20
-1.312081424707678
 30
0.0
 11
3.672244906998749
 21
-0.6673928879979807
 31
0.0
  0
LINE
  5
44
330
23
100
AcDbEntity
  8
0
  6
BYBLOCK
 62
     0
100
AcDbLine
 10
-0.3277550930012503
 20
-1.312081424707677
 30
0.0
 11
-0.3277550930012503
 21
-0.6673928879979807
 31
0.0
  0
LINE
  5
45
330
23
100
AcDbEntity
  8
0
  6
BYBLOCK
 62
     0
100
AcDbLine
 10
3.672244906998749
 20
-0.8473928879979805
 30
0.0
 11
1.838911573665416
 21
-0.8473928879979805
 31
0.0
  0
LINE
  5
46
330
23
100
AcDbEntity
  8
0
  6
BYBLOCK
 62
     0
100
AcDbLine
 10
-0.3277550930012503
 20
-0.8473928879979805
 30
0.0
 11
1.505578240332083
 21
-0.8473928879979805
 31
0.0
  0
LINE
  5
47
330
23
100
AcDbEntity
  8
0
  6
BYBLOCK
 62
     0
100
AcDbLine
 10
3.547244906998749
 20
-0.9723928879979805
 30
0.0
 11
3.797244906998749
 21
-0.7223928879979807
 31
0.0
  0
LINE
  5
48
330
23
100
AcDbEntity
  8
0
  6
BYBLOCK
 62
     0
100
AcDbLine
 10
-0.4527550930012503
 20
-0.9723928879979805
 30
0.0
 11
-0.2027550930012503
 21
-0.7223928879979807
 31
0.0
  0
TEXT
  5
49
330
23
100
AcDbEntity
  8
0
  6
BYBLOCK
 62
     0
100
AcDbText
 10
1.630578240332083
 20
-0.9098928879979805
 30
0.0
 40
0.125
  1
4
 72
     1
 11
1.672244906998749
 21
-0.8473928879979805
 31
0.0
100
AcDbText
 73
     2
  0
POINT
  5
4A
330
23
100
AcDbEntity
  8
DEFPOINTS
  6
BYBLOCK
 62
     0
100
AcDbPoint
 10
3.672244906998749
 20
-1.374581424707678
 30
0.0
  0
POINT
  5
4B
330
23
100
AcDbEntity
  8
DEFPOINTS
  6
BYBLOCK
 62
     0
100
AcDbPoint
 10
-0.3277550930012503
 20
-1.374581424707677
 30
0.0
  0
POINT
  5
4C
330
23
100
AcDbEntity
  8
DEFPOINTS
  6
BYBLOCK
 62
     0
100
AcDbPoint
 10
-0.3277550930012503
 20
-0.8473928879979805
 30
0.0
  0
ENDBLK
  5
4D
330
23
100
AcDbEntity
  8
0
100
AcDbBlockEnd
  0
BLOCK
  5
4E
330
24
100
AcDbEntity
  8
0
100
AcDbBlockBegin
  2
*D2
 70
     1
 10
0.0
 20
0.0
 30
0.0
  3
*D2
  1

  0
LINE
  5
4F
330
24
100
AcDbEntity
  8
0
  6
BYBLOCK
 62
     0
100
AcDbLine
 10
3.734744906998749
 20
8.343656615630273
 30
0.0
 11
4.398308561932659
 21
8.343656615630273
 31
0.0
  0
LINE
  5
50
330
24
100
AcDbEntity
  8
0
  6
BYBLOCK
 62
     0
100
AcDbLine
 10
3.109744906998749
 20
7.093656615630273
 30
0.0
 11
4.398308561932658
 21
7.093656615630273
 31
0.0
  0
LINE
  5
51
330
24
100
AcDbEntity
  8
0
  6
BYBLOCK
 62
     0
100
AcDbLine
 10
4.218308561932659
 20
8.343656615630273
 30
0.0
 11
4.218308561932659
 21
8.093656615630273
 31
0.0
  0
LINE
  5
52
330
24
100
AcDbEntity
  8
0
  6
BYBLOCK
 62
     0
100
AcDbLine
 10
4.218308561932659
 20
7.093656615630273
 30
0.0
 11
4.218308561932659
 21
7.343656615630273
 31
0.0
  0
LINE
  5
53
330
24
100
AcDbEntity
  8
0
  6
BYBLOCK
 62
     0
100
AcDbLine
 10
4.343308561932659
 20
8.218656615630273
 30
0.0
 11
4.093308561932659
 21
8.468656615630273
 31
0.0
  0
LINE
  5
54
330
24
100
AcDbEntity
  8
0
  6
BYBLOCK
 62
     0
100
AcDbLine
 10
4.343308561932659
 20
6.968656615630273
 30
0.0
 11
4.093308561932659
 21
7.218656615630273
 31
0.0
  0
TEXT
  5
55
330
24
100
AcDbEntity
  8
0
  6
BYBLOCK
 62
     0
100
AcDbText
 10
4.280808561932659
 20
7.468656615630273
 30
0.0
 40
0.125
  1
1 1/4
 50
90.0
 72
     1
 11
4.218308561932659
 21
7.718656615630273
 31
0.0
100
AcDbText
 73
     2
  0
POINT
  5
56
330
24
100
AcDbEntity
  8
DEFPOINTS
  6
BYBLOCK
 62
     0
100
AcDbPoint
 10
3.672244906998749
 20
8.343656615630273
 30
0.0
  0
POINT
  5
57
330
24
100
AcDbEntity
  8
DEFPOINTS
  6
BYBLOCK
 62
     0
100
AcDbPoint
 10
3.047244906998749
 20
7.093656615630273
 30
0.0
  0
POINT
  5
58
330
24
100
AcDbEntity
  8
DEFPOINTS
  6
BYBLOCK
 62
     0
100
AcDbPoint
 10
4.218308561932659
 20
7.093656615630273
 30
0.0
  0
ENDBLK
  5
59
330
24
100
AcDbEntity
  8
0
100
AcDbBlockEnd
  0
BLOCK
  5
5A
330
25
100
AcDbEntity
  8
0
100
AcDbBlockBegin
  2
*D3
 70
     1
 10
0.0
 20
0.0
 30
0.0
  3
*D3
  1

  0
LINE
  5
5B
330
25
100
AcDbEntity
  8
0
  6
BYBLOCK
 62
     0
100
AcDbLine
 10
3.109744906998749
 20
7.093656615630273
 30
0.0
 11
4.398308561932658
 21
7.093656615630273
 31
0.0
  0
LINE
  5
5C
330
25
100
AcDbEntity
  8
0
  6
BYBLOCK
 62
     0
100
AcDbLine
 10
3.109744906998749
 20
3.593656615630273
 30
0.0
 11
4.398308561932658
 21
3.593656615630273
 31
0.0
  0
LINE
  5
5D
330
25
100
AcDbEntity
  8
0
  6
BYBLOCK
 62
     0
100
AcDbLine
 10
4.218308561932659
 20
7.093656615630273
 30
0.0
 11
4.218308561932659
 21
5.739489948963606
 31
0.0
  0
LINE
  5
5E
330
25
100
AcDbEntity
  8
0
  6
BYBLOCK
 62
     0
100
AcDbLine
 10
4.218308561932659
 20
3.593656615630273
 30
0.0
 11
4.218308561932659
 21
4.94782328229694
 31
0.0
  0
LINE
  5
5F
330
25
100
AcDbEntity
  8
0
  6
BYBLOCK
 62
     0
100
AcDbLine
 10
4.343308561932659
 20
6.968656615630273
 30
0.0
 11
4.093308561932659
 21
7.218656615630273
 31
0.0
  0
LINE
  5
60
330
25
100
AcDbEntity
  8
0
  6
BYBLOCK
 62
     0
100
AcDbLine
 10
4.343308561932659
 20
3.468656615630273
 30
0.0
 11
4.093308561932659
 21
3.718656615630273
 31
0.0
  0
TEXT
  5
61
330
25
100
AcDbEntity
  8
0
  6
BYBLOCK
 62
     0
100
AcDbText
 10
4.280808561932659
 20
5.07282328229694
 30
0.0
 40
0.125
  1
3 1/2
 50
90.0
 72
     1
 11
4.218308561932659
 21
5.343656615630273
 31
0.0
100
AcDbText
 73
     2
  0
POINT
  5
62
330
25
100
AcDbEntity
  8
DEFPOINTS
  6
BYBLOCK
 62
     0
100
AcDbPoint
 10
3.047244906998749
 20
7.093656615630273
 30
0.0
  0
POINT
  5
63
330
25
100
AcDbEntity
  8
DEFPOINTS
  6
BYBLOCK
 62
     0
100
AcDbPoint
 10
3.047244906998749
 20
3.593656615630273
 30
0.0
  0
POINT
  5
64
330
25
100
AcDbEntity
  8
DEFPOINTS
  6
BYBLOCK
 62
     0
100
AcDbPoint
 10
4.218308561932659
 20
3.593656615630273
 30
0.0
  0
ENDBLK
  5
65
330
25
100
AcDbEntity
  8
0
100
AcDbBlockEnd
  0
BLOCK
  5
66
330
26
100
AcDbEntity
  8
0
100
AcDbBlockBegin
  2
*D4
 70
     1
 10
0.0
 20
0.0
 30
0.0
  3
*D4
  1

  0
LINE
  5
67
330
26
100
AcDbEntity
  8
0
  6
BYBLOCK
 62
     0
100
AcDbLine
 10
3.109744906998749
 20
3.593656615630273
 30
0.0
 11
4.398308561932658
 21
3.593656615630273
 31
0.0
  0
LINE
  5
68
330
26
100
AcDbEntity
  8
0
  6
BYBLOCK
 62
     0
100
AcDbLine
 10
2.266744906998749
 20
0.3436566156302736
 30
0.0
 11
4.398308561932658
 21
0.3436566156302734
 31
0.0
  0
LINE
  5
69
330
26
100
AcDbEntity
  8
0
  6
BYBLOCK
 62
     0
100
AcDbLine
 10
4.218308561932659
 20
3.593656615630273
 30
0.0
 11
4.218308561932659
 21
2.364489948963606
 31
0.0
  0
LINE
  5
6A
330
26
100
AcDbEntity
  8
0
  6
BYBLOCK
 62
     0
100
AcDbLine
 10
4.218308561932659
 20
0.3436566156302734
 30
0.0
 11
4.218308561932659
 21
1.57282328229694
 31
0.0
  0
LINE
  5
6B
330
26
100
AcDbEntity
  8
0
  6
BYBLOCK
 62
     0
100
AcDbLine
 10
4.343308561932659
 20
3.468656615630273
 30
0.0
 11
4.093308561932659
 21
3.718656615630273
 31
0.0
  0
LINE
  5
6C
330
26
100
AcDbEntity
  8
0
  6
BYBLOCK
 62
     0
100
AcDbLine
 10
4.343308561932659
 20
0.2186566156302734
 30
0.0
 11
4.093308561932659
 21
0.4686566156302735
 31
0.0
  0
TEXT
  5
6D
330
26
100
AcDbEntity
  8
0
  6
BYBLOCK
 62
     0
100
AcDbText
 10
4.280808561932659
 20
1.69782328229694
 30
0.0
 40
0.125
  1
3 1/4
 50
90.0
 72
     1
 11
4.218308561932659
 21
1.968656615630273
 31
0.0
100
AcDbText
 73
     2
  0
POINT
  5
6E
330
26
100
AcDbEntity
  8
DEFPOINTS
  6
BYBLOCK
 62
     0
100
AcDbPoint
 10
3.047244906998749
 20
3.593656615630273
 30
0.0
  0
POINT
  5
6F
330
26
100
AcDbEntity
  8
DEFPOINTS
  6
BYBLOCK
 62
     0
100
AcDbPoint
 10
2.204244906998749
 20
0.3436566156302736
 30
0.0
  0
POINT
  5
70
330
26
100
AcDbEntity
  8
DEFPOINTS
  6
BYBLOCK
 62
     0
100
AcDbPoint
 10
4.218308561932659
 20
0.3436566156302734
 30
0.0
  0
ENDBLK
  5
71
330
26
100
AcDbEntity
  8
0
100
AcDbBlockEnd
  0
BLOCK
  5
72
330
27
100
AcDbEntity
  8
0
100
AcDbBlockBegin
  2
*D5
 70
     1
 10
0.0
 20
0.0
 30
0.0
  3
*D5
  1

  0
LINE
  5
73
330
27
100
AcDbEntity
  8
0
  6
BYBLOCK
 62
     0
100
AcDbLine
 10
1.077744906998749
 20
0.3436566156302736
 30
0.0
 11
-0.9871146122479164
 21
0.3436566156302737
 31
0.0
  0
LINE
  5
74
330
27
100
AcDbEntity
  8
0
  6
BYBLOCK
 62
     0
100
AcDbLine
 10
-0.39025509300125
 20
2.343656615630273
 30
0.0
 11
-0.9871146122479162
 21
2.343656615630273
 31
0.0
  0
LINE
  5
75
330
27
100
AcDbEntity
  8
0
  6
BYBLOCK
 62
     0
100
AcDbLine
 10
-0.8071146122479163
 20
0.3436566156302737
 30
0.0
 11
-0.8071146122479163
 21
1.176989948963606
 31
0.0
  0
LINE
  5
76
330
27
100
AcDbEntity
  8
0
  6
BYBLOCK
 62
     0
100
AcDbLine
 10
-0.8071146122479163
 20
2.343656615630273
 30
0.0
 11
-0.8071146122479163
 21
1.51032328229694
 31
0.0
  0
LINE
  5
77
330
27
100
AcDbEntity
  8
0
  6
BYBLOCK
 62
     0
100
AcDbLine
 10
-0.6821146122479164
 20
0.2186566156302737
 30
0.0
 11
-0.9321146122479163
 21
0.4686566156302737
 31
0.0
  0
LINE
  5
78
330
27
100
AcDbEntity
  8
0
  6
BYBLOCK
 62
     0
100
AcDbLine
 10
-0.6821146122479163
 20
2.218656615630273
 30
0.0
 11
-0.9321146122479163
 21
2.468656615630273
 31
0.0
  0
TEXT
  5
79
330
27
100
AcDbEntity
  8
0
  6
BYBLOCK
 62
     0
100
AcDbText
 10
-0.7446146122479163
 20
1.301989948963606
 30
0.0
 40
0.125
  1
2
 50
90.0
 72
     1
 11
-0.8071146122479163
 21
1.343656615630273
 31
0.0
100
AcDbText
 73
     2
  0
POINT
  5
7A
330
27
100
AcDbEntity
  8
DEFPOINTS
  6
BYBLOCK
 62
     0
100
AcDbPoint
 10
1.140244906998749
 20
0.3436566156302736
 30
0.0
  0
POINT
  5
7B
330
27
100
AcDbEntity
  8
DEFPOINTS
  6
BYBLOCK
 62
     0
100
AcDbPoint
 10
-0.32775509300125
 20
2.343656615630273
 30
0.0
  0
POINT
  5
7C
330
27
100
AcDbEntity
  8
DEFPOINTS
  6
BYBLOCK
 62
     0
100
AcDbPoint
 10
-0.8071146122479163
 20
2.343656615630273
 30
0.0
  0
ENDBLK
  5
7D
330
27
100
AcDbEntity
  8
0
100
AcDbBlockEnd
  0
BLOCK
  5
7E
330
28
100
AcDbEntity
  8
0
100
AcDbBlockBegin
  2
*D6
 70
     1
 10
0.0
 20
0.0
 30
0.0
  3
*D6
  1

  0
LINE
  5
7F
330
28
100
AcDbEntity
  8
0
  6
BYBLOCK
 62
     0
100
AcDbLine
 10
-0.39025509300125
 20
2.343656615630273
 30
0.0
 11
-0.9871146122479167
 21
2.343656615630273
 31
0.0
  0
LINE
  5
80
330
28
100
AcDbEntity
  8
0
  6
BYBLOCK
 62
     0
100
AcDbLine
 10
-0.39025509300125
 20
8.343656615630273
 30
0.0
 11
-0.9871146122479162
 21
8.343656615630273
 31
0.0
  0
LINE
  5
81
330
28
100
AcDbEntity
  8
0
  6
BYBLOCK
 62
     0
100
AcDbLine
 10
-0.8071146122479166
 20
2.343656615630273
 30
0.0
 11
-0.8071146122479165
 21
5.176989948963606
 31
0.0
  0
LINE
  5
82
330
28
100
AcDbEntity
  8
0
  6
BYBLOCK
 62
     0
100
AcDbLine
 10
-0.8071146122479163
 20
8.343656615630273
 30
0.0
 11
-0.8071146122479165
 21
5.51032328229694
 31
0.0
  0
LINE
  5
83
330
28
100
AcDbEntity
  8
0
  6
BYBLOCK
 62
     0
100
AcDbLine
 10
-0.6821146122479167
 20
2.218656615630273
 30
0.0
 11
-0.9321146122479166
 21
2.468656615630273
 31
0.0
  0
LINE
  5
84
330
28
100
AcDbEntity
  8
0
  6
BYBLOCK
 62
     0
100
AcDbLine
 10
-0.6821146122479163
 20
8.218656615630273
 30
0.0
 11
-0.9321146122479163
 21
8.468656615630273
 31
0.0
  0
TEXT
  5
85
330
28
100
AcDbEntity
  8
0
  6
BYBLOCK
 62
     0
100
AcDbText
 10
-0.7446146122479166
 20
5.301989948963606
 30
0.0
 40
0.125
  1
6
 50
90.0
 72
     1
 11
-0.8071146122479165
 21
5.343656615630273
 31
0.0
100
AcDbText
 73
     2
  0
POINT
  5
86
330
28
100
AcDbEntity
  8
DEFPOINTS
  6
BYBLOCK
 62
     0
100
AcDbPoint
 10
-0.32775509300125
 20
2.343656615630273
 30
0.0
  0
POINT
  5
87
330
28
100
AcDbEntity
  8
DEFPOINTS
  6
BYBLOCK
 62
     0
100
AcDbPoint
 10
-0.32775509300125
 20
8.343656615630273
 30
0.0
  0
POINT
  5
88
330
28
100
AcDbEntity
  8
DEFPOINTS
  6
BYBLOCK
 62
     0
100
AcDbPoint
 10
-0.8071146122479163
 20
8.343656615630273
 30
0.0
  0
ENDBLK
  5
89
330
28
100
AcDbEntity
  8
0
100
AcDbBlockEnd
  0
BLOCK
  5
8A
330
29
100
AcDbEntity
  8
0
100
AcDbBlockBegin
  2
*D7
 70
     1
 10
0.0
 20
0.0
 30
0.0
  3
*D7
  1

  0
LINE
  5
8B
330
29
100
AcDbEntity
  8
0
  6
BYBLOCK
 62
     0
100
AcDbLine
 10
-0.3902550930012503
 20
-1.374581424707677
 30
0.0
 11
-0.8011927643823286
 21
-1.374581424707677
 31
0.0
  0
LINE
  5
8C
330
29
100
AcDbEntity
  8
0
  6
BYBLOCK
 62
     0
100
AcDbLine
 10
1.018177825358343
 20
-2.874752687734418
 30
0.0
 11
-0.8011927643823286
 21
-2.874752687734418
 31
0.0
  0
LINE
  5
8D
330
29
100
AcDbEntity
  8
0
  6
BYBLOCK
 62
     0
100
AcDbLine
 10
-0.6211927643823286
 20
-1.374581424707677
 30
0.0
 11
-0.6211927643823286
 21
-1.749667056221048
 31
0.0
  0
LINE
  5
8E
330
29
100
AcDbEntity
  8
0
  6
BYBLOCK
 62
     0
100
AcDbLine
 10
-0.6211927643823287
 20
-2.874752687734418
 30
0.0
 11
-0.6211927643823286
 21
-2.499667056221048
 31
0.0
  0
LINE
  5
8F
330
29
100
AcDbEntity
  8
0
  6
BYBLOCK
 62
     0
100
AcDbLine
 10
-0.4961927643823286
 20
-1.499581424707677
 30
0.0
 11
-0.7461927643823286
 21
-1.249581424707677
 31
0.0
  0
LINE
  5
90
330
29
100
AcDbEntity
  8
0
  6
BYBLOCK
 62
     0
100
AcDbLine
 10
-0.4961927643823286
 20
-2.999752687734418
 30
0.0
 11
-0.7461927643823287
 21
-2.749752687734418
 31
0.0
  0
TEXT
  5
91
330
29
100
AcDbEntity
  8
0
  6
BYBLOCK
 62
     0
100
AcDbText
 10
-0.5586927643823286
 20
-2.374667056221048
 30
0.0
 40
0.125
  1
1 1/2
 50
90.0
 72
     1
 11
-0.6211927643823286
 21
-2.124667056221048
 31
0.0
100
AcDbText
 73
     2
  0
POINT
  5
92
330
29
100
AcDbEntity
  8
DEFPOINTS
  6
BYBLOCK
 62
     0
100
AcDbPoint
 10
-0.3277550930012503
 20
-1.374581424707677
 30
0.0
  0
POINT
  5
93
330
29
100
AcDbEntity
  8
DEFPOINTS
  6
BYBLOCK
 62
     0
100
AcDbPoint
 10
1.080677825358343
 20
-2.874752687734418
 30
0.0
  0
POINT
  5
94
330
29
100
AcDbEntity
  8
DEFPOINTS
  6
BYBLOCK
 62
     0
100
AcDbPoint
 10
-0.6211927643823287
 20
-2.874752687734418
 30
0.0
  0
ENDBLK
  5
95
330
29
100
AcDbEntity
  8
0
100
AcDbBlockEnd
  0
BLOCK
  5
96
330
2A
100
AcDbEntity
  8
0
100
AcDbBlockBegin
  2
*D8
 70
     1
 10
0.0
 20
0.0
 30
0.0
  3
*D8
  1

  0
LINE
  5
97
330
2A
100
AcDbEntity
  8
0
  6
BYBLOCK
 62
     0
100
AcDbLine
 10
3.734744906998749
 20
-1.374581424707678
 30
0.0
 11
4.105343906903408
 21
-1.374581424707678
 31
0.0
  0
LINE
  5
98
330
2A
100
AcDbEntity
  8
0
  6
BYBLOCK
 62
     0
100
AcDbLine
 10
1.735387333642246
 20
-5.058966564803307
 30
0.0
 11
4.105343906903408
 21
-5.058966564803307
 31
0.0
  0
LINE
  5
99
330
2A
100
AcDbEntity
  8
0
  6
BYBLOCK
 62
     0
100
AcDbLine
 10
3.925343906903408
 20
-1.374581424707678
 30
0.0
 11
3.925343906903408
 21
-2.737607328088826
 31
0.0
  0
LINE
  5
9A
330
2A
100
AcDbEntity
  8
0
  6
BYBLOCK
 62
     0
100
AcDbLine
 10
3.925343906903408
 20
-5.058966564803307
 30
0.0
 11
3.925343906903408
 21
-3.695940661422159
 31
0.0
  0
LINE
  5
9B
330
2A
100
AcDbEntity
  8
0
  6
BYBLOCK
 62
     0
100
AcDbLine
 10
4.050343906903409
 20
-1.499581424707678
 30
0.0
 11
3.800343906903408
 21
-1.249581424707678
 31
0.0
  0
LINE
  5
9C
330
2A
100
AcDbEntity
  8
0
  6
BYBLOCK
 62
     0
100
AcDbLine
 10
4.050343906903409
 20
-5.183966564803307
 30
0.0
 11
3.800343906903408
 21
-4.933966564803307
 31
0.0
  0
TEXT
  5
9D
330
2A
100
AcDbEntity
  8
0
  6
BYBLOCK
 62
     0
100
AcDbText
 10
3.987843906903408
 20
-3.570940661422159
 30
0.0
 40
0.125
  1
3 11/16
 50
90.0
 72
     1
 11
3.925343906903408
 21
-3.216773994755493
 31
0.0
100
AcDbText
 73
     2
  0
POINT
  5
9E
330
2A
100
AcDbEntity
  8
DEFPOINTS
  6
BYBLOCK
 62
     0
100
AcDbPoint
 10
3.672244906998749
 20
-1.374581424707678
 30
0.0
  0
POINT
  5
9F
330
2A
100
AcDbEntity
  8
DEFPOINTS
  6
BYBLOCK
 62
     0
100
AcDbPoint
 10
1.672887333642246
 20
-5.058966564803307
 30
0.0
  0
POINT
  5
A0
330
2A
100
AcDbEntity
  8
DEFPOINTS
  6
BYBLOCK
 62
     0
100
AcDbPoint
 10
3.925343906903408
 20
-5.058966564803307
 30
0.0
  0
ENDBLK
  5
A1
330
2A
100
AcDbEntity
  8
0
100
AcDbBlockEnd
  0
ENDSEC
  0
SECTION
  2
ENTITIES
  0
DIMENSION
  5
A2
330
1E
100
AcDbEntity
  8
ADPDIM
100
AcDbDimension
  2
*D4
 10
4.218308561932659
 20
0.3436566156302734
 30
0.0
 11
4.218308561932659
 21
1.968656615630273
 31
0.0
100
AcDbAlignedDimension
 13
3.047244906998749
 23
3.593656615630273
 33
0.0
 14
2.204244906998749
 24
0.3436566156302736
 34
0.0
 50
90.0
100
AcDbRotatedDimension
  0
DIMENSION
  5
A3
330
1E
100
AcDbEntity
  8
ADPDIM
100
AcDbDimension
  2
*D6
 10
-0.8071146122479163
 20
8.343656615630273
 30
0.0
 11
-0.8071146122479165
 21
5.343656615630273
 31
0.0
100
AcDbAlignedDimension
 13
-0.32775509300125
 23
2.343656615630273
 33
0.0
 14
-0.32775509300125
 24
8.343656615630273
 34
0.0
 50
90.0
100
AcDbRotatedDimension
  0
LWPOLYLINE
  5
A4
330
1E
100
AcDbEntity
  8
ADP1DETAIL
100
AcDbPolyline
 90
        4
 70
     1
 43
0.0
 10
-0.32775509300125
 20
2.343656615630273
 10
-0.32775509300125
 20
8.343656615630273
 10
3.672244906998749
 20
8.343656615630273
 10
3.672244906998749
 20
2.343656615630273
  0
LINE
  5
AA
330
1E
100
AcDbEntity
  8
ADP1DETAIL
100
AcDbLine
 10
-0.2027550930012503
 20
2.343656615630273
 30
0.0
 11
-0.2027550930012503
 21
8.343656615630273
 31
0.0
  0
LINE
  5
AB
330
1E
100
AcDbEntity
  8
ADP1DETAIL
100
AcDbLine
 10
3.547244906998749
 20
2.343656615630273
 30
0.0
 11
3.547244906998751
 21
8.343656615630273
 31
0.0
  0
LINE
  5
AC
330
1E
100
AcDbEntity
  8
ADP1DETAIL
100
AcDbLine
 10
2.547744906998749
 20
8.343656615630273
 30
0.0
 11
2.547744906998749
 21
2.343656615630273
 31
0.0
  0
LINE
  5
AD
330
1E
100
AcDbEntity
  8
ADP1DETAIL
100
AcDbLine
 10
0.7967449069987496
 20
2.343656615630273
 30
0.0
 11
0.7967449069987496
 21
8.343656615630273
 31
0.0
  0
DIMENSION
  5
AE
330
1E
100
AcDbEntity
  8
ADPDIM
100
AcDbDimension
  2
*D7
 10
-0.6211927643823287
 20
-2.874752687734418
 30
0.0
 11
-0.6211927643823286
 21
-2.124667056221048
 31
0.0
100
AcDbAlignedDimension
 13
-0.3277550930012503
 23
-1.374581424707677
 33
0.0
 14
1.080677825358343
 24
-2.874752687734418
 34
0.0
 50
270.0
100
AcDbRotatedDimension
  0
LINE
  5
AF
330
1E
100
AcDbEntity
  8
ADP1DETAIL
100
AcDbLine
 10
-0.2027550930012503
 20
-1.624581424707677
 30
0.0
 11
1.109744906998749
 21
-1.624581424707678
 31
0.0
  0
DIMENSION
  5
B0
330
1E
100
AcDbEntity
  8
ADPDIM
100
AcDbDimension
  2
*D5
 10
-0.8071146122479163
 20
2.343656615630273
 30
0.0
 11
-0.8071146122479163
 21
1.343656615630273
 31
0.0
100
AcDbAlignedDimension
 13
1.140244906998749
 23
0.3436566156302736
 33
0.0
 14
-0.32775509300125
 24
2.343656615630273
 34
0.0
 50
90.0
100
AcDbRotatedDimension
  0
DIMENSION
  5
B1
330
1E
100
AcDbEntity
  8
ADPDIM
100
AcDbDimension
  2
*D1
 10
-0.3277550930012503
 20
-0.8473928879979805
 30
0.0
 11
1.672244906998749
 21
-0.8473928879979805
 31
0.0
100
AcDbAlignedDimension
 13
3.672244906998749
 23
-1.374581424707678
 33
0.0
 14
-0.3277550930012503
 24
-1.374581424707677
 34
0.0
100
AcDbRotatedDimension
  0
LINE
  5
B2
330
1E
100
AcDbEntity
  8
ADP1DETAIL
100
AcDbLine
 10
-0.3277550930012503
 20
-1.374581424707677
 30
0.0
 11
3.672244906998749
 21
-1.374581424707678
 31
0.0
  0
LINE
  5
B3
330
1E
100
AcDbEntity
  8
ADP2DETAIL
  6
HIDDEN2
100
AcDbLine
 10
0.1417449069987497
 20
-1.624581424707677
 30
0.0
 11
0.1417449069987499
 21
-1.374581424707677
 31
0.0
  0
LINE
  5
B4
330
1E
100
AcDbEntity
  8
ADP1DETAIL
100
AcDbLine
 10
-0.3277550930012503
 20
-1.374581424707677
 30
0.0
 11
-0.3277550930012503
 21
-1.499581424707677
 31
0.0
  0
LINE
  5
B5
330
1E
100
AcDbEntity
  8
ADP1DETAIL
100
AcDbLine
 10
-0.3277550930012503
 20
-1.499581424707677
 30
0.0
 11
-0.2027550930012503
 21
-1.624581424707677
 31
0.0
  0
DIMENSION
  5
B6
330
1E
100
AcDbEntity
  8
ADPDIM
100
AcDbDimension
  2
*D8
 10
3.925343906903408
 20
-5.058966564803307
 30
0.0
 11
3.925343906903408
 21
-3.216773994755493
 31
0.0
100
AcDbAlignedDimension
 13
3.672244906998749
 23
-1.374581424707678
 33
0.0
 14
1.672887333642246
 24
-5.058966564803307
 34
0.0
 50
90.0
100
AcDbRotatedDimension
  0
ARC
  5
B7
330
1E
100
AcDbEntity
  8
ADP1DETAIL
100
AcDbCircle
 10
1.080848972779162
 20
-2.981307340745326
 30
0.0
 40
0.281
100
AcDbArc
 50
119.6119085562955
 51
182.2876945907825
  0
ARC
  5
B8
330
1E
100
AcDbEntity
  8
ADP1DETAIL
100
AcDbCircle
 10
2.263640841218337
 20
-2.981307340745326
 30
0.0
 40
0.281
100
AcDbArc
 50
357.7123054092174
 51
60.38809144370442
  0
LINE
  5
B9
330
1E
100
AcDbEntity
  8
ADP1DETAIL
100
AcDbLine
 10
1.487677825358343
 20
-3.326117463273549
 30
0.0
 11
1.487677825358343
 21
-2.874752687734418
 31
0.0
  0
ARC
  5
BA
330
1E
100
AcDbEntity
  8
ADP1DETAIL
100
AcDbCircle
 10
1.091129910253648
 20
-2.978454948396409
 30
0.0
 40
0.1041731868211267
100
AcDbArc
 50
92.5232752464074
 51
173.8987191592467
  0
ARC
  5
BB
330
1E
100
AcDbEntity
  8
ADP1DETAIL
100
AcDbCircle
 10
2.258487677658699
 20
-2.974547395452842
 30
0.0
 40
0.1002786810588659
100
AcDbArc
 50
5.465546743632359
 51
86.95644119650728
  0
LINE
  5
BC
330
1E
100
AcDbEntity
  8
ADP1DETAIL
100
AcDbLine
 10
1.862677825358343
 20
-3.326117463273548
 30
0.0
 11
1.862677825358343
 21
-2.874752687734418
 31
0.0
  0
ARC
  5
BD
330
1E
100
AcDbEntity
  8
ADP1DETAIL
100
AcDbCircle
 10
1.672887333642246
 20
-4.778966564803306
 30
0.0
 40
0.093
100
AcDbArc
 50
214.1540398616903
 51
325.8459601383096
  0
ARC
  5
BE
330
1E
100
AcDbEntity
  8
ADP1DETAIL
100
AcDbCircle
 10
1.672887333642246
 20
-4.778966564803306
 30
0.0
 40
0.28
100
AcDbArc
 50
214.1540398616903
 51
325.8459601383096
  0
LINE
  5
BF
330
1E
100
AcDbEntity
  8
ADP1DETAIL
100
AcDbLine
 10
1.862677825358343
 20
-3.232117463273548
 30
0.0
 11
1.487677825358343
 21
-3.232117463273549
 31
0.0
  0
LINE
  5
C0
330
1E
100
AcDbEntity
  8
ADP1DETAIL
100
AcDbLine
 10
1.832677825358343
 20
-3.263117463273548
 30
0.0
 11
1.517677825358343
 21
-3.263117463273549
 31
0.0
  0
LINE
  5
C1
330
1E
100
AcDbEntity
  8
ADP1DETAIL
100
AcDbLine
 10
1.862677825358343
 20
-3.294117463273548
 30
0.0
 11
1.487677825358343
 21
-3.294117463273549
 31
0.0
  0
LINE
  5
C2
330
1E
100
AcDbEntity
  8
ADP1DETAIL
100
AcDbLine
 10
1.832677825358343
 20
-3.325117463273548
 30
0.0
 11
1.517677825358343
 21
-3.325117463273548
 31
0.0
  0
LINE
  5
C3
330
1E
100
AcDbEntity
  8
ADP1DETAIL
100
AcDbLine
 10
1.832677825358343
 20
-3.356117463273548
 30
0.0
 11
1.517677825358343
 21
-3.356117463273549
 31
0.0
  0
LINE
  5
C4
330
1E
100
AcDbEntity
  8
ADP1DETAIL
100
AcDbLine
 10
1.832677825358343
 20
-2.950117463273548
 30
0.0
 11
1.517677825358343
 21
-2.950117463273548
 31
0.0
  0
LINE
  5
C5
330
1E
100
AcDbEntity
  8
ADP1DETAIL
100
AcDbLine
 10
1.862677825358343
 20
-2.984117463273548
 30
0.0
 11
1.487677825358343
 21
-2.984117463273549
 31
0.0
  0
LINE
  5
C6
330
1E
100
AcDbEntity
  8
ADP1DETAIL
100
AcDbLine
 10
1.832677825358343
 20
-3.015117463273548
 30
0.0
 11
1.517677825358343
 21
-3.015117463273548
 31
0.0
  0
LINE
  5
C7
330
1E
100
AcDbEntity
  8
ADP1DETAIL
100
AcDbLine
 10
1.862677825358343
 20
-3.044117463273548
 30
0.0
 11
1.487677825358343
 21
-3.044117463273549
 31
0.0
  0
LINE
  5
C8
330
1E
100
AcDbEntity
  8
ADP1DETAIL
100
AcDbLine
 10
1.832677825358343
 20
-3.075117463273548
 30
0.0
 11
1.517677825358343
 21
-3.075117463273548
 31
0.0
  0
LINE
  5
C9
330
1E
100
AcDbEntity
  8
ADP1DETAIL
100
AcDbLine
 10
1.862677825358343
 20
-3.106117463273548
 30
0.0
 11
1.487677825358343
 21
-3.106117463273549
 31
0.0
  0
LINE
  5
CA
330
1E
100
AcDbEntity
  8
ADP1DETAIL
100
AcDbLine
 10
1.832677825358343
 20
-3.137117463273548
 30
0.0
 11
1.517677825358343
 21
-3.137117463273548
 31
0.0
  0
LINE
  5
CB
330
1E
100
AcDbEntity
  8
ADP1DETAIL
100
AcDbLine
 10
1.862677825358343
 20
-3.169117463273548
 30
0.0
 11
1.487677825358343
 21
-3.169117463273549
 31
0.0
  0
LINE
  5
CC
330
1E
100
AcDbEntity
  8
ADP1DETAIL
100
AcDbLine
 10
1.832677825358343
 20
-3.200117463273548
 30
0.0
 11
1.517677825358343
 21
-3.200117463273548
 31
0.0
  0
ARC
  5
CD
330
1E
100
AcDbEntity
  8
ADP1DETAIL
100
AcDbCircle
 10
4.525387333642248
 20
-2.843752687734417
 30
0.0
 40
3.726999999999999
100
AcDbArc
 50
182.0787951224659
 51
214.1540398616903
  0
ARC
  5
CE
330
1E
100
AcDbEntity
  8
ADP1DETAIL
100
AcDbCircle
 10
4.525387333642248
 20
-2.843752687734417
 30
0.0
 40
3.54
100
AcDbArc
 50
182.0013905096496
 51
214.1540398616903
  0
ARC
  5
CF
330
1E
100
AcDbEntity
  8
ADP1DETAIL
100
AcDbCircle
 10
1.517677825358343
 20
-3.326117463273549
 30
0.0
 40
0.03
100
AcDbArc
 50
180.0
 51
270.0000000000001
  0
ARC
  5
D0
330
1E
100
AcDbEntity
  8
ADP1DETAIL
100
AcDbCircle
 10
-1.179612666357752
 20
-2.843752687734416
 30
0.0
 40
3.726999999999999
100
AcDbArc
 50
325.8459601383096
 51
357.7123054092176
  0
ARC
  5
D1
330
1E
100
AcDbEntity
  8
ADP1DETAIL
100
AcDbCircle
 10
-1.179612666357752
 20
-2.843752687734416
 30
0.0
 40
3.54
100
AcDbArc
 50
325.8459601383096
 51
358.0372608490268
  0
ARC
  5
D2
330
1E
100
AcDbEntity
  8
ADP1DETAIL
100
AcDbCircle
 10
1.832677825358343
 20
-3.326117463273548
 30
0.0
 40
0.03
100
AcDbArc
 50
270.0
 51
0.0
  0
LINE
  5
D3
330
1E
100
AcDbEntity
  8
ADP1DETAIL
100
AcDbLine
 10
3.547244906998749
 20
-1.624581424707678
 30
0.0
 11
2.234744906998749
 21
-1.624581424707678
 31
0.0
  0
DIMENSION
  5
D4
330
1E
100
AcDbEntity
  8
ADPDIM
100
AcDbDimension
  2
*D0
 10
3.110494906998749
 20
-1.117192640780124
 30
0.0
 11
1.735494906998749
 21
-1.117192640780124
 31
0.0
 12
-9.31471277103677
 22
-1.944182485384438
 32
0.0
100
AcDbAlignedDimension
 13
0.3604949069987491
 23
-1.370887032743901
 33
0.0
 14
3.110494906998749
 24
-1.370887032743901
 34
0.0
100
AcDbRotatedDimension
  0
LINE
  5
D5
330
1E
100
AcDbEntity
  8
ADP1DETAIL
100
AcDbLine
 10
1.862677825358343
 20
-2.919117463273548
 30
0.0
 11
1.487677825358343
 21
-2.919117463273549
 31
0.0
  0
LINE
  5
D6
330
1E
100
AcDbEntity
  8
ADP1DETAIL
100
AcDbLine
 10
1.080677825358343
 20
-2.874752687734418
 30
0.0
 11
2.263811988639156
 21
-2.874410161680938
 31
0.0
  0
LINE
  5
D7
330
1E
100
AcDbEntity
  8
ADP2DETAIL
  6
HIDDEN2
100
AcDbLine
 10
1.484744906998749
 20
-1.499581424707678
 30
0.0
 11
1.359744906998749
 21
-1.374581424707678
 31
0.0
  0
LINE
  5
D8
330
1E
100
AcDbEntity
  8
ADP2DETAIL
  6
HIDDEN2
100
AcDbLine
 10
0.5792449069987498
 20
-1.374581424707677
 30
0.0
 11
0.5792449069987498
 21
-1.624581424707678
 31
0.0
  0
LINE
  5
D9
330
1E
100
AcDbEntity
  8
ADP1DETAIL
100
AcDbLine
 10
1.359744906998749
 20
-1.874581424707678
 30
0.0
 11
1.359744906998749
 21
-2.354112729104092
 31
0.0
  0
LINE
  5
DA
330
1E
100
AcDbEntity
  8
ADP2DETAIL
  6
HIDDEN2
100
AcDbLine
 10
1.484744906998749
 20
-1.499581424707678
 30
0.0
 11
1.484744906998749
 21
-2.893216649168548
 31
0.0
  0
ARC
  5
DB
330
1E
100
AcDbEntity
  8
ADP1DETAIL
100
AcDbCircle
 10
1.109744906998749
 20
-2.354112729104092
 30
0.0
 40
0.25
100
AcDbArc
 50
299.6119085562956
 51
0.000000000000007
  0
LINE
  5
DC
330
1E
100
AcDbEntity
  8
ADP1DETAIL
100
AcDbLine
 10
1.233275550698198
 20
-2.571460791131799
 30
0.0
 11
0.9420005292609822
 21
-2.737008119026183
 31
0.0
  0
ARC
  5
DD
330
1E
100
AcDbEntity
  8
ADP1DETAIL
100
AcDbCircle
 10
1.109744906998749
 20
-1.874581424707678
 30
0.0
 40
0.25
100
AcDbArc
 50
0.0
 51
90.0
  0
LINE
  5
DE
330
1E
100
AcDbEntity
  8
ADP2DETAIL
  6
HIDDEN2
100
AcDbLine
 10
2.891744906998749
 20
-1.624581424707678
 30
0.0
 11
2.891744906998749
 21
-1.374581424707678
 31
0.0
  0
LINE
  5
DF
330
1E
100
AcDbEntity
  8
ADP2DETAIL
  6
HIDDEN2
100
AcDbLine
 10
1.984744906998749
 20
-1.374581424707678
 30
0.0
 11
1.859744906998749
 21
-1.499581424707678
 31
0.0
  0
LINE
  5
E0
330
1E
100
AcDbEntity
  8
ADP1DETAIL
100
AcDbLine
 10
2.111214263299301
 20
-2.571460791131799
 30
0.0
 11
2.402489284736517
 21
-2.737008119026183
 31
0.0
  0
LINE
  5
E1
330
1E
100
AcDbEntity
  8
ADP1DETAIL
100
AcDbLine
 10
1.984744906998749
 20
-1.874581424707678
 30
0.0
 11
1.984744906998749
 21
-2.354112729104092
 31
0.0
  0
LINE
  5
E2
330
1E
100
AcDbEntity
  8
ADP2DETAIL
  6
HIDDEN2
100
AcDbLine
 10
1.859744906998749
 20
-1.499581424707678
 30
0.0
 11
1.859744906998749
 21
-2.893216649168548
 31
0.0
  0
ARC
  5
E3
330
1E
100
AcDbEntity
  8
ADP1DETAIL
100
AcDbCircle
 10
2.234744906998749
 20
-2.354112729104092
 30
0.0
 40
0.25
100
AcDbArc
 50
180.0
 51
240.3880914437043
  0
ARC
  5
E4
330
1E
100
AcDbEntity
  8
ADP1DETAIL
100
AcDbCircle
 10
2.234744906998749
 20
-1.874581424707678
 30
0.0
 40
0.25
100
AcDbArc
 50
90.0
 51
180.0
  0
LINE
  5
E5
330
1E
100
AcDbEntity
  8
ADP1DETAIL
100
AcDbLine
 10
2.204244906998749
 20
0.3436566156302736
 30
0.0
 11
1.077744906998749
 21
0.3436566156302736
 31
0.0
  0
ARC
  5
E6
330
1E
100
AcDbEntity
  8
ADP1DETAIL
100
AcDbCircle
 10
1.662395382258874
 20
-0.7125793895082055
 30
0.0
 40
1.207249218998622
100
AcDbArc
 50
61.50498589538178
 51
118.9655181396116
  0
LINE
  5
E7
330
1E
100
AcDbEntity
  8
ADP1DETAIL
100
AcDbLine
 10
0.9847449069987494
 20
0.4366566156302736
 30
0.0
 11
0.9847449069987497
 21
2.343656615630273
 31
0.0
  0
ARC
  5
E8
330
1E
100
AcDbEntity
  8
ADP1DETAIL
100
AcDbCircle
 10
1.077744906998749
 20
0.4366566156302736
 30
0.0
 40
0.093
100
AcDbArc
 50
180.0
 51
270.0
  0
LINE
  5
E9
330
1E
100
AcDbEntity
  8
ADP1DETAIL
100
AcDbLine
 10
2.359744906998749
 20
2.343656615630273
 30
0.0
 11
2.359744906998749
 21
0.4366566156302736
 31
0.0
  0
ARC
  5
EA
330
1E
100
AcDbEntity
  8
ADP1DETAIL
100
AcDbCircle
 10
2.266744906998749
 20
0.4366566156302736
 30
0.0
 40
0.093
100
AcDbArc
 50
270.0
 51
0.0
  0
LINE
  5
EB
330
1E
100
AcDbEntity
  8
ADP1DETAIL
100
AcDbLine
 10
3.672244906998749
 20
-1.374581424707678
 30
0.0
 11
3.672244906998749
 21
-1.499581424707678
 31
0.0
  0
LINE
  5
EC
330
1E
100
AcDbEntity
  8
ADP2DETAIL
  6
HIDDEN2
100
AcDbLine
 10
3.329244906998749
 20
-1.374581424707678
 30
0.0
 11
3.329244906998749
 21
-1.624581424707678
 31
0.0
  0
LINE
  5
ED
330
1E
100
AcDbEntity
  8
ADP1DETAIL
100
AcDbLine
 10
3.672244906998749
 20
-1.499581424707678
 30
0.0
 11
3.547244906998749
 21
-1.624581424707678
 31
0.0
  0
CIRCLE
  5
EE
330
1E
100
AcDbEntity
  8
ADP1DETAIL
100
AcDbCircle
 10
0.2972449069987499
 20
7.093656615630273
 30
0.0
 40
0.21875
  0
CIRCLE
  5
EF
330
1E
100
AcDbEntity
  8
ADP1DETAIL
100
AcDbCircle
 10
0.2972449069987499
 20
3.593656615630273
 30
0.0
 40
0.21875
  0
DIMENSION
  5
F0
330
1E
100
AcDbEntity
  8
ADPDIM
100
AcDbDimension
  2
*D2
 10
4.218308561932659
 20
7.093656615630273
 30
0.0
 11
4.218308561932659
 21
7.718656615630273
 31
0.0
100
AcDbAlignedDimension
 13
3.672244906998749
 23
8.343656615630273
 33
0.0
 14
3.047244906998749
 24
7.093656615630273
 34
0.0
 50
90.0
100
AcDbRotatedDimension
  0
CIRCLE
  5
F1
330
1E
100
AcDbEntity
  8
ADP1DETAIL
100
AcDbCircle
 10
3.047244906998749
 20
7.093656615630273
 30
0.0
 40
0.21875
  0
CIRCLE
  5
F2
330
1E
100
AcDbEntity
  8
ADP1DETAIL
100
AcDbCircle
 10
3.047244906998749
 20
3.593656615630273
 30
0.0
 40
0.21875
  0
DIMENSION
  5
F3
330
1E
100
AcDbEntity
  8
ADPDIM
100
AcDbDimension
  2
*D3
 10
4.218308561932659
 20
3.593656615630273
 30
0.0
 11
4.218308561932659
 21
5.343656615630273
 31
0.0
100
AcDbAlignedDimension
 13
3.047244906998749
 23
7.093656615630273
 33
0.0
 14
3.047244906998749
 24
3.593656615630273
 34
0.0
 50
90.0
100
AcDbRotatedDimension
  0
LINE
  5
F4
330
1E
100
AcDbEntity
  8
ADP2DETAIL
  6
HIDDEN2
100
AcDbLine
 10
2.35974490699875
 20
8.343656615630273
 30
0.0
 11
2.359744906998749
 21
3.593656615630274
 31
0.0
  0
LINE
  5
F5
330
1E
100
AcDbEntity
  8
ADP2DETAIL
  6
HIDDEN2
100
AcDbLine
 10
0.9222449069987494
 20
3.593656615630273
 30
0.0
 11
0.9847449069987499
 21
8.343656615630273
 31
0.0
  0
LINE
  5
F6
330
1E
100
AcDbEntity
  8
ADP2DETAIL
  6
HIDDEN2
100
AcDbLine
 10
2.359744906998749
 20
3.593656615630274
 30
0.0
 11
0.9222449069987494
 21
3.593656615630273
 31
0.0
  0
TEXT
  5
FA
330
1E
100
AcDbEntity
  8
ADPDIM
100
AcDbText
 10
-11.22842016803535
 20
-6.045661970629263
 30
0.0
 40
0.25
  1
J U L I U S  B L U M  &  C O . ,  I N C .      ( 8 0 0 )  5 2 6 - 6 2 9 3        W W W . J U L I U S B L U M . C O M        P A R T  N o .  4 2 6
 41
1.25
  7
ARIAL_WIDE
 72
     1
 11
1.640994906998749
 21
-5.795661970629263
 31
0.0
100
AcDbText
 73
     3
  0
ENDSEC
  0
SECTION
  2
OBJECTS
  0
DICTIONARY
  5
C
330
0
100
AcDbDictionary
  3
ACAD_GROUP
350
D
  3
ACAD_LAYOUT
350
19
  3
ACAD_MLINESTYLE
350
16
  3
ACAD_PLOTSETTINGS
350
18
  3
ACAD_PLOTSTYLENAME
350
E
  3
ACDBHEADERROUNDTRIPXREC
350
2C7
  3
ACDBVARIABLEDICTIONARY
350
16B
  0
DICTIONARY
  5
136
330
1E
100
AcDbDictionary
280
     1
  3
ACAD_LAYOUTSELFREF
360
2E9
  0
DICTIONARY
  5
138
330
1A
100
AcDbDictionary
280
     1
  3
ACAD_LAYOUTSELFREF
360
2E8
  0
DICTIONARY
  5
D
102
{ACAD_REACTORS
330
C
102
}
330
C
100
AcDbDictionary
  0
DICTIONARY
  5
19
102
{ACAD_REACTORS
330
C
102
}
330
C
100
AcDbDictionary
  0
DICTIONARY
  5
16
102
{ACAD_REACTORS
330
C
102
}
330
C
100
AcDbDictionary
  3
STANDARD
350
17
  0
DICTIONARY
  5
18
102
{ACAD_REACTORS
330
C
102
}
330
C
100
AcDbDictionary
  0
ACDBDICTIONARYWDFLT
  5
E
102
{ACAD_REACTORS
330
C
102
}
330
C
100
AcDbDictionary
281
     1
  3
Normal
350
F
100
AcDbDictionaryWithDefault
340
F
  0
DICTIONARY
  5
2C7
102
{ACAD_REACTORS
330
C
102
}
330
C
100
AcDbDictionary
  3
CEPSNTYPE
350
2D1
  3
DIMSTYLEDATA
350
2D5
  3
FINGERPRINTGUID
350
2D2
  3
HYPERLINKBASE
350
2CA
  3
INSUNITS
350
2D0
  3
LAYOUTDICT
350
2CC
  3
LWETCUNION
350
2CF
  3
PLOTSETDICT
350
2CD
  3
PLOTSTYLNAMDICT
350
2CE
  3
PSVPSCALE
350
2D4
  3
PUCSBASE
350
2D8
  3
PUCSORGBACK
350
2DE
  3
PUCSORGBOTTOM
350
2DA
  3
PUCSORGFRONT
350
2DD
  3
PUCSORGLEFT
350
2DB
  3
PUCSORGRIGHT
350
2DC
  3
PUCSORGTOP
350
2D9
  3
PUCSORTHOREF
350
2D6
  3
PUCSORTHOVIEW
350
2D7
  3
STYLESHEET
350
2CB
  3
TSTACKALIGN
350
2C8
  3
TSTACKSIZE
350
2C9
  3
UCSBASE
350
2E1
  3
UCSORGBACK
350
2E7
  3
UCSORGBOTTOM
350
2E3
  3
UCSORGFRONT
350
2E6
  3
UCSORGLEFT
350
2E4
  3
UCSORGRIGHT
350
2E5
  3
UCSORGTOP
350
2E2
  3
UCSORTHOREF
350
2DF
  3
UCSORTHOVIEW
350
2E0
  3
VERSIONGUID
350
2D3
  0
DICTIONARY
  5
16B
102
{ACAD_REACTORS
330
C
102
}
330
C
100
AcDbDictionary
  3
DIMASSOC
350
16D
  3
HIDETEXT
350
16C
  0
XRECORD
  5
2E9
102
{ACAD_REACTORS
330
136
102
}
330
136
100
AcDbXrecord
340
1E
  0
XRECORD
  5
2E8
102
{ACAD_REACTORS
330
138
102
}
330
138
100
AcDbXrecord
340
1A
  0
MLINESTYLE
  5
17
102
{ACAD_REACTORS
330
16
102
}
330
16
100
AcDbMlineStyle
  2
STANDARD
 70
     0
  3

 62
   256
 51
90.0
 52
90.0
 71
     2
 49
0.5
 62
   256
  6
BYLAYER
 49
-0.5
 62
   256
  6
BYLAYER
  0
ACDBPLACEHOLDER
  5
F
102
{ACAD_REACTORS
330
E
102
}
330
E
100
AcDbPlaceHolder
280
     0
  0
XRECORD
  5
2D1
102
{ACAD_REACTORS
330
2C7
102
}
330
2C7
100
AcDbXrecord
 90
        0
  0
XRECORD
  5
2D5
102
{ACAD_REACTORS
330
2C7
102
}
330
2C7
100
AcDbXrecord
1000
DSTYLE
1002
{
1070
   277
 70
     5
1070
   279
 70
     2
1002
}
  0
XRECORD
  5
2D2
102
{ACAD_REACTORS
330
2C7
102
}
330
2C7
100
AcDbXrecord
  1
{5C887945-0177-4648-8F65-57C1B141A91C}
  0
XRECORD
  5
2CA
102
{ACAD_REACTORS
330
2C7
102
}
330
2C7
100
AcDbXrecord
  1

  0
XRECORD
  5
2D0
102
{ACAD_REACTORS
330
2C7
102
}
330
2C7
100
AcDbXrecord
 90
        0
  0
XRECORD
  5
2CC
102
{ACAD_REACTORS
330
2C7
102
}
330
2C7
100
AcDbXrecord
340
19
  0
XRECORD
  5
2CF
102
{ACAD_REACTORS
330
2C7
102
}
330
2C7
100
AcDbXrecord
 90
    14877
  0
XRECORD
  5
2CD
102
{ACAD_REACTORS
330
2C7
102
}
330
2C7
100
AcDbXrecord
340
18
  0
XRECORD
  5
2CE
102
{ACAD_REACTORS
330
2C7
102
}
330
2C7
100
AcDbXrecord
340
E
  0
XRECORD
  5
2D4
102
{ACAD_REACTORS
330
2C7
102
}
330
2C7
100
AcDbXrecord
 40
0.0
  0
XRECORD
  5
2D8
102
{ACAD_REACTORS
330
2C7
102
}
330
2C7
100
AcDbXrecord
340
0
  0
XRECORD
  5
2DE
102
{ACAD_REACTORS
330
2C7
102
}
330
2C7
100
AcDbXrecord
 10
0.0
 20
0.0
 30
0.0
  0
XRECORD
  5
2DA
102
{ACAD_REACTORS
330
2C7
102
}
330
2C7
100
AcDbXrecord
 10
0.0
 20
0.0
 30
0.0
  0
XRECORD
  5
2DD
102
{ACAD_REACTORS
330
2C7
102
}
330
2C7
100
AcDbXrecord
 10
0.0
 20
0.0
 30
0.0
  0
XRECORD
  5
2DB
102
{ACAD_REACTORS
330
2C7
102
}
330
2C7
100
AcDbXrecord
 10
0.0
 20
0.0
 30
0.0
  0
XRECORD
  5
2DC
102
{ACAD_REACTORS
330
2C7
102
}
330
2C7
100
AcDbXrecord
 10
0.0
 20
0.0
 30
0.0
  0
XRECORD
  5
2D9
102
{ACAD_REACTORS
330
2C7
102
}
330
2C7
100
AcDbXrecord
 10
0.0
 20
0.0
 30
0.0
  0
XRECORD
  5
2D6
102
{ACAD_REACTORS
330
2C7
102
}
330
2C7
100
AcDbXrecord
340
0
  0
XRECORD
  5
2D7
102
{ACAD_REACTORS
330
2C7
102
}
330
2C7
100
AcDbXrecord
 70
     0
  0
XRECORD
  5
2CB
102
{ACAD_REACTORS
330
2C7
102
}
330
2C7
100
AcDbXrecord
  1

  0
XRECORD
  5
2C8
102
{ACAD_REACTORS
330
2C7
102
}
330
2C7
100
AcDbXrecord
 90
        1
  0
XRECORD
  5
2C9
102
{ACAD_REACTORS
330
2C7
102
}
330
2C7
100
AcDbXrecord
 90
       70
  0
XRECORD
  5
2E1
102
{ACAD_REACTORS
330
2C7
102
}
330
2C7
100
AcDbXrecord
340
0
  0
XRECORD
  5
2E7
102
{ACAD_REACTORS
330
2C7
102
}
330
2C7
100
AcDbXrecord
 10
0.0
 20
0.0
 30
0.0
  0
XRECORD
  5
2E3
102
{ACAD_REACTORS
330
2C7
102
}
330
2C7
100
AcDbXrecord
 10
0.0
 20
0.0
 30
0.0
  0
XRECORD
  5
2E6
102
{ACAD_REACTORS
330
2C7
102
}
330
2C7
100
AcDbXrecord
 10
0.0
 20
0.0
 30
0.0
  0
XRECORD
  5
2E4
102
{ACAD_REACTORS
330
2C7
102
}
330
2C7
100
AcDbXrecord
 10
0.0
 20
0.0
 30
0.0
  0
XRECORD
  5
2E5
102
{ACAD_REACTORS
330
2C7
102
}
330
2C7
100
AcDbXrecord
 10
0.0
 20
0.0
 30
0.0
  0
XRECORD
  5
2E2
102
{ACAD_REACTORS
330
2C7
102
}
330
2C7
100
AcDbXrecord
 10
0.0
 20
0.0
 30
0.0
  0
XRECORD
  5
2DF
102
{ACAD_REACTORS
330
2C7
102
}
330
2C7
100
AcDbXrecord
340
0
  0
XRECORD
  5
2E0
102
{ACAD_REACTORS
330
2C7
102
}
330
2C7
100
AcDbXrecord
 70
     0
  0
XRECORD
  5
2D3
102
{ACAD_REACTORS
330
2C7
102
}
330
2C7
100
AcDbXrecord
  1
{6948753D-41C4-4A4D-9BD7-1CC5CA347D65}
  0
DICTIONARYVAR
  5
16D
102
{ACAD_REACTORS
330
16B
102
}
330
16B
100
DictionaryVariables
280
     0
  1
2
  0
DICTIONARYVAR
  5
16C
102
{ACAD_REACTORS
330
16B
102
}
330
16B
100
DictionaryVariables
280
     0
  1
1
  0
ENDSEC
  0
EOF
