  0
SECTION
  2
HEADER
  9
$ACADVER
  1
AC1014
  9
$ACADMAINTVER
 70
     9
  9
$DWGCODEPAGE
  3
ANSI_1252
  9
$INSBASE
 10
1.035295815049402
 20
20.53822956246506
 30
0.0
  9
$EXTMIN
 10
-5.46489618263187
 20
18.85706306112819
 30
0.0
  9
$EXTMAX
 10
7.088821416276725
 20
26.03914249532956
 30
0.0
  9
$LIMMIN
 10
0.0
 20
0.0
  9
$LIMMAX
 10
36.0
 20
36.0
  9
$ORTHOMODE
 70
     1
  9
$REGENMODE
 70
     1
  9
$FILLMODE
 70
     1
  9
$QTEXTMODE
 70
     0
  9
$MIRRTEXT
 70
     1
  9
$DRAGMODE
 70
     0
  9
$LTSCALE
 40
1.0
  9
$OSMODE
 70
    37
  9
$ATTMODE
 70
     1
  9
$TEXTSIZE
 40
0.2
  9
$TRACEWID
 40
0.05
  9
$TEXTSTYLE
  7
ARIAL_WIDE
  9
$CLAYER
  8
ADPDIM
  9
$CELTYPE
  6
BYLAYER
  9
$CECOLOR
 62
   256
  9
$CELTSCALE
 40
1.0
  9
$DELOBJ
 70
     1
  9
$DISPSILH
 70
     0
  9
$DIMSCALE
 40
1.0
  9
$DIMASZ
 40
0.125
  9
$DIMEXO
 40
0.0625
  9
$DIMDLI
 40
0.38
  9
$DIMRND
 40
0.0
  9
$DIMDLE
 40
0.0
  9
$DIMEXE
 40
0.18
  9
$DIMTP
 40
0.0
  9
$DIMTM
 40
0.0
  9
$DIMTXT
 40
0.125
  9
$DIMCEN
 40
0.1875
  9
$DIMTSZ
 40
0.125
  9
$DIMTOL
 70
     0
  9
$DIMLIM
 70
     0
  9
$DIMTIH
 70
     0
  9
$DIMTOH
 70
     0
  9
$DIMSE1
 70
     0
  9
$DIMSE2
 70
     0
  9
$DIMTAD
 70
     0
  9
$DIMZIN
 70
     3
  9
$DIMBLK
  1

  9
$DIMASO
 70
     1
  9
$DIMSHO
 70
     1
  9
$DIMPOST
  1

  9
$DIMAPOST
  1

  9
$DIMALT
 70
     0
  9
$DIMALTD
 70
     1
  9
$DIMALTF
 40
25.4
  9
$DIMLFAC
 40
1.0
  9
$DIMTOFL
 70
     0
  9
$DIMTVP
 40
0.0
  9
$DIMTIX
 70
     0
  9
$DIMSOXD
 70
     0
  9
$DIMSAH
 70
     0
  9
$DIMBLK1
  1

  9
$DIMBLK2
  1

  9
$DIMSTYLE
  2
STANDARD
  9
$DIMCLRD
 70
     0
  9
$DIMCLRE
 70
     0
  9
$DIMCLRT
 70
     0
  9
$DIMTFAC
 40
1.0
  9
$DIMGAP
 40
0.125
  9
$DIMJUST
 70
     0
  9
$DIMSD1
 70
     0
  9
$DIMSD2
 70
     0
  9
$DIMTOLJ
 70
     1
  9
$DIMTZIN
 70
     3
  9
$DIMALTZ
 70
     3
  9
$DIMALTTZ
 70
     3
  9
$DIMFIT
 70
     5
  9
$DIMUPT
 70
     0
  9
$DIMUNIT
 70
     5
  9
$DIMDEC
 70
     4
  9
$DIMTDEC
 70
     4
  9
$DIMALTU
 70
     5
  9
$DIMALTTD
 70
     1
  9
$DIMTXSTY
  7
STANDARD
  9
$DIMAUNIT
 70
     0
  9
$LUNITS
 70
     5
  9
$LUPREC
 70
     4
  9
$SKETCHINC
 40
0.1
  9
$FILLETRAD
 40
0.062
  9
$AUNITS
 70
     0
  9
$AUPREC
 70
     0
  9
$MENU
  1
acad
  9
$ELEVATION
 40
0.0
  9
$PELEVATION
 40
0.0
  9
$THICKNESS
 40
0.0
  9
$LIMCHECK
 70
     0
  9
$BLIPMODE
 70
     0
  9
$CHAMFERA
 40
0.0
  9
$CHAMFERB
 40
0.0
  9
$CHAMFERC
 40
0.0
  9
$CHAMFERD
 40
0.0
  9
$SKPOLY
 70
     0
  9
$TDCREATE
 40
2450367.648414733
  9
$TDUPDATE
 40
2452297.063147233
  9
$TDINDWG
 40
0.0225841088
  9
$TDUSRTIMER
 40
0.0225841088
  9
$USRTIMER
 70
     1
  9
$ANGBASE
 50
0.0
  9
$ANGDIR
 70
     0
  9
$PDMODE
 70
     0
  9
$PDSIZE
 40
0.0
  9
$PLINEWID
 40
0.0
  9
$COORDS
 70
     2
  9
$SPLFRAME
 70
     0
  9
$SPLINETYPE
 70
     6
  9
$SPLINESEGS
 70
     8
  9
$ATTDIA
 70
     0
  9
$ATTREQ
 70
     1
  9
$HANDLING
 70
 22529
  9
$HANDSEED
  5
1C9
  9
$SURFTAB1
 70
     6
  9
$SURFTAB2
 70
     6
  9
$SURFTYPE
 70
     6
  9
$SURFU
 70
     6
  9
$SURFV
 70
     6
  9
$UCSNAME
  2

  9
$UCSORG
 10
0.0
 20
0.0
 30
0.0
  9
$UCSXDIR
 10
1.0
 20
0.0
 30
0.0
  9
$UCSYDIR
 10
0.0
 20
1.0
 30
0.0
  9
$PUCSNAME
  2

  9
$PUCSORG
 10
0.0
 20
0.0
 30
0.0
  9
$PUCSXDIR
 10
1.0
 20
0.0
 30
0.0
  9
$PUCSYDIR
 10
0.0
 20
1.0
 30
0.0
  9
$USERI1
 70
     0
  9
$USERI2
 70
     0
  9
$USERI3
 70
     0
  9
$USERI4
 70
     0
  9
$USERI5
 70
     0
  9
$USERR1
 40
0.0
  9
$USERR2
 40
0.0
  9
$USERR3
 40
0.0
  9
$USERR4
 40
0.0
  9
$USERR5
 40
0.0
  9
$WORLDVIEW
 70
     1
  9
$SHADEDGE
 70
     3
  9
$SHADEDIF
 70
    70
  9
$TILEMODE
 70
     1
  9
$MAXACTVP
 70
    15
  9
$PINSBASE
 10
0.1093756556510927
 20
0.0
 30
0.0
  9
$PLIMCHECK
 70
     0
  9
$PEXTMIN
 10
1.000000000000000E+20
 20
1.000000000000000E+20
 30
1.000000000000000E+20
  9
$PEXTMAX
 10
-1.000000000000000E+20
 20
-1.000000000000000E+20
 30
-1.000000000000000E+20
  9
$PLIMMIN
 10
0.0
 20
0.0
  9
$PLIMMAX
 10
12.0
 20
9.0
  9
$UNITMODE
 70
     0
  9
$VISRETAIN
 70
     0
  9
$PLINEGEN
 70
     0
  9
$PSLTSCALE
 70
     1
  9
$TREEDEPTH
 70
  3020
  9
$PICKSTYLE
 70
     1
  9
$CMLSTYLE
  2
STANDARD
  9
$CMLJUST
 70
     0
  9
$CMLSCALE
 40
1.0
  9
$PROXYGRAPHICS
 70
     0
  9
$MEASUREMENT
 70
     0
  0
ENDSEC
  0
SECTION
  2
CLASSES
  0
CLASS
  1
DICTIONARYVAR
  2
AcDbDictionaryVar
  3
AutoCAD 2000
 90
        0
280
     0
281
     0
  0
CLASS
  1
LWPOLYLINE
  2
AcDbPolyline
  3
AutoCAD 2000
 90
        0
280
     0
281
     1
  0
CLASS
  1
ACDBDICTIONARYWDFLT
  2
AcDbDictionaryWithDefault
  3
AutoCAD 2000
 90
        0
280
     0
281
     0
  0
CLASS
  1
ACDBPLACEHOLDER
  2
AcDbPlaceHolder
  3
AutoCAD 2000
 90
        0
280
     0
281
     0
  0
CLASS
  1
LAYOUT
  2
AcDbLayout
  3
AutoCAD 2000
 90
        0
280
     0
281
     0
  0
CLASS
  1
LONG_TRANSACTION
  2
AcDbLongTransaction
  3
AutoCAD 2000
 90
        0
280
     0
281
     0
  0
CLASS
  1
LWPOLYLINE
  2
AcDbPolyline
  3
AutoCAD 2000
 90
        0
280
     0
281
     1
  0
CLASS
  1
HATCH
  2
AcDbHatch
  3
AutoCAD 2000
 90
        0
280
     0
281
     1
  0
CLASS
  1
XRECORD
  2
AcDbXrecord
  3
AutoCAD 2000
 90
        0
280
     0
281
     0
  0
CLASS
  1
LONG_TRANSACTION
  2
AcDbLongTransaction
  3
AutoCAD 2000
 90
        0
280
     0
281
     0
  0
CLASS
  1
LWPOLYLINE
  2
AcDbPolyline
  3
AutoCAD 2000
 90
        0
280
     0
281
     1
  0
CLASS
  1
HATCH
  2
AcDbHatch
  3
AutoCAD 2000
 90
        0
280
     0
281
     1
  0
CLASS
  1
XRECORD
  2
AcDbXrecord
  3
AutoCAD 2000
 90
        0
280
     0
281
     0
  0
CLASS
  1
LONG_TRANSACTION
  2
AcDbLongTransaction
  3
AutoCAD 2000
 90
        0
280
     0
281
     0
  0
CLASS
  1
LWPOLYLINE
  2
AcDbPolyline
  3
AutoCAD 2000
 90
        0
280
     0
281
     1
  0
CLASS
  1
HATCH
  2
AcDbHatch
  3
AutoCAD 2000
 90
        0
280
     0
281
     1
  0
CLASS
  1
XRECORD
  2
AcDbXrecord
  3
AutoCAD 2000
 90
        0
280
     0
281
     0
  0
CLASS
  1
LONG_TRANSACTION
  2
AcDbLongTransaction
  3
AutoCAD 2000
 90
        0
280
     0
281
     0
  0
CLASS
  1
LWPOLYLINE
  2
AcDbPolyline
  3
AutoCAD 2000
 90
        0
280
     0
281
     1
  0
CLASS
  1
HATCH
  2
AcDbHatch
  3
AutoCAD 2000
 90
        0
280
     0
281
     1
  0
CLASS
  1
XRECORD
  2
AcDbXrecord
  3
AutoCAD 2000
 90
        0
280
     0
281
     0
  0
CLASS
  1
LONG_TRANSACTION
  2
AcDbLongTransaction
  3
AutoCAD 2000
 90
        0
280
     0
281
     0
  0
CLASS
  1
LWPOLYLINE
  2
AcDbPolyline
  3
AutoCAD 2000
 90
        0
280
     0
281
     1
  0
CLASS
  1
HATCH
  2
AcDbHatch
  3
AutoCAD 2000
 90
        0
280
     0
281
     1
  0
CLASS
  1
XRECORD
  2
AcDbXrecord
  3
AutoCAD 2000
 90
        0
280
     0
281
     0
  0
ENDSEC
  0
SECTION
  2
TABLES
  0
TABLE
  2
VPORT
  5
8
330
0
100
AcDbSymbolTable
 70
     2
  0
VPORT
  5
1A5
330
8
100
AcDbSymbolTableRecord
100
AcDbViewportTableRecord
  2
*ACTIVE
 70
     0
 10
0.0
 20
0.0
 11
1.0
 21
1.0
 12
0.8129798262049021
 22
22.44808968860666
 13
0.0
 23
0.0
 14
0.5740882589684922
 24
0.5740882589684922
 15
0.5
 25
0.5
 16
0.0
 26
0.0
 36
1.0
 17
0.0
 27
0.0
 37
0.0
 40
8.033648829956874
 41
1.570528967254408
 42
50.0
 43
0.0
 44
0.0
 50
0.0
 51
0.0
 71
     0
 72
   100
 73
     1
 74
     0
 75
     0
 76
     0
 77
     0
 78
     0
  0
ENDTAB
  0
TABLE
  2
LTYPE
  5
5
330
0
100
AcDbSymbolTable
 70
     1
  0
LTYPE
  5
11
330
5
100
AcDbSymbolTableRecord
100
AcDbLinetypeTableRecord
  2
BYBLOCK
 70
     0
  3

 72
    65
 73
     0
 40
0.0
  0
LTYPE
  5
12
330
5
100
AcDbSymbolTableRecord
100
AcDbLinetypeTableRecord
  2
BYLAYER
 70
     0
  3

 72
    65
 73
     0
 40
0.0
  0
LTYPE
  5
13
330
5
100
AcDbSymbolTableRecord
100
AcDbLinetypeTableRecord
  2
CONTINUOUS
 70
     0
  3
Solid line
 72
    65
 73
     0
 40
0.0
  0
ENDTAB
  0
TABLE
  2
LAYER
  5
2
330
0
100
AcDbSymbolTable
 70
     4
  0
LAYER
  5
E
330
2
100
AcDbSymbolTableRecord
100
AcDbLayerTableRecord
  2
0
 70
     0
 62
     7
  6
CONTINUOUS
  0
LAYER
  5
1F
330
2
100
AcDbSymbolTableRecord
100
AcDbLayerTableRecord
  2
ADPDIM
 70
     0
 62
     3
  6
CONTINUOUS
  0
LAYER
  5
20
330
2
100
AcDbSymbolTableRecord
100
AcDbLayerTableRecord
  2
ADP1DETAIL
 70
     0
 62
     7
  6
CONTINUOUS
  0
LAYER
  5
21
330
2
100
AcDbSymbolTableRecord
100
AcDbLayerTableRecord
  2
DEFPOINTS
 70
     0
 62
     7
  6
CONTINUOUS
  0
ENDTAB
  0
TABLE
  2
STYLE
  5
3
330
0
100
AcDbSymbolTable
 70
     2
  0
STYLE
  5
F
330
3
100
AcDbSymbolTableRecord
100
AcDbTextStyleTableRecord
  2
STANDARD
 70
     0
 40
0.0
 41
1.0
 50
0.0
 71
     0
 42
0.2
  3
txt
  4

  0
STYLE
  5
7B
330
3
100
AcDbSymbolTableRecord
100
AcDbTextStyleTableRecord
  2
ARIAL_WIDE
 70
     0
 40
0.0
 41
1.25
 50
0.0
 71
     0
 42
0.2
  3
ARIAL.TTF
  4

1001
ACAD
1000
Arial
1071
       34
  0
ENDTAB
  0
TABLE
  2
VIEW
  5
6
330
0
100
AcDbSymbolTable
 70
     0
  0
ENDTAB
  0
TABLE
  2
UCS
  5
7
330
0
100
AcDbSymbolTable
 70
     0
  0
ENDTAB
  0
TABLE
  2
APPID
  5
9
330
0
100
AcDbSymbolTable
 70
     1
  0
APPID
  5
10
330
9
100
AcDbSymbolTableRecord
100
AcDbRegAppTableRecord
  2
ACAD
 70
     0
  0
ENDTAB
  0
TABLE
  2
DIMSTYLE
  5
A
330
0
100
AcDbSymbolTable
 70
     1
  0
DIMSTYLE
105
63
330
A
100
AcDbSymbolTableRecord
100
AcDbDimStyleTableRecord
  2
STANDARD
 70
     0
  3

  4

  5

  6

  7

 40
1.0
 41
0.18
 42
0.0625
 43
0.38
 44
0.18
 45
0.0
 46
0.0
 47
0.0
 48
0.0
140
0.18
141
0.09
142
0.0
143
25.4
144
1.0
145
0.0
146
1.0
147
0.09
 71
     0
 72
     0
 73
     1
 74
     1
 75
     0
 76
     0
 77
     0
 78
     0
170
     0
171
     2
172
     0
173
     0
174
     0
175
     0
176
     0
177
     0
178
     0
270
     2
271
     4
272
     4
273
     2
274
     2
340
F
275
     0
280
     0
281
     0
282
     0
283
     1
284
     0
285
     0
286
     0
287
     3
288
     0
  0
ENDTAB
  0
TABLE
  2
BLOCK_RECORD
  5
1
330
0
100
AcDbSymbolTable
 70
     2
  0
BLOCK_RECORD
  5
17
102
{ACAD_XDICTIONARY
360
DF
102
}
330
1
100
AcDbSymbolTableRecord
100
AcDbBlockTableRecord
  2
*MODEL_SPACE
  0
BLOCK_RECORD
  5
14
102
{ACAD_XDICTIONARY
360
DD
102
}
330
1
100
AcDbSymbolTableRecord
100
AcDbBlockTableRecord
  2
*PAPER_SPACE
  0
BLOCK_RECORD
  5
1C
330
1
100
AcDbSymbolTableRecord
100
AcDbBlockTableRecord
  2
*D0
  0
BLOCK_RECORD
  5
1D
330
1
100
AcDbSymbolTableRecord
100
AcDbBlockTableRecord
  2
*D1
  0
ENDTAB
  0
ENDSEC
  0
SECTION
  2
BLOCKS
  0
BLOCK
  5
24
330
17
100
AcDbEntity
  8
0
100
AcDbBlockBegin
  2
*MODEL_SPACE
 70
     0
 10
0.0
 20
0.0
 30
0.0
  3
*MODEL_SPACE
  1

  0
ENDBLK
  5
25
330
17
100
AcDbEntity
  8
0
100
AcDbBlockEnd
  0
BLOCK
  5
22
330
14
100
AcDbEntity
 67
     1
  8
0
100
AcDbBlockBegin
  2
*PAPER_SPACE
 70
     0
 10
0.0
 20
0.0
 30
0.0
  3
*PAPER_SPACE
  1

  0
ENDBLK
  5
23
330
14
100
AcDbEntity
 67
     1
  8
0
100
AcDbBlockEnd
  0
BLOCK
  5
28
330
1C
100
AcDbEntity
  8
0
100
AcDbBlockBegin
  2
*D0
 70
     1
 10
0.0
 20
0.0
 30
0.0
  3
*D0
  1
*U
  0
LINE
  5
29
330
1C
100
AcDbEntity
  8
0
  6
BYBLOCK
 62
     0
100
AcDbLine
 10
1.026094919065688
 20
20.01487375055036
 30
0.0
 11
1.240227221308949
 21
19.88584911284112
 31
0.0
  0
LINE
  5
2A
330
1C
100
AcDbEntity
  8
0
  6
BYBLOCK
 62
     0
100
AcDbLine
 10
0.8545164490894375
 20
19.97231991828335
 30
0.0
 11
1.197673389041938
 21
20.05742758281737
 31
0.0
  0
LINE
  5
2B
330
1C
100
AcDbEntity
  8
0
  6
BYBLOCK
 62
     0
100
AcDbLine
 10
0.6244626168224269
 20
20.1438983882596
 30
0.0
 11
0.9994626168224268
 21
20.1438983882596
 31
0.0
  0
LINE
  5
2C
330
1C
100
AcDbEntity
  8
0
  6
BYBLOCK
 62
     0
100
AcDbLine
 10
0.8119626168224268
 20
19.9563983882596
 30
0.0
 11
0.8119626168224268
 21
20.3313983882596
 31
0.0
  0
TEXT
  5
2D
330
1C
100
AcDbEntity
  8
0
  6
BYBLOCK
 62
     0
100
AcDbText
 10
1.31503721300327
 20
19.76780371842569
 30
0.0
 40
0.125
  1
%%c1/2
 50
328.9290880423833
 72
     1
 11
1.525736957633298
 21
19.71381626256214
 31
0.0
100
AcDbText
 73
     2
  0
POINT
  5
2F
330
1C
100
AcDbEntity
  8
DEFPOINTS
  6
BYBLOCK
 62
     0
100
AcDbPoint
 10
1.026094919065688
 20
20.01487375055036
 30
0.0
  0
POINT
  5
30
330
1C
100
AcDbEntity
  8
DEFPOINTS
  6
BYBLOCK
 62
     0
100
AcDbPoint
 10
0.5978303145791672
 20
20.27292302596884
 30
0.0
  0
ENDBLK
  5
31
330
1C
100
AcDbEntity
  8
0
100
AcDbBlockEnd
  0
BLOCK
  5
32
330
1D
100
AcDbEntity
  8
0
100
AcDbBlockBegin
  2
*D1
 70
     1
 10
0.0
 20
0.0
 30
0.0
  3
*D1
  1
*U
  0
LINE
  5
33
330
1D
100
AcDbEntity
  8
0
  6
BYBLOCK
 62
     0
100
AcDbLine
 10
0.749462616822429
 20
25.91414249532956
 30
0.0
 11
-0.6761853352618315
 21
25.91414249532956
 31
0.0
  0
LINE
  5
34
330
1D
100
AcDbEntity
  8
0
  6
BYBLOCK
 62
     0
100
AcDbLine
 10
0.4739042411182983
 20
20.53822956246506
 30
0.0
 11
-0.6761853352618316
 21
20.53822956246506
 31
0.0
  0
LINE
  5
35
330
1D
100
AcDbEntity
  8
0
  6
BYBLOCK
 62
     0
100
AcDbLine
 10
-0.4961853352618313
 20
25.91414249532956
 30
0.0
 11
-0.4961853352618315
 21
23.64285269556398
 31
0.0
  0
LINE
  5
36
330
1D
100
AcDbEntity
  8
0
  6
BYBLOCK
 62
     0
100
AcDbLine
 10
-0.4961853352618317
 20
20.53822956246506
 30
0.0
 11
-0.4961853352618315
 21
22.80951936223064
 31
0.0
  0
LINE
  5
37
330
1D
100
AcDbEntity
  8
0
  6
BYBLOCK
 62
     0
100
AcDbLine
 10
-0.3711853352618313
 20
25.78914249532956
 30
0.0
 11
-0.6211853352618313
 21
26.03914249532956
 31
0.0
  0
LINE
  5
38
330
1D
100
AcDbEntity
  8
0
  6
BYBLOCK
 62
     0
100
AcDbLine
 10
-0.3711853352618316
 20
20.41322956246506
 30
0.0
 11
-0.6211853352618317
 21
20.66322956246506
 31
0.0
  0
TEXT
  5
39
330
1D
100
AcDbEntity
  8
0
  6
BYBLOCK
 62
     0
100
AcDbText
 10
-0.4336853352618315
 20
22.93451936223064
 30
0.0
 40
0.125
  1
5 3/8
 50
90.0
 72
     1
 11
-0.4961853352618315
 21
23.22618602889731
 31
0.0
100
AcDbText
 73
     2
  0
POINT
  5
3A
330
1D
100
AcDbEntity
  8
DEFPOINTS
  6
BYBLOCK
 62
     0
100
AcDbPoint
 10
0.8119626168224289
 20
25.91414249532956
 30
0.0
  0
POINT
  5
3B
330
1D
100
AcDbEntity
  8
DEFPOINTS
  6
BYBLOCK
 62
     0
100
AcDbPoint
 10
0.5364042411182983
 20
20.53822956246506
 30
0.0
  0
POINT
  5
3C
330
1D
100
AcDbEntity
  8
DEFPOINTS
  6
BYBLOCK
 62
     0
100
AcDbPoint
 10
-0.4961853352618317
 20
20.53822956246506
 30
0.0
  0
ENDBLK
  5
3D
330
1D
100
AcDbEntity
  8
0
100
AcDbBlockEnd
  0
ENDSEC
  0
SECTION
  2
ENTITIES
  0
ARC
  5
3E
330
17
100
AcDbEntity
  8
ADP1DETAIL
100
AcDbCircle
 10
2.156884533455471
 20
23.11741161127464
 30
0.0
 40
1.246594508959765
100
AcDbArc
 50
105.6087416927097
 51
168.6334511006129
  0
ARC
  5
3F
330
17
100
AcDbEntity
  8
ADP1DETAIL
100
AcDbCircle
 10
0.9977067591107738
 20
21.76230848349864
 30
0.0
 40
0.1962864156158069
100
AcDbArc
 50
288.5762687340736
 51
68.02428952114344
  0
ARC
  5
40
330
17
100
AcDbEntity
  8
ADP1DETAIL
100
AcDbCircle
 10
2.00302576530898
 20
23.30471713363768
 30
0.0
 40
1.230790301938553
100
AcDbArc
 50
127.8094559832983
 51
163.0654947189376
  0
LWPOLYLINE
  5
41
330
17
100
AcDbEntity
  8
ADP1DETAIL
100
AcDbPolyline
 90
        5
 70
     0
 43
0.0
 10
1.060237080080177
 20
21.94433323438091
 10
1.060237080080177
 20
22.61426744583738
 42
-0.3128577348244029
 10
1.985170852016872
 20
24.16797209876108
 42
0.4364219881023011
 10
1.248505215964547
 20
24.27710774854661
 10
0.8119626168224289
 20
25.91414249532956
 42
7.631043674065042
  0
DIMENSION
  5
48
330
17
100
AcDbEntity
  8
ADPDIM
100
AcDbDimension
  2
*D0
 10
0.5978303145791672
 20
20.27292302596884
 30
0.0
 11
1.525736957633298
 21
19.71381626256214
 31
0.0
 70
     3
100
AcDbDiametricDimension
 15
1.026094919065688
 25
20.01487375055036
 35
0.0
 40
0.0
  0
ARC
  5
49
330
17
100
AcDbEntity
  8
ADP1DETAIL
100
AcDbCircle
 10
-0.560243212256996
 20
23.11741161127464
 30
0.0
 40
1.246594508959765
100
AcDbArc
 50
11.3665488993871
 51
74.39125830729025
  0
LINE
  5
4A
330
17
100
AcDbEntity
  8
ADP1DETAIL
100
AcDbLine
 10
0.7983206605992379
 20
22.75803248870679
 30
0.0
 11
0.7983206605992379
 21
25.89167670194877
 31
0.0
  0
LWPOLYLINE
  5
4B
330
17
100
AcDbEntity
  8
ADP1DETAIL
100
AcDbPolyline
 90
        5
 70
     0
 43
0.0
 10
0.5364042411182983
 20
21.94433323438091
 10
0.5364042411182983
 20
22.61426744583738
 42
0.3128577348244029
 10
-0.3885295308183973
 20
24.16797209876108
 42
-0.4364219881023011
 10
0.3481361052339285
 20
24.27710774854661
 10
0.7846787043760468
 20
25.91414249532956
 42
-7.631043674065042
  0
DIMENSION
  5
52
330
17
100
AcDbEntity
  8
ADPDIM
100
AcDbDimension
  2
*D1
 10
-0.4961853352618317
 20
20.53822956246506
 30
0.0
 11
-0.4961853352618315
 21
23.22618602889731
 31
0.0
100
AcDbAlignedDimension
 13
0.8119626168224289
 23
25.91414249532956
 33
0.0
 14
0.5364042411182983
 24
20.53822956246506
 34
0.0
 50
90.0
100
AcDbRotatedDimension
  0
LWPOLYLINE
  5
53
330
17
100
AcDbEntity
  8
ADP1DETAIL
100
AcDbPolyline
 90
        2
 70
     0
 43
0.0
 10
0.5364042411182983
 20
20.53822956246506
 10
0.5364042411182981
 20
21.57624850415121
 42
0.3128577348244029
  0
LWPOLYLINE
  5
57
330
17
100
AcDbEntity
  8
ADP1DETAIL
100
AcDbPolyline
 90
        2
 70
     0
 43
0.0
 10
1.060237080080177
 20
20.53822956246506
 10
1.060237080080177
 20
21.57624850415121
 42
-0.3128577348244029
  0
CIRCLE
  5
5B
330
17
100
AcDbEntity
  8
ADP1DETAIL
100
AcDbCircle
 10
0.8119626168224289
 20
20.1438983882596
 30
0.0
 40
0.25
  0
LINE
  5
5C
330
17
100
AcDbEntity
  8
ADP1DETAIL
100
AcDbLine
 10
0.5364042411182983
 20
20.53822956246506
 30
0.0
 11
1.060237080080177
 21
20.53822956246506
 31
0.0
  0
ARC
  5
5D
330
17
100
AcDbEntity
  8
ADP1DETAIL
100
AcDbCircle
 10
-2.997482309360279
 20
22.30190660157834
 30
0.0
 40
3.810145838504507
100
AcDbArc
 50
355.0269689419426
 51
16.17170973109847
  0
ARC
  5
5E
330
17
100
AcDbEntity
  8
ADP1DETAIL
100
AcDbCircle
 10
4.594123630558755
 20
22.30190660157834
 30
0.0
 40
3.810145838504507
100
AcDbArc
 50
163.8282902689015
 51
184.9730310580574
  0
ARC
  5
5F
330
17
100
AcDbEntity
  8
ADP1DETAIL
100
AcDbCircle
 10
0.5989345620877018
 20
21.76230848349864
 30
0.0
 40
0.1962864156158069
100
AcDbArc
 50
111.9757104788565
 51
251.4237312659263
  0
LINE
  5
60
330
17
100
AcDbEntity
  8
ADP1DETAIL
100
AcDbLine
 10
0.5254815361354144
 20
21.94433323438091
 30
0.0
 11
1.071159785063059
 21
21.94433323438091
 31
0.0
  0
LINE
  5
61
330
17
100
AcDbEntity
  8
ADP1DETAIL
100
AcDbLine
 10
1.060237080080178
 20
21.57624850415122
 30
0.0
 11
0.5364042411182974
 21
21.57624850415122
 31
0.0
  0
ARC
  5
62
330
17
100
AcDbEntity
  8
ADP1DETAIL
100
AcDbCircle
 10
-0.406384444110505
 20
23.30471713363768
 30
0.0
 40
1.230790301938553
100
AcDbArc
 50
16.93450528106233
 51
52.19054401670162
  0
TEXT
  5
9F
330
17
100
AcDbEntity
  8
ADPDIM
100
AcDbText
 10
-5.46489618263187
 20
18.89406851815411
 30
0.0
 40
0.125
  1
J U L I U S  B L U M  &  C O . ,  I N C .      ( 8 0 0 )  5 2 6 - 6 2 9 3        W W W . J U L I U S B L U M . C O M        P A R T  N O .  4
 41
1.25
  7
ARIAL_WIDE
 72
     1
 11
0.8119626168224268
 21
19.01906851815411
 31
0.0
100
AcDbText
 73
     3
  0
ENDSEC
  0
SECTION
  2
OBJECTS
  0
DICTIONARY
  5
C
330
0
100
AcDbDictionary
  3
ACAD_GROUP
350
D
  3
ACAD_LAYOUT
350
B2
  3
ACAD_MLINESTYLE
350
1A
  3
ACAD_PLOTSETTINGS
350
B3
  3
ACAD_PLOTSTYLENAME
350
B0
  3
ACDBHEADERROUNDTRIPXREC
350
1A6
  3
ACDBVARIABLEDICTIONARY
350
26
  3
BNS_SELSET
350
EA
  0
DICTIONARY
  5
DF
330
17
100
AcDbDictionary
280
     1
  3
ACAD_LAYOUTSELFREF
360
1C8
  0
DICTIONARY
  5
DD
330
14
100
AcDbDictionary
280
     1
  3
ACAD_LAYOUTSELFREF
360
1C7
  0
DICTIONARY
  5
D
102
{ACAD_REACTORS
330
C
102
}
330
C
100
AcDbDictionary
  0
DICTIONARY
  5
B2
102
{ACAD_REACTORS
330
C
102
}
330
C
100
AcDbDictionary
  0
DICTIONARY
  5
1A
102
{ACAD_REACTORS
330
C
102
}
330
C
100
AcDbDictionary
  3
STANDARD
350
1B
  0
DICTIONARY
  5
B3
102
{ACAD_REACTORS
330
C
102
}
330
C
100
AcDbDictionary
  0
ACDBDICTIONARYWDFLT
  5
B0
102
{ACAD_REACTORS
330
C
102
}
330
C
100
AcDbDictionary
281
     1
  3
Normal
350
B1
100
AcDbDictionaryWithDefault
340
B1
  0
DICTIONARY
  5
1A6
102
{ACAD_REACTORS
330
C
102
}
330
C
100
AcDbDictionary
  3
CEPSNTYPE
350
1B0
  3
DIMSTYLEDATA
350
1B4
  3
FINGERPRINTGUID
350
1B1
  3
HYPERLINKBASE
350
1A9
  3
INSUNITS
350
1AF
  3
LAYOUTDICT
350
1AB
  3
LWETCUNION
350
1AE
  3
PLOTSETDICT
350
1AC
  3
PLOTSTYLNAMDICT
350
1AD
  3
PSVPSCALE
350
1B3
  3
PUCSBASE
350
1B7
  3
PUCSORGBACK
350
1BD
  3
PUCSORGBOTTOM
350
1B9
  3
PUCSORGFRONT
350
1BC
  3
PUCSORGLEFT
350
1BA
  3
PUCSORGRIGHT
350
1BB
  3
PUCSORGTOP
350
1B8
  3
PUCSORTHOREF
350
1B5
  3
PUCSORTHOVIEW
350
1B6
  3
STYLESHEET
350
1AA
  3
TSTACKALIGN
350
1A7
  3
TSTACKSIZE
350
1A8
  3
UCSBASE
350
1C0
  3
UCSORGBACK
350
1C6
  3
UCSORGBOTTOM
350
1C2
  3
UCSORGFRONT
350
1C5
  3
UCSORGLEFT
350
1C3
  3
UCSORGRIGHT
350
1C4
  3
UCSORGTOP
350
1C1
  3
UCSORTHOREF
350
1BE
  3
UCSORTHOVIEW
350
1BF
  3
VERSIONGUID
350
1B2
  0
DICTIONARY
  5
26
102
{ACAD_REACTORS
330
C
102
}
330
C
100
AcDbDictionary
  3
DIMADEC
350
27
  3
DIMASSOC
350
E5
  0
DICTIONARY
  5
EA
102
{ACAD_REACTORS
330
C
102
}
330
0
100
AcDbDictionary
  3
BNS_SS01
350
EB
  0
XRECORD
  5
1C8
102
{ACAD_REACTORS
330
DF
102
}
330
DF
100
AcDbXrecord
340
17
  0
XRECORD
  5
1C7
102
{ACAD_REACTORS
330
DD
102
}
330
DD
100
AcDbXrecord
340
14
  0
MLINESTYLE
  5
1B
102
{ACAD_REACTORS
330
1A
102
}
330
1A
100
AcDbMlineStyle
  2
STANDARD
 70
     0
  3

 62
   256
 51
90.0
 52
90.0
 71
     2
 49
0.5
 62
   256
  6
BYLAYER
 49
-0.5
 62
   256
  6
BYLAYER
  0
ACDBPLACEHOLDER
  5
B1
102
{ACAD_REACTORS
330
B0
102
}
330
B0
100
AcDbPlaceHolder
280
     0
  0
XRECORD
  5
1B0
102
{ACAD_REACTORS
330
1A6
102
}
330
1A6
100
AcDbXrecord
 90
        0
  0
XRECORD
  5
1B4
102
{ACAD_REACTORS
330
1A6
102
}
330
1A6
100
AcDbXrecord
1000
DSTYLE
1002
{
1070
   277
 70
     5
1070
   279
 70
     2
1002
}
  0
XRECORD
  5
1B1
102
{ACAD_REACTORS
330
1A6
102
}
330
1A6
100
AcDbXrecord
  1
{DB453BF4-AC83-4FA5-AEE2-EA9761BDFCCA}
  0
XRECORD
  5
1A9
102
{ACAD_REACTORS
330
1A6
102
}
330
1A6
100
AcDbXrecord
  1

  0
XRECORD
  5
1AF
102
{ACAD_REACTORS
330
1A6
102
}
330
1A6
100
AcDbXrecord
 90
        0
  0
XRECORD
  5
1AB
102
{ACAD_REACTORS
330
1A6
102
}
330
1A6
100
AcDbXrecord
340
B2
  0
XRECORD
  5
1AE
102
{ACAD_REACTORS
330
1A6
102
}
330
1A6
100
AcDbXrecord
 90
    14877
  0
XRECORD
  5
1AC
102
{ACAD_REACTORS
330
1A6
102
}
330
1A6
100
AcDbXrecord
340
B3
  0
XRECORD
  5
1AD
102
{ACAD_REACTORS
330
1A6
102
}
330
1A6
100
AcDbXrecord
340
B0
  0
XRECORD
  5
1B3
102
{ACAD_REACTORS
330
1A6
102
}
330
1A6
100
AcDbXrecord
 40
0.0
  0
XRECORD
  5
1B7
102
{ACAD_REACTORS
330
1A6
102
}
330
1A6
100
AcDbXrecord
340
0
  0
XRECORD
  5
1BD
102
{ACAD_REACTORS
330
1A6
102
}
330
1A6
100
AcDbXrecord
 10
0.0
 20
0.0
 30
0.0
  0
XRECORD
  5
1B9
102
{ACAD_REACTORS
330
1A6
102
}
330
1A6
100
AcDbXrecord
 10
0.0
 20
0.0
 30
0.0
  0
XRECORD
  5
1BC
102
{ACAD_REACTORS
330
1A6
102
}
330
1A6
100
AcDbXrecord
 10
0.0
 20
0.0
 30
0.0
  0
XRECORD
  5
1BA
102
{ACAD_REACTORS
330
1A6
102
}
330
1A6
100
AcDbXrecord
 10
0.0
 20
0.0
 30
0.0
  0
XRECORD
  5
1BB
102
{ACAD_REACTORS
330
1A6
102
}
330
1A6
100
AcDbXrecord
 10
0.0
 20
0.0
 30
0.0
  0
XRECORD
  5
1B8
102
{ACAD_REACTORS
330
1A6
102
}
330
1A6
100
AcDbXrecord
 10
0.0
 20
0.0
 30
0.0
  0
XRECORD
  5
1B5
102
{ACAD_REACTORS
330
1A6
102
}
330
1A6
100
AcDbXrecord
340
0
  0
XRECORD
  5
1B6
102
{ACAD_REACTORS
330
1A6
102
}
330
1A6
100
AcDbXrecord
 70
     0
  0
XRECORD
  5
1AA
102
{ACAD_REACTORS
330
1A6
102
}
330
1A6
100
AcDbXrecord
  1

  0
XRECORD
  5
1A7
102
{ACAD_REACTORS
330
1A6
102
}
330
1A6
100
AcDbXrecord
 90
        1
  0
XRECORD
  5
1A8
102
{ACAD_REACTORS
330
1A6
102
}
330
1A6
100
AcDbXrecord
 90
       70
  0
XRECORD
  5
1C0
102
{ACAD_REACTORS
330
1A6
102
}
330
1A6
100
AcDbXrecord
340
0
  0
XRECORD
  5
1C6
102
{ACAD_REACTORS
330
1A6
102
}
330
1A6
100
AcDbXrecord
 10
0.0
 20
0.0
 30
0.0
  0
XRECORD
  5
1C2
102
{ACAD_REACTORS
330
1A6
102
}
330
1A6
100
AcDbXrecord
 10
0.0
 20
0.0
 30
0.0
  0
XRECORD
  5
1C5
102
{ACAD_REACTORS
330
1A6
102
}
330
1A6
100
AcDbXrecord
 10
0.0
 20
0.0
 30
0.0
  0
XRECORD
  5
1C3
102
{ACAD_REACTORS
330
1A6
102
}
330
1A6
100
AcDbXrecord
 10
0.0
 20
0.0
 30
0.0
  0
XRECORD
  5
1C4
102
{ACAD_REACTORS
330
1A6
102
}
330
1A6
100
AcDbXrecord
 10
0.0
 20
0.0
 30
0.0
  0
XRECORD
  5
1C1
102
{ACAD_REACTORS
330
1A6
102
}
330
1A6
100
AcDbXrecord
 10
0.0
 20
0.0
 30
0.0
  0
XRECORD
  5
1BE
102
{ACAD_REACTORS
330
1A6
102
}
330
1A6
100
AcDbXrecord
340
0
  0
XRECORD
  5
1BF
102
{ACAD_REACTORS
330
1A6
102
}
330
1A6
100
AcDbXrecord
 70
     0
  0
XRECORD
  5
1B2
102
{ACAD_REACTORS
330
1A6
102
}
330
1A6
100
AcDbXrecord
  1
{107E42C4-26FD-4F19-BF69-1D4A2DFB3ED3}
  0
DICTIONARYVAR
  5
27
102
{ACAD_REACTORS
330
26
102
}
330
26
100
DictionaryVariables
280
     0
  1
0
  0
DICTIONARYVAR
  5
E5
102
{ACAD_REACTORS
330
26
102
}
330
26
100
DictionaryVariables
280
     0
  1
1
  0
XRECORD
  5
EB
102
{ACAD_REACTORS
330
EA
102
}
330
0
100
AcDbXrecord
330
9F
  0
ENDSEC
  0
EOF
