  0
SECTION
  2
HEADER
  9
$ACADVER
  1
AC1014
  9
$ACADMAINTVER
 70
     9
  9
$DWGCODEPAGE
  3
ANSI_1252
  9
$INSBASE
 10
-10.25669602457297
 20
12.39116385924469
 30
0.0
  9
$EXTMIN
 10
-12.61094205446016
 20
11.42494351799571
 30
0.0
  9
$EXTMAX
 10
0.2584730205739429
 20
15.83928861163364
 30
0.0
  9
$LIMMIN
 10
0.0
 20
0.0
  9
$LIMMAX
 10
36.0
 20
36.0
  9
$ORTHOMODE
 70
     1
  9
$REGENMODE
 70
     1
  9
$FILLMODE
 70
     1
  9
$QTEXTMODE
 70
     0
  9
$MIRRTEXT
 70
     1
  9
$DRAGMODE
 70
     0
  9
$LTSCALE
 40
1.0
  9
$OSMODE
 70
    37
  9
$ATTMODE
 70
     1
  9
$TEXTSIZE
 40
0.2
  9
$TRACEWID
 40
0.05
  9
$TEXTSTYLE
  7
STANDARD
  9
$CLAYER
  8
ADP1DETAIL
  9
$CELTYPE
  6
BYLAYER
  9
$CECOLOR
 62
   256
  9
$CELTSCALE
 40
1.0
  9
$DELOBJ
 70
     1
  9
$DISPSILH
 70
     0
  9
$DIMSCALE
 40
1.0
  9
$DIMASZ
 40
0.125
  9
$DIMEXO
 40
0.0625
  9
$DIMDLI
 40
0.38
  9
$DIMRND
 40
0.0
  9
$DIMDLE
 40
0.0
  9
$DIMEXE
 40
0.18
  9
$DIMTP
 40
0.0
  9
$DIMTM
 40
0.0
  9
$DIMTXT
 40
0.125
  9
$DIMCEN
 40
0.1875
  9
$DIMTSZ
 40
0.125
  9
$DIMTOL
 70
     0
  9
$DIMLIM
 70
     0
  9
$DIMTIH
 70
     0
  9
$DIMTOH
 70
     0
  9
$DIMSE1
 70
     0
  9
$DIMSE2
 70
     0
  9
$DIMTAD
 70
     0
  9
$DIMZIN
 70
     3
  9
$DIMBLK
  1

  9
$DIMASO
 70
     1
  9
$DIMSHO
 70
     1
  9
$DIMPOST
  1

  9
$DIMAPOST
  1

  9
$DIMALT
 70
     0
  9
$DIMALTD
 70
     1
  9
$DIMALTF
 40
25.4
  9
$DIMLFAC
 40
1.0
  9
$DIMTOFL
 70
     0
  9
$DIMTVP
 40
0.0
  9
$DIMTIX
 70
     0
  9
$DIMSOXD
 70
     0
  9
$DIMSAH
 70
     0
  9
$DIMBLK1
  1

  9
$DIMBLK2
  1

  9
$DIMSTYLE
  2
STANDARD
  9
$DIMCLRD
 70
     0
  9
$DIMCLRE
 70
     0
  9
$DIMCLRT
 70
     0
  9
$DIMTFAC
 40
1.0
  9
$DIMGAP
 40
0.125
  9
$DIMJUST
 70
     0
  9
$DIMSD1
 70
     0
  9
$DIMSD2
 70
     0
  9
$DIMTOLJ
 70
     1
  9
$DIMTZIN
 70
     3
  9
$DIMALTZ
 70
     3
  9
$DIMALTTZ
 70
     3
  9
$DIMFIT
 70
     5
  9
$DIMUPT
 70
     0
  9
$DIMUNIT
 70
     5
  9
$DIMDEC
 70
     4
  9
$DIMTDEC
 70
     4
  9
$DIMALTU
 70
     5
  9
$DIMALTTD
 70
     1
  9
$DIMTXSTY
  7
STANDARD
  9
$DIMAUNIT
 70
     0
  9
$LUNITS
 70
     5
  9
$LUPREC
 70
     4
  9
$SKETCHINC
 40
0.1
  9
$FILLETRAD
 40
0.062
  9
$AUNITS
 70
     0
  9
$AUPREC
 70
     0
  9
$MENU
  1
acad
  9
$ELEVATION
 40
0.0
  9
$PELEVATION
 40
0.0
  9
$THICKNESS
 40
0.0
  9
$LIMCHECK
 70
     0
  9
$BLIPMODE
 70
     0
  9
$CHAMFERA
 40
0.0
  9
$CHAMFERB
 40
0.0
  9
$CHAMFERC
 40
0.0
  9
$CHAMFERD
 40
0.0
  9
$SKPOLY
 70
     0
  9
$TDCREATE
 40
2450382.665880208
  9
$TDUPDATE
 40
2452297.070111932
  9
$TDINDWG
 40
0.0353610880
  9
$TDUSRTIMER
 40
0.0353610880
  9
$USRTIMER
 70
     1
  9
$ANGBASE
 50
0.0
  9
$ANGDIR
 70
     0
  9
$PDMODE
 70
     0
  9
$PDSIZE
 40
0.0
  9
$PLINEWID
 40
0.0
  9
$COORDS
 70
     2
  9
$SPLFRAME
 70
     0
  9
$SPLINETYPE
 70
     6
  9
$SPLINESEGS
 70
     8
  9
$ATTDIA
 70
     0
  9
$ATTREQ
 70
     1
  9
$HANDLING
 70
 22529
  9
$HANDSEED
  5
271
  9
$SURFTAB1
 70
     6
  9
$SURFTAB2
 70
     6
  9
$SURFTYPE
 70
     6
  9
$SURFU
 70
     6
  9
$SURFV
 70
     6
  9
$UCSNAME
  2

  9
$UCSORG
 10
0.0
 20
0.0
 30
0.0
  9
$UCSXDIR
 10
1.0
 20
0.0
 30
0.0
  9
$UCSYDIR
 10
0.0
 20
1.0
 30
0.0
  9
$PUCSNAME
  2

  9
$PUCSORG
 10
0.0
 20
0.0
 30
0.0
  9
$PUCSXDIR
 10
1.0
 20
0.0
 30
0.0
  9
$PUCSYDIR
 10
0.0
 20
1.0
 30
0.0
  9
$USERI1
 70
     0
  9
$USERI2
 70
     0
  9
$USERI3
 70
     0
  9
$USERI4
 70
     0
  9
$USERI5
 70
     0
  9
$USERR1
 40
0.0
  9
$USERR2
 40
0.0
  9
$USERR3
 40
0.0
  9
$USERR4
 40
0.0
  9
$USERR5
 40
0.0
  9
$WORLDVIEW
 70
     1
  9
$SHADEDGE
 70
     3
  9
$SHADEDIF
 70
    70
  9
$TILEMODE
 70
     1
  9
$MAXACTVP
 70
    15
  9
$PINSBASE
 10
0.0
 20
0.0
 30
0.0
  9
$PLIMCHECK
 70
     0
  9
$PEXTMIN
 10
1.000000000000000E+20
 20
1.000000000000000E+20
 30
1.000000000000000E+20
  9
$PEXTMAX
 10
-1.000000000000000E+20
 20
-1.000000000000000E+20
 30
-1.000000000000000E+20
  9
$PLIMMIN
 10
0.0
 20
0.0
  9
$PLIMMAX
 10
12.0
 20
9.0
  9
$UNITMODE
 70
     0
  9
$VISRETAIN
 70
     0
  9
$PLINEGEN
 70
     0
  9
$PSLTSCALE
 70
     1
  9
$TREEDEPTH
 70
  3020
  9
$PICKSTYLE
 70
     1
  9
$CMLSTYLE
  2
STANDARD
  9
$CMLJUST
 70
     0
  9
$CMLSCALE
 40
1.0
  9
$PROXYGRAPHICS
 70
     1
  9
$MEASUREMENT
 70
     0
  0
ENDSEC
  0
SECTION
  2
CLASSES
  0
CLASS
  1
ACDBDICTIONARYWDFLT
  2
AcDbDictionaryWithDefault
  3
AutoCAD 2000
 90
        0
280
     0
281
     0
  0
CLASS
  1
ACDBPLACEHOLDER
  2
AcDbPlaceHolder
  3
AutoCAD 2000
 90
        0
280
     0
281
     0
  0
CLASS
  1
LAYOUT
  2
AcDbLayout
  3
AutoCAD 2000
 90
        0
280
     0
281
     0
  0
CLASS
  1
DICTIONARYVAR
  2
AcDbDictionaryVar
  3
AutoCAD 2000
 90
        0
280
     0
281
     0
  0
CLASS
  1
LONG_TRANSACTION
  2
AcDbLongTransaction
  3
AutoCAD 2000
 90
        0
280
     0
281
     0
  0
CLASS
  1
LWPOLYLINE
  2
AcDbPolyline
  3
AutoCAD 2000
 90
        0
280
     0
281
     1
  0
CLASS
  1
HATCH
  2
AcDbHatch
  3
AutoCAD 2000
 90
        0
280
     0
281
     1
  0
CLASS
  1
XRECORD
  2
AcDbXrecord
  3
AutoCAD 2000
 90
        0
280
     0
281
     0
  0
CLASS
  1
LONG_TRANSACTION
  2
AcDbLongTransaction
  3
AutoCAD 2000
 90
        0
280
     0
281
     0
  0
CLASS
  1
LWPOLYLINE
  2
AcDbPolyline
  3
AutoCAD 2000
 90
        0
280
     0
281
     1
  0
CLASS
  1
HATCH
  2
AcDbHatch
  3
AutoCAD 2000
 90
        0
280
     0
281
     1
  0
CLASS
  1
XRECORD
  2
AcDbXrecord
  3
AutoCAD 2000
 90
        0
280
     0
281
     0
  0
CLASS
  1
LONG_TRANSACTION
  2
AcDbLongTransaction
  3
AutoCAD 2000
 90
        0
280
     0
281
     0
  0
CLASS
  1
LWPOLYLINE
  2
AcDbPolyline
  3
AutoCAD 2000
 90
        0
280
     0
281
     1
  0
CLASS
  1
HATCH
  2
AcDbHatch
  3
AutoCAD 2000
 90
        0
280
     0
281
     1
  0
CLASS
  1
XRECORD
  2
AcDbXrecord
  3
AutoCAD 2000
 90
        0
280
     0
281
     0
  0
CLASS
  1
LONG_TRANSACTION
  2
AcDbLongTransaction
  3
AutoCAD 2000
 90
        0
280
     0
281
     0
  0
CLASS
  1
LWPOLYLINE
  2
AcDbPolyline
  3
AutoCAD 2000
 90
        0
280
     0
281
     1
  0
CLASS
  1
HATCH
  2
AcDbHatch
  3
AutoCAD 2000
 90
        0
280
     0
281
     1
  0
CLASS
  1
XRECORD
  2
AcDbXrecord
  3
AutoCAD 2000
 90
        0
280
     0
281
     0
  0
CLASS
  1
LONG_TRANSACTION
  2
AcDbLongTransaction
  3
AutoCAD 2000
 90
        0
280
     0
281
     0
  0
CLASS
  1
LWPOLYLINE
  2
AcDbPolyline
  3
AutoCAD 2000
 90
        0
280
     0
281
     1
  0
CLASS
  1
HATCH
  2
AcDbHatch
  3
AutoCAD 2000
 90
        0
280
     0
281
     1
  0
CLASS
  1
XRECORD
  2
AcDbXrecord
  3
AutoCAD 2000
 90
        0
280
     0
281
     0
  0
ENDSEC
  0
SECTION
  2
TABLES
  0
TABLE
  2
VPORT
  5
8
330
0
100
AcDbSymbolTable
 70
     2
  0
VPORT
  5
24D
330
8
100
AcDbSymbolTableRecord
100
AcDbViewportTableRecord
  2
*ACTIVE
 70
     0
 10
0.0
 20
0.0
 11
1.0
 21
1.0
 12
-6.166746185779246
 22
13.6329346490476
 13
0.0
 23
0.0
 14
0.5740882589684922
 24
0.5740882589684922
 15
0.5
 25
0.5
 16
0.0
 26
0.0
 36
1.0
 17
0.0
 27
0.0
 37
0.0
 40
8.249497937061224
 41
1.570528967254408
 42
50.0
 43
0.0
 44
0.0
 50
0.0
 51
0.0
 71
     0
 72
   100
 73
     1
 74
     0
 75
     0
 76
     0
 77
     0
 78
     0
  0
ENDTAB
  0
TABLE
  2
LTYPE
  5
5
330
0
100
AcDbSymbolTable
 70
     2
  0
LTYPE
  5
13
330
5
100
AcDbSymbolTableRecord
100
AcDbLinetypeTableRecord
  2
BYBLOCK
 70
     0
  3

 72
    65
 73
     0
 40
0.0
  0
LTYPE
  5
14
330
5
100
AcDbSymbolTableRecord
100
AcDbLinetypeTableRecord
  2
BYLAYER
 70
     0
  3

 72
    65
 73
     0
 40
0.0
  0
LTYPE
  5
15
330
5
100
AcDbSymbolTableRecord
100
AcDbLinetypeTableRecord
  2
CONTINUOUS
 70
     0
  3
Solid line
 72
    65
 73
     0
 40
0.0
  0
LTYPE
  5
27
330
5
100
AcDbSymbolTableRecord
100
AcDbLinetypeTableRecord
  2
HIDDEN2
 70
     0
  3
_ _ _ _ _ _ _ _ _ _ _ _ _ _ _ _ _ _ _ _ _ _ _ _
 72
    65
 73
     2
 40
0.1875
 49
0.125
 74
     0
 49
-0.0625
 74
     0
  0
ENDTAB
  0
TABLE
  2
LAYER
  5
2
330
0
100
AcDbSymbolTable
 70
     5
  0
LAYER
  5
10
330
2
100
AcDbSymbolTableRecord
100
AcDbLayerTableRecord
  2
0
 70
     0
 62
     7
  6
CONTINUOUS
  0
LAYER
  5
29
330
2
100
AcDbSymbolTableRecord
100
AcDbLayerTableRecord
  2
ADP1DETAIL
 70
     0
 62
     7
  6
CONTINUOUS
  0
LAYER
  5
2A
330
2
100
AcDbSymbolTableRecord
100
AcDbLayerTableRecord
  2
DEFPOINTS
 70
     0
 62
     7
  6
CONTINUOUS
  0
LAYER
  5
2B
330
2
100
AcDbSymbolTableRecord
100
AcDbLayerTableRecord
  2
ADP2DETAIL
 70
     0
 62
     5
  6
HIDDEN2
  0
LAYER
  5
2C
330
2
100
AcDbSymbolTableRecord
100
AcDbLayerTableRecord
  2
ADPDIM
 70
     0
 62
     3
  6
CONTINUOUS
  0
ENDTAB
  0
TABLE
  2
STYLE
  5
3
330
0
100
AcDbSymbolTable
 70
     2
  0
STYLE
  5
11
330
3
100
AcDbSymbolTableRecord
100
AcDbTextStyleTableRecord
  2
STANDARD
 70
     0
 40
0.0
 41
1.0
 50
0.0
 71
     0
 42
0.2
  3
txt
  4

  0
STYLE
  5
BA
330
3
100
AcDbSymbolTableRecord
100
AcDbTextStyleTableRecord
  2
ARIAL_WIDE
 70
     0
 40
0.0
 41
1.25
 50
0.0
 71
     0
 42
0.2
  3
ARIAL.TTF
  4

1001
ACAD
1000
Arial
1071
       34
  0
ENDTAB
  0
TABLE
  2
VIEW
  5
6
330
0
100
AcDbSymbolTable
 70
     0
  0
ENDTAB
  0
TABLE
  2
UCS
  5
7
330
0
100
AcDbSymbolTable
 70
     0
  0
ENDTAB
  0
TABLE
  2
APPID
  5
9
330
0
100
AcDbSymbolTable
 70
     1
  0
APPID
  5
12
330
9
100
AcDbSymbolTableRecord
100
AcDbRegAppTableRecord
  2
ACAD
 70
     0
  0
ENDTAB
  0
TABLE
  2
DIMSTYLE
  5
A
330
0
100
AcDbSymbolTable
 70
     1
  0
DIMSTYLE
105
B8
330
A
100
AcDbSymbolTableRecord
100
AcDbDimStyleTableRecord
  2
STANDARD
 70
     0
  3

  4

  5

  6

  7

 40
1.0
 41
0.18
 42
0.0625
 43
0.38
 44
0.18
 45
0.0
 46
0.0
 47
0.0
 48
0.0
140
0.18
141
0.09
142
0.0
143
25.4
144
1.0
145
0.0
146
1.0
147
0.09
 71
     0
 72
     0
 73
     1
 74
     1
 75
     0
 76
     0
 77
     0
 78
     0
170
     0
171
     2
172
     0
173
     0
174
     0
175
     0
176
     0
177
     0
178
     0
270
     2
271
     4
272
     4
273
     2
274
     2
340
11
275
     0
280
     0
281
     0
282
     0
283
     1
284
     0
285
     0
286
     0
287
     3
288
     0
  0
ENDTAB
  0
TABLE
  2
BLOCK_RECORD
  5
1
330
0
100
AcDbSymbolTable
 70
     5
  0
BLOCK_RECORD
  5
1E
102
{ACAD_XDICTIONARY
360
F7
102
}
330
1
100
AcDbSymbolTableRecord
100
AcDbBlockTableRecord
  2
*MODEL_SPACE
  0
BLOCK_RECORD
  5
1A
102
{ACAD_XDICTIONARY
360
F9
102
}
330
1
100
AcDbSymbolTableRecord
100
AcDbBlockTableRecord
  2
*PAPER_SPACE
  0
BLOCK_RECORD
  5
22
330
1
100
AcDbSymbolTableRecord
100
AcDbBlockTableRecord
  2
*D0
  0
BLOCK_RECORD
  5
23
330
1
100
AcDbSymbolTableRecord
100
AcDbBlockTableRecord
  2
*D1
  0
BLOCK_RECORD
  5
24
330
1
100
AcDbSymbolTableRecord
100
AcDbBlockTableRecord
  2
*D2
  0
BLOCK_RECORD
  5
25
330
1
100
AcDbSymbolTableRecord
100
AcDbBlockTableRecord
  2
*D3
  0
BLOCK_RECORD
  5
26
330
1
100
AcDbSymbolTableRecord
100
AcDbBlockTableRecord
  2
*D4
  0
ENDTAB
  0
ENDSEC
  0
SECTION
  2
BLOCKS
  0
BLOCK
  5
2F
330
1E
100
AcDbEntity
  8
0
100
AcDbBlockBegin
  2
*MODEL_SPACE
 70
     0
 10
0.0
 20
0.0
 30
0.0
  3
*MODEL_SPACE
  1

  0
ENDBLK
  5
30
330
1E
100
AcDbEntity
  8
0
100
AcDbBlockEnd
  0
BLOCK
  5
2D
330
1A
100
AcDbEntity
 67
     1
  8
0
100
AcDbBlockBegin
  2
*PAPER_SPACE
 70
     0
 10
0.0
 20
0.0
 30
0.0
  3
*PAPER_SPACE
  1

  0
ENDBLK
  5
2E
330
1A
100
AcDbEntity
 67
     1
  8
0
100
AcDbBlockEnd
  0
BLOCK
  5
31
330
22
100
AcDbEntity
  8
0
100
AcDbBlockBegin
  2
*D0
 70
     1
 10
0.0
 20
0.0
 30
0.0
  3
*D0
  1

  0
LINE
  5
32
330
22
100
AcDbEntity
  8
0
  6
BYBLOCK
 62
     0
100
AcDbLine
 10
-6.790752332339387
 20
15.01907980243057
 30
0.0
 11
-6.09202509872782
 21
15.01907980243057
 31
0.0
  0
LINE
  5
33
330
22
100
AcDbEntity
  8
0
  6
BYBLOCK
 62
     0
100
AcDbLine
 10
-6.673562576085153
 20
13.89386455678097
 30
0.0
 11
-6.09202509872782
 21
13.89386455678097
 31
0.0
  0
LINE
  5
34
330
22
100
AcDbEntity
  8
0
  6
BYBLOCK
 62
     0
100
AcDbLine
 10
-6.272025098727819
 20
15.01907980243057
 30
0.0
 11
-6.272025098727819
 21
15.26907980243057
 31
0.0
  0
LINE
  5
35
330
22
100
AcDbEntity
  8
0
  6
BYBLOCK
 62
     0
100
AcDbLine
 10
-6.272025098727819
 20
13.89386455678097
 30
0.0
 11
-6.272025098727819
 21
13.64386455678097
 31
0.0
  0
LINE
  5
36
330
22
100
AcDbEntity
  8
0
  6
BYBLOCK
 62
     0
100
AcDbLine
 10
-6.147025098727819
 20
14.89407980243058
 30
0.0
 11
-6.397025098727819
 21
15.14407980243057
 31
0.0
  0
LINE
  5
37
330
22
100
AcDbEntity
  8
0
  6
BYBLOCK
 62
     0
100
AcDbLine
 10
-6.147025098727819
 20
13.76886455678097
 30
0.0
 11
-6.397025098727819
 21
14.01886455678097
 31
0.0
  0
TEXT
  5
38
330
22
100
AcDbEntity
  8
0
  6
BYBLOCK
 62
     0
100
AcDbText
 10
-6.209525098727819
 20
13.01886455678097
 30
0.0
 40
0.125
  1
1 1/8
 50
90.0
 72
     1
 11
-6.272025098727819
 21
13.26886455678097
 31
0.0
100
AcDbText
 73
     2
  0
POINT
  5
3A
330
22
100
AcDbEntity
  8
DEFPOINTS
  6
BYBLOCK
 62
     0
100
AcDbPoint
 10
-6.853252332339387
 20
15.01907980243057
 30
0.0
  0
POINT
  5
3B
330
22
100
AcDbEntity
  8
DEFPOINTS
  6
BYBLOCK
 62
     0
100
AcDbPoint
 10
-6.736062576085153
 20
13.89386455678097
 30
0.0
  0
POINT
  5
3C
330
22
100
AcDbEntity
  8
DEFPOINTS
  6
BYBLOCK
 62
     0
100
AcDbPoint
 10
-6.272025098727819
 20
13.89386455678097
 30
0.0
  0
ENDBLK
  5
3D
330
22
100
AcDbEntity
  8
0
100
AcDbBlockEnd
  0
BLOCK
  5
3E
330
23
100
AcDbEntity
  8
0
100
AcDbBlockBegin
  2
*D1
 70
     1
 10
0.0
 20
0.0
 30
0.0
  3
*D1
  1

  0
LINE
  5
3F
330
23
100
AcDbEntity
  8
0
  6
BYBLOCK
 62
     0
100
AcDbLine
 10
-7.603252332339387
 20
13.37857980243057
 30
0.0
 11
-7.603252332339387
 21
12.88823727967908
 31
0.0
  0
LINE
  5
40
330
23
100
AcDbEntity
  8
0
  6
BYBLOCK
 62
     0
100
AcDbLine
 10
-6.853252332339387
 20
13.37857980243057
 30
0.0
 11
-6.853252332339387
 21
12.88823727967908
 31
0.0
  0
LINE
  5
41
330
23
100
AcDbEntity
  8
0
  6
BYBLOCK
 62
     0
100
AcDbLine
 10
-7.603252332339387
 20
13.06823727967907
 30
0.0
 11
-7.853252332339387
 21
13.06823727967907
 31
0.0
  0
LINE
  5
42
330
23
100
AcDbEntity
  8
0
  6
BYBLOCK
 62
     0
100
AcDbLine
 10
-6.853252332339387
 20
13.06823727967907
 30
0.0
 11
-6.603252332339387
 21
13.06823727967907
 31
0.0
  0
LINE
  5
43
330
23
100
AcDbEntity
  8
0
  6
BYBLOCK
 62
     0
100
AcDbLine
 10
-7.728252332339387
 20
12.94323727967907
 30
0.0
 11
-7.478252332339387
 21
13.19323727967907
 31
0.0
  0
LINE
  5
44
330
23
100
AcDbEntity
  8
0
  6
BYBLOCK
 62
     0
100
AcDbLine
 10
-6.978252332339387
 20
12.94323727967907
 30
0.0
 11
-6.728252332339387
 21
13.19323727967907
 31
0.0
  0
TEXT
  5
45
330
23
100
AcDbEntity
  8
0
  6
BYBLOCK
 62
     0
100
AcDbText
 10
-6.478252332339387
 20
13.00573727967907
 30
0.0
 40
0.125
  1
3/4
 72
     1
 11
-6.31158566567272
 21
13.06823727967907
 31
0.0
100
AcDbText
 73
     2
  0
POINT
  5
46
330
23
100
AcDbEntity
  8
DEFPOINTS
  6
BYBLOCK
 62
     0
100
AcDbPoint
 10
-7.603252332339387
 20
13.44107980243057
 30
0.0
  0
POINT
  5
47
330
23
100
AcDbEntity
  8
DEFPOINTS
  6
BYBLOCK
 62
     0
100
AcDbPoint
 10
-6.853252332339387
 20
13.44107980243057
 30
0.0
  0
POINT
  5
48
330
23
100
AcDbEntity
  8
DEFPOINTS
  6
BYBLOCK
 62
     0
100
AcDbPoint
 10
-6.853252332339387
 20
13.06823727967907
 30
0.0
  0
ENDBLK
  5
49
330
23
100
AcDbEntity
  8
0
100
AcDbBlockEnd
  0
BLOCK
  5
4A
330
24
100
AcDbEntity
  8
0
100
AcDbBlockBegin
  2
*D2
 70
     1
 10
0.0
 20
0.0
 30
0.0
  3
*D2
  1

  0
LINE
  5
4B
330
24
100
AcDbEntity
  8
0
  6
BYBLOCK
 62
     0
100
AcDbLine
 10
-4.363346724545658
 20
12.86016789406401
 30
0.0
 11
-4.550895995496463
 21
12.69486432191319
 31
0.0
  0
LINE
  5
4C
330
24
100
AcDbEntity
  8
0
  6
BYBLOCK
 62
     0
100
AcDbLine
 10
-4.37446957394565
 20
12.6837414725132
 30
0.0
 11
-4.352223875145664
 21
13.03659431561482
 31
0.0
  0
LINE
  5
4D
330
24
100
AcDbEntity
  8
0
  6
BYBLOCK
 62
     0
100
AcDbLine
 10
-3.425551098840825
 20
13.85198932696893
 30
0.0
 11
-3.050551098840825
 21
13.85198932696893
 31
0.0
  0
LINE
  5
4E
330
24
100
AcDbEntity
  8
0
  6
BYBLOCK
 62
     0
100
AcDbLine
 10
-3.238051098840825
 20
13.66448932696893
 30
0.0
 11
-3.238051098840825
 21
14.03948932696893
 31
0.0
  0
TEXT
  5
4F
330
24
100
AcDbEntity
  8
0
  6
BYBLOCK
 62
     0
100
AcDbText
 10
-4.759635797059832
 20
12.42757224130773
 30
0.0
 40
0.125
  1
%%c3
 50
41.39254721873586
 72
     1
 11
-4.722816160534701
 21
12.54333604744161
 31
0.0
100
AcDbText
 73
     2
  0
POINT
  5
50
330
24
100
AcDbEntity
  8
DEFPOINTS
  6
BYBLOCK
 62
     0
100
AcDbPoint
 10
-4.363346724545658
 20
12.86016789406401
 30
0.0
  0
POINT
  5
51
330
24
100
AcDbEntity
  8
DEFPOINTS
  6
BYBLOCK
 62
     0
100
AcDbPoint
 10
-2.112755473135993
 20
14.84381075987385
 30
0.0
  0
ENDBLK
  5
52
330
24
100
AcDbEntity
  8
0
100
AcDbBlockEnd
  0
BLOCK
  5
53
330
25
100
AcDbEntity
  8
0
100
AcDbBlockBegin
  2
*D3
 70
     1
 10
0.0
 20
0.0
 30
0.0
  3
*D3
  1

  0
LINE
  5
54
330
25
100
AcDbEntity
  8
0
  6
BYBLOCK
 62
     0
100
AcDbLine
 10
-7.233369188555583
 20
15.30086083103163
 30
0.0
 11
-7.233369188555583
 21
15.83928861163364
 31
0.0
  0
LINE
  5
55
330
25
100
AcDbEntity
  8
0
  6
BYBLOCK
 62
     0
100
AcDbLine
 10
-10.23294383230521
 20
15.58122036859549
 30
0.0
 11
-10.23294383230521
 21
15.83928861163364
 31
0.0
  0
LINE
  5
56
330
25
100
AcDbEntity
  8
0
  6
BYBLOCK
 62
     0
100
AcDbLine
 10
-7.233369188555583
 20
15.65928861163364
 30
0.0
 11
-8.566489843763735
 21
15.65928861163364
 31
0.0
  0
LINE
  5
57
330
25
100
AcDbEntity
  8
0
  6
BYBLOCK
 62
     0
100
AcDbLine
 10
-10.23294383230521
 20
15.65928861163364
 30
0.0
 11
-8.899823177097067
 21
15.65928861163364
 31
0.0
  0
LINE
  5
58
330
25
100
AcDbEntity
  8
0
  6
BYBLOCK
 62
     0
100
AcDbLine
 10
-7.358369188555583
 20
15.53428861163364
 30
0.0
 11
-7.108369188555583
 21
15.78428861163364
 31
0.0
  0
LINE
  5
59
330
25
100
AcDbEntity
  8
0
  6
BYBLOCK
 62
     0
100
AcDbLine
 10
-10.35794383230521
 20
15.53428861163364
 30
0.0
 11
-10.10794383230521
 21
15.78428861163364
 31
0.0
  0
TEXT
  5
5A
330
25
100
AcDbEntity
  8
0
  6
BYBLOCK
 62
     0
100
AcDbText
 10
-8.774823177097067
 20
15.59678861163364
 30
0.0
 40
0.125
  1
3
 72
     1
 11
-8.733156510430401
 21
15.65928861163364
 31
0.0
100
AcDbText
 73
     2
  0
POINT
  5
5B
330
25
100
AcDbEntity
  8
DEFPOINTS
  6
BYBLOCK
 62
     0
100
AcDbPoint
 10
-7.233369188555583
 20
15.23836083103162
 30
0.0
  0
POINT
  5
5C
330
25
100
AcDbEntity
  8
DEFPOINTS
  6
BYBLOCK
 62
     0
100
AcDbPoint
 10
-10.23294383230521
 20
15.51872036859549
 30
0.0
  0
POINT
  5
5D
330
25
100
AcDbEntity
  8
DEFPOINTS
  6
BYBLOCK
 62
     0
100
AcDbPoint
 10
-10.23294383230521
 20
15.65928861163364
 30
0.0
  0
ENDBLK
  5
5E
330
25
100
AcDbEntity
  8
0
100
AcDbBlockEnd
  0
BLOCK
  5
5F
330
26
100
AcDbEntity
  8
0
100
AcDbBlockBegin
  2
*D4
 70
     1
 10
0.0
 20
0.0
 30
0.0
  3
*D4
  1

  0
LINE
  5
60
330
26
100
AcDbEntity
  8
0
  6
BYBLOCK
 62
     0
100
AcDbLine
 10
-3.613051098840829
 20
15.08623932696893
 30
0.0
 11
-3.613051098840829
 21
15.75661183048233
 31
0.0
  0
LINE
  5
61
330
26
100
AcDbEntity
  8
0
  6
BYBLOCK
 62
     0
100
AcDbLine
 10
-2.863051098840829
 20
15.08623932696893
 30
0.0
 11
-2.863051098840829
 21
15.75661183048233
 31
0.0
  0
LINE
  5
62
330
26
100
AcDbEntity
  8
0
  6
BYBLOCK
 62
     0
100
AcDbLine
 10
-3.613051098840829
 20
15.57661183048233
 30
0.0
 11
-3.863051098840829
 21
15.57661183048233
 31
0.0
  0
LINE
  5
63
330
26
100
AcDbEntity
  8
0
  6
BYBLOCK
 62
     0
100
AcDbLine
 10
-2.863051098840829
 20
15.57661183048233
 30
0.0
 11
-2.613051098840829
 21
15.57661183048233
 31
0.0
  0
LINE
  5
64
330
26
100
AcDbEntity
  8
0
  6
BYBLOCK
 62
     0
100
AcDbLine
 10
-3.738051098840829
 20
15.45161183048233
 30
0.0
 11
-3.488051098840829
 21
15.70161183048234
 31
0.0
  0
LINE
  5
65
330
26
100
AcDbEntity
  8
0
  6
BYBLOCK
 62
     0
100
AcDbLine
 10
-2.988051098840829
 20
15.45161183048233
 30
0.0
 11
-2.738051098840829
 21
15.70161183048234
 31
0.0
  0
TEXT
  5
66
330
26
100
AcDbEntity
  8
0
  6
BYBLOCK
 62
     0
100
AcDbText
 10
-2.488051098840829
 20
15.51411183048234
 30
0.0
 40
0.125
  1
3/4
 72
     1
 11
-2.321384432174162
 21
15.57661183048233
 31
0.0
100
AcDbText
 73
     2
  0
POINT
  5
67
330
26
100
AcDbEntity
  8
DEFPOINTS
  6
BYBLOCK
 62
     0
100
AcDbPoint
 10
-3.613051098840829
 20
15.02373932696893
 30
0.0
  0
POINT
  5
68
330
26
100
AcDbEntity
  8
DEFPOINTS
  6
BYBLOCK
 62
     0
100
AcDbPoint
 10
-2.863051098840829
 20
15.02373932696893
 30
0.0
  0
POINT
  5
69
330
26
100
AcDbEntity
  8
DEFPOINTS
  6
BYBLOCK
 62
     0
100
AcDbPoint
 10
-2.863051098840829
 20
15.57661183048233
 30
0.0
  0
ENDBLK
  5
6A
330
26
100
AcDbEntity
  8
0
100
AcDbBlockEnd
  0
ENDSEC
  0
SECTION
  2
ENTITIES
  0
LINE
  5
6B
330
1E
100
AcDbEntity
  8
ADP1DETAIL
100
AcDbLine
 10
-8.365100343223414
 20
13.62918891174211
 30
0.0
 11
-9.381696024572976
 21
13.50335609518064
 31
0.0
  0
LINE
  5
6C
330
1E
100
AcDbEntity
  8
ADP1DETAIL
100
AcDbLine
 10
-9.381696024572976
 20
14.25335609518064
 30
0.0
 11
-8.365100343223414
 21
14.12835609518064
 31
0.0
  0
DIMENSION
  5
6D
330
1E
100
AcDbEntity
  8
ADPDIM
100
AcDbDimension
  2
*D3
 10
-10.23294383230521
 20
15.65928861163364
 30
0.0
 11
-8.733156510430401
 21
15.65928861163364
 31
0.0
100
AcDbAlignedDimension
 13
-7.233369188555583
 23
15.23836083103162
 33
0.0
 14
-10.23294383230521
 24
15.51872036859549
 34
0.0
100
AcDbRotatedDimension
  0
LINE
  5
6E
330
1E
100
AcDbEntity
  8
ADP1DETAIL
100
AcDbLine
 10
-10.25669602457297
 20
12.39116385924469
 30
0.0
 11
-10.25669602457297
 21
15.3655483311166
 31
0.0
  0
LINE
  5
6F
330
1E
100
AcDbEntity
  8
ADP1DETAIL
100
AcDbLine
 10
-10.00669602457297
 20
15.26744795798357
 30
0.0
 11
-10.00669602457297
 21
13.17720113420434
 31
0.0
  0
LINE
  5
70
330
1E
100
AcDbEntity
  8
ADP1DETAIL
100
AcDbLine
 10
-9.506696024572976
 20
14.3705483311166
 30
0.0
 11
-9.506696024572976
 21
13.38616385924469
 31
0.0
  0
LINE
  5
71
330
1E
100
AcDbEntity
  8
ADP1DETAIL
100
AcDbLine
 10
-9.381795618526345
 20
13.47485855239307
 30
0.0
 11
-9.381696024572976
 21
13.87835609518064
 31
0.0
  0
LINE
  5
72
330
1E
100
AcDbEntity
  8
ADP1DETAIL
100
AcDbLine
 10
-9.506696024572976
 20
13.87835609518064
 30
0.0
 11
-9.506696024572976
 21
13.44085609518064
 31
0.0
  0
LINE
  5
73
330
1E
100
AcDbEntity
  8
ADP1DETAIL
100
AcDbLine
 10
-9.514270668322611
 20
13.37646243424323
 30
0.0
 11
-9.959733233325229
 21
13.26509679299258
 31
0.0
  0
LINE
  5
74
330
1E
100
AcDbEntity
  8
ADP1DETAIL
100
AcDbLine
 10
-10.00669602457297
 20
13.20494795798357
 30
0.0
 11
-10.00669602457297
 21
12.48926423237772
 31
0.0
  0
LINE
  5
75
330
1E
100
AcDbEntity
  8
ADP1DETAIL
100
AcDbLine
 10
-10.05365881582072
 20
12.42911539736871
 30
0.0
 11
-10.24427066832261
 21
12.38146243424324
 31
0.0
  0
ARC
  5
76
330
1E
100
AcDbEntity
  8
ADP1DETAIL
100
AcDbCircle
 10
-10.24669602457297
 20
12.39116385924469
 30
0.0
 40
0.01
100
AcDbArc
 50
180.0
 51
284.0362434679263
  0
ARC
  5
77
330
1E
100
AcDbEntity
  8
ADP1DETAIL
100
AcDbCircle
 10
-10.06869602457297
 20
12.48926423237772
 30
0.0
 40
0.062
100
AcDbArc
 50
284.0362434679264
 51
0.0
  0
ARC
  5
78
330
1E
100
AcDbEntity
  8
ADP1DETAIL
100
AcDbCircle
 10
-9.944696024572975
 20
13.20494795798357
 30
0.0
 40
0.062
100
AcDbArc
 50
104.0362434679264
 51
180.0
  0
ARC
  5
79
330
1E
100
AcDbEntity
  8
ADP1DETAIL
100
AcDbCircle
 10
-9.516696024572974
 20
13.38616385924469
 30
0.0
 40
0.01
100
AcDbArc
 50
284.0362434679261
 51
0.0
  0
LINE
  5
7A
330
1E
100
AcDbEntity
  8
ADP1DETAIL
100
AcDbLine
 10
-9.506696024572976
 20
13.44085609518064
 30
0.0
 11
-9.381795618526345
 21
13.47485855239307
 31
0.0
  0
LINE
  5
7B
330
1E
100
AcDbEntity
  8
ADP1DETAIL
100
AcDbLine
 10
-9.959733233325229
 20
14.4916153973687
 30
0.0
 11
-9.514270668322611
 21
14.38024975611805
 31
0.0
  0
ARC
  5
7C
330
1E
100
AcDbEntity
  8
ADP1DETAIL
100
AcDbCircle
 10
-9.944696024572975
 20
14.55176423237772
 30
0.0
 40
0.062
100
AcDbArc
 50
180.0
 51
255.9637565320735
  0
LINE
  5
7D
330
1E
100
AcDbEntity
  8
ADP1DETAIL
100
AcDbLine
 10
-9.506696024572976
 20
13.87835609518064
 30
0.0
 11
-9.506696024572976
 21
14.31585609518064
 31
0.0
  0
LINE
  5
7E
330
1E
100
AcDbEntity
  8
ADP1DETAIL
100
AcDbLine
 10
-9.381795618526345
 20
14.28185363796822
 30
0.0
 11
-9.381696024572976
 21
13.87835609518064
 31
0.0
  0
ARC
  5
7F
330
1E
100
AcDbEntity
  8
ADP1DETAIL
100
AcDbCircle
 10
-9.516696024572974
 20
14.3705483311166
 30
0.0
 40
0.01
100
AcDbArc
 50
0.0
 51
75.96375653207362
  0
LINE
  5
80
330
1E
100
AcDbEntity
  8
ADP1DETAIL
100
AcDbLine
 10
-9.506696024572976
 20
14.31585609518064
 30
0.0
 11
-9.381795618526345
 21
14.28185363796822
 31
0.0
  0
LINE
  5
81
330
1E
100
AcDbEntity
  8
ADP1DETAIL
100
AcDbLine
 10
-10.24427066832261
 20
15.37524975611805
 30
0.0
 11
-10.05365881582072
 21
15.32759679299258
 31
0.0
  0
ARC
  5
82
330
1E
100
AcDbEntity
  8
ADP1DETAIL
100
AcDbCircle
 10
-10.24669602457297
 20
15.3655483311166
 30
0.0
 40
0.01
100
AcDbArc
 50
75.96375653207326
 51
180.0
  0
ARC
  5
83
330
1E
100
AcDbEntity
  8
ADP1DETAIL
100
AcDbCircle
 10
-10.06869602457297
 20
15.26744795798357
 30
0.0
 40
0.062
100
AcDbArc
 50
0.0
 51
75.96375653207352
  0
CIRCLE
  5
84
330
1E
100
AcDbEntity
  8
ADP1DETAIL
100
AcDbCircle
 10
-3.238051098840829
 20
13.85198932696893
 30
0.0
 40
1.5
  0
DIMENSION
  5
85
330
1E
100
AcDbEntity
  8
ADPDIM
100
AcDbDimension
  2
*D0
 10
-6.272025098727819
 20
13.89386455678097
 30
0.0
 11
-6.272025098727819
 21
13.26886455678097
 31
0.0
100
AcDbAlignedDimension
 13
-6.853252332339387
 23
15.01907980243057
 33
0.0
 14
-6.736062576085153
 24
13.89386455678097
 34
0.0
 50
90.0
100
AcDbRotatedDimension
  0
LINE
  5
86
330
1E
100
AcDbEntity
  8
ADP1DETAIL
100
AcDbLine
 10
-6.853252332339387
 20
13.53128596257525
 30
0.0
 11
-7.603252332339387
 21
13.53128596257525
 31
0.0
  0
LINE
  5
87
330
1E
100
AcDbEntity
  8
ADP1DETAIL
100
AcDbLine
 10
-6.853252332339387
 20
13.44107980243057
 30
0.0
 11
-7.603252332339387
 21
13.44107980243057
 31
0.0
  0
LINE
  5
88
330
1E
100
AcDbEntity
  8
ADP1DETAIL
100
AcDbLine
 10
-7.228252332339387
 20
13.70636455678097
 30
0.0
 11
-6.864138111783859
 21
13.70636455678097
 31
0.0
  0
LINE
  5
89
330
1E
100
AcDbEntity
  8
ADP1DETAIL
100
AcDbLine
 10
-7.165752332339387
 20
15.01907980243057
 30
0.0
 11
-6.853252332339387
 21
15.01907980243057
 31
0.0
  0
DIMENSION
  5
8A
330
1E
100
AcDbEntity
  8
ADPDIM
100
AcDbDimension
  2
*D1
 10
-6.853252332339387
 20
13.06823727967907
 30
0.0
 11
-6.31158566567272
 21
13.06823727967907
 31
0.0
100
AcDbAlignedDimension
 13
-7.603252332339387
 23
13.44107980243057
 33
0.0
 14
-6.853252332339387
 24
13.44107980243057
 34
0.0
100
AcDbRotatedDimension
  0
LINE
  5
8B
330
1E
100
AcDbEntity
  8
ADP1DETAIL
100
AcDbLine
 10
-8.365100343223414
 20
13.62918891174211
 30
0.0
 11
-8.365100343223414
 21
14.12752327861918
 31
0.0
  0
LINE
  5
8C
330
1E
100
AcDbEntity
  8
ADP1DETAIL
100
AcDbLine
 10
-7.603252332339387
 20
13.44107980243057
 30
0.0
 11
-7.603252332339387
 21
15.01907980243057
 31
0.0
  0
LINE
  5
8D
330
1E
100
AcDbEntity
  8
ADP1DETAIL
100
AcDbLine
 10
-7.617607495022106
 20
13.56585609518064
 30
0.0
 11
-8.365100343223414
 21
13.62918891174211
 31
0.0
  0
LINE
  5
8E
330
1E
100
AcDbEntity
  8
ADP1DETAIL
100
AcDbLine
 10
-7.228252332339387
 20
13.4387774686405
 30
0.0
 11
-7.228252332339387
 21
13.70636455678097
 31
0.0
  0
LINE
  5
8F
330
1E
100
AcDbEntity
  8
ADP1DETAIL
100
AcDbLine
 10
-8.365100343223414
 20
14.12835609518064
 30
0.0
 11
-7.617607495022106
 21
14.19085609518064
 31
0.0
  0
LINE
  5
90
330
1E
100
AcDbEntity
  8
ADP1DETAIL
100
AcDbLine
 10
-7.228252332339387
 20
14.08875903986359
 30
0.0
 11
-7.228252332339387
 21
14.50867586704165
 31
0.0
  0
LINE
  5
91
330
1E
100
AcDbEntity
  8
ADP1DETAIL
100
AcDbLine
 10
-7.592366552894915
 20
14.08875903986359
 30
0.0
 11
-7.228252332339387
 21
14.08875903986359
 31
0.0
  0
LINE
  5
92
330
1E
100
AcDbEntity
  8
ADP1DETAIL
100
AcDbLine
 10
-7.603252332339387
 20
15.01907980243057
 30
0.0
 11
-7.290752332339387
 21
15.01907980243057
 31
0.0
  0
LINE
  5
93
330
1E
100
AcDbEntity
  8
ADP1DETAIL
100
AcDbLine
 10
-7.165752332339387
 20
15.01907980243057
 30
0.0
 11
-7.165752332339387
 21
14.89407980243058
 31
0.0
  0
LINE
  5
94
330
1E
100
AcDbEntity
  8
ADP1DETAIL
100
AcDbLine
 10
-7.290752332339387
 20
14.89407980243058
 30
0.0
 11
-7.290752332339387
 21
15.01907980243057
 31
0.0
  0
LINE
  5
95
330
1E
100
AcDbEntity
  8
ADP1DETAIL
100
AcDbLine
 10
-7.134252332339389
 20
14.51907980243057
 30
0.0
 11
-7.322252332339388
 21
14.51907980243057
 31
0.0
  0
LINE
  5
96
330
1E
100
AcDbEntity
  8
ADP1DETAIL
100
AcDbLine
 10
-7.322252332339388
 20
14.89407980243058
 30
0.0
 11
-7.290752332339387
 21
14.89407980243058
 31
0.0
  0
LINE
  5
97
330
1E
100
AcDbEntity
  8
ADP1DETAIL
100
AcDbLine
 10
-7.322252332339388
 20
14.51907980243057
 30
0.0
 11
-7.322252332339388
 21
14.89407980243058
 31
0.0
  0
LINE
  5
98
330
1E
100
AcDbEntity
  8
ADP1DETAIL
100
AcDbLine
 10
-7.165752332339387
 20
14.89407980243058
 30
0.0
 11
-7.134252332339389
 21
14.89407980243058
 31
0.0
  0
LINE
  5
99
330
1E
100
AcDbEntity
  8
ADP1DETAIL
100
AcDbLine
 10
-7.134252332339389
 20
14.89407980243058
 30
0.0
 11
-7.134252332339389
 21
14.51907980243057
 31
0.0
  0
ARC
  5
9A
330
1E
100
AcDbEntity
  8
ADP2DETAIL
  6
HIDDEN2
100
AcDbCircle
 10
-6.039602117907399
 20
13.89386455678097
 30
0.0
 40
0.75
100
AcDbArc
 50
180.0
 51
201.7802251253252
  0
LINE
  5
9B
330
1E
100
AcDbEntity
  8
ADP1DETAIL
100
AcDbLine
 10
-6.853252332339387
 20
15.01907980243057
 30
0.0
 11
-6.853252332339387
 21
13.44107980243057
 31
0.0
  0
LINE
  5
9C
330
1E
100
AcDbEntity
  8
ADP1DETAIL
100
AcDbLine
 10
-6.736062576085153
 20
13.61557903758382
 30
0.0
 11
-6.736062576085153
 21
13.89386455678097
 31
0.0
  0
LINE
  5
9D
330
1E
100
AcDbEntity
  8
ADP1DETAIL
100
AcDbLine
 10
-6.740321847799023
 20
13.61371693741879
 30
0.0
 11
-6.740321847799023
 21
13.61371693741879
 31
0.0
  0
LINE
  5
9E
330
1E
100
AcDbEntity
  8
ADP1DETAIL
100
AcDbLine
 10
-6.861062576085153
 20
13.58136455678097
 30
0.0
 11
-6.740321847799023
 21
13.61371693741879
 31
0.0
  0
ARC
  5
9F
330
1E
100
AcDbEntity
  8
ADP2DETAIL
  6
HIDDEN2
100
AcDbCircle
 10
-6.039602117907399
 20
13.89386455678097
 30
0.0
 40
0.75
100
AcDbArc
 50
158.2197748746747
 51
180.0
  0
LINE
  5
A0
330
1E
100
AcDbEntity
  8
ADP1DETAIL
100
AcDbLine
 10
-6.736062576085153
 20
14.17215007597813
 30
0.0
 11
-6.736062576085153
 21
13.89386455678097
 31
0.0
  0
LINE
  5
A1
330
1E
100
AcDbEntity
  8
ADP1DETAIL
100
AcDbLine
 10
-6.740321847799023
 20
14.17401217614316
 30
0.0
 11
-6.740321847799023
 21
14.17401217614316
 31
0.0
  0
LINE
  5
A2
330
1E
100
AcDbEntity
  8
ADP1DETAIL
100
AcDbLine
 10
-6.861062576085153
 20
14.20636455678097
 30
0.0
 11
-6.740321847799023
 21
14.17401217614316
 31
0.0
  0
CIRCLE
  5
A3
330
1E
100
AcDbEntity
  8
ADP1DETAIL
100
AcDbCircle
 10
-3.238051098840829
 20
13.85198932696893
 30
0.0
 40
1.423702696439208
  0
DIMENSION
  5
A4
330
1E
100
AcDbEntity
  8
ADPDIM
100
AcDbDimension
  2
*D4
 10
-2.863051098840829
 20
15.57661183048233
 30
0.0
 11
-2.321384432174162
 21
15.57661183048233
 31
0.0
100
AcDbAlignedDimension
 13
-3.613051098840829
 23
15.02373932696893
 33
0.0
 14
-2.863051098840829
 24
15.02373932696893
 34
0.0
100
AcDbRotatedDimension
  0
ARC
  5
A5
330
1E
100
AcDbEntity
  8
ADP1DETAIL
100
AcDbCircle
 10
-3.238051098840829
 20
13.8629975002895
 30
0.0
 40
0.625
100
AcDbArc
 50
133.506154203167
 51
46.49384579683291
  0
CIRCLE
  5
A6
330
1E
100
AcDbEntity
  8
ADP1DETAIL
100
AcDbCircle
 10
-3.238051098840829
 20
13.84748903868917
 30
0.0
 40
0.2859512779740925
  0
CIRCLE
  5
A7
330
1E
100
AcDbEntity
  8
ADP1DETAIL
100
AcDbCircle
 10
-3.238051098840829
 20
13.85198932696893
 30
0.0
 40
0.3125
  0
LINE
  5
A8
330
1E
100
AcDbEntity
  8
ADP1DETAIL
100
AcDbLine
 10
-3.238051098840829
 20
13.44573932696893
 30
0.0
 11
-3.737040419905946
 21
13.53372460735811
 31
0.0
  0
ARC
  5
A9
330
1E
100
AcDbEntity
  8
ADP1DETAIL
100
AcDbCircle
 10
-3.238051098840829
 20
13.8629975002895
 30
0.0
 40
0.5
100
AcDbArc
 50
225.2692270159747
 51
314.7307729840257
  0
LINE
  5
AA
330
1E
100
AcDbEntity
  8
ADP1DETAIL
100
AcDbLine
 10
-3.238051098840829
 20
15.02373932696893
 30
0.0
 11
-3.613051098840829
 21
15.02373932696893
 31
0.0
  0
DIMENSION
  5
AB
330
1E
100
AcDbEntity
  8
ADPDIM
100
AcDbDimension
  2
*D2
 10
-2.112755473135993
 20
14.84381075987385
 30
0.0
 11
-4.722816160534701
 21
12.54333604744161
 31
0.0
 70
     3
100
AcDbDiametricDimension
 15
-4.363346724545658
 25
12.86016789406401
 35
0.0
 40
0.1283006843197976
  0
LINE
  5
AC
330
1E
100
AcDbEntity
  8
ADP1DETAIL
100
AcDbLine
 10
-3.613051098840829
 20
15.02373932696893
 30
0.0
 11
-3.737040419905946
 21
13.53372460735811
 31
0.0
  0
ARC
  5
AD
330
1E
100
AcDbEntity
  8
ADP1DETAIL
100
AcDbCircle
 10
-3.238051098840829
 20
13.8629975002895
 30
0.0
 40
0.5
100
AcDbArc
 50
154.4613817195676
 51
195.5020517139497
  0
LINE
  5
AE
330
1E
100
AcDbEntity
  8
ADP1DETAIL
100
AcDbLine
 10
-3.725514036194566
 20
13.66498932696893
 30
0.0
 11
-3.479136205785072
 21
13.66498932696893
 31
0.0
  0
LINE
  5
AF
330
1E
100
AcDbEntity
  8
ADP1DETAIL
100
AcDbLine
 10
-2.863051098840829
 20
15.02373932696893
 30
0.0
 11
-2.739061777775715
 21
13.53372460735811
 31
0.0
  0
ARC
  5
B0
330
1E
100
AcDbEntity
  8
ADP1DETAIL
100
AcDbCircle
 10
-3.238051098840829
 20
13.8629975002895
 30
0.0
 40
0.5
100
AcDbArc
 50
344.4979482860498
 51
25.53861828043232
  0
LINE
  5
B1
330
1E
100
AcDbEntity
  8
ADP1DETAIL
100
AcDbLine
 10
-3.238051098840829
 20
13.44573932696893
 30
0.0
 11
-2.739061777775715
 21
13.53372460735811
 31
0.0
  0
LINE
  5
B2
330
1E
100
AcDbEntity
  8
ADP1DETAIL
100
AcDbLine
 10
-3.321100661097899
 20
14.29121208807174
 30
0.0
 11
-3.154683507357267
 21
14.29121208807174
 31
0.0
  0
CIRCLE
  5
B3
330
1E
100
AcDbEntity
  8
ADP1DETAIL
100
AcDbCircle
 10
-3.237892018328933
 20
14.29121208807174
 30
0.0
 40
0.125
  0
LINE
  5
B4
330
1E
100
AcDbEntity
  8
ADP1DETAIL
100
AcDbLine
 10
-3.237892018328933
 20
14.3639560539262
 30
0.0
 11
-3.237892018328933
 21
14.21846812221729
 31
0.0
  0
LINE
  5
B5
330
1E
100
AcDbEntity
  8
ADP1DETAIL
100
AcDbLine
 10
-2.993128560040362
 20
14.04012072640844
 30
0.0
 11
-2.788218986802442
 21
14.04012072640844
 31
0.0
  0
LINE
  5
B6
330
1E
100
AcDbEntity
  8
ADP1DETAIL
100
AcDbLine
 10
-2.788218986802442
 20
14.04012072640844
 30
0.0
 11
-2.788218986802442
 21
14.04012072640844
 31
0.0
  0
LINE
  5
B7
330
1E
100
AcDbEntity
  8
ADP1DETAIL
100
AcDbLine
 10
-3.238051098840829
 20
15.02373932696893
 30
0.0
 11
-2.863051098840829
 21
15.02373932696893
 31
0.0
  0
TEXT
  5
BB
330
1E
100
AcDbEntity
  8
ADPDIM
100
AcDbText
 10
-12.61094205446016
 20
11.46194897502163
 30
0.0
 40
0.125
  1
J U L I U S  B L U M  &  C O . ,  I N C .      ( 8 0 0 )  5 2 6 - 6 2 9 3        W W W . J U L I U S B L U M . C O M        P A R T  N o .  4 1 8
 41
1.25
  7
ARIAL_WIDE
 72
     1
 11
-6.176234516943111
 21
11.58694897502163
 31
0.0
100
AcDbText
 73
     3
  0
ENDSEC
  0
SECTION
  2
OBJECTS
  0
DICTIONARY
  5
C
330
0
100
AcDbDictionary
  3
ACAD_GROUP
350
D
  3
ACAD_LAYOUT
350
19
  3
ACAD_MLINESTYLE
350
16
  3
ACAD_PLOTSETTINGS
350
18
  3
ACAD_PLOTSTYLENAME
350
E
  3
ACDBHEADERROUNDTRIPXREC
350
24E
  3
ACDBVARIABLEDICTIONARY
350
12C
  0
DICTIONARY
  5
F7
330
1E
100
AcDbDictionary
280
     1
  3
ACAD_LAYOUTSELFREF
360
270
  0
DICTIONARY
  5
F9
330
1A
100
AcDbDictionary
280
     1
  3
ACAD_LAYOUTSELFREF
360
26F
  0
DICTIONARY
  5
D
102
{ACAD_REACTORS
330
C
102
}
330
C
100
AcDbDictionary
  0
DICTIONARY
  5
19
102
{ACAD_REACTORS
330
C
102
}
330
C
100
AcDbDictionary
  0
DICTIONARY
  5
16
102
{ACAD_REACTORS
330
C
102
}
330
C
100
AcDbDictionary
  3
STANDARD
350
17
  0
DICTIONARY
  5
18
102
{ACAD_REACTORS
330
C
102
}
330
C
100
AcDbDictionary
  0
ACDBDICTIONARYWDFLT
  5
E
102
{ACAD_REACTORS
330
C
102
}
330
C
100
AcDbDictionary
281
     1
  3
Normal
350
F
100
AcDbDictionaryWithDefault
340
F
  0
DICTIONARY
  5
24E
102
{ACAD_REACTORS
330
C
102
}
330
C
100
AcDbDictionary
  3
CEPSNTYPE
350
258
  3
DIMSTYLEDATA
350
25C
  3
FINGERPRINTGUID
350
259
  3
HYPERLINKBASE
350
251
  3
INSUNITS
350
257
  3
LAYOUTDICT
350
253
  3
LWETCUNION
350
256
  3
PLOTSETDICT
350
254
  3
PLOTSTYLNAMDICT
350
255
  3
PSVPSCALE
350
25B
  3
PUCSBASE
350
25F
  3
PUCSORGBACK
350
265
  3
PUCSORGBOTTOM
350
261
  3
PUCSORGFRONT
350
264
  3
PUCSORGLEFT
350
262
  3
PUCSORGRIGHT
350
263
  3
PUCSORGTOP
350
260
  3
PUCSORTHOREF
350
25D
  3
PUCSORTHOVIEW
350
25E
  3
STYLESHEET
350
252
  3
TSTACKALIGN
350
24F
  3
TSTACKSIZE
350
250
  3
UCSBASE
350
268
  3
UCSORGBACK
350
26E
  3
UCSORGBOTTOM
350
26A
  3
UCSORGFRONT
350
26D
  3
UCSORGLEFT
350
26B
  3
UCSORGRIGHT
350
26C
  3
UCSORGTOP
350
269
  3
UCSORTHOREF
350
266
  3
UCSORTHOVIEW
350
267
  3
VERSIONGUID
350
25A
  0
DICTIONARY
  5
12C
102
{ACAD_REACTORS
330
C
102
}
330
C
100
AcDbDictionary
  3
DIMASSOC
350
12E
  3
HIDETEXT
350
12D
  0
XRECORD
  5
270
102
{ACAD_REACTORS
330
F7
102
}
330
F7
100
AcDbXrecord
340
1E
  0
XRECORD
  5
26F
102
{ACAD_REACTORS
330
F9
102
}
330
F9
100
AcDbXrecord
340
1A
  0
MLINESTYLE
  5
17
102
{ACAD_REACTORS
330
16
102
}
330
16
100
AcDbMlineStyle
  2
STANDARD
 70
     0
  3

 62
   256
 51
90.0
 52
90.0
 71
     2
 49
0.5
 62
   256
  6
BYLAYER
 49
-0.5
 62
   256
  6
BYLAYER
  0
ACDBPLACEHOLDER
  5
F
102
{ACAD_REACTORS
330
E
102
}
330
E
100
AcDbPlaceHolder
280
     0
  0
XRECORD
  5
258
102
{ACAD_REACTORS
330
24E
102
}
330
24E
100
AcDbXrecord
 90
        0
  0
XRECORD
  5
25C
102
{ACAD_REACTORS
330
24E
102
}
330
24E
100
AcDbXrecord
1000
DSTYLE
1002
{
1070
   277
 70
     5
1070
   279
 70
     2
1002
}
  0
XRECORD
  5
259
102
{ACAD_REACTORS
330
24E
102
}
330
24E
100
AcDbXrecord
  1
{FA316739-C960-4046-A28F-78B7648B6B20}
  0
XRECORD
  5
251
102
{ACAD_REACTORS
330
24E
102
}
330
24E
100
AcDbXrecord
  1

  0
XRECORD
  5
257
102
{ACAD_REACTORS
330
24E
102
}
330
24E
100
AcDbXrecord
 90
        0
  0
XRECORD
  5
253
102
{ACAD_REACTORS
330
24E
102
}
330
24E
100
AcDbXrecord
340
19
  0
XRECORD
  5
256
102
{ACAD_REACTORS
330
24E
102
}
330
24E
100
AcDbXrecord
 90
    14877
  0
XRECORD
  5
254
102
{ACAD_REACTORS
330
24E
102
}
330
24E
100
AcDbXrecord
340
18
  0
XRECORD
  5
255
102
{ACAD_REACTORS
330
24E
102
}
330
24E
100
AcDbXrecord
340
E
  0
XRECORD
  5
25B
102
{ACAD_REACTORS
330
24E
102
}
330
24E
100
AcDbXrecord
 40
0.0
  0
XRECORD
  5
25F
102
{ACAD_REACTORS
330
24E
102
}
330
24E
100
AcDbXrecord
340
0
  0
XRECORD
  5
265
102
{ACAD_REACTORS
330
24E
102
}
330
24E
100
AcDbXrecord
 10
0.0
 20
0.0
 30
0.0
  0
XRECORD
  5
261
102
{ACAD_REACTORS
330
24E
102
}
330
24E
100
AcDbXrecord
 10
0.0
 20
0.0
 30
0.0
  0
XRECORD
  5
264
102
{ACAD_REACTORS
330
24E
102
}
330
24E
100
AcDbXrecord
 10
0.0
 20
0.0
 30
0.0
  0
XRECORD
  5
262
102
{ACAD_REACTORS
330
24E
102
}
330
24E
100
AcDbXrecord
 10
0.0
 20
0.0
 30
0.0
  0
XRECORD
  5
263
102
{ACAD_REACTORS
330
24E
102
}
330
24E
100
AcDbXrecord
 10
0.0
 20
0.0
 30
0.0
  0
XRECORD
  5
260
102
{ACAD_REACTORS
330
24E
102
}
330
24E
100
AcDbXrecord
 10
0.0
 20
0.0
 30
0.0
  0
XRECORD
  5
25D
102
{ACAD_REACTORS
330
24E
102
}
330
24E
100
AcDbXrecord
340
0
  0
XRECORD
  5
25E
102
{ACAD_REACTORS
330
24E
102
}
330
24E
100
AcDbXrecord
 70
     0
  0
XRECORD
  5
252
102
{ACAD_REACTORS
330
24E
102
}
330
24E
100
AcDbXrecord
  1

  0
XRECORD
  5
24F
102
{ACAD_REACTORS
330
24E
102
}
330
24E
100
AcDbXrecord
 90
        1
  0
XRECORD
  5
250
102
{ACAD_REACTORS
330
24E
102
}
330
24E
100
AcDbXrecord
 90
       70
  0
XRECORD
  5
268
102
{ACAD_REACTORS
330
24E
102
}
330
24E
100
AcDbXrecord
340
0
  0
XRECORD
  5
26E
102
{ACAD_REACTORS
330
24E
102
}
330
24E
100
AcDbXrecord
 10
0.0
 20
0.0
 30
0.0
  0
XRECORD
  5
26A
102
{ACAD_REACTORS
330
24E
102
}
330
24E
100
AcDbXrecord
 10
0.0
 20
0.0
 30
0.0
  0
XRECORD
  5
26D
102
{ACAD_REACTORS
330
24E
102
}
330
24E
100
AcDbXrecord
 10
0.0
 20
0.0
 30
0.0
  0
XRECORD
  5
26B
102
{ACAD_REACTORS
330
24E
102
}
330
24E
100
AcDbXrecord
 10
0.0
 20
0.0
 30
0.0
  0
XRECORD
  5
26C
102
{ACAD_REACTORS
330
24E
102
}
330
24E
100
AcDbXrecord
 10
0.0
 20
0.0
 30
0.0
  0
XRECORD
  5
269
102
{ACAD_REACTORS
330
24E
102
}
330
24E
100
AcDbXrecord
 10
0.0
 20
0.0
 30
0.0
  0
XRECORD
  5
266
102
{ACAD_REACTORS
330
24E
102
}
330
24E
100
AcDbXrecord
340
0
  0
XRECORD
  5
267
102
{ACAD_REACTORS
330
24E
102
}
330
24E
100
AcDbXrecord
 70
     0
  0
XRECORD
  5
25A
102
{ACAD_REACTORS
330
24E
102
}
330
24E
100
AcDbXrecord
  1
{0E7D5615-C1DE-4EB6-B90A-6D223739D8D9}
  0
DICTIONARYVAR
  5
12E
102
{ACAD_REACTORS
330
12C
102
}
330
12C
100
DictionaryVariables
280
     0
  1
2
  0
DICTIONARYVAR
  5
12D
102
{ACAD_REACTORS
330
12C
102
}
330
12C
100
DictionaryVariables
280
     0
  1
1
  0
ENDSEC
  0
EOF
