  0
SECTION
  2
HEADER
  9
$ACADVER
  1
AC1014
  9
$ACADMAINTVER
 70
     9
  9
$DWGCODEPAGE
  3
ANSI_1252
  9
$INSBASE
 10
17.74701781380145
 20
-14.1033509093355
 30
0.0
  9
$EXTMIN
 10
14.454092391171
 20
-15.21423537240645
 30
0.0
  9
$EXTMAX
 10
27.32350746620511
 20
-11.6108509093355
 30
0.0
  9
$LIMMIN
 10
0.0
 20
0.0
  9
$LIMMAX
 10
36.0
 20
36.0
  9
$ORTHOMODE
 70
     1
  9
$REGENMODE
 70
     1
  9
$FILLMODE
 70
     1
  9
$QTEXTMODE
 70
     0
  9
$MIRRTEXT
 70
     1
  9
$DRAGMODE
 70
     0
  9
$LTSCALE
 40
1.0
  9
$OSMODE
 70
    37
  9
$ATTMODE
 70
     1
  9
$TEXTSIZE
 40
0.2
  9
$TRACEWID
 40
0.05
  9
$TEXTSTYLE
  7
STANDARD
  9
$CLAYER
  8
0
  9
$CELTYPE
  6
BYLAYER
  9
$CECOLOR
 62
   256
  9
$CELTSCALE
 40
1.0
  9
$DELOBJ
 70
     1
  9
$DISPSILH
 70
     0
  9
$DIMSCALE
 40
1.0
  9
$DIMASZ
 40
0.125
  9
$DIMEXO
 40
0.0625
  9
$DIMDLI
 40
0.38
  9
$DIMRND
 40
0.0
  9
$DIMDLE
 40
0.0
  9
$DIMEXE
 40
0.18
  9
$DIMTP
 40
0.0
  9
$DIMTM
 40
0.0
  9
$DIMTXT
 40
0.125
  9
$DIMCEN
 40
0.1875
  9
$DIMTSZ
 40
0.125
  9
$DIMTOL
 70
     0
  9
$DIMLIM
 70
     0
  9
$DIMTIH
 70
     0
  9
$DIMTOH
 70
     0
  9
$DIMSE1
 70
     0
  9
$DIMSE2
 70
     0
  9
$DIMTAD
 70
     0
  9
$DIMZIN
 70
     2
  9
$DIMBLK
  1

  9
$DIMASO
 70
     1
  9
$DIMSHO
 70
     1
  9
$DIMPOST
  1

  9
$DIMAPOST
  1

  9
$DIMALT
 70
     0
  9
$DIMALTD
 70
     1
  9
$DIMALTF
 40
25.4
  9
$DIMLFAC
 40
1.0
  9
$DIMTOFL
 70
     0
  9
$DIMTVP
 40
0.0
  9
$DIMTIX
 70
     0
  9
$DIMSOXD
 70
     0
  9
$DIMSAH
 70
     0
  9
$DIMBLK1
  1

  9
$DIMBLK2
  1

  9
$DIMSTYLE
  2
STANDARD
  9
$DIMCLRD
 70
     0
  9
$DIMCLRE
 70
     0
  9
$DIMCLRT
 70
     0
  9
$DIMTFAC
 40
1.0
  9
$DIMGAP
 40
0.125
  9
$DIMJUST
 70
     0
  9
$DIMSD1
 70
     0
  9
$DIMSD2
 70
     0
  9
$DIMTOLJ
 70
     1
  9
$DIMTZIN
 70
     0
  9
$DIMALTZ
 70
     0
  9
$DIMALTTZ
 70
     0
  9
$DIMFIT
 70
     3
  9
$DIMUPT
 70
     0
  9
$DIMUNIT
 70
     7
  9
$DIMDEC
 70
     4
  9
$DIMTDEC
 70
     4
  9
$DIMALTU
 70
     2
  9
$DIMALTTD
 70
     2
  9
$DIMTXSTY
  7
STANDARD
  9
$DIMAUNIT
 70
     0
  9
$LUNITS
 70
     5
  9
$LUPREC
 70
     4
  9
$SKETCHINC
 40
0.1
  9
$FILLETRAD
 40
0.062
  9
$AUNITS
 70
     0
  9
$AUPREC
 70
     0
  9
$MENU
  1
acad
  9
$ELEVATION
 40
0.0
  9
$PELEVATION
 40
0.0
  9
$THICKNESS
 40
0.0
  9
$LIMCHECK
 70
     0
  9
$BLIPMODE
 70
     0
  9
$CHAMFERA
 40
0.0
  9
$CHAMFERB
 40
0.0
  9
$CHAMFERC
 40
0.0
  9
$CHAMFERD
 40
0.0
  9
$SKPOLY
 70
     0
  9
$TDCREATE
 40
2450386.504063460
  9
$TDUPDATE
 40
2452297.069945740
  9
$TDINDWG
 40
0.0365248727
  9
$TDUSRTIMER
 40
0.0365248727
  9
$USRTIMER
 70
     1
  9
$ANGBASE
 50
0.0
  9
$ANGDIR
 70
     0
  9
$PDMODE
 70
     0
  9
$PDSIZE
 40
0.0
  9
$PLINEWID
 40
0.0
  9
$COORDS
 70
     2
  9
$SPLFRAME
 70
     0
  9
$SPLINETYPE
 70
     6
  9
$SPLINESEGS
 70
     8
  9
$ATTDIA
 70
     0
  9
$ATTREQ
 70
     1
  9
$HANDLING
 70
 22529
  9
$HANDSEED
  5
3FF
  9
$SURFTAB1
 70
     6
  9
$SURFTAB2
 70
     6
  9
$SURFTYPE
 70
     6
  9
$SURFU
 70
     6
  9
$SURFV
 70
     6
  9
$UCSNAME
  2

  9
$UCSORG
 10
0.0
 20
0.0
 30
0.0
  9
$UCSXDIR
 10
1.0
 20
0.0
 30
0.0
  9
$UCSYDIR
 10
0.0
 20
1.0
 30
0.0
  9
$PUCSNAME
  2

  9
$PUCSORG
 10
0.0
 20
0.0
 30
0.0
  9
$PUCSXDIR
 10
1.0
 20
0.0
 30
0.0
  9
$PUCSYDIR
 10
0.0
 20
1.0
 30
0.0
  9
$USERI1
 70
     0
  9
$USERI2
 70
     0
  9
$USERI3
 70
     0
  9
$USERI4
 70
     0
  9
$USERI5
 70
     0
  9
$USERR1
 40
0.0
  9
$USERR2
 40
0.0
  9
$USERR3
 40
0.0
  9
$USERR4
 40
0.0
  9
$USERR5
 40
0.0
  9
$WORLDVIEW
 70
     1
  9
$SHADEDGE
 70
     3
  9
$SHADEDIF
 70
    70
  9
$TILEMODE
 70
     1
  9
$MAXACTVP
 70
    15
  9
$PINSBASE
 10
4.403525741743744E+99
 20
7.061986388769092E+99
 30
0.0
  9
$PLIMCHECK
 70
     0
  9
$PEXTMIN
 10
1.000000000000000E+20
 20
1.000000000000000E+20
 30
1.000000000000000E+20
  9
$PEXTMAX
 10
-1.000000000000000E+20
 20
-1.000000000000000E+20
 30
-1.000000000000000E+20
  9
$PLIMMIN
 10
0.0
 20
0.0
  9
$PLIMMAX
 10
12.0
 20
9.0
  9
$UNITMODE
 70
     0
  9
$VISRETAIN
 70
     0
  9
$PLINEGEN
 70
     0
  9
$PSLTSCALE
 70
     1
  9
$TREEDEPTH
 70
  3020
  9
$PICKSTYLE
 70
     1
  9
$CMLSTYLE
  2
STANDARD
  9
$CMLJUST
 70
     0
  9
$CMLSCALE
 40
1.0
  9
$PROXYGRAPHICS
 70
     1
  9
$MEASUREMENT
 70
     0
  0
ENDSEC
  0
SECTION
  2
CLASSES
  0
CLASS
  1
ACDBDICTIONARYWDFLT
  2
AcDbDictionaryWithDefault
  3
AutoCAD 2000
 90
        0
280
     0
281
     0
  0
CLASS
  1
ACDBPLACEHOLDER
  2
AcDbPlaceHolder
  3
AutoCAD 2000
 90
        0
280
     0
281
     0
  0
CLASS
  1
LAYOUT
  2
AcDbLayout
  3
AutoCAD 2000
 90
        0
280
     0
281
     0
  0
CLASS
  1
DICTIONARYVAR
  2
AcDbDictionaryVar
  3
AutoCAD 2000
 90
        0
280
     0
281
     0
  0
CLASS
  1
LONG_TRANSACTION
  2
AcDbLongTransaction
  3
AutoCAD 2000
 90
        0
280
     0
281
     0
  0
CLASS
  1
LWPOLYLINE
  2
AcDbPolyline
  3
AutoCAD 2000
 90
        0
280
     0
281
     1
  0
CLASS
  1
HATCH
  2
AcDbHatch
  3
AutoCAD 2000
 90
        0
280
     0
281
     1
  0
CLASS
  1
XRECORD
  2
AcDbXrecord
  3
AutoCAD 2000
 90
        0
280
     0
281
     0
  0
CLASS
  1
LONG_TRANSACTION
  2
AcDbLongTransaction
  3
AutoCAD 2000
 90
        0
280
     0
281
     0
  0
CLASS
  1
LWPOLYLINE
  2
AcDbPolyline
  3
AutoCAD 2000
 90
        0
280
     0
281
     1
  0
CLASS
  1
HATCH
  2
AcDbHatch
  3
AutoCAD 2000
 90
        0
280
     0
281
     1
  0
CLASS
  1
XRECORD
  2
AcDbXrecord
  3
AutoCAD 2000
 90
        0
280
     0
281
     0
  0
CLASS
  1
LONG_TRANSACTION
  2
AcDbLongTransaction
  3
AutoCAD 2000
 90
        0
280
     0
281
     0
  0
CLASS
  1
LWPOLYLINE
  2
AcDbPolyline
  3
AutoCAD 2000
 90
        0
280
     0
281
     1
  0
CLASS
  1
HATCH
  2
AcDbHatch
  3
AutoCAD 2000
 90
        0
280
     0
281
     1
  0
CLASS
  1
XRECORD
  2
AcDbXrecord
  3
AutoCAD 2000
 90
        0
280
     0
281
     0
  0
CLASS
  1
LONG_TRANSACTION
  2
AcDbLongTransaction
  3
AutoCAD 2000
 90
        0
280
     0
281
     0
  0
CLASS
  1
LWPOLYLINE
  2
AcDbPolyline
  3
AutoCAD 2000
 90
        0
280
     0
281
     1
  0
CLASS
  1
HATCH
  2
AcDbHatch
  3
AutoCAD 2000
 90
        0
280
     0
281
     1
  0
CLASS
  1
XRECORD
  2
AcDbXrecord
  3
AutoCAD 2000
 90
        0
280
     0
281
     0
  0
CLASS
  1
LONG_TRANSACTION
  2
AcDbLongTransaction
  3
AutoCAD 2000
 90
        0
280
     0
281
     0
  0
CLASS
  1
LWPOLYLINE
  2
AcDbPolyline
  3
AutoCAD 2000
 90
        0
280
     0
281
     1
  0
CLASS
  1
HATCH
  2
AcDbHatch
  3
AutoCAD 2000
 90
        0
280
     0
281
     1
  0
CLASS
  1
XRECORD
  2
AcDbXrecord
  3
AutoCAD 2000
 90
        0
280
     0
281
     0
  0
ENDSEC
  0
SECTION
  2
TABLES
  0
TABLE
  2
VPORT
  5
12
330
0
100
AcDbSymbolTable
 70
     2
  0
VPORT
  5
3A9
330
12
100
AcDbSymbolTableRecord
100
AcDbViewportTableRecord
  2
*ACTIVE
 70
     0
 10
0.0
 20
0.0
 11
1.0
 21
1.0
 12
20.89842080515189
 22
-13.41377652468076
 13
0.0
 23
0.0
 14
0.5740882589684922
 24
0.5740882589684922
 15
0.5
 25
0.5
 16
0.0
 26
0.0
 36
1.0
 17
0.0
 27
0.0
 37
0.0
 40
8.249431416431285
 41
1.570528967254408
 42
50.0
 43
0.0
 44
0.0
 50
0.0
 51
0.0
 71
     0
 72
   100
 73
     1
 74
     0
 75
     0
 76
     0
 77
     0
 78
     0
  0
ENDTAB
  0
TABLE
  2
LTYPE
  5
E
330
0
100
AcDbSymbolTable
 70
     2
  0
LTYPE
  5
F
330
E
100
AcDbSymbolTableRecord
100
AcDbLinetypeTableRecord
  2
BYBLOCK
 70
     0
  3

 72
    65
 73
     0
 40
0.0
  0
LTYPE
  5
6
330
E
100
AcDbSymbolTableRecord
100
AcDbLinetypeTableRecord
  2
BYLAYER
 70
     0
  3

 72
    65
 73
     0
 40
0.0
  0
LTYPE
  5
5
330
E
100
AcDbSymbolTableRecord
100
AcDbLinetypeTableRecord
  2
CONTINUOUS
 70
     0
  3
Solid line
 72
    65
 73
     0
 40
0.0
  0
LTYPE
  5
21
330
E
100
AcDbSymbolTableRecord
100
AcDbLinetypeTableRecord
  2
HIDDEN2
 70
     0
  3
_ _ _ _ _ _ _ _ _ _ _ _ _ _ _ _ _ _ _ _ _ _ _ _
 72
    65
 73
     2
 40
0.1875
 49
0.125
 74
     0
 49
-0.0625
 74
     0
  0
ENDTAB
  0
TABLE
  2
LAYER
  5
B
330
0
100
AcDbSymbolTable
 70
     5
  0
LAYER
  5
4
330
B
100
AcDbSymbolTableRecord
100
AcDbLayerTableRecord
  2
0
 70
     0
 62
     7
  6
CONTINUOUS
  0
LAYER
  5
1E
330
B
100
AcDbSymbolTableRecord
100
AcDbLayerTableRecord
  2
ADP1DETAIL
 70
     0
 62
     7
  6
CONTINUOUS
  0
LAYER
  5
39
330
B
100
AcDbSymbolTableRecord
100
AcDbLayerTableRecord
  2
DEFPOINTS
 70
     0
 62
     7
  6
CONTINUOUS
  0
LAYER
  5
2F
330
B
100
AcDbSymbolTableRecord
100
AcDbLayerTableRecord
  2
ADPDIM
 70
     0
 62
     3
  6
CONTINUOUS
  0
LAYER
  5
20
330
B
100
AcDbSymbolTableRecord
100
AcDbLayerTableRecord
  2
ADP2DETAIL
 70
     0
 62
     5
  6
CONTINUOUS
  0
ENDTAB
  0
TABLE
  2
STYLE
  5
C
330
0
100
AcDbSymbolTable
 70
     2
  0
STYLE
  5
D
330
C
100
AcDbSymbolTableRecord
100
AcDbTextStyleTableRecord
  2
STANDARD
 70
     0
 40
0.0
 41
1.0
 50
0.0
 71
     0
 42
0.2
  3
txt
  4

  0
STYLE
  5
E2
330
C
100
AcDbSymbolTableRecord
100
AcDbTextStyleTableRecord
  2
ARIAL_WIDE
 70
     0
 40
0.0
 41
1.25
 50
0.0
 71
     0
 42
0.2
  3
ARIAL.TTF
  4

1001
ACAD
1000
Arial
1071
       34
  0
ENDTAB
  0
TABLE
  2
VIEW
  5
10
330
0
100
AcDbSymbolTable
 70
     0
  0
ENDTAB
  0
TABLE
  2
UCS
  5
11
330
0
100
AcDbSymbolTable
 70
     0
  0
ENDTAB
  0
TABLE
  2
APPID
  5
14
330
0
100
AcDbSymbolTable
 70
     1
  0
APPID
  5
15
330
14
100
AcDbSymbolTableRecord
100
AcDbRegAppTableRecord
  2
ACAD
 70
     0
  0
ENDTAB
  0
TABLE
  2
DIMSTYLE
  5
16
330
0
100
AcDbSymbolTable
 70
     1
  0
DIMSTYLE
105
1C
102
{ACAD_REACTORS
330
2E
330
4F
330
6C
330
BD
330
CB
102
}
330
16
100
AcDbSymbolTableRecord
100
AcDbDimStyleTableRecord
  2
STANDARD
 70
     0
  3

  4

  5

  6

  7

 40
1.0
 41
0.18
 42
0.0625
 43
0.38
 44
0.18
 45
0.0
 46
0.0
 47
0.0
 48
0.0
140
0.18
141
0.09
142
0.0
143
25.4
144
1.0
145
0.0
146
1.0
147
0.09
 71
     0
 72
     0
 73
     1
 74
     1
 75
     0
 76
     0
 77
     0
 78
     0
170
     0
171
     2
172
     0
173
     0
174
     0
175
     0
176
     0
177
     0
178
     0
270
     2
271
     4
272
     4
273
     2
274
     2
340
D
275
     0
280
     0
281
     0
282
     0
283
     1
284
     0
285
     0
286
     0
287
     3
288
     0
  0
ENDTAB
  0
TABLE
  2
BLOCK_RECORD
  5
1
330
0
100
AcDbSymbolTable
 70
     5
  0
BLOCK_RECORD
  5
2
102
{ACAD_XDICTIONARY
360
178
102
}
330
1
100
AcDbSymbolTableRecord
100
AcDbBlockTableRecord
  2
*MODEL_SPACE
  0
BLOCK_RECORD
  5
8
102
{ACAD_XDICTIONARY
360
17A
102
}
330
1
100
AcDbSymbolTableRecord
100
AcDbBlockTableRecord
  2
*PAPER_SPACE
  0
BLOCK_RECORD
  5
17C
330
1
100
AcDbSymbolTableRecord
100
AcDbBlockTableRecord
  2
*D0
  0
BLOCK_RECORD
  5
18B
330
1
100
AcDbSymbolTableRecord
100
AcDbBlockTableRecord
  2
*D1
  0
BLOCK_RECORD
  5
198
330
1
100
AcDbSymbolTableRecord
100
AcDbBlockTableRecord
  2
*D2
  0
BLOCK_RECORD
  5
1A5
330
1
100
AcDbSymbolTableRecord
100
AcDbBlockTableRecord
  2
*D3
  0
BLOCK_RECORD
  5
1B2
330
1
100
AcDbSymbolTableRecord
100
AcDbBlockTableRecord
  2
*D4
  0
ENDTAB
  0
ENDSEC
  0
SECTION
  2
BLOCKS
  0
BLOCK
  5
3
330
2
100
AcDbEntity
  8
0
100
AcDbBlockBegin
  2
*MODEL_SPACE
 70
     0
 10
0.0
 20
0.0
 30
0.0
  3
*MODEL_SPACE
  1

  0
ENDBLK
  5
7
330
2
100
AcDbEntity
  8
0
100
AcDbBlockEnd
  0
BLOCK
  5
9
330
8
100
AcDbEntity
 67
     1
  8
0
100
AcDbBlockBegin
  2
*PAPER_SPACE
 70
     0
 10
0.0
 20
0.0
 30
0.0
  3
*PAPER_SPACE
  1

  0
ENDBLK
  5
A
330
8
100
AcDbEntity
 67
     1
  8
0
100
AcDbBlockEnd
  0
BLOCK
  5
187
330
17C
100
AcDbEntity
  8
0
100
AcDbBlockBegin
  2
*D0
 70
     1
 10
0.0
 20
0.0
 30
0.0
  3
*D0
  1

  0
LINE
  5
3CD
330
17C
100
AcDbEntity
  8
ADPDIM
 62
     0
100
AcDbLine
 10
22.59051781380145
 20
-12.2283509093355
 30
0.0
 11
22.59051781380145
 21
-11.9858509093355
 31
0.0
  0
LINE
  5
3CE
330
17C
100
AcDbEntity
  8
ADPDIM
 62
     0
100
AcDbLine
 10
24.21551781380145
 20
-12.2283509093355
 30
0.0
 11
24.21551781380145
 21
-11.9858509093355
 31
0.0
  0
LINE
  5
3CF
330
17C
100
AcDbEntity
  8
ADPDIM
 62
     0
100
AcDbLine
 10
22.59051781380145
 20
-12.1658509093355
 30
0.0
 11
23.00718448046812
 21
-12.1658509093355
 31
0.0
  0
LINE
  5
3D0
330
17C
100
AcDbEntity
  8
ADPDIM
 62
     0
100
AcDbLine
 10
24.21551781380145
 20
-12.1658509093355
 30
0.0
 11
23.79885114713478
 21
-12.1658509093355
 31
0.0
  0
LINE
  5
3D1
330
17C
100
AcDbEntity
  8
ADPDIM
 62
     0
100
AcDbLine
 10
24.09051781380146
 20
-12.2908509093355
 30
0.0
 11
24.34051781380146
 21
-12.0408509093355
 31
0.0
  0
LINE
  5
3D2
330
17C
100
AcDbEntity
  8
ADPDIM
 62
     0
100
AcDbLine
 10
22.46551781380146
 20
-12.2908509093355
 30
0.0
 11
22.71551781380146
 21
-12.0408509093355
 31
0.0
  0
MTEXT
  5
3D3
330
17C
100
AcDbEntity
  8
ADPDIM
 62
     0
100
AcDbMText
 10
23.40301781380146
 20
-12.1658509093355
 30
0.0
 40
0.125
 41
0.0
 71
     5
 72
     1
  1
\A1;1 5/8
  0
POINT
  5
3D4
330
17C
100
AcDbEntity
  8
DEFPOINTS
 62
     0
100
AcDbPoint
 10
22.59051781380145
 20
-12.2908509093355
 30
0.0
  0
POINT
  5
3D5
330
17C
100
AcDbEntity
  8
DEFPOINTS
 62
     0
100
AcDbPoint
 10
24.21551781380145
 20
-12.2908509093355
 30
0.0
  0
POINT
  5
3D6
330
17C
100
AcDbEntity
  8
DEFPOINTS
 62
     0
100
AcDbPoint
 10
24.21551781380145
 20
-12.1658509093355
 30
0.0
  0
ENDBLK
  5
188
330
17C
100
AcDbEntity
  8
0
100
AcDbBlockEnd
  0
BLOCK
  5
196
330
18B
100
AcDbEntity
  8
0
100
AcDbBlockBegin
  2
*D1
 70
     1
 10
0.0
 20
0.0
 30
0.0
  3
*D1
  1

  0
LINE
  5
3D7
330
18B
100
AcDbEntity
  8
ADPDIM
 62
     0
100
AcDbLine
 10
22.18451781380145
 20
-12.3533509093355
 30
0.0
 11
22.18451781380145
 21
-11.6108509093355
 31
0.0
  0
LINE
  5
3D8
330
18B
100
AcDbEntity
  8
ADPDIM
 62
     0
100
AcDbLine
 10
24.68451781380146
 20
-12.3533509093355
 30
0.0
 11
24.68451781380146
 21
-11.6108509093355
 31
0.0
  0
LINE
  5
3D9
330
18B
100
AcDbEntity
  8
ADPDIM
 62
     0
100
AcDbLine
 10
22.18451781380145
 20
-11.7908509093355
 30
0.0
 11
23.03868448046813
 21
-11.7908509093355
 31
0.0
  0
LINE
  5
3DA
330
18B
100
AcDbEntity
  8
ADPDIM
 62
     0
100
AcDbLine
 10
24.68451781380146
 20
-11.7908509093355
 30
0.0
 11
23.83035114713479
 21
-11.7908509093355
 31
0.0
  0
LINE
  5
3DB
330
18B
100
AcDbEntity
  8
ADPDIM
 62
     0
100
AcDbLine
 10
24.55951781380146
 20
-11.9158509093355
 30
0.0
 11
24.80951781380146
 21
-11.6658509093355
 31
0.0
  0
LINE
  5
3DC
330
18B
100
AcDbEntity
  8
ADPDIM
 62
     0
100
AcDbLine
 10
22.05951781380146
 20
-11.9158509093355
 30
0.0
 11
22.30951781380146
 21
-11.6658509093355
 31
0.0
  0
MTEXT
  5
3DD
330
18B
100
AcDbEntity
  8
ADPDIM
 62
     0
100
AcDbMText
 10
23.43451781380145
 20
-11.7908509093355
 30
0.0
 40
0.125
 41
0.0
 71
     5
 72
     1
  1
\A1;2 1/2
  0
POINT
  5
3DE
330
18B
100
AcDbEntity
  8
DEFPOINTS
 62
     0
100
AcDbPoint
 10
22.18451781380145
 20
-12.4158509093355
 30
0.0
  0
POINT
  5
3DF
330
18B
100
AcDbEntity
  8
DEFPOINTS
 62
     0
100
AcDbPoint
 10
24.68451781380146
 20
-12.4158509093355
 30
0.0
  0
POINT
  5
3E0
330
18B
100
AcDbEntity
  8
DEFPOINTS
 62
     0
100
AcDbPoint
 10
24.68451781380146
 20
-11.7908509093355
 30
0.0
  0
ENDBLK
  5
197
330
18B
100
AcDbEntity
  8
0
100
AcDbBlockEnd
  0
BLOCK
  5
1A3
330
198
100
AcDbEntity
  8
0
100
AcDbBlockBegin
  2
*D2
 70
     1
 10
0.0
 20
0.0
 30
0.0
  3
*D2
  1

  0
LINE
  5
3E1
330
198
100
AcDbEntity
  8
ADPDIM
 62
     0
100
AcDbLine
 10
22.12201781380146
 20
-12.56504362200383
 30
0.0
 11
21.56701781380145
 21
-12.56504362200383
 31
0.0
  0
LINE
  5
3E2
330
198
100
AcDbEntity
  8
ADPDIM
 62
     0
100
AcDbLine
 10
23.37498722799378
 20
-13.62754362200383
 30
0.0
 11
21.56701781380145
 21
-13.62754362200383
 31
0.0
  0
LINE
  5
3E3
330
198
100
AcDbEntity
  8
ADPDIM
 62
     0
100
AcDbLine
 10
21.74701781380146
 20
-12.56504362200383
 30
0.0
 11
21.74701781380146
 21
-12.31504362200383
 31
0.0
  0
LINE
  5
3E4
330
198
100
AcDbEntity
  8
ADPDIM
 62
     0
100
AcDbLine
 10
21.74701781380146
 20
-13.62754362200383
 30
0.0
 11
21.74701781380146
 21
-13.87754362200383
 31
0.0
  0
LINE
  5
3E5
330
198
100
AcDbEntity
  8
ADPDIM
 62
     0
100
AcDbLine
 10
21.87201781380145
 20
-13.75254362200383
 30
0.0
 11
21.62201781380145
 21
-13.50254362200383
 31
0.0
  0
LINE
  5
3E6
330
198
100
AcDbEntity
  8
ADPDIM
 62
     0
100
AcDbLine
 10
21.87201781380145
 20
-12.69004362200383
 30
0.0
 11
21.62201781380145
 21
-12.44004362200383
 31
0.0
  0
MTEXT
  5
3E7
330
198
100
AcDbEntity
  8
ADPDIM
 62
     0
100
AcDbMText
 10
21.74701781380146
 20
-13.09629362200383
 30
0.0
 40
0.125
 41
0.0
 71
     5
 72
     1
  1
\A1;1 1/16
 11
0.0000000000000001
 21
1.0
 31
0.0
  0
POINT
  5
3E8
330
198
100
AcDbEntity
  8
DEFPOINTS
 62
     0
100
AcDbPoint
 10
22.18451781380145
 20
-12.56504362200383
 30
0.0
  0
POINT
  5
3E9
330
198
100
AcDbEntity
  8
DEFPOINTS
 62
     0
100
AcDbPoint
 10
23.43748722799378
 20
-13.62754362200383
 30
0.0
  0
POINT
  5
3EA
330
198
100
AcDbEntity
  8
DEFPOINTS
 62
     0
100
AcDbPoint
 10
21.74701781380146
 20
-13.62754362200383
 30
0.0
  0
ENDBLK
  5
1A4
330
198
100
AcDbEntity
  8
0
100
AcDbBlockEnd
  0
BLOCK
  5
1B0
330
1A5
100
AcDbEntity
  8
0
100
AcDbBlockBegin
  2
*D3
 70
     1
 10
0.0
 20
0.0
 30
0.0
  3
*D3
  1

  0
LINE
  5
3EB
330
1A5
100
AcDbEntity
  8
ADPDIM
 62
     0
100
AcDbLine
 10
17.74701781380145
 20
-13.1658509093355
 30
0.0
 11
17.74701781380145
 21
-11.9858509093355
 31
0.0
  0
LINE
  5
3EC
330
1A5
100
AcDbEntity
  8
ADPDIM
 62
     0
100
AcDbLine
 10
20.49701781380146
 20
-12.0483509093355
 30
0.0
 11
20.49701781380146
 21
-12.3458509093355
 31
0.0
  0
LINE
  5
3ED
330
1A5
100
AcDbEntity
  8
ADPDIM
 62
     0
100
AcDbLine
 10
17.74701781380145
 20
-12.1658509093355
 30
0.0
 11
18.70535114713479
 21
-12.1658509093355
 31
0.0
  0
LINE
  5
3EE
330
1A5
100
AcDbEntity
  8
ADPDIM
 62
     0
100
AcDbLine
 10
20.49701781380146
 20
-12.1658509093355
 30
0.0
 11
19.53868448046812
 21
-12.1658509093355
 31
0.0
  0
LINE
  5
3EF
330
1A5
100
AcDbEntity
  8
ADPDIM
 62
     0
100
AcDbLine
 10
20.37201781380145
 20
-12.2908509093355
 30
0.0
 11
20.62201781380145
 21
-12.0408509093355
 31
0.0
  0
LINE
  5
3F0
330
1A5
100
AcDbEntity
  8
ADPDIM
 62
     0
100
AcDbLine
 10
17.62201781380146
 20
-12.2908509093355
 30
0.0
 11
17.87201781380145
 21
-12.0408509093355
 31
0.0
  0
MTEXT
  5
3F1
330
1A5
100
AcDbEntity
  8
ADPDIM
 62
     0
100
AcDbMText
 10
19.12201781380145
 20
-12.1658509093355
 30
0.0
 40
0.125
 41
0.0
 71
     5
 72
     1
  1
\A1;2 3/4
  0
POINT
  5
3F2
330
1A5
100
AcDbEntity
  8
DEFPOINTS
 62
     0
100
AcDbPoint
 10
17.74701781380145
 20
-13.2283509093355
 30
0.0
  0
POINT
  5
3F3
330
1A5
100
AcDbEntity
  8
DEFPOINTS
 62
     0
100
AcDbPoint
 10
20.49701781380146
 20
-11.9858509093355
 30
0.0
  0
POINT
  5
3F4
330
1A5
100
AcDbEntity
  8
DEFPOINTS
 62
     0
100
AcDbPoint
 10
20.49701781380146
 20
-12.1658509093355
 30
0.0
  0
ENDBLK
  5
1B1
330
1A5
100
AcDbEntity
  8
0
100
AcDbBlockEnd
  0
BLOCK
  5
1BD
330
1B2
100
AcDbEntity
  8
0
100
AcDbBlockBegin
  2
*D4
 70
     1
 10
0.0
 20
0.0
 30
0.0
  3
*D4
  1

  0
LINE
  5
3F5
330
1B2
100
AcDbEntity
  8
ADPDIM
 62
     0
100
AcDbLine
 10
20.12201781380146
 20
-14.1033509093355
 30
0.0
 11
20.12201781380146
 21
-14.46077441980639
 31
0.0
  0
LINE
  5
3F6
330
1B2
100
AcDbEntity
  8
ADPDIM
 62
     0
100
AcDbLine
 10
20.87201781380146
 20
-14.1033509093355
 30
0.0
 11
20.87201781380146
 21
-14.46077441980639
 31
0.0
  0
LINE
  5
3F7
330
1B2
100
AcDbEntity
  8
ADPDIM
 62
     0
100
AcDbLine
 10
20.12201781380146
 20
-14.28077441980639
 30
0.0
 11
19.87201781380146
 21
-14.28077441980639
 31
0.0
  0
LINE
  5
3F8
330
1B2
100
AcDbEntity
  8
ADPDIM
 62
     0
100
AcDbLine
 10
20.87201781380146
 20
-14.28077441980639
 30
0.0
 11
21.12201781380146
 21
-14.28077441980639
 31
0.0
  0
LINE
  5
3F9
330
1B2
100
AcDbEntity
  8
ADPDIM
 62
     0
100
AcDbLine
 10
20.74701781380146
 20
-14.40577441980639
 30
0.0
 11
20.99701781380145
 21
-14.15577441980639
 31
0.0
  0
LINE
  5
3FA
330
1B2
100
AcDbEntity
  8
ADPDIM
 62
     0
100
AcDbLine
 10
19.99701781380146
 20
-14.40577441980639
 30
0.0
 11
20.24701781380146
 21
-14.15577441980639
 31
0.0
  0
MTEXT
  5
3FB
330
1B2
100
AcDbEntity
  8
ADPDIM
 62
     0
100
AcDbMText
 10
20.49701781380146
 20
-14.28077441980639
 30
0.0
 40
0.125
 41
0.0
 71
     5
 72
     1
  1
\A1;3/4
  0
POINT
  5
3FC
330
1B2
100
AcDbEntity
  8
DEFPOINTS
 62
     0
100
AcDbPoint
 10
20.12201781380146
 20
-14.0408509093355
 30
0.0
  0
POINT
  5
3FD
330
1B2
100
AcDbEntity
  8
DEFPOINTS
 62
     0
100
AcDbPoint
 10
20.87201781380146
 20
-14.0408509093355
 30
0.0
  0
POINT
  5
3FE
330
1B2
100
AcDbEntity
  8
DEFPOINTS
 62
     0
100
AcDbPoint
 10
20.87201781380146
 20
-14.28077441980639
 30
0.0
  0
ENDBLK
  5
1BE
330
1B2
100
AcDbEntity
  8
0
100
AcDbBlockEnd
  0
ENDSEC
  0
SECTION
  2
ENTITIES
  0
LINE
  5
1D
330
2
100
AcDbEntity
  8
ADP1DETAIL
100
AcDbLine
 10
24.68451781380146
 20
-12.44599822037572
 30
0.0
 11
24.68451781380146
 21
-12.75304362200383
 31
0.0
  0
LINE
  5
1F
330
2
100
AcDbEntity
  8
ADP2DETAIL
  6
HIDDEN2
100
AcDbLine
 10
24.33578780513538
 20
-12.56378873918766
 30
0.0
 11
24.33578780513538
 21
-12.68878873918766
 31
0.0
  0
LINE
  5
22
330
2
100
AcDbEntity
  8
ADP2DETAIL
  6
HIDDEN2
100
AcDbLine
 10
24.14778780513538
 20
-12.56378873918766
 30
0.0
 11
24.14778780513538
 21
-12.68878873918766
 31
0.0
  0
LINE
  5
23
330
2
100
AcDbEntity
  8
ADP2DETAIL
  6
HIDDEN2
100
AcDbLine
 10
24.33578780513538
 20
-12.68878873918766
 30
0.0
 11
24.39778780513538
 21
-12.75078873918766
 31
0.0
  0
LINE
  5
24
330
2
100
AcDbEntity
  8
ADP2DETAIL
  6
HIDDEN2
100
AcDbLine
 10
24.14778780513538
 20
-12.68878873918766
 30
0.0
 11
24.08578780513538
 21
-12.75078873918766
 31
0.0
  0
LINE
  5
25
330
2
100
AcDbEntity
  8
ADP1DETAIL
100
AcDbLine
 10
23.62087254664718
 20
-13.38108678152772
 30
0.0
 11
23.62087254664718
 21
-12.42653928274418
 31
0.0
  0
ARC
  5
26
330
2
100
AcDbEntity
  8
ADP1DETAIL
100
AcDbCircle
 10
23.93451781380146
 20
-12.87804362200383
 30
0.0
 40
0.125
100
AcDbArc
 50
90.0
 51
180.0
  0
LINE
  5
27
330
2
100
AcDbEntity
  8
ADP1DETAIL
100
AcDbLine
 10
23.24701781380146
 20
-13.38108678152772
 30
0.0
 11
23.24701781380146
 21
-12.42653928274418
 31
0.0
  0
ARC
  5
28
330
2
100
AcDbEntity
  8
ADP1DETAIL
100
AcDbCircle
 10
22.93451781380146
 20
-12.87804362200383
 30
0.0
 40
0.125
100
AcDbArc
 50
0.0
 51
90.0
  0
LINE
  5
29
330
2
100
AcDbEntity
  8
ADP2DETAIL
  6
HIDDEN2
100
AcDbLine
 10
22.52278780513538
 20
-12.56378873918766
 30
0.0
 11
22.52278780513538
 21
-12.68878873918766
 31
0.0
  0
LINE
  5
2A
330
2
100
AcDbEntity
  8
ADP2DETAIL
  6
HIDDEN2
100
AcDbLine
 10
22.52278780513538
 20
-12.68878873918766
 30
0.0
 11
22.46078780513538
 21
-12.75078873918766
 31
0.0
  0
LINE
  5
2B
330
2
100
AcDbEntity
  8
ADP2DETAIL
  6
HIDDEN2
100
AcDbLine
 10
22.71078780513538
 20
-12.56378873918766
 30
0.0
 11
22.71078780513538
 21
-12.68878873918766
 31
0.0
  0
LINE
  5
2C
330
2
100
AcDbEntity
  8
ADP2DETAIL
  6
HIDDEN2
100
AcDbLine
 10
22.71078780513538
 20
-12.68878873918766
 30
0.0
 11
22.77278780513538
 21
-12.75078873918766
 31
0.0
  0
LINE
  5
2D
330
2
100
AcDbEntity
  8
ADP1DETAIL
100
AcDbLine
 10
23.24587254664718
 20
-12.42701634951191
 30
0.0
 11
23.62087254664718
 21
-12.42701634951191
 31
0.0
  0
DIMENSION
  5
2E
330
2
100
AcDbEntity
  8
ADPDIM
100
AcDbDimension
  2
*D0
 10
24.21551781380145
 20
-12.1658509093355
 30
0.0
 11
23.40301781380146
 21
-12.1658509093355
 31
0.0
 70
    32
  3
STANDARD
100
AcDbAlignedDimension
 13
22.59051781380145
 23
-12.2908509093355
 33
0.0
 14
24.21551781380145
 24
-12.2908509093355
 34
0.0
100
AcDbRotatedDimension
1001
ACAD
1000
DSTYLE
1002
{
1070
   270
1070
     7
1070
   270
1070
     7
1070
   270
1070
     7
1070
   270
1070
     7
1070
   270
1070
     7
1070
    41
1040
0.125
1070
    73
1070
     0
1070
    74
1070
     0
1070
    78
1070
     2
1070
   140
1040
0.125
1070
   141
1040
0.1875
1070
   142
1040
0.125
1070
   147
1040
0.125
1070
   171
1070
     1
1070
   276
1070
     2
1070
   277
1070
     5
1002
}
  0
LINE
  5
3E
330
2
100
AcDbEntity
  8
ADP2DETAIL
  6
HIDDEN2
100
AcDbLine
 10
23.24587254664718
 20
-12.54606175114002
 30
0.0
 11
23.62087254664718
 21
-12.54606175114002
 31
0.0
  0
LINE
  5
3F
330
2
100
AcDbEntity
  8
ADP1DETAIL
100
AcDbLine
 10
22.18451781380145
 20
-12.75304362200383
 30
0.0
 11
22.18451781380145
 21
-12.44599822037572
 31
0.0
  0
LINE
  5
40
330
2
100
AcDbEntity
  8
ADP1DETAIL
100
AcDbLine
 10
20.87201781380146
 20
-13.3533509093355
 30
0.0
 11
20.99275854208759
 21
-13.38570328997332
 31
0.0
  0
LINE
  5
41
330
2
100
AcDbEntity
  8
ADP1DETAIL
100
AcDbLine
 10
20.87201781380146
 20
-13.4783509093355
 30
0.0
 11
20.87201781380146
 21
-13.3533509093355
 31
0.0
  0
LINE
  5
42
330
2
100
AcDbEntity
  8
ADP1DETAIL
100
AcDbLine
 10
20.99275854208759
 20
-13.38570328997332
 30
0.0
 11
20.99275854208759
 21
-13.38570328997332
 31
0.0
  0
LINE
  5
43
330
2
100
AcDbEntity
  8
ADP2DETAIL
  6
HIDDEN2
100
AcDbLine
 10
20.59101781380145
 20
-12.6658509093355
 30
0.0
 11
20.65301781380145
 21
-12.7278509093355
 31
0.0
  0
LINE
  5
44
330
2
100
AcDbEntity
  8
ADP2DETAIL
  6
HIDDEN2
100
AcDbLine
 10
20.59101781380145
 20
-12.5408509093355
 30
0.0
 11
20.59101781380145
 21
-12.6658509093355
 31
0.0
  0
LINE
  5
45
330
2
100
AcDbEntity
  8
ADP1DETAIL
100
AcDbLine
 10
20.12201781380146
 20
-13.3533509093355
 30
0.0
 11
20.12201781380146
 21
-13.4783509093355
 31
0.0
  0
LINE
  5
46
330
2
100
AcDbEntity
  8
ADP2DETAIL
  6
HIDDEN2
100
AcDbLine
 10
20.40301781380145
 20
-12.6658509093355
 30
0.0
 11
20.34101781380145
 21
-12.7278509093355
 31
0.0
  0
LINE
  5
47
330
2
100
AcDbEntity
  8
ADP2DETAIL
  6
HIDDEN2
100
AcDbLine
 10
20.40301781380145
 20
-12.5408509093355
 30
0.0
 11
20.40301781380145
 21
-12.6658509093355
 31
0.0
  0
ARC
  5
48
330
2
100
AcDbEntity
  8
ADP1DETAIL
100
AcDbCircle
 10
20.49701781380146
 20
-11.7308509093355
 30
0.0
 40
0.8100000000000001
100
AcDbArc
 50
242.4215320218769
 51
297.5784679781231
  0
LINE
  5
49
330
2
100
AcDbEntity
  8
ADP1DETAIL
100
AcDbLine
 10
20.12201781380146
 20
-12.7278509093355
 30
0.0
 11
20.87201781380146
 21
-12.7278509093355
 31
0.0
  0
LINE
  5
4A
330
2
100
AcDbEntity
  8
ADP1DETAIL
100
AcDbLine
 10
22.18451781380145
 20
-12.44599822037572
 30
0.0
 11
23.2510447590642
 21
-12.44599822037572
 31
0.0
  0
LINE
  5
4B
330
2
100
AcDbEntity
  8
ADP1DETAIL
100
AcDbLine
 10
22.93451781380146
 20
-12.75304362200383
 30
0.0
 11
22.18451781380145
 21
-12.75304362200383
 31
0.0
  0
LINE
  5
4C
330
2
100
AcDbEntity
  8
ADP2DETAIL
  6
HIDDEN2
100
AcDbLine
 10
22.18451781380145
 20
-12.56504362200383
 30
0.0
 11
23.18563345738051
 21
-12.56504362200383
 31
0.0
  0
LINE
  5
4D
330
2
100
AcDbEntity
  8
ADP1DETAIL
100
AcDbLine
 10
23.6179908685387
 20
-12.44599822037572
 30
0.0
 11
24.68451781380146
 21
-12.44599822037572
 31
0.0
  0
LINE
  5
4E
330
2
100
AcDbEntity
  8
ADP1DETAIL
100
AcDbLine
 10
24.68451781380146
 20
-12.75304362200383
 30
0.0
 11
23.93451781380146
 21
-12.75304362200383
 31
0.0
  0
DIMENSION
  5
4F
330
2
100
AcDbEntity
  8
ADPDIM
100
AcDbDimension
  2
*D1
 10
24.68451781380146
 20
-11.7908509093355
 30
0.0
 11
23.43451781380145
 21
-11.7908509093355
 31
0.0
 70
    32
  3
STANDARD
100
AcDbAlignedDimension
 13
22.18451781380145
 23
-12.4158509093355
 33
0.0
 14
24.68451781380146
 24
-12.4158509093355
 34
0.0
100
AcDbRotatedDimension
1001
ACAD
1000
DSTYLE
1002
{
1070
   270
1070
     7
1070
   270
1070
     7
1070
   270
1070
     7
1070
   270
1070
     7
1070
   270
1070
     7
1070
    41
1040
0.125
1070
    73
1070
     0
1070
    74
1070
     0
1070
    78
1070
     2
1070
   140
1040
0.125
1070
   141
1040
0.1875
1070
   142
1040
0.125
1070
   147
1040
0.125
1070
   171
1070
     1
1070
   276
1070
     2
1070
   277
1070
     5
1002
}
  0
LINE
  5
5D
330
2
100
AcDbEntity
  8
ADP2DETAIL
  6
HIDDEN2
100
AcDbLine
 10
24.68451781380146
 20
-12.56504362200383
 30
0.0
 11
23.70969997430517
 21
-12.56395693159871
 31
0.0
  0
ARC
  5
5E
330
2
100
AcDbEntity
  8
ADP1DETAIL
100
AcDbCircle
 10
23.43501781380144
 20
-13.62754362200383
 30
0.0
 40
0.3745
100
AcDbArc
 50
270.0
 51
0.0
  0
LINE
  5
5F
330
2
100
AcDbEntity
  8
ADP1DETAIL
100
AcDbLine
 10
23.43501781380144
 20
-14.00204362200383
 30
0.0
 11
23.43401781380145
 21
-14.00204362200383
 31
0.0
  0
ARC
  5
60
330
2
100
AcDbEntity
  8
ADP1DETAIL
100
AcDbCircle
 10
23.43401781380145
 20
-13.62754362200383
 30
0.0
 40
0.3745
100
AcDbArc
 50
180.0
 51
270.0
  0
LINE
  5
61
330
2
100
AcDbEntity
  8
ADP1DETAIL
100
AcDbLine
 10
20.87201781380146
 20
-13.9783509093355
 30
0.0
 11
20.99275854208759
 21
-13.94599852869769
 31
0.0
  0
ARC
  5
62
330
2
100
AcDbEntity
  8
ADP2DETAIL
  6
HIDDEN2
100
AcDbCircle
 10
21.69347827197921
 20
-13.6658509093355
 30
0.0
 40
0.75
100
AcDbArc
 50
180.0
 51
201.7802251253252
  0
LINE
  5
63
330
2
100
AcDbEntity
  8
ADP1DETAIL
100
AcDbLine
 10
20.87201781380146
 20
-13.8533509093355
 30
0.0
 11
20.87201781380146
 21
-13.9783509093355
 31
0.0
  0
LINE
  5
64
330
2
100
AcDbEntity
  8
ADP1DETAIL
100
AcDbLine
 10
20.99275854208759
 20
-13.94599852869769
 30
0.0
 11
20.99275854208759
 21
-13.94599852869769
 31
0.0
  0
LINE
  5
65
330
2
100
AcDbEntity
  8
ADP1DETAIL
100
AcDbLine
 10
20.99701781380145
 20
-13.94413642853265
 30
0.0
 11
20.99701781380145
 21
-13.6658509093355
 31
0.0
  0
LINE
  5
66
330
2
100
AcDbEntity
  8
ADP1DETAIL
100
AcDbLine
 10
20.12201781380146
 20
-13.9783509093355
 30
0.0
 11
20.12201781380146
 21
-13.8533509093355
 31
0.0
  0
LINE
  5
67
330
2
100
AcDbEntity
  8
ADP1DETAIL
100
AcDbLine
 10
20.87201781380146
 20
-14.0408509093355
 30
0.0
 11
20.12201781380146
 21
-14.0408509093355
 31
0.0
  0
LINE
  5
68
330
2
100
AcDbEntity
  8
ADP1DETAIL
100
AcDbLine
 10
23.80951781380145
 20
-12.87804362200383
 30
0.0
 11
23.80951781380145
 21
-13.62754362200383
 31
0.0
  0
LINE
  5
69
330
2
100
AcDbEntity
  8
ADP1DETAIL
100
AcDbLine
 10
23.05951781380146
 20
-13.62754362200383
 30
0.0
 11
23.05951781380146
 21
-12.87804362200383
 31
0.0
  0
LINE
  5
6A
330
2
100
AcDbEntity
  8
ADP1DETAIL
100
AcDbLine
 10
20.87201781380146
 20
-14.0408509093355
 30
0.0
 11
20.87201781380146
 21
-12.44881678596196
 31
0.0
  0
LINE
  5
6B
330
2
100
AcDbEntity
  8
ADP1DETAIL
100
AcDbLine
 10
20.12201781380146
 20
-12.44881678596196
 30
0.0
 11
20.12201781380146
 21
-14.0408509093355
 31
0.0
  0
DIMENSION
  5
6C
330
2
100
AcDbEntity
  8
ADPDIM
100
AcDbDimension
  2
*D2
 10
21.74701781380146
 20
-13.62754362200383
 30
0.0
 11
21.74701781380146
 21
-13.09629362200383
 31
0.0
 70
    32
  3
STANDARD
100
AcDbAlignedDimension
 13
22.18451781380145
 23
-12.56504362200383
 33
0.0
 14
23.43748722799378
 24
-13.62754362200383
 34
0.0
 50
90.0
100
AcDbRotatedDimension
1001
ACAD
1000
DSTYLE
1002
{
1070
   270
1070
     7
1070
   270
1070
     7
1070
   270
1070
     7
1070
   270
1070
     7
1070
   270
1070
     7
1070
    41
1040
0.125
1070
    73
1070
     0
1070
    74
1070
     0
1070
    78
1070
     2
1070
   140
1040
0.125
1070
   141
1040
0.1875
1070
   142
1040
0.125
1070
   147
1040
0.125
1070
   171
1070
     1
1070
   276
1070
     2
1070
   277
1070
     5
1002
}
  0
ARC
  5
7A
330
2
100
AcDbEntity
  8
ADP2DETAIL
  6
HIDDEN2
100
AcDbCircle
 10
21.69347827197921
 20
-13.6658509093355
 30
0.0
 40
0.75
100
AcDbArc
 50
158.2197748746747
 51
180.0
  0
LINE
  5
7B
330
2
100
AcDbEntity
  8
ADP1DETAIL
100
AcDbLine
 10
20.99701781380145
 20
-13.38756539013835
 30
0.0
 11
20.99701781380145
 21
-13.6658509093355
 31
0.0
  0
CIRCLE
  5
7C
330
2
100
AcDbEntity
  8
ADP1DETAIL
100
AcDbCircle
 10
23.43501781380144
 20
-13.63071099910286
 30
0.0
 40
0.3125
  0
CIRCLE
  5
7D
330
2
100
AcDbEntity
  8
ADP1DETAIL
100
AcDbCircle
 10
23.43501781380144
 20
-13.63071099910286
 30
0.0
 40
0.2859512779740925
  0
LINE
  5
7E
330
2
100
AcDbEntity
  8
ADP1DETAIL
100
AcDbLine
 10
17.74701781380145
 20
-13.2283509093355
 30
0.0
 11
17.87191821984809
 21
-13.26235336654793
 31
0.0
  0
LINE
  5
7F
330
2
100
AcDbEntity
  8
ADP1DETAIL
100
AcDbLine
 10
17.65401781380146
 20
-13.4778509093355
 30
0.0
 11
17.62301781380146
 21
-13.4158509093355
 31
0.0
  0
LINE
  5
80
330
2
100
AcDbEntity
  8
ADP1DETAIL
100
AcDbLine
 10
17.62301781380146
 20
-13.4158509093355
 30
0.0
 11
17.59201781380146
 21
-13.4778509093355
 31
0.0
  0
LINE
  5
81
330
2
100
AcDbEntity
  8
ADP1DETAIL
100
AcDbLine
 10
17.59201781380146
 20
-13.4778509093355
 30
0.0
 11
17.56101781380145
 21
-13.4158509093355
 31
0.0
  0
LINE
  5
82
330
2
100
AcDbEntity
  8
ADP1DETAIL
100
AcDbLine
 10
17.68501781380146
 20
-13.4158509093355
 30
0.0
 11
17.65401781380146
 21
-13.4778509093355
 31
0.0
  0
LINE
  5
83
330
2
100
AcDbEntity
  8
ADP1DETAIL
100
AcDbLine
 10
17.71601781380145
 20
-13.4778509093355
 30
0.0
 11
17.68501781380146
 21
-13.4158509093355
 31
0.0
  0
LINE
  5
84
330
2
100
AcDbEntity
  8
ADP1DETAIL
100
AcDbLine
 10
17.74701781380145
 20
-13.4158509093355
 30
0.0
 11
17.71601781380145
 21
-13.4778509093355
 31
0.0
  0
LINE
  5
85
330
2
100
AcDbEntity
  8
ADP1DETAIL
100
AcDbLine
 10
17.87201781380145
 20
-13.2908509093355
 30
0.0
 11
19.24701781380146
 21
-13.4158509093355
 31
0.0
  0
LINE
  5
86
330
2
100
AcDbEntity
  8
ADP1DETAIL
100
AcDbLine
 10
17.46704126371882
 20
-13.4778509093355
 30
0.0
 11
17.43604126371882
 21
-13.4158509093355
 31
0.0
  0
LINE
  5
87
330
2
100
AcDbEntity
  8
ADP1DETAIL
100
AcDbLine
 10
17.2765224960036
 20
-13.4778509093355
 30
0.0
 11
17.2455224960036
 21
-13.4158509093355
 31
0.0
  0
LINE
  5
88
330
2
100
AcDbEntity
  8
ADP1DETAIL
100
AcDbLine
 10
17.2455224960036
 20
-13.4158509093355
 30
0.0
 11
17.2187895587882
 21
-13.4778509093355
 31
0.0
  0
LINE
  5
89
330
2
100
AcDbEntity
  8
ADP1DETAIL
100
AcDbLine
 10
17.2187895587882
 20
-13.4778509093355
 30
0.0
 11
17.1877895587882
 21
-13.4158509093355
 31
0.0
  0
LINE
  5
8A
330
2
100
AcDbEntity
  8
ADP1DETAIL
100
AcDbLine
 10
17.1862833184882
 20
-13.4158509093355
 30
0.0
 11
17.15528331848821
 21
-13.4778509093355
 31
0.0
  0
LINE
  5
8B
330
2
100
AcDbEntity
  8
ADP1DETAIL
100
AcDbLine
 10
17.30752249600359
 20
-13.4158509093355
 30
0.0
 11
17.2765224960036
 21
-13.4778509093355
 31
0.0
  0
LINE
  5
8C
330
2
100
AcDbEntity
  8
ADP1DETAIL
100
AcDbLine
 10
17.43453502341883
 20
-13.4158509093355
 30
0.0
 11
17.40353502341883
 21
-13.4778509093355
 31
0.0
  0
LINE
  5
8D
330
2
100
AcDbEntity
  8
ADP1DETAIL
100
AcDbLine
 10
17.34002878311883
 20
-13.4778509093355
 30
0.0
 11
17.30902878311884
 21
-13.4158509093355
 31
0.0
  0
LINE
  5
8E
330
2
100
AcDbEntity
  8
ADP1DETAIL
100
AcDbLine
 10
17.37102878311883
 20
-13.4158509093355
 30
0.0
 11
17.34002878311883
 21
-13.4778509093355
 31
0.0
  0
LINE
  5
8F
330
2
100
AcDbEntity
  8
ADP1DETAIL
100
AcDbLine
 10
17.40353502341883
 20
-13.4778509093355
 30
0.0
 11
17.37253502341883
 21
-13.4158509093355
 31
0.0
  0
LINE
  5
90
330
2
100
AcDbEntity
  8
ADP1DETAIL
100
AcDbLine
 10
17.15528331848821
 20
-13.4778509093355
 30
0.0
 11
17.12428331848821
 21
-13.4158509093355
 31
0.0
  0
LINE
  5
91
330
2
100
AcDbEntity
  8
ADP1DETAIL
100
AcDbLine
 10
17.53054750401881
 20
-13.4778509093355
 30
0.0
 11
17.49954750401881
 21
-13.4158509093355
 31
0.0
  0
LINE
  5
92
330
2
100
AcDbEntity
  8
ADP1DETAIL
100
AcDbLine
 10
17.49804126371882
 20
-13.4158509093355
 30
0.0
 11
17.46704126371882
 21
-13.4778509093355
 31
0.0
  0
LINE
  5
93
330
2
100
AcDbEntity
  8
ADP1DETAIL
100
AcDbLine
 10
17.56154750401881
 20
-13.4158509093355
 30
0.0
 11
17.53054750401881
 21
-13.4778509093355
 31
0.0
  0
LINE
  5
94
330
2
100
AcDbEntity
  8
ADP1DETAIL
100
AcDbLine
 10
19.24701781380146
 20
-13.9158509093355
 30
0.0
 11
19.24701781380146
 21
-13.6658509093355
 31
0.0
  0
LINE
  5
95
330
2
100
AcDbEntity
  8
ADP1DETAIL
100
AcDbLine
 10
17.74701781380145
 20
-14.1033509093355
 30
0.0
 11
17.87191821984809
 21
-14.06934845212308
 31
0.0
  0
LINE
  5
96
330
2
100
AcDbEntity
  8
ADP1DETAIL
100
AcDbLine
 10
17.68429292183419
 20
-13.8538509093355
 30
0.0
 11
17.6532929218342
 21
-13.9158509093355
 31
0.0
  0
LINE
  5
97
330
2
100
AcDbEntity
  8
ADP1DETAIL
100
AcDbLine
 10
17.6222929218342
 20
-13.8538509093355
 30
0.0
 11
17.5912929218342
 21
-13.9158509093355
 31
0.0
  0
LINE
  5
98
330
2
100
AcDbEntity
  8
ADP1DETAIL
100
AcDbLine
 10
17.6532929218342
 20
-13.9158509093355
 30
0.0
 11
17.6222929218342
 21
-13.8538509093355
 31
0.0
  0
LINE
  5
99
330
2
100
AcDbEntity
  8
ADP1DETAIL
100
AcDbLine
 10
17.59182261205156
 20
-13.9158509093355
 30
0.0
 11
17.56082261205156
 21
-13.8538509093355
 31
0.0
  0
LINE
  5
9A
330
2
100
AcDbEntity
  8
ADP1DETAIL
100
AcDbLine
 10
17.71529292183419
 20
-13.9158509093355
 30
0.0
 11
17.68429292183419
 21
-13.8538509093355
 31
0.0
  0
LINE
  5
9B
330
2
100
AcDbEntity
  8
ADP1DETAIL
100
AcDbLine
 10
17.7462929218342
 20
-13.8538509093355
 30
0.0
 11
17.71529292183419
 21
-13.9158509093355
 31
0.0
  0
LINE
  5
9C
330
2
100
AcDbEntity
  8
ADP1DETAIL
100
AcDbLine
 10
17.74701781380145
 20
-13.6658509093355
 30
0.0
 11
17.74701781380145
 21
-14.1033509093355
 31
0.0
  0
LINE
  5
9D
330
2
100
AcDbEntity
  8
ADP1DETAIL
100
AcDbLine
 10
17.87191821984809
 20
-14.06934845212308
 30
0.0
 11
17.87201781380145
 21
-13.6658509093355
 31
0.0
  0
LINE
  5
9E
330
2
100
AcDbEntity
  8
ADP1DETAIL
100
AcDbLine
 10
17.87201781380145
 20
-14.0408509093355
 30
0.0
 11
19.24701781380146
 21
-13.9158509093355
 31
0.0
  0
LINE
  5
9F
330
2
100
AcDbEntity
  8
ADP1DETAIL
100
AcDbLine
 10
17.46481013145157
 20
-13.9158509093355
 30
0.0
 11
17.43381013145157
 21
-13.8538509093355
 31
0.0
  0
LINE
  5
A0
330
2
100
AcDbEntity
  8
ADP1DETAIL
100
AcDbLine
 10
17.27579760403634
 20
-13.9158509093355
 30
0.0
 11
17.24906466682094
 21
-13.8538509093355
 31
0.0
  0
LINE
  5
A1
330
2
100
AcDbEntity
  8
ADP1DETAIL
100
AcDbLine
 10
17.24906466682094
 20
-13.8538509093355
 30
0.0
 11
17.21806466682094
 21
-13.9158509093355
 31
0.0
  0
LINE
  5
A2
330
2
100
AcDbEntity
  8
ADP1DETAIL
100
AcDbLine
 10
17.21655842652095
 20
-13.9158509093355
 30
0.0
 11
17.18555842652095
 21
-13.8538509093355
 31
0.0
  0
LINE
  5
A3
330
2
100
AcDbEntity
  8
ADP1DETAIL
100
AcDbLine
 10
17.12201781380145
 20
-13.85486082384779
 30
0.0
 11
17.15455842652095
 21
-13.9158509093355
 31
0.0
  0
LINE
  5
A4
330
2
100
AcDbEntity
  8
ADP1DETAIL
100
AcDbLine
 10
17.18555842652095
 20
-13.8538509093355
 30
0.0
 11
17.15455842652095
 21
-13.9158509093355
 31
0.0
  0
LINE
  5
A5
330
2
100
AcDbEntity
  8
ADP1DETAIL
100
AcDbLine
 10
17.30679760403634
 20
-13.8538509093355
 30
0.0
 11
17.27579760403634
 21
-13.9158509093355
 31
0.0
  0
LINE
  5
A6
330
2
100
AcDbEntity
  8
ADP1DETAIL
100
AcDbLine
 10
17.43381013145157
 20
-13.8538509093355
 30
0.0
 11
17.40281013145157
 21
-13.9158509093355
 31
0.0
  0
LINE
  5
A7
330
2
100
AcDbEntity
  8
ADP1DETAIL
100
AcDbLine
 10
17.37030389115158
 20
-13.8538509093355
 30
0.0
 11
17.33930389115158
 21
-13.9158509093355
 31
0.0
  0
LINE
  5
A8
330
2
100
AcDbEntity
  8
ADP1DETAIL
100
AcDbLine
 10
17.40130389115158
 20
-13.9158509093355
 30
0.0
 11
17.37030389115158
 21
-13.8538509093355
 31
0.0
  0
LINE
  5
A9
330
2
100
AcDbEntity
  8
ADP1DETAIL
100
AcDbLine
 10
17.33779760403634
 20
-13.9158509093355
 30
0.0
 11
17.30679760403634
 21
-13.8538509093355
 31
0.0
  0
LINE
  5
AA
330
2
100
AcDbEntity
  8
ADP1DETAIL
100
AcDbLine
 10
17.49731637175156
 20
-13.8538509093355
 30
0.0
 11
17.46631637175156
 21
-13.9158509093355
 31
0.0
  0
LINE
  5
AB
330
2
100
AcDbEntity
  8
ADP1DETAIL
100
AcDbLine
 10
17.52831637175156
 20
-13.9158509093355
 30
0.0
 11
17.49731637175156
 21
-13.8538509093355
 31
0.0
  0
LINE
  5
AC
330
2
100
AcDbEntity
  8
ADP1DETAIL
100
AcDbLine
 10
17.56082261205156
 20
-13.8538509093355
 30
0.0
 11
17.52982261205155
 21
-13.9158509093355
 31
0.0
  0
LINE
  5
AD
330
2
100
AcDbEntity
  8
ADP1DETAIL
100
AcDbLine
 10
17.74701781380145
 20
-13.6658509093355
 30
0.0
 11
17.74701781380145
 21
-13.2283509093355
 31
0.0
  0
LINE
  5
AE
330
2
100
AcDbEntity
  8
ADP1DETAIL
100
AcDbLine
 10
17.15528331848821
 20
-13.4778509093355
 30
0.0
 11
17.18555842652095
 21
-13.8538509093355
 31
0.0
  0
LINE
  5
AF
330
2
100
AcDbEntity
  8
ADP1DETAIL
100
AcDbLine
 10
17.2187895587882
 20
-13.4778509093355
 30
0.0
 11
17.24906466682094
 21
-13.8538509093355
 31
0.0
  0
LINE
  5
B0
330
2
100
AcDbEntity
  8
ADP1DETAIL
100
AcDbLine
 10
17.2765224960036
 20
-13.4778509093355
 30
0.0
 11
17.30679760403634
 21
-13.8538509093355
 31
0.0
  0
LINE
  5
B1
330
2
100
AcDbEntity
  8
ADP1DETAIL
100
AcDbLine
 10
17.34002878311883
 20
-13.4778509093355
 30
0.0
 11
17.37030389115158
 21
-13.8538509093355
 31
0.0
  0
LINE
  5
B2
330
2
100
AcDbEntity
  8
ADP1DETAIL
100
AcDbLine
 10
17.40353502341883
 20
-13.4778509093355
 30
0.0
 11
17.43381013145157
 21
-13.8538509093355
 31
0.0
  0
LINE
  5
B3
330
2
100
AcDbEntity
  8
ADP1DETAIL
100
AcDbLine
 10
17.12201781380145
 20
-13.4158509093355
 30
0.0
 11
17.12201781380145
 21
-13.85486082384779
 31
0.0
  0
LINE
  5
B4
330
2
100
AcDbEntity
  8
ADP1DETAIL
100
AcDbLine
 10
17.87191821984809
 20
-13.26235336654793
 30
0.0
 11
17.87201781380145
 21
-13.6658509093355
 31
0.0
  0
LINE
  5
B5
330
2
100
AcDbEntity
  8
ADP1DETAIL
100
AcDbLine
 10
17.53054750401881
 20
-13.4778509093355
 30
0.0
 11
17.56082261205156
 21
-13.8538509093355
 31
0.0
  0
LINE
  5
B6
330
2
100
AcDbEntity
  8
ADP1DETAIL
100
AcDbLine
 10
17.59201781380146
 20
-13.4778509093355
 30
0.0
 11
17.6222929218342
 21
-13.8538509093355
 31
0.0
  0
LINE
  5
B7
330
2
100
AcDbEntity
  8
ADP1DETAIL
100
AcDbLine
 10
17.65401781380146
 20
-13.4778509093355
 30
0.0
 11
17.68429292183419
 21
-13.8538509093355
 31
0.0
  0
LINE
  5
B8
330
2
100
AcDbEntity
  8
ADP1DETAIL
100
AcDbLine
 10
17.71601781380145
 20
-13.4778509093355
 30
0.0
 11
17.7462929218342
 21
-13.8538509093355
 31
0.0
  0
LINE
  5
B9
330
2
100
AcDbEntity
  8
ADP1DETAIL
100
AcDbLine
 10
17.46704126371882
 20
-13.4778509093355
 30
0.0
 11
17.49731637175156
 21
-13.8538509093355
 31
0.0
  0
LINE
  5
BA
330
2
100
AcDbEntity
  8
ADP1DETAIL
100
AcDbLine
 10
19.24701781380146
 20
-13.4158509093355
 30
0.0
 11
19.24701781380146
 21
-13.6658509093355
 31
0.0
  0
LINE
  5
BB
330
2
100
AcDbEntity
  8
ADP1DETAIL
100
AcDbLine
 10
19.24701781380146
 20
-13.4158509093355
 30
0.0
 11
20.12201781380146
 21
-13.3533509093355
 31
0.0
  0
LINE
  5
BC
330
2
100
AcDbEntity
  8
ADP1DETAIL
100
AcDbLine
 10
19.24701781380146
 20
-13.9158509093355
 30
0.0
 11
20.12201781380146
 21
-13.9783509093355
 31
0.0
  0
DIMENSION
  5
BD
330
2
100
AcDbEntity
  8
ADPDIM
100
AcDbDimension
  2
*D3
 10
20.49701781380146
 20
-12.1658509093355
 30
0.0
 11
19.12201781380145
 21
-12.1658509093355
 31
0.0
 70
    32
  3
STANDARD
100
AcDbAlignedDimension
 13
17.74701781380145
 23
-13.2283509093355
 33
0.0
 14
20.49701781380146
 24
-11.9858509093355
 34
0.0
100
AcDbRotatedDimension
1001
ACAD
1000
DSTYLE
1002
{
1070
   270
1070
     7
1070
   270
1070
     7
1070
   270
1070
     7
1070
   270
1070
     7
1070
   270
1070
     7
1070
    41
1040
0.125
1070
    73
1070
     0
1070
    74
1070
     0
1070
    78
1070
     2
1070
   140
1040
0.125
1070
   141
1040
0.1875
1070
   142
1040
0.125
1070
   147
1040
0.125
1070
   171
1070
     1
1070
   276
1070
     2
1070
   277
1070
     5
1002
}
  0
DIMENSION
  5
CB
330
2
100
AcDbEntity
  8
ADPDIM
100
AcDbDimension
  2
*D4
 10
20.87201781380146
 20
-14.28077441980639
 30
0.0
 11
20.49701781380146
 21
-14.28077441980639
 31
0.0
 70
    32
  3
STANDARD
100
AcDbAlignedDimension
 13
20.12201781380146
 23
-14.0408509093355
 33
0.0
 14
20.87201781380146
 24
-14.0408509093355
 34
0.0
100
AcDbRotatedDimension
1001
ACAD
1000
DSTYLE
1002
{
1070
   270
1070
     7
1070
   270
1070
     7
1070
   270
1070
     7
1070
   270
1070
     7
1070
   270
1070
     7
1070
    41
1040
0.125
1070
    73
1070
     0
1070
    74
1070
     0
1070
    78
1070
     2
1070
   140
1040
0.125
1070
   141
1040
0.1875
1070
   142
1040
0.125
1070
   147
1040
0.125
1070
   171
1070
     1
1070
   276
1070
     2
1070
   277
1070
     5
1002
}
  0
TEXT
  5
E3
330
2
100
AcDbEntity
  8
ADPDIM
100
AcDbText
 10
14.454092391171
 20
-15.17722991538053
 30
0.0
 40
0.125
  1
J U L I U S  B L U M  &  C O . ,  I N C .      ( 8 0 0 )  5 2 6 - 6 2 9 3        W W W . J U L I U S B L U M . C O M        P A R T  N o .  4 0 4
 41
1.25
  7
ARIAL_WIDE
 72
     1
 11
20.88879992868805
 21
-15.05222991538053
 31
0.0
100
AcDbText
 73
     3
  0
ENDSEC
  0
SECTION
  2
OBJECTS
  0
DICTIONARY
  5
1A
330
0
100
AcDbDictionary
  3
ACAD_GROUP
350
18
  3
ACAD_LAYOUT
350
DC
  3
ACAD_MLINESTYLE
350
19
  3
ACAD_PLOTSETTINGS
350
DD
  3
ACAD_PLOTSTYLENAME
350
DA
  3
ACDBHEADERROUNDTRIPXREC
350
3AA
  3
ACDBVARIABLEDICTIONARY
350
1C1
  0
DICTIONARY
  5
178
330
2
100
AcDbDictionary
280
     1
  3
ACAD_LAYOUTSELFREF
360
3CB
  0
DICTIONARY
  5
17A
330
8
100
AcDbDictionary
280
     1
  3
ACAD_LAYOUTSELFREF
360
3CC
  0
DICTIONARY
  5
18
102
{ACAD_REACTORS
330
1A
102
}
330
1A
100
AcDbDictionary
  0
DICTIONARY
  5
DC
102
{ACAD_REACTORS
330
1A
102
}
330
1A
100
AcDbDictionary
  0
DICTIONARY
  5
19
102
{ACAD_REACTORS
330
1A
102
}
330
1A
100
AcDbDictionary
  3
STANDARD
350
1B
  0
DICTIONARY
  5
DD
102
{ACAD_REACTORS
330
1A
102
}
330
1A
100
AcDbDictionary
  0
ACDBDICTIONARYWDFLT
  5
DA
102
{ACAD_REACTORS
330
1A
102
}
330
1A
100
AcDbDictionary
281
     1
  3
Normal
350
DB
100
AcDbDictionaryWithDefault
340
DB
  0
DICTIONARY
  5
3AA
102
{ACAD_REACTORS
330
1A
102
}
330
1A
100
AcDbDictionary
  3
CEPSNTYPE
350
3B4
  3
DIMSTYLEDATA
350
3B8
  3
FINGERPRINTGUID
350
3B5
  3
HYPERLINKBASE
350
3AD
  3
INSUNITS
350
3B3
  3
LAYOUTDICT
350
3AF
  3
LWETCUNION
350
3B2
  3
PLOTSETDICT
350
3B0
  3
PLOTSTYLNAMDICT
350
3B1
  3
PSVPSCALE
350
3B7
  3
PUCSBASE
350
3BB
  3
PUCSORGBACK
350
3C1
  3
PUCSORGBOTTOM
350
3BD
  3
PUCSORGFRONT
350
3C0
  3
PUCSORGLEFT
350
3BE
  3
PUCSORGRIGHT
350
3BF
  3
PUCSORGTOP
350
3BC
  3
PUCSORTHOREF
350
3B9
  3
PUCSORTHOVIEW
350
3BA
  3
STYLESHEET
350
3AE
  3
TSTACKALIGN
350
3AB
  3
TSTACKSIZE
350
3AC
  3
UCSBASE
350
3C4
  3
UCSORGBACK
350
3CA
  3
UCSORGBOTTOM
350
3C6
  3
UCSORGFRONT
350
3C9
  3
UCSORGLEFT
350
3C7
  3
UCSORGRIGHT
350
3C8
  3
UCSORGTOP
350
3C5
  3
UCSORTHOREF
350
3C2
  3
UCSORTHOVIEW
350
3C3
  3
VERSIONGUID
350
3B6
  0
DICTIONARY
  5
1C1
102
{ACAD_REACTORS
330
1A
102
}
330
1A
100
AcDbDictionary
  3
DIMASSOC
350
1C2
  0
XRECORD
  5
3CB
102
{ACAD_REACTORS
330
178
102
}
330
178
100
AcDbXrecord
340
2
  0
XRECORD
  5
3CC
102
{ACAD_REACTORS
330
17A
102
}
330
17A
100
AcDbXrecord
340
8
  0
MLINESTYLE
  5
1B
102
{ACAD_REACTORS
330
19
102
}
330
19
100
AcDbMlineStyle
  2
STANDARD
 70
     0
  3

 62
     0
 51
90.0
 52
90.0
 71
     2
 49
0.5
 62
   256
  6
BYLAYER
 49
-0.5
 62
   256
  6
BYLAYER
  0
ACDBPLACEHOLDER
  5
DB
102
{ACAD_REACTORS
330
DA
102
}
330
DA
100
AcDbPlaceHolder
280
     0
  0
XRECORD
  5
3B4
102
{ACAD_REACTORS
330
3AA
102
}
330
3AA
100
AcDbXrecord
 90
        0
  0
XRECORD
  5
3B8
102
{ACAD_REACTORS
330
3AA
102
}
330
3AA
100
AcDbXrecord
1000
DSTYLE
1002
{
1070
   276
 70
     2
1070
   277
 70
     5
1002
}
  0
XRECORD
  5
3B5
102
{ACAD_REACTORS
330
3AA
102
}
330
3AA
100
AcDbXrecord
  1
{D162F0F0-AA4A-4FA8-86F0-A4EACB6CEC68}
  0
XRECORD
  5
3AD
102
{ACAD_REACTORS
330
3AA
102
}
330
3AA
100
AcDbXrecord
  1

  0
XRECORD
  5
3B3
102
{ACAD_REACTORS
330
3AA
102
}
330
3AA
100
AcDbXrecord
 90
        0
  0
XRECORD
  5
3AF
102
{ACAD_REACTORS
330
3AA
102
}
330
3AA
100
AcDbXrecord
340
DC
  0
XRECORD
  5
3B2
102
{ACAD_REACTORS
330
3AA
102
}
330
3AA
100
AcDbXrecord
 90
    14877
  0
XRECORD
  5
3B0
102
{ACAD_REACTORS
330
3AA
102
}
330
3AA
100
AcDbXrecord
340
DD
  0
XRECORD
  5
3B1
102
{ACAD_REACTORS
330
3AA
102
}
330
3AA
100
AcDbXrecord
340
DA
  0
XRECORD
  5
3B7
102
{ACAD_REACTORS
330
3AA
102
}
330
3AA
100
AcDbXrecord
 40
0.0
  0
XRECORD
  5
3BB
102
{ACAD_REACTORS
330
3AA
102
}
330
3AA
100
AcDbXrecord
340
0
  0
XRECORD
  5
3C1
102
{ACAD_REACTORS
330
3AA
102
}
330
3AA
100
AcDbXrecord
 10
0.0
 20
0.0
 30
0.0
  0
XRECORD
  5
3BD
102
{ACAD_REACTORS
330
3AA
102
}
330
3AA
100
AcDbXrecord
 10
0.0
 20
0.0
 30
0.0
  0
XRECORD
  5
3C0
102
{ACAD_REACTORS
330
3AA
102
}
330
3AA
100
AcDbXrecord
 10
0.0
 20
0.0
 30
0.0
  0
XRECORD
  5
3BE
102
{ACAD_REACTORS
330
3AA
102
}
330
3AA
100
AcDbXrecord
 10
0.0
 20
0.0
 30
0.0
  0
XRECORD
  5
3BF
102
{ACAD_REACTORS
330
3AA
102
}
330
3AA
100
AcDbXrecord
 10
0.0
 20
0.0
 30
0.0
  0
XRECORD
  5
3BC
102
{ACAD_REACTORS
330
3AA
102
}
330
3AA
100
AcDbXrecord
 10
0.0
 20
0.0
 30
0.0
  0
XRECORD
  5
3B9
102
{ACAD_REACTORS
330
3AA
102
}
330
3AA
100
AcDbXrecord
340
0
  0
XRECORD
  5
3BA
102
{ACAD_REACTORS
330
3AA
102
}
330
3AA
100
AcDbXrecord
 70
     0
  0
XRECORD
  5
3AE
102
{ACAD_REACTORS
330
3AA
102
}
330
3AA
100
AcDbXrecord
  1

  0
XRECORD
  5
3AB
102
{ACAD_REACTORS
330
3AA
102
}
330
3AA
100
AcDbXrecord
 90
        1
  0
XRECORD
  5
3AC
102
{ACAD_REACTORS
330
3AA
102
}
330
3AA
100
AcDbXrecord
 90
       70
  0
XRECORD
  5
3C4
102
{ACAD_REACTORS
330
3AA
102
}
330
3AA
100
AcDbXrecord
340
0
  0
XRECORD
  5
3CA
102
{ACAD_REACTORS
330
3AA
102
}
330
3AA
100
AcDbXrecord
 10
0.0
 20
0.0
 30
0.0
  0
XRECORD
  5
3C6
102
{ACAD_REACTORS
330
3AA
102
}
330
3AA
100
AcDbXrecord
 10
0.0
 20
0.0
 30
0.0
  0
XRECORD
  5
3C9
102
{ACAD_REACTORS
330
3AA
102
}
330
3AA
100
AcDbXrecord
 10
0.0
 20
0.0
 30
0.0
  0
XRECORD
  5
3C7
102
{ACAD_REACTORS
330
3AA
102
}
330
3AA
100
AcDbXrecord
 10
0.0
 20
0.0
 30
0.0
  0
XRECORD
  5
3C8
102
{ACAD_REACTORS
330
3AA
102
}
330
3AA
100
AcDbXrecord
 10
0.0
 20
0.0
 30
0.0
  0
XRECORD
  5
3C5
102
{ACAD_REACTORS
330
3AA
102
}
330
3AA
100
AcDbXrecord
 10
0.0
 20
0.0
 30
0.0
  0
XRECORD
  5
3C2
102
{ACAD_REACTORS
330
3AA
102
}
330
3AA
100
AcDbXrecord
340
0
  0
XRECORD
  5
3C3
102
{ACAD_REACTORS
330
3AA
102
}
330
3AA
100
AcDbXrecord
 70
     0
  0
XRECORD
  5
3B6
102
{ACAD_REACTORS
330
3AA
102
}
330
3AA
100
AcDbXrecord
  1
{57572FBF-BAFB-49E6-B75C-5FCDA5DF2E19}
  0
DICTIONARYVAR
  5
1C2
102
{ACAD_REACTORS
330
1C1
102
}
330
1C1
100
DictionaryVariables
280
     0
  1
1
  0
ENDSEC
  0
EOF
