  0
SECTION
  2
HEADER
  9
$ACADVER
  1
AC1015
  9
$ACADMAINTVER
 70
    20
  9
$DWGCODEPAGE
  3
ANSI_936
  9
$INSBASE
 10
17.83453558678237
 20
-14.29882422677914
 30
0.0
  9
$EXTMIN
 10
14.42669687795766
 20
-15.54308954450128
 30
-0.0000000349181948
  9
$EXTMAX
 10
27.48120124577685
 20
-11.93323300473709
 30
0.0000000814935746
  9
$LIMMIN
 10
0.0
 20
0.0
  9
$LIMMAX
 10
36.0
 20
36.0
  9
$ORTHOMODE
 70
     0
  9
$REGENMODE
 70
     1
  9
$FILLMODE
 70
     1
  9
$QTEXTMODE
 70
     0
  9
$MIRRTEXT
 70
     1
  9
$LTSCALE
 40
1.0
  9
$ATTMODE
 70
     1
  9
$TEXTSIZE
 40
0.2
  9
$TRACEWID
 40
0.05
  9
$TEXTSTYLE
  7
STANDARD
  9
$CLAYER
  8
0
  9
$CELTYPE
  6
BYLAYER
  9
$CECOLOR
 62
   256
  9
$CELTSCALE
 40
1.0
  9
$DISPSILH
 70
     0
  9
$DIMSCALE
 40
1.0
  9
$DIMASZ
 40
0.125
  9
$DIMEXO
 40
0.0625
  9
$DIMDLI
 40
0.38
  9
$DIMRND
 40
0.0
  9
$DIMDLE
 40
0.0
  9
$DIMEXE
 40
0.18
  9
$DIMTP
 40
0.0
  9
$DIMTM
 40
0.0
  9
$DIMTXT
 40
0.125
  9
$DIMCEN
 40
0.1875
  9
$DIMTSZ
 40
0.125
  9
$DIMTOL
 70
     0
  9
$DIMLIM
 70
     0
  9
$DIMTIH
 70
     0
  9
$DIMTOH
 70
     0
  9
$DIMSE1
 70
     0
  9
$DIMSE2
 70
     0
  9
$DIMTAD
 70
     0
  9
$DIMZIN
 70
     2
  9
$DIMBLK
  1

  9
$DIMASO
 70
     1
  9
$DIMSHO
 70
     1
  9
$DIMPOST
  1

  9
$DIMAPOST
  1

  9
$DIMALT
 70
     0
  9
$DIMALTD
 70
     1
  9
$DIMALTF
 40
25.4
  9
$DIMLFAC
 40
1.0
  9
$DIMTOFL
 70
     0
  9
$DIMTVP
 40
0.0
  9
$DIMTIX
 70
     0
  9
$DIMSOXD
 70
     0
  9
$DIMSAH
 70
     0
  9
$DIMBLK1
  1

  9
$DIMBLK2
  1

  9
$DIMSTYLE
  2
STANDARD
  9
$DIMCLRD
 70
     0
  9
$DIMCLRE
 70
     0
  9
$DIMCLRT
 70
     0
  9
$DIMTFAC
 40
1.0
  9
$DIMGAP
 40
0.125
  9
$DIMJUST
 70
     0
  9
$DIMSD1
 70
     0
  9
$DIMSD2
 70
     0
  9
$DIMTOLJ
 70
     1
  9
$DIMTZIN
 70
     0
  9
$DIMALTZ
 70
     0
  9
$DIMALTTZ
 70
     0
  9
$DIMUPT
 70
     0
  9
$DIMDEC
 70
     4
  9
$DIMTDEC
 70
     4
  9
$DIMALTU
 70
     2
  9
$DIMALTTD
 70
     2
  9
$DIMTXSTY
  7
STANDARD
  9
$DIMAUNIT
 70
     0
  9
$DIMADEC
 70
     0
  9
$DIMALTRND
 40
0.0
  9
$DIMAZIN
 70
     0
  9
$DIMDSEP
 70
    46
  9
$DIMATFIT
 70
     3
  9
$DIMFRAC
 70
     2
  9
$DIMLDRBLK
  1

  9
$DIMLUNIT
 70
     5
  9
$DIMLWD
 70
    -2
  9
$DIMLWE
 70
    -2
  9
$DIMTMOVE
 70
     0
  9
$LUNITS
 70
     5
  9
$LUPREC
 70
     4
  9
$SKETCHINC
 40
0.1
  9
$FILLETRAD
 40
0.062
  9
$AUNITS
 70
     0
  9
$AUPREC
 70
     0
  9
$MENU
  1
acad
  9
$ELEVATION
 40
0.0
  9
$PELEVATION
 40
0.0
  9
$THICKNESS
 40
0.0
  9
$LIMCHECK
 70
     0
  9
$CHAMFERA
 40
0.0
  9
$CHAMFERB
 40
0.0
  9
$CHAMFERC
 40
0.0
  9
$CHAMFERD
 40
0.0
  9
$SKPOLY
 70
     0
  9
$TDCREATE
 40
2450386.462396794
  9
$TDUCREATE
 40
2450386.670730128
  9
$TDUPDATE
 40
2455209.548991285
  9
$TDUUPDATE
 40
2455209.757324618
  9
$TDINDWG
 40
0.0445908218
  9
$TDUSRTIMER
 40
0.0445908218
  9
$USRTIMER
 70
     1
  9
$ANGBASE
 50
0.0
  9
$ANGDIR
 70
     0
  9
$PDMODE
 70
     0
  9
$PDSIZE
 40
0.0
  9
$PLINEWID
 40
0.0
  9
$SPLFRAME
 70
     0
  9
$SPLINETYPE
 70
     6
  9
$SPLINESEGS
 70
     8
  9
$HANDSEED
  5
48D
  9
$SURFTAB1
 70
     6
  9
$SURFTAB2
 70
     6
  9
$SURFTYPE
 70
     6
  9
$SURFU
 70
     6
  9
$SURFV
 70
     6
  9
$UCSBASE
  2

  9
$UCSNAME
  2

  9
$UCSORG
 10
0.0
 20
0.0
 30
0.0
  9
$UCSXDIR
 10
1.0
 20
0.0
 30
0.0
  9
$UCSYDIR
 10
0.0
 20
1.0
 30
0.0
  9
$UCSORTHOREF
  2

  9
$UCSORTHOVIEW
 70
     0
  9
$UCSORGTOP
 10
0.0
 20
0.0
 30
0.0
  9
$UCSORGBOTTOM
 10
0.0
 20
0.0
 30
0.0
  9
$UCSORGLEFT
 10
0.0
 20
0.0
 30
0.0
  9
$UCSORGRIGHT
 10
0.0
 20
0.0
 30
0.0
  9
$UCSORGFRONT
 10
0.0
 20
0.0
 30
0.0
  9
$UCSORGBACK
 10
0.0
 20
0.0
 30
0.0
  9
$PUCSBASE
  2

  9
$PUCSNAME
  2

  9
$PUCSORG
 10
0.0
 20
0.0
 30
0.0
  9
$PUCSXDIR
 10
1.0
 20
0.0
 30
0.0
  9
$PUCSYDIR
 10
0.0
 20
1.0
 30
0.0
  9
$PUCSORTHOREF
  2

  9
$PUCSORTHOVIEW
 70
     0
  9
$PUCSORGTOP
 10
0.0
 20
0.0
 30
0.0
  9
$PUCSORGBOTTOM
 10
0.0
 20
0.0
 30
0.0
  9
$PUCSORGLEFT
 10
0.0
 20
0.0
 30
0.0
  9
$PUCSORGRIGHT
 10
0.0
 20
0.0
 30
0.0
  9
$PUCSORGFRONT
 10
0.0
 20
0.0
 30
0.0
  9
$PUCSORGBACK
 10
0.0
 20
0.0
 30
0.0
  9
$USERI1
 70
     0
  9
$USERI2
 70
     0
  9
$USERI3
 70
     0
  9
$USERI4
 70
     0
  9
$USERI5
 70
     0
  9
$USERR1
 40
0.0
  9
$USERR2
 40
0.0
  9
$USERR3
 40
0.0
  9
$USERR4
 40
0.0
  9
$USERR5
 40
0.0
  9
$WORLDVIEW
 70
     1
  9
$SHADEDGE
 70
     3
  9
$SHADEDIF
 70
    70
  9
$TILEMODE
 70
     1
  9
$MAXACTVP
 70
    15
  9
$PINSBASE
 10
4.403525741743744E+99
 20
7.061986388769092E+99
 30
0.0
  9
$PLIMCHECK
 70
     0
  9
$PEXTMIN
 10
1.000000000000000E+20
 20
1.000000000000000E+20
 30
1.000000000000000E+20
  9
$PEXTMAX
 10
-1.000000000000000E+20
 20
-1.000000000000000E+20
 30
-1.000000000000000E+20
  9
$PLIMMIN
 10
0.0
 20
0.0
  9
$PLIMMAX
 10
12.0
 20
9.0
  9
$UNITMODE
 70
     0
  9
$VISRETAIN
 70
     0
  9
$PLINEGEN
 70
     0
  9
$PSLTSCALE
 70
     1
  9
$TREEDEPTH
 70
  3020
  9
$CMLSTYLE
  2
STANDARD
  9
$CMLJUST
 70
     0
  9
$CMLSCALE
 40
1.0
  9
$PROXYGRAPHICS
 70
     1
  9
$MEASUREMENT
 70
     0
  9
$CELWEIGHT
370
    -1
  9
$ENDCAPS
280
     0
  9
$JOINSTYLE
280
     0
  9
$LWDISPLAY
290
     0
  9
$INSUNITS
 70
     0
  9
$HYPERLINKBASE
  1

  9
$STYLESHEET
  1

  9
$XEDIT
290
     1
  9
$CEPSNTYPE
380
     0
  9
$PSTYLEMODE
290
     1
  9
$FINGERPRINTGUID
  2
{6BD5CDB8-CC83-4DA2-AAD1-D83FC366D4AD}
  9
$VERSIONGUID
  2
{8A47284C-9B9F-4D0C-ABA0-6F847A8CF0B8}
  9
$EXTNAMES
290
     1
  9
$PSVPSCALE
 40
0.0
  9
$OLESTARTUP
290
     0
  0
ENDSEC
  0
SECTION
  2
CLASSES
  0
CLASS
  1
ACDBDICTIONARYWDFLT
  2
AcDbDictionaryWithDefault
  3
ObjectDBX Classes
 90
        0
280
     0
281
     0
  0
CLASS
  1
ACDBPLACEHOLDER
  2
AcDbPlaceHolder
  3
ObjectDBX Classes
 90
        0
280
     0
281
     0
  0
CLASS
  1
LAYOUT
  2
AcDbLayout
  3
ObjectDBX Classes
 90
        0
280
     0
281
     0
  0
CLASS
  1
DICTIONARYVAR
  2
AcDbDictionaryVar
  3
ObjectDBX Classes
 90
        0
280
     0
281
     0
  0
CLASS
  1
MATERIAL
  2
AcDbMaterial
  3
ObjectDBX Classes
 90
     1024
280
     0
281
     0
  0
CLASS
  1
VISUALSTYLE
  2
AcDbVisualStyle
  3
ObjectDBX Classes
 90
     4095
280
     0
281
     0
  0
CLASS
  1
TABLESTYLE
  2
AcDbTableStyle
  3
ObjectDBX Classes
 90
     4095
280
     0
281
     0
  0
ENDSEC
  0
SECTION
  2
TABLES
  0
TABLE
  2
VPORT
  5
12
102
{ACAD_XDICTIONARY
360
44C
102
}
330
0
100
AcDbSymbolTable
 70
     1
  0
VPORT
  5
34B
330
12
100
AcDbSymbolTableRecord
100
AcDbViewportTableRecord
  2
*Active
 70
     0
 10
0.0
 20
0.0
 11
1.0
 21
1.0
 12
20.95394906186726
 22
-13.73816127461919
 13
0.0
 23
0.0
 14
0.5740882589684922
 24
0.5740882589684922
 15
0.5
 25
0.5
 16
0.0
 26
0.0
 36
1.0
 17
0.0
 27
0.0
 37
0.0
 40
5.404826890037277
 41
2.426443202979515
 42
50.0
 43
0.0
 44
0.0
 50
0.0
 51
0.0
 71
     0
 72
   100
 73
     1
 74
     0
 75
     0
 76
     0
 77
     0
 78
     0
281
     0
 65
     1
110
0.0
120
0.0
130
0.0
111
1.0
121
0.0
131
0.0
112
0.0
122
1.0
132
0.0
 79
     0
146
0.0
  0
ENDTAB
  0
TABLE
  2
LTYPE
  5
E
330
0
100
AcDbSymbolTable
 70
     2
  0
LTYPE
  5
F
330
E
100
AcDbSymbolTableRecord
100
AcDbLinetypeTableRecord
  2
BYBLOCK
 70
     0
  3

 72
    65
 73
     0
 40
0.0
  0
LTYPE
  5
6
330
E
100
AcDbSymbolTableRecord
100
AcDbLinetypeTableRecord
  2
BYLAYER
 70
     0
  3

 72
    65
 73
     0
 40
0.0
  0
LTYPE
  5
5
330
E
100
AcDbSymbolTableRecord
100
AcDbLinetypeTableRecord
  2
CONTINUOUS
 70
     0
  3
Solid line
 72
    65
 73
     0
 40
0.0
  0
LTYPE
  5
1F
330
E
100
AcDbSymbolTableRecord
100
AcDbLinetypeTableRecord
  2
HIDDEN2
 70
     0
  3
_ _ _ _ _ _ _ _ _ _ _ _ _ _ _ _ _ _ _ _ _ _ _ _
 72
    65
 73
     2
 40
0.1875
 49
0.125
 74
     0
 49
-0.0625
 74
     0
  0
ENDTAB
  0
TABLE
  2
LAYER
  5
B
330
0
100
AcDbSymbolTable
 70
     5
  0
LAYER
  5
4
330
B
100
AcDbSymbolTableRecord
100
AcDbLayerTableRecord
  2
0
 70
     0
 62
     7
  6
CONTINUOUS
370
    -3
390
DF
  0
LAYER
  5
22
330
B
100
AcDbSymbolTableRecord
100
AcDbLayerTableRecord
  2
ADP1DETAIL
 70
     0
 62
     7
  6
CONTINUOUS
370
    -3
390
DF
  0
LAYER
  5
44
330
B
100
AcDbSymbolTableRecord
100
AcDbLayerTableRecord
  2
DEFPOINTS
 70
     0
 62
     7
  6
CONTINUOUS
290
     0
370
    -3
390
DF
  0
LAYER
  5
3A
330
B
100
AcDbSymbolTableRecord
100
AcDbLayerTableRecord
  2
ADPDIM
 70
     0
 62
     3
  6
CONTINUOUS
370
    -3
390
DF
  0
LAYER
  5
1E
330
B
100
AcDbSymbolTableRecord
100
AcDbLayerTableRecord
  2
ADP2DETAIL
 70
     0
 62
     5
  6
CONTINUOUS
370
    -3
390
DF
  0
ENDTAB
  0
TABLE
  2
STYLE
  5
C
330
0
100
AcDbSymbolTable
 70
     2
  0
STYLE
  5
D
330
C
100
AcDbSymbolTableRecord
100
AcDbTextStyleTableRecord
  2
STANDARD
 70
     0
 40
0.0
 41
1.0
 50
0.0
 71
     0
 42
0.2
  3
txt
  4

  0
STYLE
  5
E6
330
C
100
AcDbSymbolTableRecord
100
AcDbTextStyleTableRecord
  2
ARIAL_WIDE
 70
     0
 40
0.0
 41
1.25
 50
0.0
 71
     0
 42
0.2
  3
arial.ttf
  4

1001
ACAD
1000
Arial
1071
       34
  0
ENDTAB
  0
TABLE
  2
VIEW
  5
10
330
0
100
AcDbSymbolTable
 70
     0
  0
ENDTAB
  0
TABLE
  2
UCS
  5
11
330
0
100
AcDbSymbolTable
 70
     0
  0
ENDTAB
  0
TABLE
  2
APPID
  5
14
330
0
100
AcDbSymbolTable
 70
     2
  0
APPID
  5
15
330
14
100
AcDbSymbolTableRecord
100
AcDbRegAppTableRecord
  2
ACAD
 70
     0
  0
APPID
  5
3FA
330
14
100
AcDbSymbolTableRecord
100
AcDbRegAppTableRecord
  2
ACAD_EXEMPT_FROM_CAD_STANDARDS
 70
     0
  0
ENDTAB
  0
TABLE
  2
DIMSTYLE
  5
16
330
0
100
AcDbSymbolTable
 70
     1
100
AcDbDimStyleTable
 71
     1
340
1C
  0
DIMSTYLE
105
1C
102
{ACAD_REACTORS
330
39
330
49
330
6B
330
C1
330
CF
102
}
330
16
100
AcDbSymbolTableRecord
100
AcDbDimStyleTableRecord
  2
STANDARD
 70
     0
340
D
  0
ENDTAB
  0
TABLE
  2
BLOCK_RECORD
  5
1
330
0
100
AcDbSymbolTable
 70
     9
  0
BLOCK_RECORD
  5
2
102
{ACAD_XDICTIONARY
360
17C
102
}
330
1
100
AcDbSymbolTableRecord
100
AcDbBlockTableRecord
  2
*MODEL_SPACE
340
E2
  0
BLOCK_RECORD
  5
8
102
{ACAD_XDICTIONARY
360
17E
102
}
330
1
100
AcDbSymbolTableRecord
100
AcDbBlockTableRecord
  2
*PAPER_SPACE
340
E3
  0
BLOCK_RECORD
  5
83
330
1
100
AcDbSymbolTableRecord
100
AcDbBlockTableRecord
  2
STUD
340
0
102
{BLKREFS
331
82
102
}
  0
BLOCK_RECORD
  5
180
330
1
100
AcDbSymbolTableRecord
100
AcDbBlockTableRecord
  2
*D1
340
0
  0
BLOCK_RECORD
  5
18F
330
1
100
AcDbSymbolTableRecord
100
AcDbBlockTableRecord
  2
*D2
340
0
  0
BLOCK_RECORD
  5
19C
330
1
100
AcDbSymbolTableRecord
100
AcDbBlockTableRecord
  2
*D3
340
0
  0
BLOCK_RECORD
  5
1A9
330
1
100
AcDbSymbolTableRecord
100
AcDbBlockTableRecord
  2
*D4
340
0
  0
BLOCK_RECORD
  5
1B6
330
1
100
AcDbSymbolTableRecord
100
AcDbBlockTableRecord
  2
*D5
340
0
  0
ENDTAB
  0
ENDSEC
  0
SECTION
  2
BLOCKS
  0
BLOCK
  5
3
330
2
100
AcDbEntity
  8
0
100
AcDbBlockBegin
  2
*MODEL_SPACE
 70
     0
 10
0.0
 20
0.0
 30
0.0
  3
*MODEL_SPACE
  1

  0
ENDBLK
  5
7
330
2
100
AcDbEntity
  8
0
100
AcDbBlockEnd
  0
BLOCK
  5
9
330
8
100
AcDbEntity
 67
     1
  8
0
100
AcDbBlockBegin
  2
*PAPER_SPACE
 70
     0
 10
0.0
 20
0.0
 30
0.0
  3
*PAPER_SPACE
  1

  0
ENDBLK
  5
A
330
8
100
AcDbEntity
 67
     1
  8
0
100
AcDbBlockEnd
  0
BLOCK
  5
B7
330
83
100
AcDbEntity
  8
0
100
AcDbBlockBegin
  2
STUD
 70
     0
 10
0.0
 20
0.0
 30
0.0
  3
STUD
  1

  0
LINE
  5
84
330
83
100
AcDbEntity
  8
0
100
AcDbLine
 10
-0.2106546533272015
 20
0.4345838899572075
 30
0.0
 11
-0.2416546533272015
 21
0.4965838899572073
 31
0.0
  0
LINE
  5
85
330
83
100
AcDbEntity
  8
0
100
AcDbLine
 10
-0.2128857855944517
 20
-0.0034161100427927
 30
0.0
 11
-0.2438857855944517
 21
0.0585838899572071
 31
0.0
  0
LINE
  5
86
330
83
100
AcDbEntity
  8
0
100
AcDbLine
 10
-0.6191843435445581
 20
0.4965838899572073
 30
0.0
 11
-0.6191843435445581
 21
0.0575739754449174
 31
0.0
  0
LINE
  5
87
330
83
100
AcDbEntity
  8
0
100
AcDbLine
 10
-0.274160893627193
 20
0.4345838899572075
 30
0.0
 11
-0.2438857855944517
 21
0.0585838899572071
 31
0.0
  0
LINE
  5
88
330
83
100
AcDbEntity
  8
0
100
AcDbLine
 10
-0.3376671339271846
 20
0.4345838899572075
 30
0.0
 11
-0.3073920258944432
 21
0.0585838899572071
 31
0.0
  0
LINE
  5
89
330
83
100
AcDbEntity
  8
0
100
AcDbLine
 10
-0.401173374227176
 20
0.4345838899572075
 30
0.0
 11
-0.3708982661944346
 21
0.0585838899572071
 31
0.0
  0
LINE
  5
8A
330
83
100
AcDbEntity
  8
0
100
AcDbLine
 10
-0.4646796613424146
 20
0.4345838899572075
 30
0.0
 11
-0.4344045533096732
 21
0.0585838899572071
 31
0.0
  0
LINE
  5
8B
330
83
100
AcDbEntity
  8
0
100
AcDbLine
 10
-0.5224125985578164
 20
0.4345838899572075
 30
0.0
 11
-0.492137490525075
 21
0.0585838899572071
 31
0.0
  0
LINE
  5
8C
330
83
100
AcDbEntity
  8
0
100
AcDbLine
 10
-0.585918838857808
 20
0.4345838899572075
 30
0.0
 11
-0.5556437308250666
 21
0.0585838899572071
 31
0.0
  0
LINE
  5
8D
330
83
100
AcDbEntity
  8
0
100
AcDbLine
 10
-0.4654045533096733
 20
-0.0034161100427927
 30
0.0
 11
-0.492137490525075
 21
0.0585838899572071
 31
0.0
  0
LINE
  5
8E
330
83
100
AcDbEntity
  8
0
100
AcDbLine
 10
-0.6191843435445581
 20
0.0575739754449174
 30
0.0
 11
-0.5866437308250667
 21
-0.0034161100427927
 31
0.0
  0
LINE
  5
8F
330
83
100
AcDbEntity
  8
0
100
AcDbLine
 10
-0.5246437308250666
 20
-0.0034161100427927
 30
0.0
 11
-0.5556437308250666
 21
0.0585838899572071
 31
0.0
  0
LINE
  5
90
330
83
100
AcDbEntity
  8
0
100
AcDbLine
 10
-0.5556437308250666
 20
0.0585838899572071
 30
0.0
 11
-0.5866437308250667
 21
-0.0034161100427927
 31
0.0
  0
LINE
  5
91
330
83
100
AcDbEntity
  8
0
100
AcDbLine
 10
-0.492137490525075
 20
0.0585838899572071
 30
0.0
 11
-0.5231374905250751
 21
-0.0034161100427927
 31
0.0
  0
LINE
  5
92
330
83
100
AcDbEntity
  8
0
100
AcDbLine
 10
-0.3398982661944347
 20
-0.0034161100427927
 30
0.0
 11
-0.3708982661944346
 21
0.0585838899572071
 31
0.0
  0
LINE
  5
93
330
83
100
AcDbEntity
  8
0
100
AcDbLine
 10
-0.4034045533096732
 20
-0.0034161100427927
 30
0.0
 11
-0.4344045533096732
 21
0.0585838899572071
 31
0.0
  0
LINE
  5
94
330
83
100
AcDbEntity
  8
0
100
AcDbLine
 10
-0.4344045533096732
 20
0.0585838899572071
 30
0.0
 11
-0.4654045533096733
 21
-0.0034161100427927
 31
0.0
  0
LINE
  5
95
330
83
100
AcDbEntity
  8
0
100
AcDbLine
 10
-0.3708982661944346
 20
0.0585838899572071
 30
0.0
 11
-0.4018982661944348
 21
-0.0034161100427927
 31
0.0
  0
LINE
  5
96
330
83
100
AcDbEntity
  8
0
100
AcDbLine
 10
-0.2763920258944432
 20
-0.0034161100427927
 30
0.0
 11
-0.3073920258944432
 21
0.0585838899572071
 31
0.0
  0
LINE
  5
97
330
83
100
AcDbEntity
  8
0
100
AcDbLine
 10
-0.3073920258944432
 20
0.0585838899572071
 30
0.0
 11
-0.3383920258944432
 21
-0.0034161100427927
 31
0.0
  0
LINE
  5
98
330
83
100
AcDbEntity
  8
0
100
AcDbLine
 10
-0.2438857855944517
 20
0.0585838899572071
 30
0.0
 11
-0.2748857855944518
 21
-0.0034161100427927
 31
0.0
  0
LINE
  5
99
330
83
100
AcDbEntity
  8
0
100
AcDbLine
 10
-0.4646796613424146
 20
0.4345838899572075
 30
0.0
 11
-0.4956796613424145
 21
0.4965838899572073
 31
0.0
  0
LINE
  5
9A
330
83
100
AcDbEntity
  8
0
100
AcDbLine
 10
-0.585918838857808
 20
0.4345838899572075
 30
0.0
 11
-0.616918838857808
 21
0.4965838899572073
 31
0.0
  0
LINE
  5
9B
330
83
100
AcDbEntity
  8
0
100
AcDbLine
 10
-0.5224125985578164
 20
0.4345838899572075
 30
0.0
 11
-0.5534125985578165
 21
0.4965838899572073
 31
0.0
  0
LINE
  5
9C
330
83
100
AcDbEntity
  8
0
100
AcDbLine
 10
-0.4956796613424145
 20
0.4965838899572073
 30
0.0
 11
-0.5224125985578164
 21
0.4345838899572075
 31
0.0
  0
LINE
  5
9D
330
83
100
AcDbEntity
  8
0
100
AcDbLine
 10
-0.5549188388578079
 20
0.4965838899572073
 30
0.0
 11
-0.585918838857808
 21
0.4345838899572075
 31
0.0
  0
LINE
  5
9E
330
83
100
AcDbEntity
  8
0
100
AcDbLine
 10
-0.3376671339271846
 20
0.4345838899572075
 30
0.0
 11
-0.3686671339271845
 21
0.4965838899572073
 31
0.0
  0
LINE
  5
9F
330
83
100
AcDbEntity
  8
0
100
AcDbLine
 10
-0.401173374227176
 20
0.4345838899572075
 30
0.0
 11
-0.432173374227176
 21
0.4965838899572073
 31
0.0
  0
LINE
  5
A0
330
83
100
AcDbEntity
  8
0
100
AcDbLine
 10
-0.3701733742271759
 20
0.4965838899572073
 30
0.0
 11
-0.401173374227176
 21
0.4345838899572075
 31
0.0
  0
LINE
  5
A1
330
83
100
AcDbEntity
  8
0
100
AcDbLine
 10
-0.4336796613424145
 20
0.4965838899572073
 30
0.0
 11
-0.4646796613424146
 21
0.4345838899572075
 31
0.0
  0
LINE
  5
A2
330
83
100
AcDbEntity
  8
0
100
AcDbLine
 10
-0.274160893627193
 20
0.4345838899572075
 30
0.0
 11
-0.305160893627193
 21
0.4965838899572073
 31
0.0
  0
LINE
  5
A3
330
83
100
AcDbEntity
  8
0
100
AcDbLine
 10
-0.243160893627193
 20
0.4965838899572073
 30
0.0
 11
-0.274160893627193
 21
0.4345838899572075
 31
0.0
  0
LINE
  5
A4
330
83
100
AcDbEntity
  8
0
100
AcDbLine
 10
-0.3066671339271845
 20
0.4965838899572073
 30
0.0
 11
-0.3376671339271846
 21
0.4345838899572075
 31
0.0
  0
LINE
  5
A5
330
83
100
AcDbEntity
  8
0
100
AcDbLine
 10
-0.0251843435445581
 20
0.4345838899572075
 30
0.0
 11
0.0050907644881833
 21
0.0585838899572071
 31
0.0
  0
LINE
  5
A6
330
83
100
AcDbEntity
  8
0
100
AcDbLine
 10
-0.0871843435445581
 20
0.4345838899572075
 30
0.0
 11
-0.0569092355118167
 21
0.0585838899572071
 31
0.0
  0
LINE
  5
A7
330
83
100
AcDbEntity
  8
0
100
AcDbLine
 10
-0.1491843435445581
 20
0.4345838899572075
 30
0.0
 11
-0.1189092355118167
 21
0.0585838899572071
 31
0.0
  0
LINE
  5
A8
330
83
100
AcDbEntity
  8
0
100
AcDbLine
 10
-0.2106546533272015
 20
0.4345838899572075
 30
0.0
 11
-0.1803795452944603
 21
0.0585838899572071
 31
0.0
  0
LINE
  5
A9
330
83
100
AcDbEntity
  8
0
100
AcDbLine
 10
-0.0879092355118168
 20
-0.0034161100427927
 30
0.0
 11
-0.1189092355118167
 21
0.0585838899572071
 31
0.0
  0
LINE
  5
AA
330
83
100
AcDbEntity
  8
0
100
AcDbLine
 10
-0.1493795452944602
 20
-0.0034161100427927
 30
0.0
 11
-0.1803795452944603
 21
0.0585838899572071
 31
0.0
  0
LINE
  5
AB
330
83
100
AcDbEntity
  8
0
100
AcDbLine
 10
-0.1803795452944603
 20
0.0585838899572071
 30
0.0
 11
-0.2113795452944602
 21
-0.0034161100427927
 31
0.0
  0
LINE
  5
AC
330
83
100
AcDbEntity
  8
0
100
AcDbLine
 10
-0.1189092355118167
 20
0.0585838899572071
 30
0.0
 11
-0.1499092355118167
 21
-0.0034161100427927
 31
0.0
  0
LINE
  5
AD
330
83
100
AcDbEntity
  8
0
100
AcDbLine
 10
-0.0569092355118167
 20
0.0585838899572071
 30
0.0
 11
-0.0879092355118168
 21
-0.0034161100427927
 31
0.0
  0
LINE
  5
AE
330
83
100
AcDbEntity
  8
0
100
AcDbLine
 10
-0.0259092355118167
 20
-0.0034161100427927
 30
0.0
 11
-0.0569092355118167
 21
0.0585838899572071
 31
0.0
  0
LINE
  5
AF
330
83
100
AcDbEntity
  8
0
100
AcDbLine
 10
0.0050907644881833
 20
0.0585838899572071
 30
0.0
 11
-0.0259092355118167
 21
-0.0034161100427927
 31
0.0
  0
LINE
  5
B0
330
83
100
AcDbEntity
  8
0
100
AcDbLine
 10
-0.0871843435445581
 20
0.4345838899572075
 30
0.0
 11
-0.118184343544558
 21
0.4965838899572073
 31
0.0
  0
LINE
  5
B1
330
83
100
AcDbEntity
  8
0
100
AcDbLine
 10
-0.1491843435445581
 20
0.4345838899572075
 30
0.0
 11
-0.180184343544558
 21
0.4965838899572073
 31
0.0
  0
LINE
  5
B2
330
83
100
AcDbEntity
  8
0
100
AcDbLine
 10
-0.118184343544558
 20
0.4965838899572073
 30
0.0
 11
-0.1491843435445581
 21
0.4345838899572075
 31
0.0
  0
LINE
  5
B3
330
83
100
AcDbEntity
  8
0
100
AcDbLine
 10
-0.1796546533272015
 20
0.4965838899572073
 30
0.0
 11
-0.2106546533272015
 21
0.4345838899572075
 31
0.0
  0
LINE
  5
B4
330
83
100
AcDbEntity
  8
0
100
AcDbLine
 10
0.005815656455442
 20
0.4965838899572073
 30
0.0
 11
-0.0251843435445581
 21
0.4345838899572075
 31
0.0
  0
LINE
  5
B5
330
83
100
AcDbEntity
  8
0
100
AcDbLine
 10
-0.0251843435445581
 20
0.4345838899572075
 30
0.0
 11
-0.0561843435445581
 21
0.4965838899572073
 31
0.0
  0
LINE
  5
B6
330
83
100
AcDbEntity
  8
0
100
AcDbLine
 10
-0.0561843435445581
 20
0.4965838899572073
 30
0.0
 11
-0.0871843435445581
 21
0.4345838899572075
 31
0.0
  0
ENDBLK
  5
B8
330
83
100
AcDbEntity
  8
0
100
AcDbBlockEnd
  0
BLOCK
  5
18B
330
180
100
AcDbEntity
  8
0
100
AcDbBlockBegin
  2
*D1
 70
     1
 10
0.0
 20
0.0
 30
0.0
  3
*D1
  1

  0
LINE
  5
373
330
180
100
AcDbEntity
  8
ADPDIM
 62
     0
100
AcDbLine
 10
22.60255847539978
 20
-12.55378691601719
 30
0.0
 11
22.60255847539978
 21
-12.31128691601719
 31
0.0
  0
LINE
  5
374
330
180
100
AcDbEntity
  8
ADPDIM
 62
     0
100
AcDbLine
 10
24.22755847539979
 20
-12.55378691601719
 30
0.0
 11
24.22755847539979
 21
-12.31128691601719
 31
0.0
  0
LINE
  5
375
330
180
100
AcDbEntity
  8
ADPDIM
 62
     0
100
AcDbLine
 10
22.60255847539978
 20
-12.49128691601719
 30
0.0
 11
23.01922514206645
 21
-12.49128691601719
 31
0.0
  0
LINE
  5
376
330
180
100
AcDbEntity
  8
ADPDIM
 62
     0
100
AcDbLine
 10
24.22755847539979
 20
-12.49128691601719
 30
0.0
 11
23.81089180873312
 21
-12.49128691601719
 31
0.0
  0
LINE
  5
377
330
180
100
AcDbEntity
  8
ADPDIM
 62
     0
100
AcDbLine
 10
24.10255847539979
 20
-12.61628691601719
 30
0.0
 11
24.35255847539979
 21
-12.36628691601719
 31
0.0
  0
LINE
  5
378
330
180
100
AcDbEntity
  8
ADPDIM
 62
     0
100
AcDbLine
 10
22.47755847539979
 20
-12.61628691601719
 30
0.0
 11
22.72755847539979
 21
-12.36628691601719
 31
0.0
  0
MTEXT
  5
379
330
180
100
AcDbEntity
  8
ADPDIM
 62
     0
100
AcDbMText
 10
23.41505847539979
 20
-12.49128691601719
 30
0.0
 40
0.125
 41
0.0
 71
     5
 72
     1
  1
\A1;1 5/8
 73
     1
 44
1.0
1001
ACAD
1000
MTEXTBEGIN
1070
    73
1070
     1
1070
    44
1040
1.0
1070
    74
1070
     0
1000
MTEXTEND
  0
POINT
  5
37A
330
180
100
AcDbEntity
  8
DEFPOINTS
 62
     0
100
AcDbPoint
 10
22.60255847539978
 20
-12.61628691601719
 30
0.0
  0
POINT
  5
37B
330
180
100
AcDbEntity
  8
DEFPOINTS
 62
     0
100
AcDbPoint
 10
24.22755847539979
 20
-12.61628691601719
 30
0.0
  0
POINT
  5
37C
330
180
100
AcDbEntity
  8
DEFPOINTS
 62
     0
100
AcDbPoint
 10
24.22755847539979
 20
-12.49128691601719
 30
0.0
  0
ENDBLK
  5
18C
330
180
100
AcDbEntity
  8
0
100
AcDbBlockEnd
  0
BLOCK
  5
19A
330
18F
100
AcDbEntity
  8
0
100
AcDbBlockBegin
  2
*D2
 70
     1
 10
0.0
 20
0.0
 30
0.0
  3
*D2
  1

  0
LINE
  5
37F
330
18F
100
AcDbEntity
  8
ADPDIM
 62
     0
100
AcDbLine
 10
22.19655847539979
 20
-12.67878691601719
 30
0.0
 11
22.19655847539979
 21
-11.93628691601719
 31
0.0
  0
LINE
  5
380
330
18F
100
AcDbEntity
  8
ADPDIM
 62
     0
100
AcDbLine
 10
24.69655847539979
 20
-12.67878691601719
 30
0.0
 11
24.69655847539979
 21
-11.93628691601719
 31
0.0
  0
LINE
  5
381
330
18F
100
AcDbEntity
  8
ADPDIM
 62
     0
100
AcDbLine
 10
22.19655847539979
 20
-12.11628691601719
 30
0.0
 11
23.05072514206645
 21
-12.11628691601719
 31
0.0
  0
LINE
  5
382
330
18F
100
AcDbEntity
  8
ADPDIM
 62
     0
100
AcDbLine
 10
24.69655847539979
 20
-12.11628691601719
 30
0.0
 11
23.84239180873311
 21
-12.11628691601719
 31
0.0
  0
LINE
  5
383
330
18F
100
AcDbEntity
  8
ADPDIM
 62
     0
100
AcDbLine
 10
24.57155847539978
 20
-12.24128691601719
 30
0.0
 11
24.82155847539978
 21
-11.99128691601719
 31
0.0
  0
LINE
  5
384
330
18F
100
AcDbEntity
  8
ADPDIM
 62
     0
100
AcDbLine
 10
22.07155847539979
 20
-12.24128691601719
 30
0.0
 11
22.32155847539979
 21
-11.99128691601719
 31
0.0
  0
MTEXT
  5
385
330
18F
100
AcDbEntity
  8
ADPDIM
 62
     0
100
AcDbMText
 10
23.44655847539979
 20
-12.11628691601719
 30
0.0
 40
0.125
 41
0.0
 71
     5
 72
     1
  1
\A1;2 1/2
 73
     1
 44
1.0
1001
ACAD
1000
MTEXTBEGIN
1070
    73
1070
     1
1070
    44
1040
1.0
1070
    74
1070
     0
1000
MTEXTEND
  0
POINT
  5
386
330
18F
100
AcDbEntity
  8
DEFPOINTS
 62
     0
100
AcDbPoint
 10
22.19655847539979
 20
-12.74128691601719
 30
0.0
  0
POINT
  5
387
330
18F
100
AcDbEntity
  8
DEFPOINTS
 62
     0
100
AcDbPoint
 10
24.69655847539979
 20
-12.74128691601719
 30
0.0
  0
POINT
  5
388
330
18F
100
AcDbEntity
  8
DEFPOINTS
 62
     0
100
AcDbPoint
 10
24.69655847539979
 20
-12.11628691601719
 30
0.0
  0
ENDBLK
  5
19B
330
18F
100
AcDbEntity
  8
0
100
AcDbBlockEnd
  0
BLOCK
  5
1A7
330
19C
100
AcDbEntity
  8
0
100
AcDbBlockBegin
  2
*D3
 70
     1
 10
0.0
 20
0.0
 30
0.0
  3
*D3
  1

  0
LINE
  5
389
330
19C
100
AcDbEntity
  8
ADPDIM
 62
     0
100
AcDbLine
 10
19.70953558678237
 20
-14.33332103939074
 30
0.0
 11
19.70953558678237
 21
-14.69074454986162
 31
0.0
  0
LINE
  5
38A
330
19C
100
AcDbEntity
  8
ADPDIM
 62
     0
100
AcDbLine
 10
20.45953558678237
 20
-14.33332103939074
 30
0.0
 11
20.45953558678237
 21
-14.69074454986162
 31
0.0
  0
LINE
  5
38B
330
19C
100
AcDbEntity
  8
ADPDIM
 62
     0
100
AcDbLine
 10
19.70953558678237
 20
-14.51074454986162
 30
0.0
 11
19.45953558678237
 21
-14.51074454986162
 31
0.0
  0
LINE
  5
38C
330
19C
100
AcDbEntity
  8
ADPDIM
 62
     0
100
AcDbLine
 10
20.45953558678237
 20
-14.51074454986162
 30
0.0
 11
20.70953558678237
 21
-14.51074454986162
 31
0.0
  0
LINE
  5
38D
330
19C
100
AcDbEntity
  8
ADPDIM
 62
     0
100
AcDbLine
 10
20.33453558678237
 20
-14.63574454986162
 30
0.0
 11
20.58453558678237
 21
-14.38574454986162
 31
0.0
  0
LINE
  5
38E
330
19C
100
AcDbEntity
  8
ADPDIM
 62
     0
100
AcDbLine
 10
19.58453558678237
 20
-14.63574454986162
 30
0.0
 11
19.83453558678237
 21
-14.38574454986162
 31
0.0
  0
MTEXT
  5
38F
330
19C
100
AcDbEntity
  8
ADPDIM
 62
     0
100
AcDbMText
 10
20.08453558678237
 20
-14.51074454986162
 30
0.0
 40
0.125
 41
0.0
 71
     5
 72
     1
  1
\A1;3/4
 73
     1
 44
1.0
1001
ACAD
1000
MTEXTBEGIN
1070
    73
1070
     1
1070
    44
1040
1.0
1070
    74
1070
     0
1000
MTEXTEND
  0
POINT
  5
390
330
19C
100
AcDbEntity
  8
DEFPOINTS
 62
     0
100
AcDbPoint
 10
19.70953558678237
 20
-14.27082103939073
 30
0.0
  0
POINT
  5
391
330
19C
100
AcDbEntity
  8
DEFPOINTS
 62
     0
100
AcDbPoint
 10
20.45953558678237
 20
-14.27082103939073
 30
0.0
  0
POINT
  5
392
330
19C
100
AcDbEntity
  8
DEFPOINTS
 62
     0
100
AcDbPoint
 10
20.45953558678237
 20
-14.51074454986162
 30
0.0
  0
ENDBLK
  5
1A8
330
19C
100
AcDbEntity
  8
0
100
AcDbBlockEnd
  0
BLOCK
  5
1B4
330
1A9
100
AcDbEntity
  8
0
100
AcDbBlockBegin
  2
*D4
 70
     1
 10
0.0
 20
0.0
 30
0.0
  3
*D4
  1

  0
LINE
  5
42F
330
1A9
100
AcDbEntity
  8
ADPDIM
 62
     0
370
    -2
100
AcDbLine
 10
17.58379799296188
 20
-13.36665484059809
 30
0.0
 11
17.58379799296188
 21
-12.26824454986162
 31
0.0
  0
LINE
  5
430
330
1A9
100
AcDbEntity
  8
ADPDIM
 62
     0
370
    -2
100
AcDbLine
 10
20.08453558678237
 20
-12.69824454986162
 30
0.0
 11
20.08453558678237
 21
-12.26824454986162
 31
0.0
  0
LINE
  5
431
330
1A9
100
AcDbEntity
  8
ADPDIM
 62
     0
370
    -2
100
AcDbLine
 10
17.58379799296188
 20
-12.44824454986162
 30
0.0
 11
18.43833345653879
 21
-12.44824454986162
 31
0.0
  0
LINE
  5
432
330
1A9
100
AcDbEntity
  8
ADPDIM
 62
     0
370
    -2
100
AcDbLine
 10
20.08453558678237
 20
-12.44824454986162
 30
0.0
 11
19.23000012320546
 21
-12.44824454986162
 31
0.0
  0
LINE
  5
433
330
1A9
100
AcDbEntity
  8
ADPDIM
 62
     0
370
    -2
100
AcDbLine
 10
19.95953558678237
 20
-12.57324454986162
 30
0.0
 11
20.20953558678237
 21
-12.32324454986162
 31
0.0
  0
LINE
  5
434
330
1A9
100
AcDbEntity
  8
ADPDIM
 62
     0
370
    -2
100
AcDbLine
 10
17.45879799296188
 20
-12.57324454986162
 30
0.0
 11
17.70879799296188
 21
-12.32324454986162
 31
0.0
  0
MTEXT
  5
435
330
1A9
100
AcDbEntity
  8
ADPDIM
 62
     0
100
AcDbMText
 10
18.83416678987212
 20
-12.44824454986162
 30
0.0
 40
0.125
 41
0.0
 71
     5
 72
     1
  1
\A1;2 1/2
 73
     1
 44
1.0
1001
ACAD
1000
MTEXTBEGIN
1070
    73
1070
     1
1070
    44
1040
1.0
1070
    74
1070
     0
1000
MTEXTEND
  0
POINT
  5
436
330
1A9
100
AcDbEntity
  8
DEFPOINTS
 62
     0
100
AcDbPoint
 10
17.58379799296188
 20
-13.42915484059809
 30
0.0
  0
POINT
  5
437
330
1A9
100
AcDbEntity
  8
DEFPOINTS
 62
     0
100
AcDbPoint
 10
20.08453558678237
 20
-12.76074454986162
 30
0.0
  0
POINT
  5
438
330
1A9
100
AcDbEntity
  8
DEFPOINTS
 62
     0
100
AcDbPoint
 10
20.08453558678237
 20
-12.44824454986162
 30
0.0
  0
ENDBLK
  5
1B5
330
1A9
100
AcDbEntity
  8
0
100
AcDbBlockEnd
  0
BLOCK
  5
1C1
330
1B6
100
AcDbEntity
  8
0
100
AcDbBlockBegin
  2
*D5
 70
     1
 10
0.0
 20
0.0
 30
0.0
  3
*D5
  1

  0
LINE
  5
39D
330
1B6
100
AcDbEntity
  8
ADPDIM
 62
     0
100
AcDbLine
 10
22.13405847539979
 20
-12.79783231764531
 30
0.0
 11
21.64155847539979
 21
-12.79783231764531
 31
0.0
  0
LINE
  5
39E
330
1B6
100
AcDbEntity
  8
ADPDIM
 62
     0
100
AcDbLine
 10
23.32452788959211
 20
-13.86033231764531
 30
0.0
 11
21.64155847539979
 21
-13.86033231764531
 31
0.0
  0
LINE
  5
39F
330
1B6
100
AcDbEntity
  8
ADPDIM
 62
     0
100
AcDbLine
 10
21.82155847539979
 20
-12.79783231764531
 30
0.0
 11
21.82155847539979
 21
-12.54783231764531
 31
0.0
  0
LINE
  5
3A0
330
1B6
100
AcDbEntity
  8
ADPDIM
 62
     0
100
AcDbLine
 10
21.82155847539979
 20
-13.86033231764531
 30
0.0
 11
21.82155847539979
 21
-14.11033231764531
 31
0.0
  0
LINE
  5
3A1
330
1B6
100
AcDbEntity
  8
ADPDIM
 62
     0
100
AcDbLine
 10
21.94655847539979
 20
-13.98533231764531
 30
0.0
 11
21.69655847539979
 21
-13.73533231764531
 31
0.0
  0
LINE
  5
3A2
330
1B6
100
AcDbEntity
  8
ADPDIM
 62
     0
100
AcDbLine
 10
21.94655847539979
 20
-12.92283231764531
 30
0.0
 11
21.69655847539979
 21
-12.67283231764531
 31
0.0
  0
MTEXT
  5
3A3
330
1B6
100
AcDbEntity
  8
ADPDIM
 62
     0
100
AcDbMText
 10
21.82155847539979
 20
-13.32908231764531
 30
0.0
 40
0.125
 41
0.0
 71
     5
 72
     1
  1
\A1;1 1/16
 11
0.0000000000000001
 21
1.0
 31
0.0
 73
     1
 44
1.0
1001
ACAD
1000
MTEXTBEGIN
1070
    73
1070
     1
1070
    44
1040
1.0
1070
    74
1070
     0
1000
MTEXTEND
  0
POINT
  5
3A4
330
1B6
100
AcDbEntity
  8
DEFPOINTS
 62
     0
100
AcDbPoint
 10
22.19655847539979
 20
-12.79783231764531
 30
0.0
  0
POINT
  5
3A5
330
1B6
100
AcDbEntity
  8
DEFPOINTS
 62
     0
100
AcDbPoint
 10
23.38702788959211
 20
-13.86033231764531
 30
0.0
  0
POINT
  5
3A6
330
1B6
100
AcDbEntity
  8
DEFPOINTS
 62
     0
100
AcDbPoint
 10
21.82155847539979
 20
-13.86033231764531
 30
0.0
  0
ENDBLK
  5
1C2
330
1B6
100
AcDbEntity
  8
0
100
AcDbBlockEnd
  0
ENDSEC
  0
SECTION
  2
ENTITIES
  0
LINE
  5
1D
330
2
100
AcDbEntity
  8
ADP2DETAIL
  6
HIDDEN2
100
AcDbLine
 10
24.33503558678237
 20
-12.79882422677914
 30
0.0
 11
24.33503558678237
 21
-12.92382422677914
 31
0.0
  0
LINE
  5
20
330
2
100
AcDbEntity
  8
ADP2DETAIL
  6
HIDDEN2
100
AcDbLine
 10
24.33503558678237
 20
-12.92382422677914
 30
0.0
 11
24.39703558678238
 21
-12.98582422677914
 31
0.0
  0
LINE
  5
21
330
2
100
AcDbEntity
  8
ADP1DETAIL
100
AcDbLine
 10
24.69655847539979
 20
-12.67878691601719
 30
0.0
 11
24.69655847539979
 21
-12.98583231764531
 31
0.0
  0
LINE
  5
23
330
2
100
AcDbEntity
  8
ADP2DETAIL
  6
HIDDEN2
100
AcDbLine
 10
24.14703558678237
 20
-12.92382422677914
 30
0.0
 11
24.08503558678237
 21
-12.98582422677914
 31
0.0
  0
ARC
  5
24
330
2
100
AcDbEntity
  8
ADP1DETAIL
100
AcDbCircle
 10
23.94655847539978
 20
-13.11083231764531
 30
0.0
 40
0.125
100
AcDbArc
 50
90.0
 51
180.0
  0
LINE
  5
25
330
2
100
AcDbEntity
  8
ADP2DETAIL
  6
HIDDEN2
100
AcDbLine
 10
24.14703558678237
 20
-12.79882422677914
 30
0.0
 11
24.14703558678237
 21
-12.92382422677914
 31
0.0
  0
LINE
  5
26
330
2
100
AcDbEntity
  8
ADP1DETAIL
100
AcDbLine
 10
24.69655847539979
 20
-12.98583231764531
 30
0.0
 11
23.94655847539978
 21
-12.98583231764531
 31
0.0
  0
LINE
  5
27
330
2
100
AcDbEntity
  8
ADP1DETAIL
100
AcDbLine
 10
23.63003153013703
 20
-12.67878691601719
 30
0.0
 11
24.69655847539979
 21
-12.67878691601719
 31
0.0
  0
LINE
  5
28
330
2
100
AcDbEntity
  8
ADP2DETAIL
  6
HIDDEN2
100
AcDbLine
 10
24.69655847539979
 20
-12.79783231764531
 30
0.0
 11
23.7217406359035
 21
-12.79674562724018
 31
0.0
  0
LINE
  5
29
330
2
100
AcDbEntity
  8
ADP2DETAIL
  6
HIDDEN2
100
AcDbLine
 10
22.71003558678237
 20
-12.79882422677914
 30
0.0
 11
22.71003558678237
 21
-12.92382422677914
 31
0.0
  0
LINE
  5
2A
330
2
100
AcDbEntity
  8
ADP2DETAIL
  6
HIDDEN2
100
AcDbLine
 10
22.71003558678237
 20
-12.92382422677914
 30
0.0
 11
22.77203558678237
 21
-12.98582422677914
 31
0.0
  0
LINE
  5
2B
330
2
100
AcDbEntity
  8
ADP2DETAIL
  6
HIDDEN2
100
AcDbLine
 10
22.52203558678237
 20
-12.79882422677914
 30
0.0
 11
22.52203558678237
 21
-12.92382422677914
 31
0.0
  0
LINE
  5
2C
330
2
100
AcDbEntity
  8
ADP2DETAIL
  6
HIDDEN2
100
AcDbLine
 10
22.52203558678237
 20
-12.92382422677914
 30
0.0
 11
22.46003558678237
 21
-12.98582422677914
 31
0.0
  0
ARC
  5
2D
330
2
100
AcDbEntity
  8
ADP1DETAIL
100
AcDbCircle
 10
22.94655847539979
 20
-13.11083231764531
 30
0.0
 40
0.125
100
AcDbArc
 50
0.0
 51
90.0
  0
LINE
  5
2E
330
2
100
AcDbEntity
  8
ADP1DETAIL
100
AcDbLine
 10
22.19655847539979
 20
-12.98583231764531
 30
0.0
 11
22.19655847539979
 21
-12.67878691601719
 31
0.0
  0
LINE
  5
2F
330
2
100
AcDbEntity
  8
ADP1DETAIL
100
AcDbLine
 10
22.94655847539979
 20
-12.98583231764531
 30
0.0
 11
22.19655847539979
 21
-12.98583231764531
 31
0.0
  0
LINE
  5
30
330
2
100
AcDbEntity
  8
ADP1DETAIL
100
AcDbLine
 10
22.19655847539979
 20
-12.67878691601719
 30
0.0
 11
23.26308542066254
 21
-12.67878691601719
 31
0.0
  0
LINE
  5
31
330
2
100
AcDbEntity
  8
ADP2DETAIL
  6
HIDDEN2
100
AcDbLine
 10
22.19655847539979
 20
-12.79783231764531
 30
0.0
 11
23.19767411897884
 21
-12.79783231764531
 31
0.0
  0
LINE
  5
32
330
2
100
AcDbEntity
  8
ADP2DETAIL
  6
HIDDEN2
100
AcDbLine
 10
20.17853558678238
 20
-12.89582103939074
 30
0.0
 11
20.24053558678238
 21
-12.95782103939073
 31
0.0
  0
LINE
  5
33
330
2
100
AcDbEntity
  8
ADP2DETAIL
  6
HIDDEN2
100
AcDbLine
 10
20.17853558678238
 20
-12.77082103939074
 30
0.0
 11
20.17853558678238
 21
-12.89582103939074
 31
0.0
  0
LINE
  5
34
330
2
100
AcDbEntity
  8
ADP2DETAIL
  6
HIDDEN2
100
AcDbLine
 10
19.99053558678237
 20
-12.89582103939074
 30
0.0
 11
19.92853558678237
 21
-12.95782103939073
 31
0.0
  0
LINE
  5
35
330
2
100
AcDbEntity
  8
ADP2DETAIL
  6
HIDDEN2
100
AcDbLine
 10
19.99053558678237
 20
-12.77082103939074
 30
0.0
 11
19.99053558678237
 21
-12.89582103939074
 31
0.0
  0
LINE
  5
36
330
2
100
AcDbEntity
  8
ADP1DETAIL
100
AcDbLine
 10
19.70953558678237
 20
-12.95782103939073
 30
0.0
 11
20.45953558678237
 21
-12.95782103939073
 31
0.0
  0
ARC
  5
37
330
2
100
AcDbEntity
  8
ADP1DETAIL
100
AcDbCircle
 10
20.08453558678237
 20
-11.96082103939073
 30
0.0
 40
0.8100000000000001
100
AcDbArc
 50
242.4215320218769
 51
297.5784679781231
  0
LINE
  5
38
330
2
100
AcDbEntity
  8
ADP1DETAIL
100
AcDbLine
 10
23.25791320824551
 20
-12.65980504515338
 30
0.0
 11
23.63291320824552
 21
-12.65980504515338
 31
0.0
  0
DIMENSION
  5
39
330
2
100
AcDbEntity
  8
ADPDIM
100
AcDbDimension
  2
*D1
 10
24.22755847539979
 20
-12.49128691601719
 30
0.0
 11
23.41505847539979
 21
-12.49128691601719
 31
0.0
 70
    32
 71
     5
 42
-1.0
  3
STANDARD
100
AcDbAlignedDimension
 13
22.60255847539978
 23
-12.61628691601719
 33
0.0
 14
24.22755847539979
 24
-12.61628691601719
 34
0.0
100
AcDbRotatedDimension
1001
ACAD
1000
DSTYLE
1002
{
1070
   270
1070
     7
1070
   270
1070
     7
1070
   270
1070
     7
1070
   270
1070
     7
1070
    41
1040
0.125
1070
    73
1070
     0
1070
    74
1070
     0
1070
    78
1070
     2
1070
   140
1040
0.125
1070
   141
1040
0.1875
1070
   142
1040
0.125
1070
   147
1040
0.125
1070
   171
1070
     1
1070
   276
1070
     2
1070
   277
1070
     5
1002
}
  0
DIMENSION
  5
49
330
2
100
AcDbEntity
  8
ADPDIM
100
AcDbDimension
  2
*D2
 10
24.69655847539979
 20
-12.11628691601719
 30
0.0
 11
23.44655847539979
 21
-12.11628691601719
 31
0.0
 70
    32
 71
     5
 42
-1.0
  3
STANDARD
100
AcDbAlignedDimension
 13
22.19655847539979
 23
-12.74128691601719
 33
0.0
 14
24.69655847539979
 24
-12.74128691601719
 34
0.0
100
AcDbRotatedDimension
1001
ACAD
1000
DSTYLE
1002
{
1070
   270
1070
     7
1070
   270
1070
     7
1070
   270
1070
     7
1070
   270
1070
     7
1070
    41
1040
0.125
1070
    73
1070
     0
1070
    74
1070
     0
1070
    78
1070
     2
1070
   140
1040
0.125
1070
   141
1040
0.1875
1070
   142
1040
0.125
1070
   147
1040
0.125
1070
   171
1070
     1
1070
   276
1070
     2
1070
   277
1070
     5
1002
}
  0
LINE
  5
57
330
2
100
AcDbEntity
  8
ADP2DETAIL
  6
HIDDEN2
100
AcDbLine
 10
23.25791320824551
 20
-12.7788504467815
 30
0.0
 11
23.63291320824552
 21
-12.7788504467815
 31
0.0
  0
LINE
  5
58
330
2
100
AcDbEntity
  8
ADP1DETAIL
100
AcDbLine
 10
23.44705847539978
 20
-14.23483231764531
 30
0.0
 11
23.44605847539979
 21
-14.23483231764531
 31
0.0
  0
ARC
  5
59
330
2
100
AcDbEntity
  8
ADP1DETAIL
100
AcDbCircle
 10
23.44605847539979
 20
-13.86033231764531
 30
0.0
 40
0.3745
100
AcDbArc
 50
180.0
 51
270.0
  0
LINE
  5
5A
330
2
100
AcDbEntity
  8
ADP1DETAIL
100
AcDbLine
 10
20.58453558678237
 20
-13.58303870758199
 30
0.0
 11
20.58453558678237
 21
-13.86132422677914
 31
0.0
  0
LINE
  5
5B
330
2
100
AcDbEntity
  8
ADP1DETAIL
100
AcDbLine
 10
20.58027631506851
 20
-13.58117660741696
 30
0.0
 11
20.58027631506851
 21
-13.58117660741696
 31
0.0
  0
LINE
  5
5C
330
2
100
AcDbEntity
  8
ADP1DETAIL
100
AcDbLine
 10
20.45953558678237
 20
-13.67382422677914
 30
0.0
 11
20.45953558678237
 21
-13.54882422677914
 31
0.0
  0
ARC
  5
5D
330
2
100
AcDbEntity
  8
ADP2DETAIL
  6
HIDDEN2
100
AcDbCircle
 10
21.28099604496013
 20
-13.86132422677914
 30
0.0
 40
0.75
100
AcDbArc
 50
158.2197748746748
 51
180.0
  0
LINE
  5
5E
330
2
100
AcDbEntity
  8
ADP1DETAIL
100
AcDbLine
 10
20.45953558678237
 20
-13.54882422677914
 30
0.0
 11
20.58027631506851
 21
-13.58117660741696
 31
0.0
  0
LINE
  5
5F
330
2
100
AcDbEntity
  8
ADP1DETAIL
100
AcDbLine
 10
20.58027631506851
 20
-14.14147184614133
 30
0.0
 11
20.58027631506851
 21
-14.14147184614133
 31
0.0
  0
LINE
  5
60
330
2
100
AcDbEntity
  8
ADP1DETAIL
100
AcDbLine
 10
20.45953558678237
 20
-14.04882422677914
 30
0.0
 11
20.45953558678237
 21
-14.17382422677914
 31
0.0
  0
LINE
  5
61
330
2
100
AcDbEntity
  8
ADP1DETAIL
100
AcDbLine
 10
20.45953558678237
 20
-14.17382422677914
 30
0.0
 11
20.58027631506851
 21
-14.14147184614133
 31
0.0
  0
LINE
  5
62
330
2
100
AcDbEntity
  8
ADP1DETAIL
100
AcDbLine
 10
20.58453558678237
 20
-14.1396097459763
 30
0.0
 11
20.58453558678237
 21
-13.86132422677914
 31
0.0
  0
LINE
  5
63
330
2
100
AcDbEntity
  8
ADP1DETAIL
100
AcDbLine
 10
20.45953558678237
 20
-13.67382422677914
 30
0.0
 11
20.45953558678237
 21
-14.04882422677914
 31
0.0
  0
ARC
  5
64
330
2
100
AcDbEntity
  8
ADP2DETAIL
  6
HIDDEN2
100
AcDbCircle
 10
21.28099604496013
 20
-13.86132422677914
 30
0.0
 40
0.75
100
AcDbArc
 50
180.0
 51
201.7802251253252
  0
LINE
  5
65
330
2
100
AcDbEntity
  8
ADP1DETAIL
100
AcDbLine
 10
19.70953558678237
 20
-13.54882422677914
 30
0.0
 11
19.70953558678237
 21
-14.17382422677914
 31
0.0
  0
LINE
  5
66
330
2
100
AcDbEntity
  8
ADP1DETAIL
100
AcDbLine
 10
19.70953558678237
 20
-14.04882422677914
 30
0.0
 11
19.70953558678237
 21
-13.67382422677914
 31
0.0
  0
LINE
  5
67
330
2
100
AcDbEntity
  8
ADP1DETAIL
100
AcDbLine
 10
18.95953558678237
 20
-14.13214605482978
 30
0.0
 11
18.95953558678237
 21
-13.59049089344581
 31
0.0
  0
LINE
  5
68
330
2
100
AcDbEntity
  8
ADP1DETAIL
100
AcDbLine
 10
18.95953558678237
 20
-13.59049089344581
 30
0.0
 11
19.70953558678237
 21
-13.54882422677914
 31
0.0
  0
LINE
  5
69
330
2
100
AcDbEntity
  8
ADP1DETAIL
100
AcDbLine
 10
19.70953558678237
 20
-14.17382422677914
 30
0.0
 11
18.95953558678237
 21
-14.13214605482978
 31
0.0
  0
LINE
  5
6A
330
2
100
AcDbEntity
  8
ADP1DETAIL
100
AcDbLine
 10
19.70953558678237
 20
-14.27082103939073
 30
0.0
 11
20.45953558678237
 21
-14.27082103939073
 31
0.0
  0
DIMENSION
  5
6B
330
2
100
AcDbEntity
  8
ADPDIM
100
AcDbDimension
  2
*D3
 10
20.45953558678237
 20
-14.51074454986162
 30
0.0
 11
20.08453558678237
 21
-14.51074454986162
 31
0.0
 70
    32
 71
     5
 42
-1.0
  3
STANDARD
100
AcDbAlignedDimension
 13
19.70953558678237
 23
-14.27082103939073
 33
0.0
 14
20.45953558678237
 24
-14.27082103939073
 34
0.0
100
AcDbRotatedDimension
1001
ACAD
1000
DSTYLE
1002
{
1070
   270
1070
     7
1070
   270
1070
     7
1070
   270
1070
     7
1070
   270
1070
     7
1070
    41
1040
0.125
1070
    73
1070
     0
1070
    74
1070
     0
1070
    78
1070
     2
1070
   140
1040
0.125
1070
   141
1040
0.1875
1070
   142
1040
0.125
1070
   147
1040
0.125
1070
   171
1070
     1
1070
   276
1070
     2
1070
   277
1070
     5
1002
}
  0
CIRCLE
  5
79
330
2
100
AcDbEntity
  8
ADP1DETAIL
100
AcDbCircle
 10
23.44705847539978
 20
-13.86349969474434
 30
0.0
 40
0.2859512779740925
  0
CIRCLE
  5
7A
330
2
100
AcDbEntity
  8
ADP1DETAIL
100
AcDbCircle
 10
23.44705847539978
 20
-13.86349969474434
 30
0.0
 40
0.3125
  0
ARC
  5
7B
330
2
100
AcDbEntity
  8
ADP1DETAIL
100
AcDbCircle
 10
23.44705847539978
 20
-13.86033231764531
 30
0.0
 40
0.3745
100
AcDbArc
 50
270.0
 51
0.0
  0
LINE
  5
7C
330
2
100
AcDbEntity
  8
ADP1DETAIL
100
AcDbLine
 10
17.70869839900851
 20
-13.46315729781051
 30
0.0
 11
17.70879799296188
 21
-13.86665484059809
 31
0.0
  0
LINE
  5
7D
330
2
100
AcDbEntity
  8
ADP1DETAIL
100
AcDbLine
 10
17.70869839900851
 20
-14.27015238338566
 30
0.0
 11
17.70879799296188
 21
-13.86665484059809
 31
0.0
  0
LINE
  5
7E
330
2
100
AcDbEntity
  8
ADP1DETAIL
100
AcDbLine
 10
17.58379799296188
 20
-13.86665484059809
 30
0.0
 11
17.58379799296188
 21
-13.42915484059809
 31
0.0
  0
LINE
  5
7F
330
2
100
AcDbEntity
  8
ADP1DETAIL
100
AcDbLine
 10
17.58379799296188
 20
-13.86665484059809
 30
0.0
 11
17.58379799296188
 21
-14.30415484059809
 31
0.0
  0
LINE
  5
80
330
2
100
AcDbEntity
  8
ADP1DETAIL
100
AcDbLine
 10
17.58379799296188
 20
-13.42915484059809
 30
0.0
 11
17.70869839900851
 21
-13.46315729781051
 31
0.0
  0
LINE
  5
81
330
2
100
AcDbEntity
  8
ADP1DETAIL
100
AcDbLine
 10
17.58379799296188
 20
-14.30415484059809
 30
0.0
 11
17.70869839900851
 21
-14.27015238338566
 31
0.0
  0
INSERT
  5
82
330
2
100
AcDbEntity
  8
ADP1DETAIL
100
AcDbBlockReference
  2
STUD
 10
17.57798233650644
 20
-14.11323873055529
 30
0.0
  0
LINE
  5
B9
330
2
100
AcDbEntity
  8
ADP1DETAIL
100
AcDbLine
 10
17.70953558678237
 20
-13.48632422677914
 30
0.0
 11
18.95953558678237
 21
-13.59049089344581
 31
0.0
  0
LINE
  5
BA
330
2
100
AcDbEntity
  8
ADP1DETAIL
100
AcDbLine
 10
18.95953558678237
 20
-14.13214605482978
 30
0.0
 11
17.70870674869964
 21
-14.23632422677914
 31
0.0
  0
LINE
  5
BB
330
2
100
AcDbEntity
  8
ADP1DETAIL
100
AcDbLine
 10
23.82155847539979
 20
-13.11083231764531
 30
0.0
 11
23.82155847539979
 21
-13.86033231764531
 31
0.0
  0
LINE
  5
BC
330
2
100
AcDbEntity
  8
ADP1DETAIL
100
AcDbLine
 10
23.25905847539979
 20
-13.6138754771692
 30
0.0
 11
23.25905847539979
 21
-12.65932797838565
 31
0.0
  0
LINE
  5
BD
330
2
100
AcDbEntity
  8
ADP1DETAIL
100
AcDbLine
 10
23.07155847539979
 20
-13.86033231764531
 30
0.0
 11
23.07155847539979
 21
-13.11083231764531
 31
0.0
  0
LINE
  5
BE
330
2
100
AcDbEntity
  8
ADP1DETAIL
100
AcDbLine
 10
23.63291320824552
 20
-13.6138754771692
 30
0.0
 11
23.63291320824552
 21
-12.65932797838565
 31
0.0
  0
LINE
  5
BF
330
2
100
AcDbEntity
  8
ADP1DETAIL
100
AcDbLine
 10
19.70953558678237
 20
-12.67878691601719
 30
0.0
 11
19.70953558678237
 21
-14.27082103939073
 31
0.0
  0
LINE
  5
C0
330
2
100
AcDbEntity
  8
ADP1DETAIL
100
AcDbLine
 10
20.45953558678237
 20
-14.27082103939073
 30
0.0
 11
20.45953558678237
 21
-12.67878691601719
 31
0.0
  0
DIMENSION
  5
C1
330
2
100
AcDbEntity
  8
ADPDIM
100
AcDbDimension
  2
*D4
 10
20.08453558678237
 20
-12.44824454986162
 30
0.0
 11
18.83416678987212
 21
-12.44824454986162
 31
0.0
 70
    32
 71
     5
 42
2.500737593820495
  3
STANDARD
100
AcDbAlignedDimension
 13
17.58379799296188
 23
-13.42915484059809
 33
0.0
 14
20.08453558678237
 24
-12.76074454986162
 34
0.0
100
AcDbRotatedDimension
1001
ACAD
1000
DSTYLE
1002
{
1070
   270
1070
     7
1070
   270
1070
     7
1070
   270
1070
     7
1070
   270
1070
     7
1070
    41
1040
0.125
1070
    73
1070
     0
1070
    74
1070
     0
1070
    78
1070
     2
1070
   140
1040
0.125
1070
   141
1040
0.1875
1070
   142
1040
0.125
1070
   147
1040
0.125
1070
   171
1070
     1
1070
   276
1070
     2
1070
   277
1070
     5
1002
}
  0
DIMENSION
  5
CF
330
2
100
AcDbEntity
  8
ADPDIM
100
AcDbDimension
  2
*D5
 10
21.82155847539979
 20
-13.86033231764531
 30
0.0
 11
21.82155847539979
 21
-13.32908231764531
 31
0.0
 70
    32
 71
     5
 42
-1.0
  3
STANDARD
100
AcDbAlignedDimension
 13
22.19655847539979
 23
-12.79783231764531
 33
0.0
 14
23.38702788959211
 24
-13.86033231764531
 34
0.0
 50
90.0
100
AcDbRotatedDimension
1001
ACAD
1000
DSTYLE
1002
{
1070
   270
1070
     7
1070
   270
1070
     7
1070
   270
1070
     7
1070
   270
1070
     7
1070
    41
1040
0.125
1070
    73
1070
     0
1070
    74
1070
     0
1070
    78
1070
     2
1070
   140
1040
0.125
1070
   141
1040
0.1875
1070
   142
1040
0.125
1070
   147
1040
0.125
1070
   171
1070
     1
1070
   276
1070
     2
1070
   277
1070
     5
1002
}
  0
TEXT
  5
E7
330
2
100
AcDbEntity
  8
ADPDIM
100
AcDbText
 10
14.42840344652834
 20
-15.50293853094585
 30
0.0
 40
0.125
  1
J U L I U S  B L U M  &  C O . ,  I N C .      ( 8 0 0 )  5 2 6 - 6 2 9 3        W W W . J U L I U S B L U M . C O M        P A R T  N o .  4 0 2 L
 41
1.25
  7
ARIAL_WIDE
 72
     1
 11
20.95413247108496
 21
-15.37793853094585
 31
0.0
100
AcDbText
 73
     3
  0
ENDSEC
  0
SECTION
  2
OBJECTS
  0
DICTIONARY
  5
1A
330
0
100
AcDbDictionary
281
     1
  3
ACAD_COLOR
350
3BF
  3
ACAD_GROUP
350
18
  3
ACAD_LAYOUT
350
E0
  3
ACAD_MATERIAL
350
3AA
  3
ACAD_MLINESTYLE
350
19
  3
ACAD_PLOTSETTINGS
350
E1
  3
ACAD_PLOTSTYLENAME
350
DE
  3
ACAD_TABLESTYLE
350
3C0
  3
ACAD_VISUALSTYLE
350
3AE
  3
AcDbVariableDictionary
350
1C5
  3
DWGPROPS
350
480
  0
DICTIONARY
  5
44C
330
12
100
AcDbDictionary
280
     1
281
     1
  0
DICTIONARY
  5
17C
330
2
100
AcDbDictionary
280
     1
281
     1
  3
ACAD_LAYOUTSELFREF
360
36F
  0
DICTIONARY
  5
17E
330
8
100
AcDbDictionary
280
     1
281
     1
  3
ACAD_LAYOUTSELFREF
360
370
  0
DICTIONARY
  5
3BF
102
{ACAD_REACTORS
330
1A
102
}
330
1A
100
AcDbDictionary
281
     1
  0
DICTIONARY
  5
18
102
{ACAD_REACTORS
330
1A
102
}
330
1A
100
AcDbDictionary
281
     1
  0
DICTIONARY
  5
E0
102
{ACAD_REACTORS
330
1A
102
}
330
1A
100
AcDbDictionary
281
     1
  3
Layout1
350
E3
  3
Model
350
E2
  0
DICTIONARY
  5
3AA
102
{ACAD_REACTORS
330
1A
102
}
330
1A
100
AcDbDictionary
281
     1
  3
ByBlock
350
3AC
  3
ByLayer
350
3AB
  3
Global
350
3AD
  0
DICTIONARY
  5
19
102
{ACAD_REACTORS
330
1A
102
}
330
1A
100
AcDbDictionary
281
     1
  3
STANDARD
350
1B
  0
DICTIONARY
  5
E1
102
{ACAD_REACTORS
330
1A
102
}
330
1A
100
AcDbDictionary
281
     1
  0
ACDBDICTIONARYWDFLT
  5
DE
102
{ACAD_REACTORS
330
1A
102
}
330
1A
100
AcDbDictionary
281
     1
  3
Normal
350
DF
100
AcDbDictionaryWithDefault
340
DF
  0
DICTIONARY
  5
3C0
102
{ACAD_REACTORS
330
1A
102
}
330
1A
100
AcDbDictionary
281
     1
  3
Standard
350
3C1
  0
DICTIONARY
  5
3AE
102
{ACAD_REACTORS
330
1A
102
}
330
1A
100
AcDbDictionary
281
     1
  3
2dWireframe
350
3B4
  3
3D Hidden
350
3B6
  3
3dWireframe
350
3B5
  3
Basic
350
3B3
  3
Brighten
350
3BA
  3
ColorChange
350
3BE
  3
Conceptual
350
3B7
  3
Dim
350
3B9
  3
Facepattern
350
3BD
  3
Flat
350
3AF
  3
FlatWithEdges
350
3B0
  3
Gouraud
350
3B1
  3
GouraudWithEdges
350
3B2
  3
Linepattern
350
3BC
  3
Realistic
350
3B8
  3
Thicken
350
3BB
  0
DICTIONARY
  5
1C5
102
{ACAD_REACTORS
330
1A
102
}
330
1A
100
AcDbDictionary
281
     1
  3
CTABLESTYLE
350
448
  3
DIMASSOC
350
1C6
  3
INDEXCTL
350
463
  3
SORTENTS
350
462
  0
XRECORD
  5
480
102
{ACAD_REACTORS
330
1A
102
}
330
1A
100
AcDbXrecord
280
     1
  1
DWGPROPS COOKIE
  2

  3

  4

  6

  7

  8
John
  9

300
=
301
=
302
=
303
=
304
=
305
=
306
=
307
=
308
=
309
=
 40
0.0445907291666667
 41
2450386.462396794
 42
2455209.548991285
  1

 90
        0
  0
XRECORD
  5
36F
102
{ACAD_REACTORS
330
17C
102
}
330
17C
100
AcDbXrecord
280
     1
340
2
  0
XRECORD
  5
370
102
{ACAD_REACTORS
330
17E
102
}
330
17E
100
AcDbXrecord
280
     1
340
8
  0
LAYOUT
  5
E3
102
{ACAD_XDICTIONARY
360
483
102
}
102
{ACAD_REACTORS
330
E0
102
}
330
E0
100
AcDbPlotSettings
  1

  2
Fax
  4

  6

 40
0.0
 41
0.0
 42
0.0
 43
0.0
 44
0.0
 45
0.0
 46
0.0
 47
0.0
 48
0.0
 49
0.0
140
0.0
141
0.0
142
1.0
143
1.0
 70
   688
 72
     0
 73
     0
 74
     5
  7
Default R14 pen assignments.ctb
 75
    16
147
1.0
148
0.0
149
0.0
100
AcDbLayout
  1
Layout1
 70
     1
 71
     1
 10
0.0
 20
0.0
 11
12.0
 21
9.0
 12
4.403525741743744E+99
 22
7.061986388769092E+99
 32
0.0
 14
1.000000000000000E+20
 24
1.000000000000000E+20
 34
1.000000000000000E+20
 15
-1.000000000000000E+20
 25
-1.000000000000000E+20
 35
-1.000000000000000E+20
146
0.0
 13
0.0
 23
0.0
 33
0.0
 16
1.0
 26
0.0
 36
0.0
 17
0.0
 27
1.0
 37
0.0
 76
     0
330
8
  0
LAYOUT
  5
E2
102
{ACAD_XDICTIONARY
360
481
102
}
102
{ACAD_REACTORS
330
E0
102
}
330
E0
100
AcDbPlotSettings
  1

  2
Fax
  4

  6

 40
0.0
 41
0.0
 42
0.0
 43
0.0
 44
0.0
 45
0.0
 46
0.0
 47
0.0
 48
0.0
 49
0.0
140
0.0
141
0.0
142
1.0
143
1.0
 70
  1712
 72
     0
 73
     0
 74
     0
  7
Default R14 pen assignments.ctb
 75
     0
147
1.0
148
0.0
149
0.0
100
AcDbLayout
  1
Model
 70
     1
 71
     0
 10
0.0
 20
0.0
 11
12.0
 21
9.0
 12
0.0
 22
0.0
 32
0.0
 14
0.0
 24
0.0
 34
0.0
 15
0.0
 25
0.0
 35
0.0
146
0.0
 13
0.0
 23
0.0
 33
0.0
 16
1.0
 26
0.0
 36
0.0
 17
0.0
 27
1.0
 37
0.0
 76
     0
330
2
331
34B
  0
MATERIAL
  5
3AC
102
{ACAD_XDICTIONARY
360
487
102
}
102
{ACAD_REACTORS
330
3AA
102
}
330
3AA
100
AcDbMaterial
  1
ByBlock
  0
MATERIAL
  5
3AB
102
{ACAD_XDICTIONARY
360
485
102
}
102
{ACAD_REACTORS
330
3AA
102
}
330
3AA
100
AcDbMaterial
  1
ByLayer
  0
MATERIAL
  5
3AD
102
{ACAD_XDICTIONARY
360
489
102
}
102
{ACAD_REACTORS
330
3AA
102
}
330
3AA
100
AcDbMaterial
  1
Global
  0
MLINESTYLE
  5
1B
102
{ACAD_REACTORS
330
19
102
}
330
19
100
AcDbMlineStyle
  2
STANDARD
 70
     0
  3

 62
     0
 51
90.0
 52
90.0
 71
     2
 49
0.5
 62
   256
  6
BYLAYER
 49
-0.5
 62
   256
  6
BYLAYER
  0
ACDBPLACEHOLDER
  5
DF
102
{ACAD_REACTORS
330
DE
102
}
330
DE
  0
TABLESTYLE
  5
3C1
102
{ACAD_XDICTIONARY
360
48B
102
}
102
{ACAD_REACTORS
330
3C0
102
}
330
3C0
100
AcDbTableStyle
  3
Standard
 70
     0
 71
     0
 40
0.06
 41
0.06
280
     0
281
     0
  7
STANDARD
140
0.18
170
     2
 62
     0
 63
     7
283
     0
274
    -2
284
     1
 64
     0
275
    -2
285
     1
 65
     0
276
    -2
286
     1
 66
     0
277
    -2
287
     1
 67
     0
278
    -2
288
     1
 68
     0
279
    -2
289
     1
 69
     0
  7
STANDARD
140
0.25
170
     5
 62
     0
 63
     7
283
     0
274
    -2
284
     1
 64
     0
275
    -2
285
     1
 65
     0
276
    -2
286
     1
 66
     0
277
    -2
287
     1
 67
     0
278
    -2
288
     1
 68
     0
279
    -2
289
     1
 69
     0
  7
STANDARD
140
0.18
170
     5
 62
     0
 63
     7
283
     0
274
    -2
284
     1
 64
     0
275
    -2
285
     1
 65
     0
276
    -2
286
     1
 66
     0
277
    -2
287
     1
 67
     0
278
    -2
288
     1
 68
     0
279
    -2
289
     1
 69
     0
  0
VISUALSTYLE
  5
3B4
102
{ACAD_REACTORS
330
3AE
102
}
330
3AE
100
AcDbVisualStyle
  2
2dWireframe
 70
     4
 71
     0
 72
     2
 73
     0
 90
        0
 40
-0.6
 41
-30.0
 62
     5
 63
     7
 74
     1
 91
        4
 64
     7
 65
   257
 75
     1
175
     1
 42
1.0
 92
        0
 66
   257
 43
1.0
 76
     1
 77
     6
 78
     2
 67
     7
 79
     5
170
     0
171
     0
290
     0
174
     0
 93
        1
 44
0.0
173
     0
291
     0
 45
0.0
1001
ACAD
1000
AcDbSavedByObjectVersion
1070
     0
  0
VISUALSTYLE
  5
3B6
102
{ACAD_REACTORS
330
3AE
102
}
330
3AE
100
AcDbVisualStyle
  2
3D Hidden
 70
     6
 71
     1
 72
     2
 73
     2
 90
        0
 40
-0.6
 41
-30.0
 62
     5
 63
     7
 74
     2
 91
        2
 64
     7
 65
   257
 75
     2
175
     1
 42
40.0
 92
        0
 66
   257
 43
1.0
 76
     1
 77
     6
 78
     2
 67
     7
 79
     3
170
     0
171
     0
290
     0
174
     0
 93
        1
 44
0.0
173
     0
291
     0
 45
0.0
1001
ACAD
1000
AcDbSavedByObjectVersion
1070
     0
  0
VISUALSTYLE
  5
3B5
102
{ACAD_REACTORS
330
3AE
102
}
330
3AE
100
AcDbVisualStyle
  2
3dWireframe
 70
     5
 71
     0
 72
     2
 73
     0
 90
        0
 40
-0.6
 41
-30.0
 62
     5
 63
     7
 74
     1
 91
        4
 64
     7
 65
   257
 75
     1
175
     1
 42
1.0
 92
        0
 66
   257
 43
1.0
 76
     1
 77
     6
 78
     2
 67
     7
 79
     5
170
     0
171
     0
290
     0
174
     0
 93
        1
 44
0.0
173
     0
291
     0
 45
0.0
1001
ACAD
1000
AcDbSavedByObjectVersion
1070
     0
  0
VISUALSTYLE
  5
3B3
102
{ACAD_REACTORS
330
3AE
102
}
330
3AE
100
AcDbVisualStyle
  2
Basic
 70
     7
 71
     1
 72
     0
 73
     1
 90
        0
 40
-0.6
 41
-30.0
 62
     5
 63
     7
 74
     0
 91
        4
 64
     7
 65
   257
 75
     1
175
     1
 42
1.0
 92
        8
 66
     7
 43
1.0
 76
     1
 77
     6
 78
     2
 67
     7
 79
     5
170
     0
171
     0
290
     0
174
     0
 93
        1
 44
0.0
173
     0
291
     1
 45
0.0
1001
ACAD
1000
AcDbSavedByObjectVersion
1070
     0
  0
VISUALSTYLE
  5
3BA
102
{ACAD_REACTORS
330
3AE
102
}
330
3AE
100
AcDbVisualStyle
  2
Brighten
 70
    12
 71
     2
 72
     2
 73
     0
 90
        0
 40
-0.6
 41
-30.0
 62
     5
 63
     7
 74
     1
 91
        4
 64
     7
 65
   257
 75
     1
175
     1
 42
1.0
 92
        8
 66
     7
 43
1.0
 76
     1
 77
     6
 78
     2
 67
     7
 79
     5
170
     0
171
     0
290
     0
174
     0
 93
        1
 44
50.0
173
     0
291
     1
 45
0.0
1001
ACAD
1000
AcDbSavedByObjectVersion
1070
     0
  0
VISUALSTYLE
  5
3BE
102
{ACAD_REACTORS
330
3AE
102
}
330
3AE
100
AcDbVisualStyle
  2
ColorChange
 70
    16
 71
     2
 72
     2
 73
     3
 90
        0
 40
-0.6
 41
-30.0
 62
     5
 63
     8
 74
     1
 91
        4
 64
     7
 65
   257
 75
     1
175
     1
 42
1.0
 92
        8
 66
     8
 43
1.0
 76
     1
 77
     6
 78
     2
 67
     7
 79
     5
170
     0
171
     0
290
     0
174
     0
 93
        1
 44
0.0
173
     0
291
     1
 45
0.0
1001
ACAD
1000
AcDbSavedByObjectVersion
1070
     0
  0
VISUALSTYLE
  5
3B7
102
{ACAD_REACTORS
330
3AE
102
}
330
3AE
100
AcDbVisualStyle
  2
Conceptual
 70
     9
 71
     3
 72
     2
 73
     0
 90
        0
 40
-0.6
 41
-30.0
 62
     5
 63
     7
 74
     2
 91
        2
 64
     7
 65
   257
 75
     1
175
     1
 42
40.0
 92
        8
 66
     7
 43
1.0
 76
     1
 77
     6
 78
     2
 67
     7
 79
     3
170
     0
171
     0
290
     0
174
     0
 93
        1
 44
0.0
173
     0
291
     0
 45
0.0
1001
ACAD
1000
AcDbSavedByObjectVersion
1070
     0
  0
VISUALSTYLE
  5
3B9
102
{ACAD_REACTORS
330
3AE
102
}
330
3AE
100
AcDbVisualStyle
  2
Dim
 70
    11
 71
     2
 72
     2
 73
     0
 90
        0
 40
-0.6
 41
-30.0
 62
     5
 63
     7
 74
     1
 91
        4
 64
     7
 65
   257
 75
     1
175
     1
 42
1.0
 92
        8
 66
     7
 43
1.0
 76
     1
 77
     6
 78
     2
 67
     7
 79
     5
170
     0
171
     0
290
     0
174
     0
 93
        1
 44
-50.0
173
     0
291
     1
 45
0.0
1001
ACAD
1000
AcDbSavedByObjectVersion
1070
     0
  0
VISUALSTYLE
  5
3BD
102
{ACAD_REACTORS
330
3AE
102
}
330
3AE
100
AcDbVisualStyle
  2
Facepattern
 70
    15
 71
     2
 72
     2
 73
     0
 90
        0
 40
-0.6
 41
-30.0
 62
     5
 63
     7
 74
     1
 91
        4
 64
     7
 65
   257
 75
     1
175
     1
 42
1.0
 92
        8
 66
     7
 43
1.0
 76
     1
 77
     6
 78
     2
 67
     7
 79
     5
170
     0
171
     0
290
     0
174
     0
 93
        1
 44
0.0
173
     0
291
     1
 45
0.0
1001
ACAD
1000
AcDbSavedByObjectVersion
1070
     0
  0
VISUALSTYLE
  5
3AF
102
{ACAD_REACTORS
330
3AE
102
}
330
3AE
100
AcDbVisualStyle
  2
Flat
 70
     0
 71
     2
 72
     1
 73
     1
 90
        2
 40
-0.6
 41
30.0
 62
     5
 63
     7
 74
     0
 91
        4
 64
     7
 65
   257
 75
     1
175
     1
 42
1.0
 92
        8
 66
     7
 43
1.0
 76
     1
 77
     6
 78
     2
 67
     7
 79
     5
170
     0
171
     0
290
     0
174
     0
 93
       13
 44
0.0
173
     0
291
     1
 45
0.0
1001
ACAD
1000
AcDbSavedByObjectVersion
1070
     0
  0
VISUALSTYLE
  5
3B0
102
{ACAD_REACTORS
330
3AE
102
}
330
3AE
100
AcDbVisualStyle
  2
FlatWithEdges
 70
     1
 71
     2
 72
     1
 73
     1
 90
        2
 40
-0.6
 41
30.0
 62
     5
 63
     7
 74
     1
 91
        4
 64
     7
 65
   257
 75
     1
175
     1
 42
1.0
 92
        0
 66
   257
 43
1.0
 76
     1
 77
     6
 78
     2
 67
     7
 79
     5
170
     0
171
     0
290
     0
174
     0
 93
       13
 44
0.0
173
     0
291
     1
 45
0.0
1001
ACAD
1000
AcDbSavedByObjectVersion
1070
     0
  0
VISUALSTYLE
  5
3B1
102
{ACAD_REACTORS
330
3AE
102
}
330
3AE
100
AcDbVisualStyle
  2
Gouraud
 70
     2
 71
     2
 72
     2
 73
     1
 90
        2
 40
-0.6
 41
30.0
 62
     5
 63
     7
 74
     0
 91
        4
 64
     7
 65
   257
 75
     1
175
     1
 42
1.0
 92
        0
 66
     7
 43
1.0
 76
     1
 77
     6
 78
     2
 67
     7
 79
     5
170
     0
171
     0
290
     0
174
     0
 93
       13
 44
0.0
173
     0
291
     1
 45
0.0
1001
ACAD
1000
AcDbSavedByObjectVersion
1070
     0
  0
VISUALSTYLE
  5
3B2
102
{ACAD_REACTORS
330
3AE
102
}
330
3AE
100
AcDbVisualStyle
  2
GouraudWithEdges
 70
     3
 71
     2
 72
     2
 73
     1
 90
        2
 40
-0.6
 41
30.0
 62
     5
 63
     7
 74
     1
 91
        4
 64
     7
 65
   257
 75
     1
175
     1
 42
1.0
 92
        0
 66
   257
 43
1.0
 76
     1
 77
     6
 78
     2
 67
     7
 79
     5
170
     0
171
     0
290
     0
174
     0
 93
       13
 44
0.0
173
     0
291
     1
 45
0.0
1001
ACAD
1000
AcDbSavedByObjectVersion
1070
     0
  0
VISUALSTYLE
  5
3BC
102
{ACAD_REACTORS
330
3AE
102
}
330
3AE
100
AcDbVisualStyle
  2
Linepattern
 70
    14
 71
     2
 72
     2
 73
     0
 90
        0
 40
-0.6
 41
-30.0
 62
     5
 63
     7
 74
     1
 91
        4
 64
     7
 65
   257
 75
     7
175
     7
 42
1.0
 92
        8
 66
     7
 43
1.0
 76
     1
 77
     6
 78
     2
 67
     7
 79
     5
170
     0
171
     0
290
     0
174
     0
 93
        1
 44
0.0
173
     0
291
     1
 45
0.0
1001
ACAD
1000
AcDbSavedByObjectVersion
1070
     0
  0
VISUALSTYLE
  5
3B8
102
{ACAD_REACTORS
330
3AE
102
}
330
3AE
100
AcDbVisualStyle
  2
Realistic
 70
     8
 71
     2
 72
     2
 73
     0
 90
        0
 40
-0.6
 41
-30.0
 62
     5
 63
     7
 74
     1
 91
        0
 64
     7
 65
   257
 75
     1
175
     1
 42
1.0
 92
        8
 66
     8
 43
1.0
 76
     1
 77
     6
 78
     2
 67
     7
 79
     5
170
     0
171
     0
290
     0
174
     0
 93
       13
 44
0.0
173
     0
291
     0
 45
0.0
1001
ACAD
1000
AcDbSavedByObjectVersion
1070
     0
  0
VISUALSTYLE
  5
3BB
102
{ACAD_REACTORS
330
3AE
102
}
330
3AE
100
AcDbVisualStyle
  2
Thicken
 70
    13
 71
     2
 72
     2
 73
     0
 90
        0
 40
-0.6
 41
-30.0
 62
     5
 63
     7
 74
     1
 91
        4
 64
     7
 65
   257
 75
     1
175
     1
 42
1.0
 92
       12
 66
     7
 43
1.0
 76
     1
 77
     6
 78
     2
 67
     7
 79
     5
170
     0
171
     0
290
     0
174
     0
 93
        1
 44
0.0
173
     0
291
     1
 45
0.0
1001
ACAD
1000
AcDbSavedByObjectVersion
1070
     0
  0
DICTIONARYVAR
  5
448
102
{ACAD_REACTORS
330
1C5
102
}
330
1C5
100
DictionaryVariables
280
     0
  1
STANDARD
  0
DICTIONARYVAR
  5
1C6
102
{ACAD_REACTORS
330
1C5
102
}
330
1C5
100
DictionaryVariables
280
     0
  1
1
  0
DICTIONARYVAR
  5
463
102
{ACAD_REACTORS
330
1C5
102
}
330
1C5
100
DictionaryVariables
280
     0
  1
0
  0
DICTIONARYVAR
  5
462
102
{ACAD_REACTORS
330
1C5
102
}
330
1C5
100
DictionaryVariables
280
     0
  1
127
  0
DICTIONARY
  5
483
330
E3
100
AcDbDictionary
280
     1
281
     1
  3
ACAD_XREC_ROUNDTRIP
360
484
  0
DICTIONARY
  5
481
330
E2
100
AcDbDictionary
280
     1
281
     1
  3
ACAD_XREC_ROUNDTRIP
360
482
  0
DICTIONARY
  5
487
330
3AC
100
AcDbDictionary
280
     1
281
     1
  3
ACAD_XREC_ROUNDTRIP
360
488
  0
DICTIONARY
  5
485
330
3AB
100
AcDbDictionary
280
     1
281
     1
  3
ACAD_XREC_ROUNDTRIP
360
486
  0
DICTIONARY
  5
489
330
3AD
100
AcDbDictionary
280
     1
281
     1
  3
ACAD_XREC_ROUNDTRIP
360
48A
  0
DICTIONARY
  5
48B
330
3C1
100
AcDbDictionary
280
     1
281
     1
  3
ACAD_XREC_ROUNDTRIP
360
48C
  0
XRECORD
  5
484
102
{ACAD_REACTORS
330
483
102
}
330
483
100
AcDbXrecord
280
     1
102
SHADEPLOT
 70
     0
102
SHADEPLOTRESLEVEL
 70
     2
102
SHADEPLOTCUSTOMDPI
 70
   300
  0
XRECORD
  5
482
102
{ACAD_REACTORS
330
481
102
}
330
481
100
AcDbXrecord
280
     1
102
SHADEPLOT
 70
     0
102
SHADEPLOTRESLEVEL
 70
     2
102
SHADEPLOTCUSTOMDPI
 70
   300
  0
XRECORD
  5
488
102
{ACAD_REACTORS
330
487
102
}
330
487
100
AcDbXrecord
280
     1
102
MATERIAL
148
0.0
149
0.0
149
0.0
 93
        0
 94
       63
282
     0
 72
     1
 77
     1
171
     1
175
     1
179
     1
273
     0
  0
XRECORD
  5
486
102
{ACAD_REACTORS
330
485
102
}
330
485
100
AcDbXrecord
280
     1
102
MATERIAL
148
0.0
149
0.0
149
0.0
 93
        0
 94
       63
282
     0
 72
     1
 77
     1
171
     1
175
     1
179
     1
273
     0
  0
XRECORD
  5
48A
102
{ACAD_REACTORS
330
489
102
}
330
489
100
AcDbXrecord
280
     1
102
MATERIAL
148
0.0
149
0.0
149
0.0
 93
        0
 94
       63
282
     0
 72
     1
 77
     1
171
     1
175
     1
179
     1
273
     0
  0
XRECORD
  5
48C
102
{ACAD_REACTORS
330
48B
102
}
330
48B
100
AcDbXrecord
280
     1
102
ACAD_ROUNDTRIP_PRE2007_TABLESTYLE
 90
      512
 91
        0
  1

 92
      512
 93
        0
  2

 94
      512
 95
        0
  3

  0
ENDSEC
  0
EOF
