  0
SECTION
  2
HEADER
  9
$ACADVER
  1
AC1014
  9
$ACADMAINTVER
 70
     9
  9
$DWGCODEPAGE
  3
ANSI_1252
  9
$INSBASE
 10
14.02513233958117
 20
-12.66941802116746
 30
0.0
  9
$EXTMIN
 10
7.903587500323142
 20
-13.45486380129232
 30
0.0
  9
$EXTMAX
 10
17.55564880659872
 20
-9.584971077434818
 30
0.0
  9
$LIMMIN
 10
0.0
 20
0.0
  9
$LIMMAX
 10
36.0
 20
36.0
  9
$ORTHOMODE
 70
     1
  9
$REGENMODE
 70
     1
  9
$FILLMODE
 70
     1
  9
$QTEXTMODE
 70
     0
  9
$MIRRTEXT
 70
     1
  9
$DRAGMODE
 70
     0
  9
$LTSCALE
 40
1.0
  9
$OSMODE
 70
    37
  9
$ATTMODE
 70
     1
  9
$TEXTSIZE
 40
0.2
  9
$TRACEWID
 40
0.05
  9
$TEXTSTYLE
  7
STANDARD
  9
$CLAYER
  8
ADP1DETAIL
  9
$CELTYPE
  6
BYLAYER
  9
$CECOLOR
 62
   256
  9
$CELTSCALE
 40
1.0
  9
$DELOBJ
 70
     1
  9
$DISPSILH
 70
     0
  9
$DIMSCALE
 40
1.0
  9
$DIMASZ
 40
0.125
  9
$DIMEXO
 40
0.0625
  9
$DIMDLI
 40
0.38
  9
$DIMRND
 40
0.0
  9
$DIMDLE
 40
0.0
  9
$DIMEXE
 40
0.18
  9
$DIMTP
 40
0.0
  9
$DIMTM
 40
0.0
  9
$DIMTXT
 40
0.125
  9
$DIMCEN
 40
0.1875
  9
$DIMTSZ
 40
0.125
  9
$DIMTOL
 70
     0
  9
$DIMLIM
 70
     0
  9
$DIMTIH
 70
     0
  9
$DIMTOH
 70
     0
  9
$DIMSE1
 70
     0
  9
$DIMSE2
 70
     0
  9
$DIMTAD
 70
     0
  9
$DIMZIN
 70
     3
  9
$DIMBLK
  1

  9
$DIMASO
 70
     1
  9
$DIMSHO
 70
     1
  9
$DIMPOST
  1

  9
$DIMAPOST
  1

  9
$DIMALT
 70
     0
  9
$DIMALTD
 70
     1
  9
$DIMALTF
 40
25.4
  9
$DIMLFAC
 40
1.0
  9
$DIMTOFL
 70
     0
  9
$DIMTVP
 40
0.0
  9
$DIMTIX
 70
     0
  9
$DIMSOXD
 70
     0
  9
$DIMSAH
 70
     0
  9
$DIMBLK1
  1

  9
$DIMBLK2
  1

  9
$DIMSTYLE
  2
STANDARD
  9
$DIMCLRD
 70
     0
  9
$DIMCLRE
 70
     0
  9
$DIMCLRT
 70
     0
  9
$DIMTFAC
 40
1.0
  9
$DIMGAP
 40
0.125
  9
$DIMJUST
 70
     0
  9
$DIMSD1
 70
     0
  9
$DIMSD2
 70
     0
  9
$DIMTOLJ
 70
     1
  9
$DIMTZIN
 70
     0
  9
$DIMALTZ
 70
     0
  9
$DIMALTTZ
 70
     0
  9
$DIMFIT
 70
     3
  9
$DIMUPT
 70
     0
  9
$DIMUNIT
 70
     2
  9
$DIMDEC
 70
     4
  9
$DIMTDEC
 70
     4
  9
$DIMALTU
 70
     2
  9
$DIMALTTD
 70
     2
  9
$DIMTXSTY
  7
STANDARD
  9
$DIMAUNIT
 70
     0
  9
$LUNITS
 70
     5
  9
$LUPREC
 70
     4
  9
$SKETCHINC
 40
0.1
  9
$FILLETRAD
 40
0.0
  9
$AUNITS
 70
     0
  9
$AUPREC
 70
     0
  9
$MENU
  1
acad
  9
$ELEVATION
 40
0.0
  9
$PELEVATION
 40
0.0
  9
$THICKNESS
 40
0.0
  9
$LIMCHECK
 70
     0
  9
$BLIPMODE
 70
     0
  9
$CHAMFERA
 40
0.0
  9
$CHAMFERB
 40
0.0
  9
$CHAMFERC
 40
0.0
  9
$CHAMFERD
 40
0.0
  9
$SKPOLY
 70
     0
  9
$TDCREATE
 40
2450374.637116504
  9
$TDUPDATE
 40
2452297.069531065
  9
$TDINDWG
 40
0.0066156366
  9
$TDUSRTIMER
 40
0.0066156366
  9
$USRTIMER
 70
     1
  9
$ANGBASE
 50
0.0
  9
$ANGDIR
 70
     0
  9
$PDMODE
 70
     0
  9
$PDSIZE
 40
0.0
  9
$PLINEWID
 40
0.0
  9
$COORDS
 70
     2
  9
$SPLFRAME
 70
     0
  9
$SPLINETYPE
 70
     6
  9
$SPLINESEGS
 70
     8
  9
$ATTDIA
 70
     0
  9
$ATTREQ
 70
     1
  9
$HANDLING
 70
 22529
  9
$HANDSEED
  5
2AF
  9
$SURFTAB1
 70
     6
  9
$SURFTAB2
 70
     6
  9
$SURFTYPE
 70
     6
  9
$SURFU
 70
     6
  9
$SURFV
 70
     6
  9
$UCSNAME
  2

  9
$UCSORG
 10
0.0
 20
0.0
 30
0.0
  9
$UCSXDIR
 10
1.0
 20
0.0
 30
0.0
  9
$UCSYDIR
 10
0.0
 20
1.0
 30
0.0
  9
$PUCSNAME
  2

  9
$PUCSORG
 10
0.0
 20
0.0
 30
0.0
  9
$PUCSXDIR
 10
1.0
 20
0.0
 30
0.0
  9
$PUCSYDIR
 10
0.0
 20
1.0
 30
0.0
  9
$USERI1
 70
     0
  9
$USERI2
 70
     0
  9
$USERI3
 70
     0
  9
$USERI4
 70
     0
  9
$USERI5
 70
     0
  9
$USERR1
 40
0.0
  9
$USERR2
 40
0.0
  9
$USERR3
 40
0.0
  9
$USERR4
 40
0.0
  9
$USERR5
 40
0.0
  9
$WORLDVIEW
 70
     1
  9
$SHADEDGE
 70
     3
  9
$SHADEDIF
 70
    70
  9
$TILEMODE
 70
     1
  9
$MAXACTVP
 70
    15
  9
$PINSBASE
 10
0.0
 20
0.0
 30
0.0
  9
$PLIMCHECK
 70
     0
  9
$PEXTMIN
 10
1.000000000000000E+20
 20
1.000000000000000E+20
 30
1.000000000000000E+20
  9
$PEXTMAX
 10
-1.000000000000000E+20
 20
-1.000000000000000E+20
 30
-1.000000000000000E+20
  9
$PLIMMIN
 10
0.0
 20
0.0
  9
$PLIMMAX
 10
12.0
 20
9.0
  9
$UNITMODE
 70
     0
  9
$VISRETAIN
 70
     0
  9
$PLINEGEN
 70
     0
  9
$PSLTSCALE
 70
     1
  9
$TREEDEPTH
 70
  3020
  9
$PICKSTYLE
 70
     1
  9
$CMLSTYLE
  2
STANDARD
  9
$CMLJUST
 70
     0
  9
$CMLSCALE
 40
1.0
  9
$PROXYGRAPHICS
 70
     1
  9
$MEASUREMENT
 70
     0
  0
ENDSEC
  0
SECTION
  2
CLASSES
  0
CLASS
  1
ACDBDICTIONARYWDFLT
  2
AcDbDictionaryWithDefault
  3
AutoCAD 2000
 90
        0
280
     0
281
     0
  0
CLASS
  1
ACDBPLACEHOLDER
  2
AcDbPlaceHolder
  3
AutoCAD 2000
 90
        0
280
     0
281
     0
  0
CLASS
  1
LAYOUT
  2
AcDbLayout
  3
AutoCAD 2000
 90
        0
280
     0
281
     0
  0
CLASS
  1
DICTIONARYVAR
  2
AcDbDictionaryVar
  3
AutoCAD 2000
 90
        0
280
     0
281
     0
  0
CLASS
  1
LONG_TRANSACTION
  2
AcDbLongTransaction
  3
AutoCAD 2000
 90
        0
280
     0
281
     0
  0
CLASS
  1
LWPOLYLINE
  2
AcDbPolyline
  3
AutoCAD 2000
 90
        0
280
     0
281
     1
  0
CLASS
  1
HATCH
  2
AcDbHatch
  3
AutoCAD 2000
 90
        0
280
     0
281
     1
  0
CLASS
  1
XRECORD
  2
AcDbXrecord
  3
AutoCAD 2000
 90
        0
280
     0
281
     0
  0
CLASS
  1
LONG_TRANSACTION
  2
AcDbLongTransaction
  3
AutoCAD 2000
 90
        0
280
     0
281
     0
  0
CLASS
  1
LWPOLYLINE
  2
AcDbPolyline
  3
AutoCAD 2000
 90
        0
280
     0
281
     1
  0
CLASS
  1
HATCH
  2
AcDbHatch
  3
AutoCAD 2000
 90
        0
280
     0
281
     1
  0
CLASS
  1
XRECORD
  2
AcDbXrecord
  3
AutoCAD 2000
 90
        0
280
     0
281
     0
  0
CLASS
  1
LONG_TRANSACTION
  2
AcDbLongTransaction
  3
AutoCAD 2000
 90
        0
280
     0
281
     0
  0
CLASS
  1
LWPOLYLINE
  2
AcDbPolyline
  3
AutoCAD 2000
 90
        0
280
     0
281
     1
  0
CLASS
  1
HATCH
  2
AcDbHatch
  3
AutoCAD 2000
 90
        0
280
     0
281
     1
  0
CLASS
  1
XRECORD
  2
AcDbXrecord
  3
AutoCAD 2000
 90
        0
280
     0
281
     0
  0
CLASS
  1
LONG_TRANSACTION
  2
AcDbLongTransaction
  3
AutoCAD 2000
 90
        0
280
     0
281
     0
  0
CLASS
  1
LWPOLYLINE
  2
AcDbPolyline
  3
AutoCAD 2000
 90
        0
280
     0
281
     1
  0
CLASS
  1
HATCH
  2
AcDbHatch
  3
AutoCAD 2000
 90
        0
280
     0
281
     1
  0
CLASS
  1
XRECORD
  2
AcDbXrecord
  3
AutoCAD 2000
 90
        0
280
     0
281
     0
  0
CLASS
  1
LONG_TRANSACTION
  2
AcDbLongTransaction
  3
AutoCAD 2000
 90
        0
280
     0
281
     0
  0
CLASS
  1
LWPOLYLINE
  2
AcDbPolyline
  3
AutoCAD 2000
 90
        0
280
     0
281
     1
  0
CLASS
  1
HATCH
  2
AcDbHatch
  3
AutoCAD 2000
 90
        0
280
     0
281
     1
  0
CLASS
  1
XRECORD
  2
AcDbXrecord
  3
AutoCAD 2000
 90
        0
280
     0
281
     0
  0
CLASS
  1
LONG_TRANSACTION
  2
AcDbLongTransaction
  3
AutoCAD 2000
 90
        0
280
     0
281
     0
  0
CLASS
  1
LWPOLYLINE
  2
AcDbPolyline
  3
AutoCAD 2000
 90
        0
280
     0
281
     1
  0
CLASS
  1
HATCH
  2
AcDbHatch
  3
AutoCAD 2000
 90
        0
280
     0
281
     1
  0
CLASS
  1
XRECORD
  2
AcDbXrecord
  3
AutoCAD 2000
 90
        0
280
     0
281
     0
  0
ENDSEC
  0
SECTION
  2
TABLES
  0
TABLE
  2
VPORT
  5
8
330
0
100
AcDbSymbolTable
 70
     2
  0
VPORT
  5
28C
330
8
100
AcDbSymbolTableRecord
100
AcDbViewportTableRecord
  2
*ACTIVE
 70
     0
 10
0.0
 20
0.0
 11
1.0
 21
1.0
 12
12.73068245073161
 22
-11.5213908114018
 13
0.0
 23
0.0
 14
0.5740882589684922
 24
0.5740882589684922
 15
0.5
 25
0.5
 16
0.0
 26
0.0
 36
1.0
 17
0.0
 27
0.0
 37
0.0
 40
6.176663657733939
 41
1.570528967254408
 42
50.0
 43
0.0
 44
0.0
 50
0.0
 51
0.0
 71
     0
 72
   100
 73
     1
 74
     0
 75
     0
 76
     0
 77
     0
 78
     0
  0
ENDTAB
  0
TABLE
  2
LTYPE
  5
5
330
0
100
AcDbSymbolTable
 70
     2
  0
LTYPE
  5
12
330
5
100
AcDbSymbolTableRecord
100
AcDbLinetypeTableRecord
  2
BYBLOCK
 70
     0
  3

 72
    65
 73
     0
 40
0.0
  0
LTYPE
  5
13
330
5
100
AcDbSymbolTableRecord
100
AcDbLinetypeTableRecord
  2
BYLAYER
 70
     0
  3

 72
    65
 73
     0
 40
0.0
  0
LTYPE
  5
14
330
5
100
AcDbSymbolTableRecord
100
AcDbLinetypeTableRecord
  2
CONTINUOUS
 70
     0
  3
Solid line
 72
    65
 73
     0
 40
0.0
  0
LTYPE
  5
23
330
5
100
AcDbSymbolTableRecord
100
AcDbLinetypeTableRecord
  2
HIDDEN2
 70
     0
  3
_ _ _ _ _ _ _ _ _ _ _ _ _ _ _ _ _ _ _ _ _ _ _ _
 72
    65
 73
     2
 40
0.1875
 49
0.125
 74
     0
 49
-0.0625
 74
     0
  0
ENDTAB
  0
TABLE
  2
LAYER
  5
2
330
0
100
AcDbSymbolTable
 70
     6
  0
LAYER
  5
F
330
2
100
AcDbSymbolTableRecord
100
AcDbLayerTableRecord
  2
0
 70
     0
 62
     7
  6
CONTINUOUS
  0
LAYER
  5
25
330
2
100
AcDbSymbolTableRecord
100
AcDbLayerTableRecord
  2
ADP2DETAILX
 70
     0
 62
     5
  6
CONTINUOUS
  0
LAYER
  5
26
330
2
100
AcDbSymbolTableRecord
100
AcDbLayerTableRecord
  2
ADPDIM1
 70
     0
 62
     3
  6
CONTINUOUS
  0
LAYER
  5
27
330
2
100
AcDbSymbolTableRecord
100
AcDbLayerTableRecord
  2
ADP1DETAIL
 70
     0
 62
     7
  6
CONTINUOUS
  0
LAYER
  5
28
330
2
100
AcDbSymbolTableRecord
100
AcDbLayerTableRecord
  2
DEFPOINTS
 70
     0
 62
     7
  6
CONTINUOUS
  0
LAYER
  5
118
330
2
100
AcDbSymbolTableRecord
100
AcDbLayerTableRecord
  2
ADPDIM
 70
     0
 62
     3
  6
CONTINUOUS
  0
ENDTAB
  0
TABLE
  2
STYLE
  5
3
330
0
100
AcDbSymbolTable
 70
     2
  0
STYLE
  5
10
330
3
100
AcDbSymbolTableRecord
100
AcDbTextStyleTableRecord
  2
STANDARD
 70
     0
 40
0.0
 41
1.0
 50
0.0
 71
     0
 42
0.2
  3
txt
  4

  0
STYLE
  5
119
330
3
100
AcDbSymbolTableRecord
100
AcDbTextStyleTableRecord
  2
ARIAL_WIDE
 70
     0
 40
0.0
 41
1.25
 50
0.0
 71
     0
 42
0.2
  3
ARIAL.TTF
  4

1001
ACAD
1000
Arial
1071
       34
  0
ENDTAB
  0
TABLE
  2
VIEW
  5
6
330
0
100
AcDbSymbolTable
 70
     0
  0
ENDTAB
  0
TABLE
  2
UCS
  5
7
330
0
100
AcDbSymbolTable
 70
     0
  0
ENDTAB
  0
TABLE
  2
APPID
  5
9
330
0
100
AcDbSymbolTable
 70
     1
  0
APPID
  5
11
330
9
100
AcDbSymbolTableRecord
100
AcDbRegAppTableRecord
  2
ACAD
 70
     0
  0
ENDTAB
  0
TABLE
  2
DIMSTYLE
  5
A
330
0
100
AcDbSymbolTable
 70
     1
  0
DIMSTYLE
105
10C
330
A
100
AcDbSymbolTableRecord
100
AcDbDimStyleTableRecord
  2
STANDARD
 70
     0
  3

  4

  5

  6

  7

 40
1.0
 41
0.18
 42
0.0625
 43
0.38
 44
0.18
 45
0.0
 46
0.0
 47
0.0
 48
0.0
140
0.18
141
0.09
142
0.0
143
25.4
144
1.0
145
0.0
146
1.0
147
0.09
 71
     0
 72
     0
 73
     1
 74
     1
 75
     0
 76
     0
 77
     0
 78
     0
170
     0
171
     2
172
     0
173
     0
174
     0
175
     0
176
     0
177
     0
178
     0
270
     2
271
     4
272
     4
273
     2
274
     2
340
10
275
     0
280
     0
281
     0
282
     0
283
     1
284
     0
285
     0
286
     0
287
     3
288
     0
  0
ENDTAB
  0
TABLE
  2
BLOCK_RECORD
  5
1
330
0
100
AcDbSymbolTable
 70
     3
  0
BLOCK_RECORD
  5
18
102
{ACAD_XDICTIONARY
360
16E
102
}
330
1
100
AcDbSymbolTableRecord
100
AcDbBlockTableRecord
  2
*MODEL_SPACE
  0
BLOCK_RECORD
  5
15
102
{ACAD_XDICTIONARY
360
16C
102
}
330
1
100
AcDbSymbolTableRecord
100
AcDbBlockTableRecord
  2
*PAPER_SPACE
  0
BLOCK_RECORD
  5
20
330
1
100
AcDbSymbolTableRecord
100
AcDbBlockTableRecord
  2
*D0
  0
BLOCK_RECORD
  5
21
330
1
100
AcDbSymbolTableRecord
100
AcDbBlockTableRecord
  2
*D1
  0
BLOCK_RECORD
  5
22
330
1
100
AcDbSymbolTableRecord
100
AcDbBlockTableRecord
  2
*D2
  0
ENDTAB
  0
ENDSEC
  0
SECTION
  2
BLOCKS
  0
BLOCK
  5
2B
330
18
100
AcDbEntity
  8
0
100
AcDbBlockBegin
  2
*MODEL_SPACE
 70
     0
 10
0.0
 20
0.0
 30
0.0
  3
*MODEL_SPACE
  1

  0
ENDBLK
  5
2C
330
18
100
AcDbEntity
  8
0
100
AcDbBlockEnd
  0
BLOCK
  5
29
330
15
100
AcDbEntity
 67
     1
  8
0
100
AcDbBlockBegin
  2
*PAPER_SPACE
 70
     0
 10
0.0
 20
0.0
 30
0.0
  3
*PAPER_SPACE
  1

  0
ENDBLK
  5
2A
330
15
100
AcDbEntity
 67
     1
  8
0
100
AcDbBlockEnd
  0
BLOCK
  5
9D
330
20
100
AcDbEntity
  8
0
100
AcDbBlockBegin
  2
*D0
 70
     1
 10
0.0
 20
0.0
 30
0.0
  3
*D0
  1

  0
LINE
  5
9E
330
20
100
AcDbEntity
  8
0
  6
BYBLOCK
 62
     0
100
AcDbLine
 10
12.48011815346093
 20
-11.63646081111247
 30
0.0
 11
12.48011815346093
 21
-11.34402084530202
 31
0.0
  0
LINE
  5
9F
330
20
100
AcDbEntity
  8
0
  6
BYBLOCK
 62
     0
100
AcDbLine
 10
12.97911815346093
 20
-11.63646081111247
 30
0.0
 11
12.97911815346093
 21
-11.34402084530202
 31
0.0
  0
LINE
  5
A0
330
20
100
AcDbEntity
  8
0
  6
BYBLOCK
 62
     0
100
AcDbLine
 10
12.48011815346093
 20
-11.52402084530202
 30
0.0
 11
12.23011815346093
 21
-11.52402084530202
 31
0.0
  0
LINE
  5
A1
330
20
100
AcDbEntity
  8
0
  6
BYBLOCK
 62
     0
100
AcDbLine
 10
12.97911815346093
 20
-11.52402084530202
 30
0.0
 11
13.22911815346093
 21
-11.52402084530202
 31
0.0
  0
LINE
  5
A2
330
20
100
AcDbEntity
  8
0
  6
BYBLOCK
 62
     0
100
AcDbLine
 10
12.35511815346093
 20
-11.64902084530202
 30
0.0
 11
12.60511815346093
 21
-11.39902084530203
 31
0.0
  0
LINE
  5
A3
330
20
100
AcDbEntity
  8
0
  6
BYBLOCK
 62
     0
100
AcDbLine
 10
12.85411815346093
 20
-11.64902084530202
 30
0.0
 11
13.10411815346093
 21
-11.39902084530203
 31
0.0
  0
TEXT
  5
A4
330
20
100
AcDbEntity
  8
0
  6
BYBLOCK
 62
     0
100
AcDbText
 10
13.35411815346093
 20
-11.58652084530203
 30
0.0
 40
0.125
  1
1/2
 72
     1
 11
13.49995148679426
 21
-11.52402084530202
 31
0.0
100
AcDbText
 73
     2
  0
POINT
  5
A5
330
20
100
AcDbEntity
  8
DEFPOINTS
  6
BYBLOCK
 62
     0
100
AcDbPoint
 10
12.48011815346093
 20
-11.69896081111247
 30
0.0
  0
POINT
  5
A6
330
20
100
AcDbEntity
  8
DEFPOINTS
  6
BYBLOCK
 62
     0
100
AcDbPoint
 10
12.97911815346093
 20
-11.69896081111247
 30
0.0
  0
POINT
  5
A7
330
20
100
AcDbEntity
  8
DEFPOINTS
  6
BYBLOCK
 62
     0
100
AcDbPoint
 10
12.97911815346093
 20
-11.52402084530202
 30
0.0
  0
ENDBLK
  5
A8
330
20
100
AcDbEntity
  8
0
100
AcDbBlockEnd
  0
BLOCK
  5
A9
330
21
100
AcDbEntity
  8
0
100
AcDbBlockBegin
  2
*D1
 70
     1
 10
0.0
 20
0.0
 30
0.0
  3
*D1
  1

  0
LINE
  5
AA
330
21
100
AcDbEntity
  8
0
  6
BYBLOCK
 62
     0
100
AcDbLine
 10
12.07709987745759
 20
-9.882531015441188
 30
0.0
 11
12.07709987745759
 21
-9.584971077434818
 31
0.0
  0
LINE
  5
AB
330
21
100
AcDbEntity
  8
0
  6
BYBLOCK
 62
     0
100
AcDbLine
 10
13.36896111256761
 20
-9.886232976858188
 30
0.0
 11
13.36896111256761
 21
-9.584971077434818
 31
0.0
  0
LINE
  5
AC
330
21
100
AcDbEntity
  8
0
  6
BYBLOCK
 62
     0
100
AcDbLine
 10
12.07709987745759
 20
-9.764971077434818
 30
0.0
 11
11.82709987745759
 21
-9.764971077434818
 31
0.0
  0
LINE
  5
AD
330
21
100
AcDbEntity
  8
0
  6
BYBLOCK
 62
     0
100
AcDbLine
 10
13.36896111256761
 20
-9.764971077434818
 30
0.0
 11
13.61896111256761
 21
-9.764971077434818
 31
0.0
  0
LINE
  5
AE
330
21
100
AcDbEntity
  8
0
  6
BYBLOCK
 62
     0
100
AcDbLine
 10
11.95209987745759
 20
-9.889971077434818
 30
0.0
 11
12.20209987745759
 21
-9.639971077434818
 31
0.0
  0
LINE
  5
AF
330
21
100
AcDbEntity
  8
0
  6
BYBLOCK
 62
     0
100
AcDbLine
 10
13.24396111256761
 20
-9.889971077434818
 30
0.0
 11
13.49396111256761
 21
-9.639971077434818
 31
0.0
  0
TEXT
  5
B0
330
21
100
AcDbEntity
  8
0
  6
BYBLOCK
 62
     0
100
AcDbText
 10
13.74396111256761
 20
-9.827471077434818
 30
0.0
 40
0.125
  1
1 5/16
 72
     1
 11
14.05646111256761
 21
-9.764971077434818
 31
0.0
100
AcDbText
 73
     2
  0
POINT
  5
B1
330
21
100
AcDbEntity
  8
DEFPOINTS
  6
BYBLOCK
 62
     0
100
AcDbPoint
 10
12.07709987745759
 20
-9.945031015441188
 30
0.0
  0
POINT
  5
B2
330
21
100
AcDbEntity
  8
DEFPOINTS
  6
BYBLOCK
 62
     0
100
AcDbPoint
 10
13.36896111256761
 20
-9.948732976858188
 30
0.0
  0
POINT
  5
B3
330
21
100
AcDbEntity
  8
DEFPOINTS
  6
BYBLOCK
 62
     0
100
AcDbPoint
 10
13.36896111256761
 20
-9.764971077434818
 30
0.0
  0
ENDBLK
  5
B4
330
21
100
AcDbEntity
  8
0
100
AcDbBlockEnd
  0
BLOCK
  5
B5
330
22
100
AcDbEntity
  8
0
100
AcDbBlockBegin
  2
*D2
 70
     1
 10
0.0
 20
0.0
 30
0.0
  3
*D2
  1

  0
LINE
  5
B6
330
22
100
AcDbEntity
  8
0
  6
BYBLOCK
 62
     0
100
AcDbLine
 10
14.07668797190615
 20
-12.66941802116746
 30
0.0
 11
14.47280862549182
 21
-12.66941802116746
 31
0.0
  0
LINE
  5
B7
330
22
100
AcDbEntity
  8
0
  6
BYBLOCK
 62
     0
100
AcDbLine
 10
13.07951921783136
 20
-11.67887256662201
 30
0.0
 11
14.47280862549182
 21
-11.67887256662201
 31
0.0
  0
LINE
  5
B8
330
22
100
AcDbEntity
  8
0
  6
BYBLOCK
 62
     0
100
AcDbLine
 10
14.29280862549182
 20
-12.66941802116746
 30
0.0
 11
14.29280862549182
 21
-12.31997862722807
 31
0.0
  0
LINE
  5
B9
330
22
100
AcDbEntity
  8
0
  6
BYBLOCK
 62
     0
100
AcDbLine
 10
14.29280862549182
 20
-11.67887256662201
 30
0.0
 11
14.29280862549182
 21
-12.0283119605614
 31
0.0
  0
LINE
  5
BA
330
22
100
AcDbEntity
  8
0
  6
BYBLOCK
 62
     0
100
AcDbLine
 10
14.41780862549182
 20
-12.79441802116746
 30
0.0
 11
14.16780862549182
 21
-12.54441802116746
 31
0.0
  0
LINE
  5
BB
330
22
100
AcDbEntity
  8
0
  6
BYBLOCK
 62
     0
100
AcDbLine
 10
14.41780862549182
 20
-11.80387256662201
 30
0.0
 11
14.16780862549182
 21
-11.55387256662201
 31
0.0
  0
TEXT
  5
BC
330
22
100
AcDbEntity
  8
0
  6
BYBLOCK
 62
     0
100
AcDbText
 10
14.35530862549182
 20
-12.19497862722807
 30
0.0
 40
0.125
  1
1
 50
90.0
 72
     1
 11
14.29280862549182
 21
-12.17414529389474
 31
0.0
100
AcDbText
 73
     2
  0
POINT
  5
BD
330
22
100
AcDbEntity
  8
DEFPOINTS
  6
BYBLOCK
 62
     0
100
AcDbPoint
 10
14.01418797190615
 20
-12.66941802116746
 30
0.0
  0
POINT
  5
BE
330
22
100
AcDbEntity
  8
DEFPOINTS
  6
BYBLOCK
 62
     0
100
AcDbPoint
 10
13.01701921783136
 20
-11.67887256662201
 30
0.0
  0
POINT
  5
BF
330
22
100
AcDbEntity
  8
DEFPOINTS
  6
BYBLOCK
 62
     0
100
AcDbPoint
 10
14.29280862549182
 20
-11.67887256662201
 30
0.0
  0
ENDBLK
  5
C0
330
22
100
AcDbEntity
  8
0
100
AcDbBlockEnd
  0
ENDSEC
  0
SECTION
  2
ENTITIES
  0
DIMENSION
  5
C1
330
18
100
AcDbEntity
  8
ADPDIM1
100
AcDbDimension
  2
*D0
 10
12.97911815346093
 20
-11.52402084530202
 30
0.0
 11
13.49995148679426
 21
-11.52402084530202
 31
0.0
100
AcDbAlignedDimension
 13
12.48011815346093
 23
-11.69896081111247
 33
0.0
 14
12.97911815346093
 24
-11.69896081111247
 34
0.0
100
AcDbRotatedDimension
  0
LINE
  5
C2
330
18
100
AcDbEntity
  8
ADP1DETAIL
 62
     7
100
AcDbLine
 10
13.21943633527911
 20
-11.86432711207655
 30
0.0
 11
12.24852724437002
 21
-11.86432711207655
 31
0.0
  0
LINE
  5
C3
330
18
100
AcDbEntity
  8
ADP1DETAIL
100
AcDbLine
 10
13.38213642946426
 20
-11.25376952886485
 30
0.0
 11
12.07709987745759
 21
-11.25376952886485
 31
0.0
  0
LINE
  5
C4
330
18
100
AcDbEntity
  8
ADP1DETAIL
100
AcDbLine
 10
12.07709987745759
 20
-9.948732976858188
 30
0.0
 11
13.38213642946426
 21
-9.948732976858188
 31
0.0
  0
LWPOLYLINE
  5
C5
330
18
100
AcDbEntity
  8
ADP1DETAIL
100
AcDbPolyline
 90
        4
 70
     1
 43
0.0
 10
12.24464859097966
 20
-11.08622081534279
 10
12.24464859097966
 20
-10.11628169038025
 10
13.2145877159422
 20
-10.11628169038025
 10
13.2145877159422
 20
-11.08622081534279
  0
DIMENSION
  5
CB
330
18
100
AcDbEntity
  8
ADPDIM1
100
AcDbDimension
  2
*D1
 10
13.36896111256761
 20
-9.764971077434818
 30
0.0
 11
14.05646111256761
 21
-9.764971077434818
 31
0.0
100
AcDbAlignedDimension
 13
12.07709987745759
 23
-9.945031015441188
 33
0.0
 14
13.36896111256761
 24
-9.948732976858188
 34
0.0
100
AcDbRotatedDimension
  0
LINE
  5
CC
330
18
100
AcDbEntity
  8
ADP1DETAIL
 62
     7
100
AcDbLine
 10
12.07398178982457
 20
-12.36396347571292
 30
0.0
 11
13.38525451709729
 21
-12.36396347571292
 31
0.0
  0
LINE
  5
CD
330
18
100
AcDbEntity
  8
ADP1DETAIL
 62
     7
100
AcDbLine
 10
13.38525451709729
 20
-12.66941802116746
 30
0.0
 11
12.07398178982457
 21
-12.66941802116746
 31
0.0
  0
LINE
  5
CE
330
18
100
AcDbEntity
  8
ADP1DETAIL
 62
     7
100
AcDbLine
 10
11.42454154279786
 20
-12.66941802116746
 30
0.0
 11
14.02513233958117
 21
-12.66941802116746
 31
0.0
  0
LINE
  5
CF
330
18
100
AcDbEntity
  8
ADP1DETAIL
 62
     7
100
AcDbLine
 10
14.02513233958117
 20
-12.54723620298564
 30
0.0
 11
13.38525451709729
 21
-12.54723620298564
 31
0.0
  0
LWPOLYLINE
  5
D0
330
18
100
AcDbEntity
  8
ADP1DETAIL
 62
     7
100
AcDbPolyline
 90
        5
 70
     0
 43
0.0
 10
13.04358475448549
 20
-11.73875978515491
 42
-0.3726747040441371
 10
13.22338459977207
 20
-11.86251373738065
 42
0.2828226809680348
 10
13.07954468190734
 20
-12.09405340300423
 42
0.400724899005989
 10
13.23936685912978
 20
-12.3415613524822
 42
0.1080091317452124
 10
13.38720232448583
 20
-12.36551373323727
 42
-0.0272864376584543
  0
DIMENSION
  5
D7
330
18
100
AcDbEntity
  8
ADPDIM1
100
AcDbDimension
  2
*D2
 10
14.29280862549182
 20
-11.67887256662201
 30
0.0
 11
14.29280862549182
 21
-12.17414529389474
 31
0.0
100
AcDbAlignedDimension
 13
14.01418797190615
 23
-12.66941802116746
 33
0.0
 14
13.01701921783136
 24
-11.67887256662201
 34
0.0
 50
90.0
100
AcDbRotatedDimension
  0
LINE
  5
D8
330
18
100
AcDbEntity
  8
ADP2DETAILX
  6
HIDDEN2
100
AcDbLine
 10
12.97911815346093
 20
-11.67938631330858
 30
0.0
 11
12.97911815346093
 21
-12.66941802116746
 31
0.0
  0
LINE
  5
D9
330
18
100
AcDbEntity
  8
ADP2DETAILX
  6
HIDDEN2
100
AcDbLine
 10
12.48011815346093
 20
-11.67938631330858
 30
0.0
 11
12.48011815346093
 21
-12.66941802116746
 31
0.0
  0
LWPOLYLINE
  5
DA
330
18
100
AcDbEntity
  8
ADP1DETAIL
 62
     7
100
AcDbPolyline
 90
        5
 70
     0
 43
0.0
 10
12.42027844373832
 20
-11.73875978515491
 42
0.3726747040441371
 10
12.24047859845174
 20
-11.86251373738065
 42
-0.2828226809680348
 10
12.38431851631647
 20
-12.09405340300423
 42
-0.400724899005989
 10
12.22449633909403
 20
-12.3415613524822
 42
-0.1080091317452124
 10
12.07666087373798
 20
-12.36551373323727
 42
0.0272864376584543
  0
LINE
  5
E1
330
18
100
AcDbEntity
  8
ADP2DETAILX
  6
HIDDEN2
100
AcDbLine
 10
11.63426282737683
 20
-12.54617128515702
 30
0.0
 11
11.71544675534785
 21
-12.66628297380686
 31
0.0
  0
LINE
  5
E2
330
18
100
AcDbEntity
  8
ADP1DETAIL
 62
     7
100
AcDbLine
 10
11.42454154279786
 20
-12.54723620298564
 30
0.0
 11
11.42454154279786
 21
-12.66941802116746
 31
0.0
  0
LINE
  5
E3
330
18
100
AcDbEntity
  8
ADP2DETAILX
  6
HIDDEN2
100
AcDbLine
 10
11.98738757717243
 20
-12.54617128515702
 30
0.0
 11
11.90620364920141
 21
-12.66628297380686
 31
0.0
  0
LINE
  5
E4
330
18
100
AcDbEntity
  8
ADP1DETAIL
 62
     7
100
AcDbLine
 10
12.07398178982457
 20
-12.66941802116746
 30
0.0
 11
12.07398178982457
 21
-12.36396347571292
 31
0.0
  0
ARC
  5
E5
330
18
100
AcDbEntity
  8
ADP1DETAIL
100
AcDbCircle
 10
11.83334987745759
 20
-10.60125125286152
 30
0.0
 40
0.40625
100
AcDbArc
 50
90.54568233997899
 51
269.4543176600209
  0
CIRCLE
  5
E6
330
18
100
AcDbEntity
  8
ADP1DETAIL
100
AcDbCircle
 10
11.83334987745759
 20
-10.60125125286152
 30
0.0
 40
0.175
  0
LWPOLYLINE
  5
E7
330
18
100
AcDbEntity
  8
ADP1DETAIL
100
AcDbPolyline
 90
        4
 70
     1
 43
0.0
 10
12.48011815346093
 20
-10.85075125286152
 10
12.48011815346093
 20
-10.35175125286152
 10
12.97911815346093
 20
-10.35175125286152
 10
12.97911815346093
 20
-10.85075125286152
  0
LINE
  5
ED
330
18
100
AcDbEntity
  8
ADP1DETAIL
100
AcDbLine
 10
12.07709987745759
 20
-9.95058395756669
 30
0.0
 11
12.07709987745759
 21
-11.25562050957336
 31
0.0
  0
CIRCLE
  5
EE
330
18
100
AcDbEntity
  8
ADP1DETAIL
100
AcDbCircle
 10
11.83334987745759
 20
-10.60125125286152
 30
0.0
 40
0.094
  0
LWPOLYLINE
  5
EF
330
18
100
AcDbEntity
  8
ADP1DETAIL
100
AcDbPolyline
 90
        4
 70
     1
 43
0.0
 10
12.42088979214003
 20
-10.90997961418242
 10
12.42088979214003
 20
-10.29252289154062
 10
13.03834651478183
 20
-10.29252289154062
 10
13.03834651478183
 20
-10.90997961418242
  0
ARC
  5
F5
330
18
100
AcDbEntity
  8
ADP1DETAIL
100
AcDbCircle
 10
11.82709987745759
 20
-11.25747149028186
 30
0.0
 40
0.25
100
AcDbArc
 50
0.0
 51
89.45431766002128
  0
LINE
  5
F6
330
18
100
AcDbEntity
  8
ADP1DETAIL
100
AcDbLine
 10
12.07709987745759
 20
-11.25810858118744
 30
0.0
 11
12.07709987745759
 21
-11.25376952886485
 31
0.0
  0
LINE
  5
F7
330
18
100
AcDbEntity
  8
ADP1DETAIL
100
AcDbLine
 10
12.07709987745759
 20
-11.25747149028186
 30
0.0
 11
12.07709987745759
 21
-11.25376952886485
 31
0.0
  0
LINE
  5
F8
330
18
100
AcDbEntity
  8
ADP1DETAIL
 62
     7
100
AcDbLine
 10
12.42089088073366
 20
-11.73996347571292
 30
0.0
 11
13.04270906255184
 21
-11.73996347571292
 31
0.0
  0
LINE
  5
F9
330
18
100
AcDbEntity
  8
ADP1DETAIL
 62
     7
100
AcDbLine
 10
13.04270906255184
 20
-11.67887256662201
 30
0.0
 11
12.42089088073366
 21
-11.67887256662201
 31
0.0
  0
LINE
  5
FA
330
18
100
AcDbEntity
  8
ADP1DETAIL
 62
     7
100
AcDbLine
 10
13.04270906255184
 20
-11.73996347571292
 30
0.0
 11
12.42089088073366
 21
-11.73996347571292
 31
0.0
  0
LINE
  5
FB
330
18
100
AcDbEntity
  8
ADP1DETAIL
 62
     7
100
AcDbLine
 10
12.42089088073366
 20
-11.67887256662201
 30
0.0
 11
12.42089088073366
 21
-11.73996347571292
 31
0.0
  0
LINE
  5
FC
330
18
100
AcDbEntity
  8
ADP1DETAIL
 62
     7
100
AcDbLine
 10
13.04270906255184
 20
-11.73996347571292
 30
0.0
 11
13.04270906255184
 21
-11.67887256662201
 31
0.0
  0
ARC
  5
FD
330
18
100
AcDbEntity
  8
ADP1DETAIL
100
AcDbCircle
 10
11.82709987745759
 20
-9.945031015441188
 30
0.0
 40
0.25
100
AcDbArc
 50
270.5456823399786
 51
0.0
  0
LINE
  5
FE
330
18
100
AcDbEntity
  8
ADP1DETAIL
100
AcDbLine
 10
12.07709987745759
 20
-10.60125125286152
 30
0.0
 11
12.07709987745759
 21
-10.59754929144452
 31
0.0
  0
LINE
  5
FF
330
18
100
AcDbEntity
  8
ADP1DETAIL
100
AcDbLine
 10
12.07709987745759
 20
-10.59691220053893
 30
0.0
 11
12.07709987745759
 21
-10.60125125286152
 31
0.0
  0
LINE
  5
100
330
18
100
AcDbEntity
  8
ADP2DETAILX
  6
HIDDEN2
100
AcDbLine
 10
13.44794513539254
 20
-12.54617128515702
 30
0.0
 11
13.52912906336356
 21
-12.66628297380686
 31
0.0
  0
LINE
  5
101
330
18
100
AcDbEntity
  8
ADP1DETAIL
 62
     7
100
AcDbLine
 10
13.38525451709729
 20
-12.36396347571292
 30
0.0
 11
13.38525451709729
 21
-12.66941802116746
 31
0.0
  0
LINE
  5
102
330
18
100
AcDbEntity
  8
ADP2DETAILX
  6
HIDDEN2
100
AcDbLine
 10
13.80106988518814
 20
-12.54617128515702
 30
0.0
 11
13.71988595721712
 21
-12.66628297380686
 31
0.0
  0
LINE
  5
103
330
18
100
AcDbEntity
  8
ADP1DETAIL
 62
     7
100
AcDbLine
 10
14.02513233958117
 20
-12.66941802116746
 30
0.0
 11
14.02513233958117
 21
-12.54723620298564
 31
0.0
  0
LINE
  5
104
330
18
100
AcDbEntity
  8
ADP1DETAIL
 62
     7
100
AcDbLine
 10
14.02513233958117
 20
-12.66941802116746
 30
0.0
 11
14.02513233958117
 21
-12.66941802116746
 31
0.0
  0
ARC
  5
105
330
18
100
AcDbEntity
  8
ADP1DETAIL
100
AcDbCircle
 10
13.62588642946426
 20
-10.60125125286152
 30
0.0
 40
0.40625
100
AcDbArc
 50
270.5456823399789
 51
89.45431766002101
  0
LINE
  5
106
330
18
100
AcDbEntity
  8
ADP1DETAIL
100
AcDbLine
 10
13.38213642946426
 20
-9.948732976858188
 30
0.0
 11
13.38213642946426
 21
-11.25376952886485
 31
0.0
  0
CIRCLE
  5
107
330
18
100
AcDbEntity
  8
ADP1DETAIL
100
AcDbCircle
 10
13.62588642946426
 20
-10.60125125286152
 30
0.0
 40
0.175
  0
CIRCLE
  5
108
330
18
100
AcDbEntity
  8
ADP1DETAIL
100
AcDbCircle
 10
13.62588642946426
 20
-10.60125125286152
 30
0.0
 40
0.094
  0
ARC
  5
109
330
18
100
AcDbEntity
  8
ADP1DETAIL
100
AcDbCircle
 10
13.63213642946426
 20
-11.25747149028186
 30
0.0
 40
0.25
100
AcDbArc
 50
90.54568233997871
 51
180.0
  0
ARC
  5
10A
330
18
100
AcDbEntity
  8
ADP1DETAIL
100
AcDbCircle
 10
13.63213642946426
 20
-9.945031015441188
 30
0.0
 40
0.25
100
AcDbArc
 50
180.0
 51
269.4543176600213
  0
LINE
  5
10B
330
18
100
AcDbEntity
  8
ADP1DETAIL
 62
     7
100
AcDbLine
 10
12.07398178982457
 20
-12.54723620298564
 30
0.0
 11
11.42454154279786
 21
-12.54723620298564
 31
0.0
  0
TEXT
  5
11A
330
18
100
AcDbEntity
  8
ADPDIM
100
AcDbText
 10
7.903587500323142
 20
-13.42710970852288
 30
0.0
 40
0.09375
  1
J U L I U S  B L U M  &  C O . ,  I N C .      ( 8 0 0 )  5 2 6 - 6 2 9 3        W W W . J U L I U S B L U M . C O M        P A R T  N o .  3 9 0
 41
1.25
  7
ARIAL_WIDE
 72
     1
 11
12.72961815346093
 21
-13.33335970852288
 31
0.0
100
AcDbText
 73
     3
  0
ENDSEC
  0
SECTION
  2
OBJECTS
  0
DICTIONARY
  5
C
330
0
100
AcDbDictionary
  3
ACAD_GROUP
350
D
  3
ACAD_LAYOUT
350
112
  3
ACAD_MLINESTYLE
350
E
  3
ACAD_PLOTSETTINGS
350
113
  3
ACAD_PLOTSTYLENAME
350
110
  3
ACDBHEADERROUNDTRIPXREC
350
28D
  3
ACDBVARIABLEDICTIONARY
350
174
  0
DICTIONARY
  5
16E
330
18
100
AcDbDictionary
280
     1
  3
ACAD_LAYOUTSELFREF
360
2AE
  0
DICTIONARY
  5
16C
330
15
100
AcDbDictionary
280
     1
  3
ACAD_LAYOUTSELFREF
360
2AD
  0
DICTIONARY
  5
D
102
{ACAD_REACTORS
330
C
102
}
330
C
100
AcDbDictionary
  0
DICTIONARY
  5
112
102
{ACAD_REACTORS
330
C
102
}
330
C
100
AcDbDictionary
  0
DICTIONARY
  5
E
102
{ACAD_REACTORS
330
C
102
}
330
C
100
AcDbDictionary
  3
STANDARD
350
1B
  0
DICTIONARY
  5
113
102
{ACAD_REACTORS
330
C
102
}
330
C
100
AcDbDictionary
  0
ACDBDICTIONARYWDFLT
  5
110
102
{ACAD_REACTORS
330
C
102
}
330
C
100
AcDbDictionary
281
     1
  3
Normal
350
111
100
AcDbDictionaryWithDefault
340
111
  0
DICTIONARY
  5
28D
102
{ACAD_REACTORS
330
C
102
}
330
C
100
AcDbDictionary
  3
CEPSNTYPE
350
297
  3
FINGERPRINTGUID
350
298
  3
HYPERLINKBASE
350
290
  3
INSUNITS
350
296
  3
LAYOUTDICT
350
292
  3
LWETCUNION
350
295
  3
PLOTSETDICT
350
293
  3
PLOTSTYLNAMDICT
350
294
  3
PSVPSCALE
350
29A
  3
PUCSBASE
350
29D
  3
PUCSORGBACK
350
2A3
  3
PUCSORGBOTTOM
350
29F
  3
PUCSORGFRONT
350
2A2
  3
PUCSORGLEFT
350
2A0
  3
PUCSORGRIGHT
350
2A1
  3
PUCSORGTOP
350
29E
  3
PUCSORTHOREF
350
29B
  3
PUCSORTHOVIEW
350
29C
  3
STYLESHEET
350
291
  3
TSTACKALIGN
350
28E
  3
TSTACKSIZE
350
28F
  3
UCSBASE
350
2A6
  3
UCSORGBACK
350
2AC
  3
UCSORGBOTTOM
350
2A8
  3
UCSORGFRONT
350
2AB
  3
UCSORGLEFT
350
2A9
  3
UCSORGRIGHT
350
2AA
  3
UCSORGTOP
350
2A7
  3
UCSORTHOREF
350
2A4
  3
UCSORTHOVIEW
350
2A5
  3
VERSIONGUID
350
299
  0
DICTIONARY
  5
174
102
{ACAD_REACTORS
330
C
102
}
330
C
100
AcDbDictionary
  3
DIMASSOC
350
175
  0
XRECORD
  5
2AE
102
{ACAD_REACTORS
330
16E
102
}
330
16E
100
AcDbXrecord
340
18
  0
XRECORD
  5
2AD
102
{ACAD_REACTORS
330
16C
102
}
330
16C
100
AcDbXrecord
340
15
  0
MLINESTYLE
  5
1B
102
{ACAD_REACTORS
330
E
102
}
330
E
100
AcDbMlineStyle
  2
STANDARD
 70
     0
  3

 62
     0
 51
90.0
 52
90.0
 71
     2
 49
0.5
 62
   256
  6
BYLAYER
 49
-0.5
 62
   256
  6
BYLAYER
  0
ACDBPLACEHOLDER
  5
111
102
{ACAD_REACTORS
330
110
102
}
330
110
100
AcDbPlaceHolder
280
     0
  0
XRECORD
  5
297
102
{ACAD_REACTORS
330
28D
102
}
330
28D
100
AcDbXrecord
 90
        0
  0
XRECORD
  5
298
102
{ACAD_REACTORS
330
28D
102
}
330
28D
100
AcDbXrecord
  1
{E72C1FAC-7898-44E4-8BE0-5ABC10F4E937}
  0
XRECORD
  5
290
102
{ACAD_REACTORS
330
28D
102
}
330
28D
100
AcDbXrecord
  1

  0
XRECORD
  5
296
102
{ACAD_REACTORS
330
28D
102
}
330
28D
100
AcDbXrecord
 90
        0
  0
XRECORD
  5
292
102
{ACAD_REACTORS
330
28D
102
}
330
28D
100
AcDbXrecord
340
112
  0
XRECORD
  5
295
102
{ACAD_REACTORS
330
28D
102
}
330
28D
100
AcDbXrecord
 90
    14877
  0
XRECORD
  5
293
102
{ACAD_REACTORS
330
28D
102
}
330
28D
100
AcDbXrecord
340
113
  0
XRECORD
  5
294
102
{ACAD_REACTORS
330
28D
102
}
330
28D
100
AcDbXrecord
340
110
  0
XRECORD
  5
29A
102
{ACAD_REACTORS
330
28D
102
}
330
28D
100
AcDbXrecord
 40
0.0
  0
XRECORD
  5
29D
102
{ACAD_REACTORS
330
28D
102
}
330
28D
100
AcDbXrecord
340
0
  0
XRECORD
  5
2A3
102
{ACAD_REACTORS
330
28D
102
}
330
28D
100
AcDbXrecord
 10
0.0
 20
0.0
 30
0.0
  0
XRECORD
  5
29F
102
{ACAD_REACTORS
330
28D
102
}
330
28D
100
AcDbXrecord
 10
0.0
 20
0.0
 30
0.0
  0
XRECORD
  5
2A2
102
{ACAD_REACTORS
330
28D
102
}
330
28D
100
AcDbXrecord
 10
0.0
 20
0.0
 30
0.0
  0
XRECORD
  5
2A0
102
{ACAD_REACTORS
330
28D
102
}
330
28D
100
AcDbXrecord
 10
0.0
 20
0.0
 30
0.0
  0
XRECORD
  5
2A1
102
{ACAD_REACTORS
330
28D
102
}
330
28D
100
AcDbXrecord
 10
0.0
 20
0.0
 30
0.0
  0
XRECORD
  5
29E
102
{ACAD_REACTORS
330
28D
102
}
330
28D
100
AcDbXrecord
 10
0.0
 20
0.0
 30
0.0
  0
XRECORD
  5
29B
102
{ACAD_REACTORS
330
28D
102
}
330
28D
100
AcDbXrecord
340
0
  0
XRECORD
  5
29C
102
{ACAD_REACTORS
330
28D
102
}
330
28D
100
AcDbXrecord
 70
     0
  0
XRECORD
  5
291
102
{ACAD_REACTORS
330
28D
102
}
330
28D
100
AcDbXrecord
  1

  0
XRECORD
  5
28E
102
{ACAD_REACTORS
330
28D
102
}
330
28D
100
AcDbXrecord
 90
        1
  0
XRECORD
  5
28F
102
{ACAD_REACTORS
330
28D
102
}
330
28D
100
AcDbXrecord
 90
       70
  0
XRECORD
  5
2A6
102
{ACAD_REACTORS
330
28D
102
}
330
28D
100
AcDbXrecord
340
0
  0
XRECORD
  5
2AC
102
{ACAD_REACTORS
330
28D
102
}
330
28D
100
AcDbXrecord
 10
0.0
 20
0.0
 30
0.0
  0
XRECORD
  5
2A8
102
{ACAD_REACTORS
330
28D
102
}
330
28D
100
AcDbXrecord
 10
0.0
 20
0.0
 30
0.0
  0
XRECORD
  5
2AB
102
{ACAD_REACTORS
330
28D
102
}
330
28D
100
AcDbXrecord
 10
0.0
 20
0.0
 30
0.0
  0
XRECORD
  5
2A9
102
{ACAD_REACTORS
330
28D
102
}
330
28D
100
AcDbXrecord
 10
0.0
 20
0.0
 30
0.0
  0
XRECORD
  5
2AA
102
{ACAD_REACTORS
330
28D
102
}
330
28D
100
AcDbXrecord
 10
0.0
 20
0.0
 30
0.0
  0
XRECORD
  5
2A7
102
{ACAD_REACTORS
330
28D
102
}
330
28D
100
AcDbXrecord
 10
0.0
 20
0.0
 30
0.0
  0
XRECORD
  5
2A4
102
{ACAD_REACTORS
330
28D
102
}
330
28D
100
AcDbXrecord
340
0
  0
XRECORD
  5
2A5
102
{ACAD_REACTORS
330
28D
102
}
330
28D
100
AcDbXrecord
 70
     0
  0
XRECORD
  5
299
102
{ACAD_REACTORS
330
28D
102
}
330
28D
100
AcDbXrecord
  1
{81C40707-5B91-4F2C-921C-E14236169805}
  0
DICTIONARYVAR
  5
175
102
{ACAD_REACTORS
330
174
102
}
330
174
100
DictionaryVariables
280
     0
  1
1
  0
ENDSEC
  0
EOF
