  0
SECTION
  2
HEADER
  9
$ACADVER
  1
AC1014
  9
$ACADMAINTVER
 70
     9
  9
$DWGCODEPAGE
  3
ANSI_1252
  9
$INSBASE
 10
-1.295311306326732
 20
-2.581835961991516
 30
0.0
  9
$EXTMIN
 10
-4.053884430361162
 20
-3.656937019027706
 30
0.0
  9
$EXTMAX
 10
8.815530644672943
 20
1.80951802753942
 30
0.0
  9
$LIMMIN
 10
0.0
 20
0.0
  9
$LIMMAX
 10
36.0
 20
36.0
  9
$ORTHOMODE
 70
     1
  9
$REGENMODE
 70
     1
  9
$FILLMODE
 70
     1
  9
$QTEXTMODE
 70
     0
  9
$MIRRTEXT
 70
     1
  9
$DRAGMODE
 70
     0
  9
$LTSCALE
 40
1.0
  9
$OSMODE
 70
    37
  9
$ATTMODE
 70
     1
  9
$TEXTSIZE
 40
0.2
  9
$TRACEWID
 40
0.05
  9
$TEXTSTYLE
  7
STANDARD
  9
$CLAYER
  8
ADP2DETAIL
  9
$CELTYPE
  6
BYLAYER
  9
$CECOLOR
 62
   256
  9
$CELTSCALE
 40
1.0
  9
$DELOBJ
 70
     1
  9
$DISPSILH
 70
     0
  9
$DIMSCALE
 40
1.0
  9
$DIMASZ
 40
0.125
  9
$DIMEXO
 40
0.0625
  9
$DIMDLI
 40
0.38
  9
$DIMRND
 40
0.0
  9
$DIMDLE
 40
0.0
  9
$DIMEXE
 40
0.18
  9
$DIMTP
 40
0.0
  9
$DIMTM
 40
0.0
  9
$DIMTXT
 40
0.125
  9
$DIMCEN
 40
0.1875
  9
$DIMTSZ
 40
0.125
  9
$DIMTOL
 70
     0
  9
$DIMLIM
 70
     0
  9
$DIMTIH
 70
     0
  9
$DIMTOH
 70
     0
  9
$DIMSE1
 70
     0
  9
$DIMSE2
 70
     0
  9
$DIMTAD
 70
     0
  9
$DIMZIN
 70
     3
  9
$DIMBLK
  1

  9
$DIMASO
 70
     1
  9
$DIMSHO
 70
     1
  9
$DIMPOST
  1

  9
$DIMAPOST
  1

  9
$DIMALT
 70
     0
  9
$DIMALTD
 70
     1
  9
$DIMALTF
 40
25.4
  9
$DIMLFAC
 40
1.0
  9
$DIMTOFL
 70
     0
  9
$DIMTVP
 40
0.0
  9
$DIMTIX
 70
     0
  9
$DIMSOXD
 70
     0
  9
$DIMSAH
 70
     0
  9
$DIMBLK1
  1

  9
$DIMBLK2
  1

  9
$DIMSTYLE
  2
STANDARD
  9
$DIMCLRD
 70
     0
  9
$DIMCLRE
 70
     0
  9
$DIMCLRT
 70
     0
  9
$DIMTFAC
 40
1.0
  9
$DIMGAP
 40
0.125
  9
$DIMJUST
 70
     0
  9
$DIMSD1
 70
     0
  9
$DIMSD2
 70
     0
  9
$DIMTOLJ
 70
     1
  9
$DIMTZIN
 70
     0
  9
$DIMALTZ
 70
     0
  9
$DIMALTTZ
 70
     0
  9
$DIMFIT
 70
     3
  9
$DIMUPT
 70
     0
  9
$DIMUNIT
 70
     2
  9
$DIMDEC
 70
     4
  9
$DIMTDEC
 70
     4
  9
$DIMALTU
 70
     2
  9
$DIMALTTD
 70
     2
  9
$DIMTXSTY
  7
STANDARD
  9
$DIMAUNIT
 70
     0
  9
$LUNITS
 70
     5
  9
$LUPREC
 70
     4
  9
$SKETCHINC
 40
0.1
  9
$FILLETRAD
 40
0.062
  9
$AUNITS
 70
     0
  9
$AUPREC
 70
     0
  9
$MENU
  1
acad
  9
$ELEVATION
 40
0.0
  9
$PELEVATION
 40
0.0
  9
$THICKNESS
 40
0.0
  9
$LIMCHECK
 70
     0
  9
$BLIPMODE
 70
     0
  9
$CHAMFERA
 40
0.0
  9
$CHAMFERB
 40
0.0
  9
$CHAMFERC
 40
0.0
  9
$CHAMFERD
 40
0.0
  9
$SKPOLY
 70
     0
  9
$TDCREATE
 40
2450386.499709491
  9
$TDUPDATE
 40
2452297.069471747
  9
$TDINDWG
 40
0.0079981250
  9
$TDUSRTIMER
 40
0.0079981250
  9
$USRTIMER
 70
     1
  9
$ANGBASE
 50
0.0
  9
$ANGDIR
 70
     0
  9
$PDMODE
 70
     0
  9
$PDSIZE
 40
0.0
  9
$PLINEWID
 40
0.0
  9
$COORDS
 70
     2
  9
$SPLFRAME
 70
     0
  9
$SPLINETYPE
 70
     6
  9
$SPLINESEGS
 70
     8
  9
$ATTDIA
 70
     0
  9
$ATTREQ
 70
     1
  9
$HANDLING
 70
 22529
  9
$HANDSEED
  5
2B0
  9
$SURFTAB1
 70
     6
  9
$SURFTAB2
 70
     6
  9
$SURFTYPE
 70
     6
  9
$SURFU
 70
     6
  9
$SURFV
 70
     6
  9
$UCSNAME
  2

  9
$UCSORG
 10
0.0
 20
0.0
 30
0.0
  9
$UCSXDIR
 10
1.0
 20
0.0
 30
0.0
  9
$UCSYDIR
 10
0.0
 20
1.0
 30
0.0
  9
$PUCSNAME
  2

  9
$PUCSORG
 10
0.0
 20
0.0
 30
0.0
  9
$PUCSXDIR
 10
1.0
 20
0.0
 30
0.0
  9
$PUCSYDIR
 10
0.0
 20
1.0
 30
0.0
  9
$USERI1
 70
     0
  9
$USERI2
 70
     0
  9
$USERI3
 70
     0
  9
$USERI4
 70
     0
  9
$USERI5
 70
     0
  9
$USERR1
 40
0.0
  9
$USERR2
 40
0.0
  9
$USERR3
 40
0.0
  9
$USERR4
 40
0.0
  9
$USERR5
 40
0.0
  9
$WORLDVIEW
 70
     1
  9
$SHADEDGE
 70
     3
  9
$SHADEDIF
 70
    70
  9
$TILEMODE
 70
     1
  9
$MAXACTVP
 70
    15
  9
$PINSBASE
 10
4.403525741743744E+99
 20
7.061986388769092E+99
 30
0.0
  9
$PLIMCHECK
 70
     0
  9
$PEXTMIN
 10
1.000000000000000E+20
 20
1.000000000000000E+20
 30
1.000000000000000E+20
  9
$PEXTMAX
 10
-1.000000000000000E+20
 20
-1.000000000000000E+20
 30
-1.000000000000000E+20
  9
$PLIMMIN
 10
0.0
 20
0.0
  9
$PLIMMAX
 10
12.0
 20
9.0
  9
$UNITMODE
 70
     0
  9
$VISRETAIN
 70
     0
  9
$PLINEGEN
 70
     0
  9
$PSLTSCALE
 70
     1
  9
$TREEDEPTH
 70
  3020
  9
$PICKSTYLE
 70
     1
  9
$CMLSTYLE
  2
STANDARD
  9
$CMLJUST
 70
     0
  9
$CMLSCALE
 40
1.0
  9
$PROXYGRAPHICS
 70
     1
  9
$MEASUREMENT
 70
     0
  0
ENDSEC
  0
SECTION
  2
CLASSES
  0
CLASS
  1
ACDBDICTIONARYWDFLT
  2
AcDbDictionaryWithDefault
  3
AutoCAD 2000
 90
        0
280
     0
281
     0
  0
CLASS
  1
ACDBPLACEHOLDER
  2
AcDbPlaceHolder
  3
AutoCAD 2000
 90
        0
280
     0
281
     0
  0
CLASS
  1
LAYOUT
  2
AcDbLayout
  3
AutoCAD 2000
 90
        0
280
     0
281
     0
  0
CLASS
  1
DICTIONARYVAR
  2
AcDbDictionaryVar
  3
AutoCAD 2000
 90
        0
280
     0
281
     0
  0
CLASS
  1
LONG_TRANSACTION
  2
AcDbLongTransaction
  3
AutoCAD 2000
 90
        0
280
     0
281
     0
  0
CLASS
  1
LWPOLYLINE
  2
AcDbPolyline
  3
AutoCAD 2000
 90
        0
280
     0
281
     1
  0
CLASS
  1
HATCH
  2
AcDbHatch
  3
AutoCAD 2000
 90
        0
280
     0
281
     1
  0
CLASS
  1
XRECORD
  2
AcDbXrecord
  3
AutoCAD 2000
 90
        0
280
     0
281
     0
  0
CLASS
  1
LONG_TRANSACTION
  2
AcDbLongTransaction
  3
AutoCAD 2000
 90
        0
280
     0
281
     0
  0
CLASS
  1
LWPOLYLINE
  2
AcDbPolyline
  3
AutoCAD 2000
 90
        0
280
     0
281
     1
  0
CLASS
  1
HATCH
  2
AcDbHatch
  3
AutoCAD 2000
 90
        0
280
     0
281
     1
  0
CLASS
  1
XRECORD
  2
AcDbXrecord
  3
AutoCAD 2000
 90
        0
280
     0
281
     0
  0
CLASS
  1
LONG_TRANSACTION
  2
AcDbLongTransaction
  3
AutoCAD 2000
 90
        0
280
     0
281
     0
  0
CLASS
  1
LWPOLYLINE
  2
AcDbPolyline
  3
AutoCAD 2000
 90
        0
280
     0
281
     1
  0
CLASS
  1
HATCH
  2
AcDbHatch
  3
AutoCAD 2000
 90
        0
280
     0
281
     1
  0
CLASS
  1
XRECORD
  2
AcDbXrecord
  3
AutoCAD 2000
 90
        0
280
     0
281
     0
  0
CLASS
  1
LONG_TRANSACTION
  2
AcDbLongTransaction
  3
AutoCAD 2000
 90
        0
280
     0
281
     0
  0
CLASS
  1
LWPOLYLINE
  2
AcDbPolyline
  3
AutoCAD 2000
 90
        0
280
     0
281
     1
  0
CLASS
  1
HATCH
  2
AcDbHatch
  3
AutoCAD 2000
 90
        0
280
     0
281
     1
  0
CLASS
  1
XRECORD
  2
AcDbXrecord
  3
AutoCAD 2000
 90
        0
280
     0
281
     0
  0
CLASS
  1
LONG_TRANSACTION
  2
AcDbLongTransaction
  3
AutoCAD 2000
 90
        0
280
     0
281
     0
  0
CLASS
  1
LWPOLYLINE
  2
AcDbPolyline
  3
AutoCAD 2000
 90
        0
280
     0
281
     1
  0
CLASS
  1
HATCH
  2
AcDbHatch
  3
AutoCAD 2000
 90
        0
280
     0
281
     1
  0
CLASS
  1
XRECORD
  2
AcDbXrecord
  3
AutoCAD 2000
 90
        0
280
     0
281
     0
  0
CLASS
  1
LONG_TRANSACTION
  2
AcDbLongTransaction
  3
AutoCAD 2000
 90
        0
280
     0
281
     0
  0
CLASS
  1
LWPOLYLINE
  2
AcDbPolyline
  3
AutoCAD 2000
 90
        0
280
     0
281
     1
  0
CLASS
  1
HATCH
  2
AcDbHatch
  3
AutoCAD 2000
 90
        0
280
     0
281
     1
  0
CLASS
  1
XRECORD
  2
AcDbXrecord
  3
AutoCAD 2000
 90
        0
280
     0
281
     0
  0
CLASS
  1
LONG_TRANSACTION
  2
AcDbLongTransaction
  3
AutoCAD 2000
 90
        0
280
     0
281
     0
  0
CLASS
  1
LWPOLYLINE
  2
AcDbPolyline
  3
AutoCAD 2000
 90
        0
280
     0
281
     1
  0
CLASS
  1
HATCH
  2
AcDbHatch
  3
AutoCAD 2000
 90
        0
280
     0
281
     1
  0
CLASS
  1
XRECORD
  2
AcDbXrecord
  3
AutoCAD 2000
 90
        0
280
     0
281
     0
  0
ENDSEC
  0
SECTION
  2
TABLES
  0
TABLE
  2
VPORT
  5
13
330
0
100
AcDbSymbolTable
 70
     2
  0
VPORT
  5
28D
330
13
100
AcDbSymbolTableRecord
100
AcDbViewportTableRecord
  2
*ACTIVE
 70
     0
 10
0.0
 20
0.0
 11
1.0
 21
1.0
 12
2.381761966298078
 22
-0.9244694202090988
 13
0.0
 23
0.0
 14
0.5740882589684922
 24
0.5740882589684922
 15
0.5
 25
0.5
 16
0.0
 26
0.0
 36
1.0
 17
0.0
 27
0.0
 37
0.0
 40
8.235367565373005
 41
1.570528967254408
 42
50.0
 43
0.0
 44
0.0
 50
0.0
 51
0.0
 71
     0
 72
   100
 73
     1
 74
     0
 75
     0
 76
     0
 77
     0
 78
     0
  0
ENDTAB
  0
TABLE
  2
LTYPE
  5
F
330
0
100
AcDbSymbolTable
 70
     2
  0
LTYPE
  5
10
330
F
100
AcDbSymbolTableRecord
100
AcDbLinetypeTableRecord
  2
BYBLOCK
 70
     0
  3

 72
    65
 73
     0
 40
0.0
  0
LTYPE
  5
6
330
F
100
AcDbSymbolTableRecord
100
AcDbLinetypeTableRecord
  2
BYLAYER
 70
     0
  3

 72
    65
 73
     0
 40
0.0
  0
LTYPE
  5
5
330
F
100
AcDbSymbolTableRecord
100
AcDbLinetypeTableRecord
  2
CONTINUOUS
 70
     0
  3
Solid line
 72
    65
 73
     0
 40
0.0
  0
LTYPE
  5
22
330
F
100
AcDbSymbolTableRecord
100
AcDbLinetypeTableRecord
  2
HIDDEN2
 70
     0
  3
_ _ _ _ _ _ _ _ _ _ _ _ _ _ _ _ _ _ _ _ _ _ _ _
 72
    65
 73
     2
 40
0.1875
 49
0.125
 74
     0
 49
-0.0625
 74
     0
  0
ENDTAB
  0
TABLE
  2
LAYER
  5
B
330
0
100
AcDbSymbolTable
 70
     5
  0
LAYER
  5
C
330
B
100
AcDbSymbolTableRecord
100
AcDbLayerTableRecord
  2
0
 70
     0
 62
     7
  6
CONTINUOUS
  0
LAYER
  5
1F
330
B
100
AcDbSymbolTableRecord
100
AcDbLayerTableRecord
  2
ADP1DETAIL
 70
     0
 62
     7
  6
CONTINUOUS
  0
LAYER
  5
4D
330
B
100
AcDbSymbolTableRecord
100
AcDbLayerTableRecord
  2
DEFPOINTS
 70
     0
 62
     7
  6
CONTINUOUS
  0
LAYER
  5
4
330
B
100
AcDbSymbolTableRecord
100
AcDbLayerTableRecord
  2
ADP2DETAIL
 70
     0
 62
     5
  6
CONTINUOUS
  0
LAYER
  5
43
330
B
100
AcDbSymbolTableRecord
100
AcDbLayerTableRecord
  2
ADPDIM
 70
     0
 62
     3
  6
CONTINUOUS
  0
ENDTAB
  0
TABLE
  2
STYLE
  5
D
330
0
100
AcDbSymbolTable
 70
     2
  0
STYLE
  5
E
330
D
100
AcDbSymbolTableRecord
100
AcDbTextStyleTableRecord
  2
STANDARD
 70
     0
 40
0.0
 41
1.0
 50
0.0
 71
     0
 42
0.2
  3
txt
  4

  0
STYLE
  5
EB
330
D
100
AcDbSymbolTableRecord
100
AcDbTextStyleTableRecord
  2
ARIAL_WIDE
 70
     0
 40
0.0
 41
1.25
 50
0.0
 71
     0
 42
0.2
  3
ARIAL.TTF
  4

1001
ACAD
1000
Arial
1071
       34
  0
ENDTAB
  0
TABLE
  2
VIEW
  5
11
330
0
100
AcDbSymbolTable
 70
     0
  0
ENDTAB
  0
TABLE
  2
UCS
  5
12
330
0
100
AcDbSymbolTable
 70
     0
  0
ENDTAB
  0
TABLE
  2
APPID
  5
15
330
0
100
AcDbSymbolTable
 70
     1
  0
APPID
  5
16
330
15
100
AcDbSymbolTableRecord
100
AcDbRegAppTableRecord
  2
ACAD
 70
     0
  0
ENDTAB
  0
TABLE
  2
DIMSTYLE
  5
17
330
0
100
AcDbSymbolTable
 70
     1
  0
DIMSTYLE
105
1D
330
17
100
AcDbSymbolTableRecord
100
AcDbDimStyleTableRecord
  2
STANDARD
 70
     0
  3

  4

  5

  6

  7

 40
1.0
 41
0.18
 42
0.0625
 43
0.38
 44
0.18
 45
0.0
 46
0.0
 47
0.0
 48
0.0
140
0.18
141
0.09
142
0.0
143
25.4
144
1.0
145
0.0
146
1.0
147
0.09
 71
     0
 72
     0
 73
     1
 74
     1
 75
     0
 76
     0
 77
     0
 78
     0
170
     0
171
     2
172
     0
173
     0
174
     0
175
     0
176
     0
177
     0
178
     0
270
     2
271
     4
272
     4
273
     2
274
     2
340
E
275
     0
280
     0
281
     0
282
     0
283
     1
284
     0
285
     0
286
     0
287
     3
288
     0
  0
ENDTAB
  0
TABLE
  2
BLOCK_RECORD
  5
1
330
0
100
AcDbSymbolTable
 70
     6
  0
BLOCK_RECORD
  5
2
102
{ACAD_XDICTIONARY
360
13E
102
}
330
1
100
AcDbSymbolTableRecord
100
AcDbBlockTableRecord
  2
*MODEL_SPACE
  0
BLOCK_RECORD
  5
8
102
{ACAD_XDICTIONARY
360
140
102
}
330
1
100
AcDbSymbolTableRecord
100
AcDbBlockTableRecord
  2
*PAPER_SPACE
  0
BLOCK_RECORD
  5
44
330
1
100
AcDbSymbolTableRecord
100
AcDbBlockTableRecord
  2
*D0
  0
BLOCK_RECORD
  5
97
330
1
100
AcDbSymbolTableRecord
100
AcDbBlockTableRecord
  2
*D1
  0
BLOCK_RECORD
  5
A5
330
1
100
AcDbSymbolTableRecord
100
AcDbBlockTableRecord
  2
*D2
  0
BLOCK_RECORD
  5
81
330
1
100
AcDbSymbolTableRecord
100
AcDbBlockTableRecord
  2
*D3
  0
BLOCK_RECORD
  5
C6
330
1
100
AcDbSymbolTableRecord
100
AcDbBlockTableRecord
  2
*D4
  0
BLOCK_RECORD
  5
8C
330
1
100
AcDbSymbolTableRecord
100
AcDbBlockTableRecord
  2
*D5
  0
ENDTAB
  0
ENDSEC
  0
SECTION
  2
BLOCKS
  0
BLOCK
  5
3
330
2
100
AcDbEntity
  8
0
100
AcDbBlockBegin
  2
*MODEL_SPACE
 70
     0
 10
0.0
 20
0.0
 30
0.0
  3
*MODEL_SPACE
  1

  0
ENDBLK
  5
7
330
2
100
AcDbEntity
  8
0
100
AcDbBlockEnd
  0
BLOCK
  5
9
330
8
100
AcDbEntity
 67
     1
  8
0
100
AcDbBlockBegin
  2
*PAPER_SPACE
 70
     0
 10
0.0
 20
0.0
 30
0.0
  3
*PAPER_SPACE
  1

  0
ENDBLK
  5
A
330
8
100
AcDbEntity
 67
     1
  8
0
100
AcDbBlockEnd
  0
BLOCK
  5
50
330
44
100
AcDbEntity
  8
0
100
AcDbBlockBegin
  2
*D0
 70
     1
 10
0.0
 20
0.0
 30
0.0
  3
*D0
  1

  0
LINE
  5
45
330
44
100
AcDbEntity
  8
0
  6
BYBLOCK
 62
     0
100
AcDbLine
 10
4.307183728134829
 20
-1.197017961166393
 30
0.0
 11
5.998914877648505
 21
-1.197017961166394
 31
0.0
  0
LINE
  5
46
330
44
100
AcDbEntity
  8
0
  6
BYBLOCK
 62
     0
100
AcDbLine
 10
5.215215516343199
 20
1.048115730020137
 30
0.0
 11
5.998914877648505
 21
1.048115730020137
 31
0.0
  0
LINE
  5
47
330
44
100
AcDbEntity
  8
0
  6
BYBLOCK
 62
     0
100
AcDbLine
 10
5.818914877648506
 20
-1.197017961166394
 30
0.0
 11
5.818914877648506
 21
-0.4702844489064617
 31
0.0
  0
LINE
  5
48
330
44
100
AcDbEntity
  8
0
  6
BYBLOCK
 62
     0
100
AcDbLine
 10
5.818914877648506
 20
1.048115730020137
 30
0.0
 11
5.818914877648506
 21
0.321382217760205
 31
0.0
  0
LINE
  5
49
330
44
100
AcDbEntity
  8
0
  6
BYBLOCK
 62
     0
100
AcDbLine
 10
5.943914877648506
 20
-1.322017961166394
 30
0.0
 11
5.693914877648506
 21
-1.072017961166394
 31
0.0
  0
LINE
  5
4A
330
44
100
AcDbEntity
  8
0
  6
BYBLOCK
 62
     0
100
AcDbLine
 10
5.943914877648506
 20
0.9231157300201372
 30
0.0
 11
5.693914877648506
 21
1.173115730020137
 31
0.0
  0
TEXT
  5
4B
330
44
100
AcDbEntity
  8
0
  6
BYBLOCK
 62
     0
100
AcDbText
 10
5.881414877648506
 20
-0.3452844489064617
 30
0.0
 40
0.125
  1
2 1/4
 50
90.0
 72
     1
 11
5.818914877648506
 21
-0.0744511155731284
 31
0.0
100
AcDbText
 73
     2
  0
POINT
  5
4C
330
44
100
AcDbEntity
  8
DEFPOINTS
  6
BYBLOCK
 62
     0
100
AcDbPoint
 10
4.244683728134829
 20
-1.197017961166393
 30
0.0
  0
POINT
  5
4E
330
44
100
AcDbEntity
  8
DEFPOINTS
  6
BYBLOCK
 62
     0
100
AcDbPoint
 10
5.152715516343199
 20
1.048115730020137
 30
0.0
  0
POINT
  5
4F
330
44
100
AcDbEntity
  8
DEFPOINTS
  6
BYBLOCK
 62
     0
100
AcDbPoint
 10
5.818914877648506
 20
1.048115730020137
 30
0.0
  0
ENDBLK
  5
51
330
44
100
AcDbEntity
  8
0
100
AcDbBlockEnd
  0
BLOCK
  5
A2
330
97
100
AcDbEntity
  8
0
100
AcDbBlockBegin
  2
*D1
 70
     1
 10
0.0
 20
0.0
 30
0.0
  3
*D1
  1

  0
LINE
  5
98
330
97
100
AcDbEntity
  8
0
  6
BYBLOCK
 62
     0
100
AcDbLine
 10
3.162566216790529
 20
1.184504074815806
 30
0.0
 11
3.162566216790529
 21
1.80951802753942
 31
0.0
  0
LINE
  5
99
330
97
100
AcDbEntity
  8
0
  6
BYBLOCK
 62
     0
100
AcDbLine
 10
5.158629793207267
 20
1.184504074815806
 30
0.0
 11
5.158629793207267
 21
1.80951802753942
 31
0.0
  0
LINE
  5
9A
330
97
100
AcDbEntity
  8
0
  6
BYBLOCK
 62
     0
100
AcDbLine
 10
3.162566216790529
 20
1.62951802753942
 30
0.0
 11
3.993931338332231
 21
1.62951802753942
 31
0.0
  0
LINE
  5
9B
330
97
100
AcDbEntity
  8
0
  6
BYBLOCK
 62
     0
100
AcDbLine
 10
5.158629793207267
 20
1.62951802753942
 30
0.0
 11
4.327264671665565
 21
1.62951802753942
 31
0.0
  0
LINE
  5
9C
330
97
100
AcDbEntity
  8
0
  6
BYBLOCK
 62
     0
100
AcDbLine
 10
3.037566216790529
 20
1.50451802753942
 30
0.0
 11
3.287566216790529
 21
1.75451802753942
 31
0.0
  0
LINE
  5
9D
330
97
100
AcDbEntity
  8
0
  6
BYBLOCK
 62
     0
100
AcDbLine
 10
5.033629793207267
 20
1.50451802753942
 30
0.0
 11
5.283629793207267
 21
1.75451802753942
 31
0.0
  0
TEXT
  5
9E
330
97
100
AcDbEntity
  8
0
  6
BYBLOCK
 62
     0
100
AcDbText
 10
4.118931338332231
 20
1.56701802753942
 30
0.0
 40
0.125
  1
2
 72
     1
 11
4.160598004998898
 21
1.62951802753942
 31
0.0
100
AcDbText
 73
     2
  0
POINT
  5
9F
330
97
100
AcDbEntity
  8
DEFPOINTS
  6
BYBLOCK
 62
     0
100
AcDbPoint
 10
3.162566216790529
 20
1.122004074815806
 30
0.0
  0
POINT
  5
A0
330
97
100
AcDbEntity
  8
DEFPOINTS
  6
BYBLOCK
 62
     0
100
AcDbPoint
 10
5.158629793207267
 20
1.122004074815806
 30
0.0
  0
POINT
  5
A1
330
97
100
AcDbEntity
  8
DEFPOINTS
  6
BYBLOCK
 62
     0
100
AcDbPoint
 10
5.158629793207267
 20
1.62951802753942
 30
0.0
  0
ENDBLK
  5
A3
330
97
100
AcDbEntity
  8
0
100
AcDbBlockEnd
  0
BLOCK
  5
B0
330
A5
100
AcDbEntity
  8
0
100
AcDbBlockBegin
  2
*D2
 70
     1
 10
0.0
 20
0.0
 30
0.0
  3
*D2
  1

  0
LINE
  5
A6
330
A5
100
AcDbEntity
  8
0
  6
BYBLOCK
 62
     0
100
AcDbLine
 10
3.472903444604774
 20
1.196018027539421
 30
0.0
 11
3.472903444604774
 21
1.53051802753942
 31
0.0
  0
LINE
  5
A7
330
A5
100
AcDbEntity
  8
0
  6
BYBLOCK
 62
     0
100
AcDbLine
 10
4.847903444604774
 20
1.196018027539421
 30
0.0
 11
4.847903444604774
 21
1.53051802753942
 31
0.0
  0
LINE
  5
A8
330
A5
100
AcDbEntity
  8
0
  6
BYBLOCK
 62
     0
100
AcDbLine
 10
3.472903444604774
 20
1.35051802753942
 30
0.0
 11
3.764570111271441
 21
1.35051802753942
 31
0.0
  0
LINE
  5
A9
330
A5
100
AcDbEntity
  8
0
  6
BYBLOCK
 62
     0
100
AcDbLine
 10
4.847903444604774
 20
1.35051802753942
 30
0.0
 11
4.556236777938107
 21
1.35051802753942
 31
0.0
  0
LINE
  5
AA
330
A5
100
AcDbEntity
  8
0
  6
BYBLOCK
 62
     0
100
AcDbLine
 10
3.347903444604774
 20
1.22551802753942
 30
0.0
 11
3.597903444604774
 21
1.47551802753942
 31
0.0
  0
LINE
  5
AB
330
A5
100
AcDbEntity
  8
0
  6
BYBLOCK
 62
     0
100
AcDbLine
 10
4.722903444604774
 20
1.22551802753942
 30
0.0
 11
4.972903444604774
 21
1.47551802753942
 31
0.0
  0
TEXT
  5
AC
330
A5
100
AcDbEntity
  8
0
  6
BYBLOCK
 62
     0
100
AcDbText
 10
3.889570111271441
 20
1.28801802753942
 30
0.0
 40
0.125
  1
1 3/8
 72
     1
 11
4.160403444604774
 21
1.35051802753942
 31
0.0
100
AcDbText
 73
     2
  0
POINT
  5
AD
330
A5
100
AcDbEntity
  8
DEFPOINTS
  6
BYBLOCK
 62
     0
100
AcDbPoint
 10
3.472903444604774
 20
1.133518027539421
 30
0.0
  0
POINT
  5
AE
330
A5
100
AcDbEntity
  8
DEFPOINTS
  6
BYBLOCK
 62
     0
100
AcDbPoint
 10
4.847903444604774
 20
1.133518027539421
 30
0.0
  0
POINT
  5
AF
330
A5
100
AcDbEntity
  8
DEFPOINTS
  6
BYBLOCK
 62
     0
100
AcDbPoint
 10
4.847903444604774
 20
1.35051802753942
 30
0.0
  0
ENDBLK
  5
B1
330
A5
100
AcDbEntity
  8
0
100
AcDbBlockEnd
  0
BLOCK
  5
89
330
81
100
AcDbEntity
  8
0
100
AcDbBlockBegin
  2
*D3
 70
     1
 10
0.0
 20
0.0
 30
0.0
  3
*D3
  1

  0
LINE
  5
82
330
81
100
AcDbEntity
  8
0
  6
BYBLOCK
 62
     0
100
AcDbLine
 10
3.078298624618715
 20
-2.052599698307037
 30
0.0
 11
2.88259224216124
 21
-2.20816001415079
 31
0.0
  0
LINE
  5
83
330
81
100
AcDbEntity
  8
0
  6
BYBLOCK
 62
     0
100
AcDbLine
 10
3.058225591311854
 20
-2.228233047457651
 30
0.0
 11
3.098371657925576
 21
-1.876966349156423
 31
0.0
  0
LINE
  5
84
330
81
100
AcDbEntity
  8
0
  6
BYBLOCK
 62
     0
100
AcDbLine
 10
3.96718372813483
 20
-1.197017961166393
 30
0.0
 11
4.34218372813483
 21
-1.197017961166393
 31
0.0
  0
LINE
  5
85
330
81
100
AcDbEntity
  8
0
  6
BYBLOCK
 62
     0
100
AcDbLine
 10
4.15468372813483
 20
-1.384517961166393
 30
0.0
 11
4.15468372813483
 21
-1.009517961166393
 31
0.0
  0
TEXT
  5
86
330
81
100
AcDbEntity
  8
0
  6
BYBLOCK
 62
     0
100
AcDbText
 10
2.269127712930593
 20
-2.775620995911004
 30
0.0
 40
0.125
  1
%%c2 3/4
 50
38.47998876074655
 72
     1
 11
2.507488342451078
 21
-2.506317286184651
 31
0.0
100
AcDbText
 73
     2
  0
POINT
  5
87
330
81
100
AcDbEntity
  8
DEFPOINTS
  6
BYBLOCK
 62
     0
100
AcDbPoint
 10
3.078298624618715
 20
-2.052599698307037
 30
0.0
  0
POINT
  5
88
330
81
100
AcDbEntity
  8
DEFPOINTS
  6
BYBLOCK
 62
     0
100
AcDbPoint
 10
5.231068831650945
 20
-0.3414362240257498
 30
0.0
  0
ENDBLK
  5
8A
330
81
100
AcDbEntity
  8
0
100
AcDbBlockEnd
  0
BLOCK
  5
D1
330
C6
100
AcDbEntity
  8
0
100
AcDbBlockBegin
  2
*D4
 70
     1
 10
0.0
 20
0.0
 30
0.0
  3
*D4
  1

  0
LINE
  5
C7
330
C6
100
AcDbEntity
  8
0
  6
BYBLOCK
 62
     0
100
AcDbLine
 10
-1.295311306326732
 20
0.230664038008483
 30
0.0
 11
-1.295311306326732
 21
1.51642853011063
 31
0.0
  0
LINE
  5
C8
330
C6
100
AcDbEntity
  8
0
  6
BYBLOCK
 62
     0
100
AcDbLine
 10
1.201336458228887
 20
1.110522111349297
 30
0.0
 11
1.201336458228887
 21
1.51642853011063
 31
0.0
  0
LINE
  5
C9
330
C6
100
AcDbEntity
  8
0
  6
BYBLOCK
 62
     0
100
AcDbLine
 10
-1.295311306326732
 20
1.33642853011063
 30
0.0
 11
-0.4428207573822555
 21
1.33642853011063
 31
0.0
  0
LINE
  5
CA
330
C6
100
AcDbEntity
  8
0
  6
BYBLOCK
 62
     0
100
AcDbLine
 10
1.201336458228887
 20
1.33642853011063
 30
0.0
 11
0.3488459092844112
 21
1.33642853011063
 31
0.0
  0
LINE
  5
CB
330
C6
100
AcDbEntity
  8
0
  6
BYBLOCK
 62
     0
100
AcDbLine
 10
-1.420311306326732
 20
1.21142853011063
 30
0.0
 11
-1.170311306326732
 21
1.46142853011063
 31
0.0
  0
LINE
  5
CC
330
C6
100
AcDbEntity
  8
0
  6
BYBLOCK
 62
     0
100
AcDbLine
 10
1.076336458228887
 20
1.21142853011063
 30
0.0
 11
1.326336458228887
 21
1.46142853011063
 31
0.0
  0
TEXT
  5
CD
330
C6
100
AcDbEntity
  8
0
  6
BYBLOCK
 62
     0
100
AcDbText
 10
-0.3178207573822554
 20
1.27392853011063
 30
0.0
 40
0.125
  1
2 1/2
 72
     1
 11
-0.0469874240489221
 21
1.33642853011063
 31
0.0
100
AcDbText
 73
     2
  0
POINT
  5
CE
330
C6
100
AcDbEntity
  8
DEFPOINTS
  6
BYBLOCK
 62
     0
100
AcDbPoint
 10
-1.295311306326732
 20
0.168164038008483
 30
0.0
  0
POINT
  5
CF
330
C6
100
AcDbEntity
  8
DEFPOINTS
  6
BYBLOCK
 62
     0
100
AcDbPoint
 10
1.201336458228887
 20
1.048022111349297
 30
0.0
  0
POINT
  5
D0
330
C6
100
AcDbEntity
  8
DEFPOINTS
  6
BYBLOCK
 62
     0
100
AcDbPoint
 10
1.201336458228887
 20
1.33642853011063
 30
0.0
  0
ENDBLK
  5
D2
330
C6
100
AcDbEntity
  8
0
100
AcDbBlockEnd
  0
BLOCK
  5
94
330
8C
100
AcDbEntity
  8
0
100
AcDbBlockBegin
  2
*D5
 70
     1
 10
0.0
 20
0.0
 30
0.0
  3
*D5
  1

  0
LINE
  5
8D
330
8C
100
AcDbEntity
  8
0
  6
BYBLOCK
 62
     0
100
AcDbLine
 10
4.043322460130791
 20
-1.374246041773601
 30
0.0
 11
3.910313170041179
 21
-1.585926292977763
 31
0.0
  0
LINE
  5
8E
330
8C
100
AcDbEntity
  8
0
  6
BYBLOCK
 62
     0
100
AcDbLine
 10
4.082657940688066
 20
-1.546590812420488
 30
0.0
 11
4.003986979573515
 21
-1.201901271126714
 31
0.0
  0
LINE
  5
8F
330
8C
100
AcDbEntity
  8
0
  6
BYBLOCK
 62
     0
100
AcDbLine
 10
3.967183728134831
 20
-1.197017961166394
 30
0.0
 11
4.342183728134831
 21
-1.197017961166394
 31
0.0
  0
LINE
  5
90
330
8C
100
AcDbEntity
  8
0
  6
BYBLOCK
 62
     0
100
AcDbLine
 10
4.154683728134831
 20
-1.384517961166394
 30
0.0
 11
4.154683728134831
 21
-1.009517961166394
 31
0.0
  0
TEXT
  5
91
330
8C
100
AcDbEntity
  8
0
  6
BYBLOCK
 62
     0
100
AcDbText
 10
3.608541792603253
 20
-2.183659285377934
 30
0.0
 40
0.125
  1
%%c7/16
 50
57.85679884512127
 72
     1
 11
3.699715127399293
 21
-1.921086690717688
 31
0.0
100
AcDbText
 73
     2
  0
POINT
  5
92
330
8C
100
AcDbEntity
  8
DEFPOINTS
  6
BYBLOCK
 62
     0
100
AcDbPoint
 10
4.043322460130791
 20
-1.374246041773601
 30
0.0
  0
POINT
  5
93
330
8C
100
AcDbEntity
  8
DEFPOINTS
  6
BYBLOCK
 62
     0
100
AcDbPoint
 10
4.26604499613887
 20
-1.019789880559186
 30
0.0
  0
ENDBLK
  5
95
330
8C
100
AcDbEntity
  8
0
100
AcDbBlockEnd
  0
ENDSEC
  0
SECTION
  2
ENTITIES
  0
ARC
  5
1E
330
2
100
AcDbEntity
  8
ADP1DETAIL
100
AcDbCircle
 10
5.127427566713595
 20
0.8207087576081534
 30
0.0
 40
0.0312022264936696
100
AcDbArc
 50
270.0
 51
0.0
  0
LINE
  5
20
330
2
100
AcDbEntity
  8
ADP1DETAIL
100
AcDbLine
 10
5.158629793207267
 20
0.8207087576081534
 30
0.0
 11
5.158629793207267
 21
1.122004074815806
 31
0.0
  0
LINE
  5
21
330
2
100
AcDbEntity
  8
ADP2DETAIL
  6
HIDDEN2
100
AcDbLine
 10
4.945716320867549
 20
1.040726893964732
 30
0.0
 11
4.945716320867549
 21
0.9151167125396085
 31
0.0
  0
LINE
  5
23
330
2
100
AcDbEntity
  8
ADP2DETAIL
  6
HIDDEN2
100
AcDbLine
 10
4.945716320867549
 20
0.9151167125396085
 30
0.0
 11
5.071394403834911
 21
0.7821176950590761
 31
0.0
  0
LINE
  5
24
330
2
100
AcDbEntity
  8
ADP2DETAIL
  6
HIDDEN2
100
AcDbLine
 10
4.73132432054238
 20
1.048115730020137
 30
0.0
 11
4.73132432054238
 21
0.9151167125396085
 31
0.0
  0
LINE
  5
25
330
2
100
AcDbEntity
  8
ADP2DETAIL
  6
HIDDEN2
100
AcDbLine
 10
4.73132432054238
 20
0.9151167125396085
 30
0.0
 11
4.635217551214402
 21
0.7895065311144811
 31
0.0
  0
LINE
  5
26
330
2
100
AcDbEntity
  8
ADP2DETAIL
  6
HIDDEN2
100
AcDbLine
 10
4.723931492132538
 20
0.9151167125396085
 30
0.0
 11
4.945716320867549
 21
0.9151167125396085
 31
0.0
  0
LWPOLYLINE
  5
27
330
2
100
AcDbEntity
  8
ADP1DETAIL
100
AcDbPolyline
 90
        3
 70
     0
 43
0.0
 10
4.161443651826689
 20
-0.6639255520718544
 42
0.3800457981514723
 10
4.028372740449486
 20
-0.7821469131999523
 10
3.897808048795197
 20
-0.7754590847120806
  0
CIRCLE
  5
2C
330
2
100
AcDbEntity
  8
ADP1DETAIL
100
AcDbCircle
 10
4.154683728134831
 20
-1.197017961166393
 30
0.0
 40
0.2093110712962469
  0
LWPOLYLINE
  5
2D
330
2
100
AcDbEntity
  8
ADP1DETAIL
100
AcDbPolyline
 90
        3
 70
     0
 43
0.0
 10
4.161443651826686
 20
-0.6639255520718544
 42
-0.3800457981514723
 10
4.294514563203889
 20
-0.7821469131999523
 10
4.411559344655677
 20
-0.7754590847120806
  0
LWPOLYLINE
  5
32
330
2
100
AcDbEntity
  8
ADP1DETAIL
100
AcDbPolyline
 90
        7
 70
     0
 43
0.0
 10
4.316920962927933
 20
0.7914644386632035
 10
4.303469033442328
 20
-0.2065062208568196
 42
0.0995495467782223
 10
4.403081173459322
 20
-0.7851889766082876
 42
0.530312501866907
 10
4.484016017382155
 20
-0.8038561665585534
 10
4.770400919931009
 20
-0.6482962901183718
 42
-0.2607256457982128
 10
5.087547875309261
 20
-0.6268715057057129
 10
5.15514672837462
 20
-0.7214272081562703
  0
LWPOLYLINE
  5
3B
330
2
100
AcDbEntity
  8
ADP1DETAIL
100
AcDbPolyline
 90
        5
 70
     0
 43
0.0
 10
4.479968154607667
 20
0.7821176950590761
 10
4.443004036118767
 20
0.0284565907499483
 42
0.1110981312721881
 10
4.502146639837202
 20
-0.3114297890067825
 42
0.5757162225684706
 10
4.613039065984867
 20
-0.3262074611175927
 42
-0.3652398506829423
 10
5.236265314361779
 20
-0.3432043168319292
  0
DIMENSION
  5
42
330
2
100
AcDbEntity
  8
ADPDIM
100
AcDbDimension
  2
*D0
 10
5.818914877648506
 20
1.048115730020137
 30
0.0
 11
5.818914877648506
 21
-0.0744511155731284
 31
0.0
100
AcDbAlignedDimension
 13
4.244683728134829
 23
-1.197017961166393
 33
0.0
 14
5.152715516343199
 24
1.048115730020137
 34
0.0
 50
90.0
100
AcDbRotatedDimension
  0
ARC
  5
52
330
2
100
AcDbEntity
  8
ADP1DETAIL
100
AcDbCircle
 10
3.193768443284199
 20
0.8207087576081534
 30
0.0
 40
0.0312022264936696
100
AcDbArc
 50
180.0
 51
270.0
  0
LINE
  5
53
330
2
100
AcDbEntity
  8
ADP1DETAIL
100
AcDbLine
 10
3.162566216790529
 20
1.122004074815806
 30
0.0
 11
3.162566216790529
 21
0.8207087576081534
 31
0.0
  0
LINE
  5
54
330
2
100
AcDbEntity
  8
ADP2DETAIL
  6
HIDDEN2
100
AcDbLine
 10
3.341472650172573
 20
0.9151167125396085
 30
0.0
 11
3.563257478907588
 21
0.9151167125396085
 31
0.0
  0
LINE
  5
55
330
2
100
AcDbEntity
  8
ADP2DETAIL
  6
HIDDEN2
100
AcDbLine
 10
3.348865478582419
 20
0.9151167125396085
 30
0.0
 11
3.25275870925444
 21
0.7895065311144811
 31
0.0
  0
LINE
  5
56
330
2
100
AcDbEntity
  8
ADP2DETAIL
  6
HIDDEN2
100
AcDbLine
 10
3.348865478582419
 20
1.048115730020137
 30
0.0
 11
3.348865478582419
 21
0.9151167125396085
 31
0.0
  0
LINE
  5
57
330
2
100
AcDbEntity
  8
ADP2DETAIL
  6
HIDDEN2
100
AcDbLine
 10
3.563257478907588
 20
1.040726893964732
 30
0.0
 11
3.563257478907588
 21
0.9151167125396085
 31
0.0
  0
POINT
  5
58
330
2
100
AcDbEntity
  8
ADP1DETAIL
100
AcDbPoint
 10
1.416064127830721
 20
0.606539071851683
 30
0.0
  0
ARC
  5
59
330
2
100
AcDbEntity
  8
ADP1DETAIL
100
AcDbCircle
 10
1.549752356502399
 20
1.096380359038548
 30
0.0
 40
0.0478362383015301
100
AcDbArc
 50
317.0868774658748
 51
120.2629477187347
  0
ARC
  5
5A
330
2
100
AcDbEntity
  8
ADP1DETAIL
100
AcDbCircle
 10
2.006113153020677
 20
0.6721089187786001
 30
0.0
 40
0.5752780623039437
100
AcDbArc
 50
137.0868774658745
 51
152.4487575162419
  0
POINT
  5
5B
330
2
100
AcDbEntity
  8
ADP1DETAIL
100
AcDbPoint
 10
0.919001332782156
 20
0.6829434687949987
 30
0.0
  0
LINE
  5
5C
330
2
100
AcDbEntity
  8
ADP2DETAIL
  6
HIDDEN2
100
AcDbLine
 10
1.076160432663885
 20
0.9677543554850526
 30
0.0
 11
1.297945261398899
 21
0.9677543554850526
 31
0.0
  0
ARC
  5
5D
330
2
100
AcDbEntity
  8
ADP1DETAIL
100
AcDbCircle
 10
0.8330999975564672
 20
1.054462868744501
 30
0.0
 40
0.0866864160821805
100
AcDbArc
 50
61.03846996412078
 51
135.2130746860009
  0
ARC
  5
5E
330
2
100
AcDbEntity
  8
ADP1DETAIL
100
AcDbCircle
 10
0.9008386068019358
 20
1.09705496315736
 30
0.0
 40
0.1305764479342782
100
AcDbArc
 50
171.8655610995819
 51
241.2893160030049
  0
LINE
  5
5F
330
2
100
AcDbEntity
  8
ADP2DETAIL
  6
HIDDEN2
100
AcDbLine
 10
1.08355326107373
 20
1.034253864225317
 30
0.0
 11
1.08355326107373
 21
0.9677543554850526
 31
0.0
  0
LINE
  5
60
330
2
100
AcDbEntity
  8
ADP2DETAIL
  6
HIDDEN2
100
AcDbLine
 10
1.08355326107373
 20
0.9677543554850526
 30
0.0
 11
0.9874464917457526
 21
0.8421441740599252
 31
0.0
  0
LINE
  5
61
330
2
100
AcDbEntity
  8
ADP2DETAIL
  6
HIDDEN2
100
AcDbLine
 10
1.297945261398899
 20
1.030559446197614
 30
0.0
 11
1.297945261398899
 21
0.9677543554850526
 31
0.0
  0
ARC
  5
62
330
2
100
AcDbEntity
  8
ADP1DETAIL
100
AcDbCircle
 10
1.18251677898564
 20
1.189286950372246
 30
0.0
 40
0.4016997416617139
100
AcDbArc
 50
210.9774156149394
 51
321.3131376158102
  0
ARC
  5
63
330
2
100
AcDbEntity
  8
ADP1DETAIL
100
AcDbCircle
 10
1.193859810243842
 20
1.706322612698814
 30
0.0
 40
0.6583429579953889
100
AcDbArc
 50
241.0384699641209
 51
300.2629477187347
  0
LINE
  5
64
330
2
100
AcDbEntity
  8
ADP2DETAIL
  6
HIDDEN2
100
AcDbLine
 10
1.297945261398899
 20
0.9677543554850526
 30
0.0
 11
1.423623344366258
 21
0.8347553380045219
 31
0.0
  0
POINT
  5
65
330
2
100
AcDbEntity
  8
ADP1DETAIL
100
AcDbPoint
 10
1.09743412939398
 20
-0.2848456950238494
 30
0.0
  0
POINT
  5
66
330
2
100
AcDbEntity
  8
ADP1DETAIL
100
AcDbPoint
 10
0.7023328785646424
 20
0.1099104101980211
 30
0.0
  0
POINT
  5
67
330
2
100
AcDbEntity
  8
ADP1DETAIL
100
AcDbPoint
 10
-0.0496339026695598
 20
-0.0811006229213232
 30
0.0
  0
POINT
  5
68
330
2
100
AcDbEntity
  8
ADP1DETAIL
100
AcDbPoint
 10
-0.4574803308216062
 20
0.0207719335104684
 30
0.0
  0
POINT
  5
69
330
2
100
AcDbEntity
  8
ADP1DETAIL
100
AcDbPoint
 10
-0.0496339026695598
 20
-0.8069424754049308
 30
0.0
  0
POINT
  5
6A
330
2
100
AcDbEntity
  8
ADP1DETAIL
100
AcDbPoint
 10
-0.8143459240452532
 20
-0.7050699189731402
 30
0.0
  0
ARC
  5
6B
330
2
100
AcDbEntity
  8
ADP2DETAIL
  6
HIDDEN2
100
AcDbCircle
 10
-0.6126858657357321
 20
-2.322161503338677
 30
0.0
 40
1.945658231413955
100
AcDbArc
 50
56.8952198062389
 51
95.87370901362232
  0
LINE
  5
6C
330
2
100
AcDbEntity
  8
ADP1DETAIL
100
AcDbLine
 10
-0.9941072525837785
 20
-2.229427854505602
 30
0.0
 11
-0.9927787206570776
 21
-0.1575050198646388
 31
0.0
  0
LWPOLYLINE
  5
6D
330
2
100
AcDbEntity
  8
ADP1DETAIL
100
AcDbPolyline
 90
        6
 70
     0
 43
0.0
 10
3.992446430522941
 20
0.7914644386632035
 10
4.017084130893482
 20
-0.2065062208568196
 42
-0.0995495467782223
 10
3.917471990876488
 20
-0.7851889766082876
 42
-0.530312501866907
 10
3.836537146953651
 20
-0.8038561665585534
 10
3.550152244404801
 20
-0.6482962901183718
 42
0.4596219581820889
 10
3.181260256557423
 20
-0.7214272081562703
  0
LWPOLYLINE
  5
75
330
2
100
AcDbEntity
  8
ADP1DETAIL
100
AcDbPolyline
 90
        5
 70
     0
 43
0.0
 10
3.844184958481679
 20
0.7821176950590761
 10
3.881149076970582
 20
0.0284565907499483
 42
-0.1110981312721881
 10
3.822006473252147
 20
-0.3114297890067825
 42
-0.5757162225684706
 10
3.711114047104479
 20
-0.3262074611175927
 42
0.3909526512324399
 10
3.059582283348508
 20
-0.3432043168319292
  0
ARC
  5
7C
330
2
100
AcDbEntity
  8
ADP1DETAIL
100
AcDbCircle
 10
4.15468372813483
 20
-1.197017961166393
 30
0.0
 40
1.375
100
AcDbArc
 50
101.7267331206353
 51
77.64981711269152
  0
ARC
  5
7D
330
2
100
AcDbEntity
  8
ADP1DETAIL
100
AcDbCircle
 10
4.168229521131112
 20
-1.178808025312713
 30
0.0
 40
1.082863804475734
100
AcDbArc
 50
153.2363039681812
 51
26.33402216344931
  0
LINE
  5
7E
330
2
100
AcDbEntity
  8
ADP1DETAIL
100
AcDbLine
 10
5.158629793207267
 20
1.122004074815806
 30
0.0
 11
3.162566216790529
 21
1.122004074815806
 31
0.0
  0
LINE
  5
7F
330
2
100
AcDbEntity
  8
ADP1DETAIL
100
AcDbLine
 10
3.193768443284199
 20
0.7895065311144811
 30
0.0
 11
5.127427566713595
 21
0.7895065311144811
 31
0.0
  0
DIMENSION
  5
80
330
2
100
AcDbEntity
  8
ADPDIM
100
AcDbDimension
  2
*D3
 10
5.231068831650945
 20
-0.3414362240257498
 30
0.0
 11
2.507488342451078
 21
-2.506317286184651
 31
0.0
 70
     3
100
AcDbDiametricDimension
 15
3.078298624618715
 25
-2.052599698307037
 35
0.0
 40
0.0
  0
DIMENSION
  5
8B
330
2
100
AcDbEntity
  8
ADPDIM
100
AcDbDimension
  2
*D5
 10
4.26604499613887
 20
-1.019789880559186
 30
0.0
 11
3.699715127399293
 21
-1.921086690717688
 31
0.0
 70
     3
100
AcDbDiametricDimension
 15
4.043322460130791
 25
-1.374246041773601
 35
0.0
 40
0.0
  0
DIMENSION
  5
96
330
2
100
AcDbEntity
  8
ADPDIM
100
AcDbDimension
  2
*D1
 10
5.158629793207267
 20
1.62951802753942
 30
0.0
 11
4.160598004998898
 21
1.62951802753942
 31
0.0
100
AcDbAlignedDimension
 13
3.162566216790529
 23
1.122004074815806
 33
0.0
 14
5.158629793207267
 24
1.122004074815806
 34
0.0
100
AcDbRotatedDimension
  0
DIMENSION
  5
A4
330
2
100
AcDbEntity
  8
ADPDIM
100
AcDbDimension
  2
*D2
 10
4.847903444604774
 20
1.35051802753942
 30
0.0
 11
4.160403444604774
 21
1.35051802753942
 31
0.0
100
AcDbAlignedDimension
 13
3.472903444604774
 23
1.133518027539421
 33
0.0
 14
4.847903444604774
 24
1.133518027539421
 34
0.0
100
AcDbRotatedDimension
  0
LINE
  5
B2
330
2
100
AcDbEntity
  8
ADP2DETAIL
  6
HIDDEN2
100
AcDbLine
 10
3.563257478907588
 20
0.9151167125396085
 30
0.0
 11
3.688935561874946
 21
0.7821176950590761
 31
0.0
  0
LINE
  5
B3
330
2
100
AcDbEntity
  8
ADP2DETAIL
  6
HIDDEN2
100
AcDbLine
 10
5.152715516343199
 20
1.048115730020137
 30
0.0
 11
3.156651939926461
 21
1.048115730020137
 31
0.0
  0
LINE
  5
B4
330
2
100
AcDbEntity
  8
ADP1DETAIL
100
AcDbLine
 10
-1.295311306326732
 20
0.168164038008483
 30
0.0
 11
-1.170311306326732
 21
0.168164038008483
 31
0.0
  0
LINE
  5
B5
330
2
100
AcDbEntity
  8
ADP2DETAIL
  6
HIDDEN2
100
AcDbLine
 10
-1.239134620308239
 20
-0.084898942041209
 30
0.0
 11
-1.290884419177151
 21
-0.084898942041209
 31
0.0
  0
LINE
  5
B6
330
2
100
AcDbEntity
  8
ADP2DETAIL
  6
HIDDEN2
100
AcDbLine
 10
-1.014383850312961
 20
-1.024245876834843
 30
0.0
 11
-1.295311306326732
 21
-1.024245876834843
 31
0.0
  0
LINE
  5
B7
330
2
100
AcDbEntity
  8
ADP2DETAIL
  6
HIDDEN2
100
AcDbLine
 10
-1.295311306326732
 20
-1.452798273498054
 30
0.0
 11
-1.014383850312961
 21
-1.452798273498054
 31
0.0
  0
LINE
  5
B8
330
2
100
AcDbEntity
  8
ADP1DETAIL
100
AcDbLine
 10
-1.170311306326732
 20
-2.581835961991516
 30
0.0
 11
-1.295311306326732
 21
-2.581835961991516
 31
0.0
  0
LINE
  5
B9
330
2
100
AcDbEntity
  8
ADP2DETAIL
  6
HIDDEN2
100
AcDbLine
 10
-1.290884419177151
 20
-2.331835961991516
 30
0.0
 11
-1.239134620308239
 21
-2.331835961991516
 31
0.0
  0
LINE
  5
BA
330
2
100
AcDbEntity
  8
ADP1DETAIL
100
AcDbLine
 10
-1.170311306326732
 20
0.168164038008483
 30
0.0
 11
-1.170311306326732
 21
-2.581835961991516
 31
0.0
  0
LINE
  5
BB
330
2
100
AcDbEntity
  8
ADP1DETAIL
100
AcDbLine
 10
-1.295311306326732
 20
-2.581835961991516
 30
0.0
 11
-1.295311306326732
 21
0.168164038008483
 31
0.0
  0
LINE
  5
BC
330
2
100
AcDbEntity
  8
ADP2DETAIL
  6
HIDDEN2
100
AcDbLine
 10
-1.239134620308239
 20
-2.331835961991516
 30
0.0
 11
-1.239134620308239
 21
-0.084898942041209
 31
0.0
  0
LINE
  5
BD
330
2
100
AcDbEntity
  8
ADP1DETAIL
100
AcDbLine
 10
-1.170311306326732
 20
-2.581835961991516
 30
0.0
 11
-0.9941072525837785
 21
-2.229427854505602
 31
0.0
  0
LWPOLYLINE
  5
BE
330
2
100
AcDbEntity
  8
ADP1DETAIL
100
AcDbPolyline
 90
        5
 70
     0
 43
0.0
 10
-1.170311306326732
 20
0.168164038008483
 10
-0.9163075310832653
 20
0.1735807681581547
 42
-0.2091906496295421
 10
-0.4574803308216062
 20
0.0335060132547054
 42
0.2454490054584305
 10
0.7023328785646424
 20
0.1099104101980211
 42
0.3232010559150557
 10
0.8381113720030864
 20
0.982532027595861
 42
-7.87949928895873
  0
DIMENSION
  5
C5
330
2
100
AcDbEntity
  8
ADPDIM
100
AcDbDimension
  2
*D4
 10
1.201336458228887
 20
1.33642853011063
 30
0.0
 11
-0.0469874240489221
 21
1.33642853011063
 31
0.0
100
AcDbAlignedDimension
 13
-1.295311306326732
 23
0.168164038008483
 33
0.0
 14
1.201336458228887
 24
1.048022111349297
 34
0.0
100
AcDbRotatedDimension
  0
LWPOLYLINE
  5
D3
330
2
100
AcDbEntity
  8
ADP1DETAIL
100
AcDbPolyline
 90
        5
 70
     0
 43
0.0
 10
-0.9927787206570776
 20
-0.8706127926040087
 42
-0.7383849134191704
 10
-0.8143459240452532
 20
-0.7050699189731402
 42
0.2873225673891983
 10
1.09743412939398
 20
-0.2848456950238494
 42
0.2165501281883072
 10
1.403318887689231
 20
0.7593478657383135
 42
-0.2749557049763339
 10
1.467044899940335
 20
0.9121567003859997
 42
-0.3308594392155275
  0
LWPOLYLINE
  5
DA
330
2
100
AcDbEntity
  8
ADP1DETAIL
100
AcDbPolyline
 90
        5
 70
     0
 43
0.0
 10
-0.9927787206570776
 20
-0.1575050198646388
 42
-0.7144928070793187
 10
-0.6868938995430434
 20
-0.1065687416487431
 42
0.0867739459923379
 10
-0.0623791428110512
 20
-0.2466434965521915
 42
0.3893804549036129
 10
0.982727282214477
 20
0.4027939589881009
 42
0.2237134642734406
 10
0.8807657379952498
 20
0.9376248191134205
 42
-1.963199355422883
  0
ARC
  5
E1
330
2
100
AcDbEntity
  8
ADP2DETAIL
  6
HIDDEN2
100
AcDbCircle
 10
-0.6635765732076007
 20
-0.6779445832031388
 30
0.0
 40
0.3267752639154635
100
AcDbArc
 50
116.9739265533215
 51
196.1321444029785
  0
TEXT
  5
EC
330
2
100
AcDbEntity
  8
ADPDIM
100
AcDbText
 10
-4.053884430361162
 20
-3.619931562001785
 30
0.0
 40
0.125
  1
J U L I U S  B L U M  &  C O . ,  I N C .      ( 8 0 0 )  5 2 6 - 6 2 9 3        W W W . J U L I U S B L U M . C O M        P A R T  N o .  3 8 8
 41
1.25
  7
ARIAL_WIDE
 72
     1
 11
2.38082310715589
 21
-3.494931562001785
 31
0.0
100
AcDbText
 73
     3
  0
ENDSEC
  0
SECTION
  2
OBJECTS
  0
DICTIONARY
  5
1B
330
0
100
AcDbDictionary
  3
ACAD_GROUP
350
19
  3
ACAD_LAYOUT
350
E5
  3
ACAD_MLINESTYLE
350
1A
  3
ACAD_PLOTSETTINGS
350
E6
  3
ACAD_PLOTSTYLENAME
350
E3
  3
ACDBHEADERROUNDTRIPXREC
350
28E
  3
ACDBVARIABLEDICTIONARY
350
146
  0
DICTIONARY
  5
13E
330
2
100
AcDbDictionary
280
     1
  3
ACAD_LAYOUTSELFREF
360
2AE
  0
DICTIONARY
  5
140
330
8
100
AcDbDictionary
280
     1
  3
ACAD_LAYOUTSELFREF
360
2AF
  0
DICTIONARY
  5
19
102
{ACAD_REACTORS
330
1B
102
}
330
1B
100
AcDbDictionary
  0
DICTIONARY
  5
E5
102
{ACAD_REACTORS
330
1B
102
}
330
1B
100
AcDbDictionary
  0
DICTIONARY
  5
1A
102
{ACAD_REACTORS
330
1B
102
}
330
1B
100
AcDbDictionary
  3
STANDARD
350
1C
  0
DICTIONARY
  5
E6
102
{ACAD_REACTORS
330
1B
102
}
330
1B
100
AcDbDictionary
  0
ACDBDICTIONARYWDFLT
  5
E3
102
{ACAD_REACTORS
330
1B
102
}
330
1B
100
AcDbDictionary
281
     1
  3
Normal
350
E4
100
AcDbDictionaryWithDefault
340
E4
  0
DICTIONARY
  5
28E
102
{ACAD_REACTORS
330
1B
102
}
330
1B
100
AcDbDictionary
  3
CEPSNTYPE
350
298
  3
FINGERPRINTGUID
350
299
  3
HYPERLINKBASE
350
291
  3
INSUNITS
350
297
  3
LAYOUTDICT
350
293
  3
LWETCUNION
350
296
  3
PLOTSETDICT
350
294
  3
PLOTSTYLNAMDICT
350
295
  3
PSVPSCALE
350
29B
  3
PUCSBASE
350
29E
  3
PUCSORGBACK
350
2A4
  3
PUCSORGBOTTOM
350
2A0
  3
PUCSORGFRONT
350
2A3
  3
PUCSORGLEFT
350
2A1
  3
PUCSORGRIGHT
350
2A2
  3
PUCSORGTOP
350
29F
  3
PUCSORTHOREF
350
29C
  3
PUCSORTHOVIEW
350
29D
  3
STYLESHEET
350
292
  3
TSTACKALIGN
350
28F
  3
TSTACKSIZE
350
290
  3
UCSBASE
350
2A7
  3
UCSORGBACK
350
2AD
  3
UCSORGBOTTOM
350
2A9
  3
UCSORGFRONT
350
2AC
  3
UCSORGLEFT
350
2AA
  3
UCSORGRIGHT
350
2AB
  3
UCSORGTOP
350
2A8
  3
UCSORTHOREF
350
2A5
  3
UCSORTHOVIEW
350
2A6
  3
VERSIONGUID
350
29A
  0
DICTIONARY
  5
146
102
{ACAD_REACTORS
330
1B
102
}
330
1B
100
AcDbDictionary
  3
DIMASSOC
350
147
  0
XRECORD
  5
2AE
102
{ACAD_REACTORS
330
13E
102
}
330
13E
100
AcDbXrecord
340
2
  0
XRECORD
  5
2AF
102
{ACAD_REACTORS
330
140
102
}
330
140
100
AcDbXrecord
340
8
  0
MLINESTYLE
  5
1C
102
{ACAD_REACTORS
330
1A
102
}
330
1A
100
AcDbMlineStyle
  2
STANDARD
 70
     0
  3

 62
     0
 51
90.0
 52
90.0
 71
     2
 49
0.5
 62
   256
  6
BYLAYER
 49
-0.5
 62
   256
  6
BYLAYER
  0
ACDBPLACEHOLDER
  5
E4
102
{ACAD_REACTORS
330
E3
102
}
330
E3
100
AcDbPlaceHolder
280
     0
  0
XRECORD
  5
298
102
{ACAD_REACTORS
330
28E
102
}
330
28E
100
AcDbXrecord
 90
        0
  0
XRECORD
  5
299
102
{ACAD_REACTORS
330
28E
102
}
330
28E
100
AcDbXrecord
  1
{30A63E27-2749-4270-9C98-9DFFD5621B83}
  0
XRECORD
  5
291
102
{ACAD_REACTORS
330
28E
102
}
330
28E
100
AcDbXrecord
  1

  0
XRECORD
  5
297
102
{ACAD_REACTORS
330
28E
102
}
330
28E
100
AcDbXrecord
 90
        0
  0
XRECORD
  5
293
102
{ACAD_REACTORS
330
28E
102
}
330
28E
100
AcDbXrecord
340
E5
  0
XRECORD
  5
296
102
{ACAD_REACTORS
330
28E
102
}
330
28E
100
AcDbXrecord
 90
    14877
  0
XRECORD
  5
294
102
{ACAD_REACTORS
330
28E
102
}
330
28E
100
AcDbXrecord
340
E6
  0
XRECORD
  5
295
102
{ACAD_REACTORS
330
28E
102
}
330
28E
100
AcDbXrecord
340
E3
  0
XRECORD
  5
29B
102
{ACAD_REACTORS
330
28E
102
}
330
28E
100
AcDbXrecord
 40
0.0
  0
XRECORD
  5
29E
102
{ACAD_REACTORS
330
28E
102
}
330
28E
100
AcDbXrecord
340
0
  0
XRECORD
  5
2A4
102
{ACAD_REACTORS
330
28E
102
}
330
28E
100
AcDbXrecord
 10
0.0
 20
0.0
 30
0.0
  0
XRECORD
  5
2A0
102
{ACAD_REACTORS
330
28E
102
}
330
28E
100
AcDbXrecord
 10
0.0
 20
0.0
 30
0.0
  0
XRECORD
  5
2A3
102
{ACAD_REACTORS
330
28E
102
}
330
28E
100
AcDbXrecord
 10
0.0
 20
0.0
 30
0.0
  0
XRECORD
  5
2A1
102
{ACAD_REACTORS
330
28E
102
}
330
28E
100
AcDbXrecord
 10
0.0
 20
0.0
 30
0.0
  0
XRECORD
  5
2A2
102
{ACAD_REACTORS
330
28E
102
}
330
28E
100
AcDbXrecord
 10
0.0
 20
0.0
 30
0.0
  0
XRECORD
  5
29F
102
{ACAD_REACTORS
330
28E
102
}
330
28E
100
AcDbXrecord
 10
0.0
 20
0.0
 30
0.0
  0
XRECORD
  5
29C
102
{ACAD_REACTORS
330
28E
102
}
330
28E
100
AcDbXrecord
340
0
  0
XRECORD
  5
29D
102
{ACAD_REACTORS
330
28E
102
}
330
28E
100
AcDbXrecord
 70
     0
  0
XRECORD
  5
292
102
{ACAD_REACTORS
330
28E
102
}
330
28E
100
AcDbXrecord
  1

  0
XRECORD
  5
28F
102
{ACAD_REACTORS
330
28E
102
}
330
28E
100
AcDbXrecord
 90
        1
  0
XRECORD
  5
290
102
{ACAD_REACTORS
330
28E
102
}
330
28E
100
AcDbXrecord
 90
       70
  0
XRECORD
  5
2A7
102
{ACAD_REACTORS
330
28E
102
}
330
28E
100
AcDbXrecord
340
0
  0
XRECORD
  5
2AD
102
{ACAD_REACTORS
330
28E
102
}
330
28E
100
AcDbXrecord
 10
0.0
 20
0.0
 30
0.0
  0
XRECORD
  5
2A9
102
{ACAD_REACTORS
330
28E
102
}
330
28E
100
AcDbXrecord
 10
0.0
 20
0.0
 30
0.0
  0
XRECORD
  5
2AC
102
{ACAD_REACTORS
330
28E
102
}
330
28E
100
AcDbXrecord
 10
0.0
 20
0.0
 30
0.0
  0
XRECORD
  5
2AA
102
{ACAD_REACTORS
330
28E
102
}
330
28E
100
AcDbXrecord
 10
0.0
 20
0.0
 30
0.0
  0
XRECORD
  5
2AB
102
{ACAD_REACTORS
330
28E
102
}
330
28E
100
AcDbXrecord
 10
0.0
 20
0.0
 30
0.0
  0
XRECORD
  5
2A8
102
{ACAD_REACTORS
330
28E
102
}
330
28E
100
AcDbXrecord
 10
0.0
 20
0.0
 30
0.0
  0
XRECORD
  5
2A5
102
{ACAD_REACTORS
330
28E
102
}
330
28E
100
AcDbXrecord
340
0
  0
XRECORD
  5
2A6
102
{ACAD_REACTORS
330
28E
102
}
330
28E
100
AcDbXrecord
 70
     0
  0
XRECORD
  5
29A
102
{ACAD_REACTORS
330
28E
102
}
330
28E
100
AcDbXrecord
  1
{63D9AC42-F5E1-4B74-BB32-D40BF66BF325}
  0
DICTIONARYVAR
  5
147
102
{ACAD_REACTORS
330
146
102
}
330
146
100
DictionaryVariables
280
     0
  1
1
  0
ENDSEC
  0
EOF
