  0
SECTION
  2
HEADER
  9
$ACADVER
  1
AC1014
  9
$ACADMAINTVER
 70
     9
  9
$DWGCODEPAGE
  3
ANSI_1252
  9
$INSBASE
 10
-1.295311306326732
 20
-2.581835961991516
 30
0.0
  9
$EXTMIN
 10
-4.169038837295759
 20
-3.354785150541506
 30
0.0
  9
$EXTMAX
 10
8.700376237738346
 20
1.714089447586149
 30
0.0
  9
$LIMMIN
 10
0.0
 20
0.0
  9
$LIMMAX
 10
36.0
 20
36.0
  9
$ORTHOMODE
 70
     1
  9
$REGENMODE
 70
     1
  9
$FILLMODE
 70
     1
  9
$QTEXTMODE
 70
     0
  9
$MIRRTEXT
 70
     1
  9
$DRAGMODE
 70
     0
  9
$LTSCALE
 40
1.0
  9
$OSMODE
 70
    37
  9
$ATTMODE
 70
     1
  9
$TEXTSIZE
 40
0.2
  9
$TRACEWID
 40
0.05
  9
$TEXTSTYLE
  7
STANDARD
  9
$CLAYER
  8
ADPDIM
  9
$CELTYPE
  6
BYLAYER
  9
$CECOLOR
 62
   256
  9
$CELTSCALE
 40
1.0
  9
$DELOBJ
 70
     1
  9
$DISPSILH
 70
     0
  9
$DIMSCALE
 40
1.0
  9
$DIMASZ
 40
0.125
  9
$DIMEXO
 40
0.0625
  9
$DIMDLI
 40
0.38
  9
$DIMRND
 40
0.0
  9
$DIMDLE
 40
0.0
  9
$DIMEXE
 40
0.18
  9
$DIMTP
 40
0.0
  9
$DIMTM
 40
0.0
  9
$DIMTXT
 40
0.125
  9
$DIMCEN
 40
0.1875
  9
$DIMTSZ
 40
0.125
  9
$DIMTOL
 70
     0
  9
$DIMLIM
 70
     0
  9
$DIMTIH
 70
     0
  9
$DIMTOH
 70
     0
  9
$DIMSE1
 70
     0
  9
$DIMSE2
 70
     0
  9
$DIMTAD
 70
     0
  9
$DIMZIN
 70
     2
  9
$DIMBLK
  1

  9
$DIMASO
 70
     1
  9
$DIMSHO
 70
     1
  9
$DIMPOST
  1

  9
$DIMAPOST
  1

  9
$DIMALT
 70
     0
  9
$DIMALTD
 70
     1
  9
$DIMALTF
 40
25.4
  9
$DIMLFAC
 40
1.0
  9
$DIMTOFL
 70
     0
  9
$DIMTVP
 40
0.0
  9
$DIMTIX
 70
     0
  9
$DIMSOXD
 70
     0
  9
$DIMSAH
 70
     0
  9
$DIMBLK1
  1

  9
$DIMBLK2
  1

  9
$DIMSTYLE
  2
STANDARD
  9
$DIMCLRD
 70
     0
  9
$DIMCLRE
 70
     0
  9
$DIMCLRT
 70
     0
  9
$DIMTFAC
 40
1.0
  9
$DIMGAP
 40
0.125
  9
$DIMJUST
 70
     0
  9
$DIMSD1
 70
     0
  9
$DIMSD2
 70
     0
  9
$DIMTOLJ
 70
     1
  9
$DIMTZIN
 70
     0
  9
$DIMALTZ
 70
     0
  9
$DIMALTTZ
 70
     0
  9
$DIMFIT
 70
     3
  9
$DIMUPT
 70
     0
  9
$DIMUNIT
 70
     7
  9
$DIMDEC
 70
     4
  9
$DIMTDEC
 70
     4
  9
$DIMALTU
 70
     2
  9
$DIMALTTD
 70
     2
  9
$DIMTXSTY
  7
STANDARD
  9
$DIMAUNIT
 70
     0
  9
$LUNITS
 70
     5
  9
$LUPREC
 70
     4
  9
$SKETCHINC
 40
0.1
  9
$FILLETRAD
 40
0.062
  9
$AUNITS
 70
     0
  9
$AUPREC
 70
     0
  9
$MENU
  1
acad
  9
$ELEVATION
 40
0.0
  9
$PELEVATION
 40
0.0
  9
$THICKNESS
 40
0.0
  9
$LIMCHECK
 70
     0
  9
$BLIPMODE
 70
     0
  9
$CHAMFERA
 40
0.0
  9
$CHAMFERB
 40
0.0
  9
$CHAMFERC
 40
0.0
  9
$CHAMFERD
 40
0.0
  9
$SKPOLY
 70
     0
  9
$TDCREATE
 40
2450386.499709491
  9
$TDUPDATE
 40
2452297.069329236
  9
$TDINDWG
 40
0.0654665625
  9
$TDUSRTIMER
 40
0.0654665625
  9
$USRTIMER
 70
     1
  9
$ANGBASE
 50
0.0
  9
$ANGDIR
 70
     0
  9
$PDMODE
 70
     0
  9
$PDSIZE
 40
0.0
  9
$PLINEWID
 40
0.0
  9
$COORDS
 70
     2
  9
$SPLFRAME
 70
     0
  9
$SPLINETYPE
 70
     6
  9
$SPLINESEGS
 70
     8
  9
$ATTDIA
 70
     0
  9
$ATTREQ
 70
     1
  9
$HANDLING
 70
 22529
  9
$HANDSEED
  5
510
  9
$SURFTAB1
 70
     6
  9
$SURFTAB2
 70
     6
  9
$SURFTYPE
 70
     6
  9
$SURFU
 70
     6
  9
$SURFV
 70
     6
  9
$UCSNAME
  2

  9
$UCSORG
 10
0.0
 20
0.0
 30
0.0
  9
$UCSXDIR
 10
1.0
 20
0.0
 30
0.0
  9
$UCSYDIR
 10
0.0
 20
1.0
 30
0.0
  9
$PUCSNAME
  2

  9
$PUCSORG
 10
0.0
 20
0.0
 30
0.0
  9
$PUCSXDIR
 10
1.0
 20
0.0
 30
0.0
  9
$PUCSYDIR
 10
0.0
 20
1.0
 30
0.0
  9
$USERI1
 70
     0
  9
$USERI2
 70
     0
  9
$USERI3
 70
     0
  9
$USERI4
 70
     0
  9
$USERI5
 70
     0
  9
$USERR1
 40
0.0
  9
$USERR2
 40
0.0
  9
$USERR3
 40
0.0
  9
$USERR4
 40
0.0
  9
$USERR5
 40
0.0
  9
$WORLDVIEW
 70
     1
  9
$SHADEDGE
 70
     3
  9
$SHADEDIF
 70
    70
  9
$TILEMODE
 70
     1
  9
$MAXACTVP
 70
    15
  9
$PINSBASE
 10
4.403525741743744E+99
 20
7.061986388769092E+99
 30
0.0
  9
$PLIMCHECK
 70
     0
  9
$PEXTMIN
 10
1.000000000000000E+20
 20
1.000000000000000E+20
 30
1.000000000000000E+20
  9
$PEXTMAX
 10
-1.000000000000000E+20
 20
-1.000000000000000E+20
 30
-1.000000000000000E+20
  9
$PLIMMIN
 10
0.0
 20
0.0
  9
$PLIMMAX
 10
12.0
 20
9.0
  9
$UNITMODE
 70
     0
  9
$VISRETAIN
 70
     0
  9
$PLINEGEN
 70
     0
  9
$PSLTSCALE
 70
     1
  9
$TREEDEPTH
 70
  3020
  9
$PICKSTYLE
 70
     1
  9
$CMLSTYLE
  2
STANDARD
  9
$CMLJUST
 70
     0
  9
$CMLSCALE
 40
1.0
  9
$PROXYGRAPHICS
 70
     1
  9
$MEASUREMENT
 70
     0
  0
ENDSEC
  0
SECTION
  2
CLASSES
  0
CLASS
  1
ACDBDICTIONARYWDFLT
  2
AcDbDictionaryWithDefault
  3
AutoCAD 2000
 90
        0
280
     0
281
     0
  0
CLASS
  1
ACDBPLACEHOLDER
  2
AcDbPlaceHolder
  3
AutoCAD 2000
 90
        0
280
     0
281
     0
  0
CLASS
  1
LAYOUT
  2
AcDbLayout
  3
AutoCAD 2000
 90
        0
280
     0
281
     0
  0
CLASS
  1
DICTIONARYVAR
  2
AcDbDictionaryVar
  3
AutoCAD 2000
 90
        0
280
     0
281
     0
  0
CLASS
  1
LONG_TRANSACTION
  2
AcDbLongTransaction
  3
AutoCAD 2000
 90
        0
280
     0
281
     0
  0
CLASS
  1
LWPOLYLINE
  2
AcDbPolyline
  3
AutoCAD 2000
 90
        0
280
     0
281
     1
  0
CLASS
  1
HATCH
  2
AcDbHatch
  3
AutoCAD 2000
 90
        0
280
     0
281
     1
  0
CLASS
  1
XRECORD
  2
AcDbXrecord
  3
AutoCAD 2000
 90
        0
280
     0
281
     0
  0
CLASS
  1
LONG_TRANSACTION
  2
AcDbLongTransaction
  3
AutoCAD 2000
 90
        0
280
     0
281
     0
  0
CLASS
  1
LWPOLYLINE
  2
AcDbPolyline
  3
AutoCAD 2000
 90
        0
280
     0
281
     1
  0
CLASS
  1
HATCH
  2
AcDbHatch
  3
AutoCAD 2000
 90
        0
280
     0
281
     1
  0
CLASS
  1
XRECORD
  2
AcDbXrecord
  3
AutoCAD 2000
 90
        0
280
     0
281
     0
  0
CLASS
  1
LONG_TRANSACTION
  2
AcDbLongTransaction
  3
AutoCAD 2000
 90
        0
280
     0
281
     0
  0
CLASS
  1
LWPOLYLINE
  2
AcDbPolyline
  3
AutoCAD 2000
 90
        0
280
     0
281
     1
  0
CLASS
  1
HATCH
  2
AcDbHatch
  3
AutoCAD 2000
 90
        0
280
     0
281
     1
  0
CLASS
  1
XRECORD
  2
AcDbXrecord
  3
AutoCAD 2000
 90
        0
280
     0
281
     0
  0
CLASS
  1
LONG_TRANSACTION
  2
AcDbLongTransaction
  3
AutoCAD 2000
 90
        0
280
     0
281
     0
  0
CLASS
  1
LWPOLYLINE
  2
AcDbPolyline
  3
AutoCAD 2000
 90
        0
280
     0
281
     1
  0
CLASS
  1
HATCH
  2
AcDbHatch
  3
AutoCAD 2000
 90
        0
280
     0
281
     1
  0
CLASS
  1
XRECORD
  2
AcDbXrecord
  3
AutoCAD 2000
 90
        0
280
     0
281
     0
  0
CLASS
  1
LONG_TRANSACTION
  2
AcDbLongTransaction
  3
AutoCAD 2000
 90
        0
280
     0
281
     0
  0
CLASS
  1
LWPOLYLINE
  2
AcDbPolyline
  3
AutoCAD 2000
 90
        0
280
     0
281
     1
  0
CLASS
  1
HATCH
  2
AcDbHatch
  3
AutoCAD 2000
 90
        0
280
     0
281
     1
  0
CLASS
  1
XRECORD
  2
AcDbXrecord
  3
AutoCAD 2000
 90
        0
280
     0
281
     0
  0
CLASS
  1
LONG_TRANSACTION
  2
AcDbLongTransaction
  3
AutoCAD 2000
 90
        0
280
     0
281
     0
  0
CLASS
  1
LWPOLYLINE
  2
AcDbPolyline
  3
AutoCAD 2000
 90
        0
280
     0
281
     1
  0
CLASS
  1
HATCH
  2
AcDbHatch
  3
AutoCAD 2000
 90
        0
280
     0
281
     1
  0
CLASS
  1
XRECORD
  2
AcDbXrecord
  3
AutoCAD 2000
 90
        0
280
     0
281
     0
  0
CLASS
  1
LONG_TRANSACTION
  2
AcDbLongTransaction
  3
AutoCAD 2000
 90
        0
280
     0
281
     0
  0
CLASS
  1
LWPOLYLINE
  2
AcDbPolyline
  3
AutoCAD 2000
 90
        0
280
     0
281
     1
  0
CLASS
  1
HATCH
  2
AcDbHatch
  3
AutoCAD 2000
 90
        0
280
     0
281
     1
  0
CLASS
  1
XRECORD
  2
AcDbXrecord
  3
AutoCAD 2000
 90
        0
280
     0
281
     0
  0
ENDSEC
  0
SECTION
  2
TABLES
  0
TABLE
  2
VPORT
  5
13
330
0
100
AcDbSymbolTable
 70
     2
  0
VPORT
  5
4B3
330
13
100
AcDbSymbolTableRecord
100
AcDbViewportTableRecord
  2
*ACTIVE
 70
     0
 10
0.0
 20
0.0
 11
1.0
 21
1.0
 12
2.264480312006647
 22
-0.8197717131679569
 13
0.0
 23
0.0
 14
0.5740882589684922
 24
0.5740882589684922
 15
0.5
 25
0.5
 16
0.0
 26
0.0
 36
1.0
 17
0.0
 27
0.0
 37
0.0
 40
8.235312924629573
 41
1.570528967254408
 42
50.0
 43
0.0
 44
0.0
 50
0.0
 51
0.0
 71
     0
 72
   100
 73
     1
 74
     0
 75
     0
 76
     0
 77
     0
 78
     0
  0
ENDTAB
  0
TABLE
  2
LTYPE
  5
F
330
0
100
AcDbSymbolTable
 70
     2
  0
LTYPE
  5
10
330
F
100
AcDbSymbolTableRecord
100
AcDbLinetypeTableRecord
  2
BYBLOCK
 70
     0
  3

 72
    65
 73
     0
 40
0.0
  0
LTYPE
  5
6
330
F
100
AcDbSymbolTableRecord
100
AcDbLinetypeTableRecord
  2
BYLAYER
 70
     0
  3

 72
    65
 73
     0
 40
0.0
  0
LTYPE
  5
5
330
F
100
AcDbSymbolTableRecord
100
AcDbLinetypeTableRecord
  2
CONTINUOUS
 70
     0
  3
Solid line
 72
    65
 73
     0
 40
0.0
  0
LTYPE
  5
2B
330
F
100
AcDbSymbolTableRecord
100
AcDbLinetypeTableRecord
  2
HIDDEN2
 70
     0
  3
_ _ _ _ _ _ _ _ _ _ _ _ _ _ _ _ _ _ _ _ _ _ _ _
 72
    65
 73
     2
 40
0.1875
 49
0.125
 74
     0
 49
-0.0625
 74
     0
  0
ENDTAB
  0
TABLE
  2
LAYER
  5
B
330
0
100
AcDbSymbolTable
 70
     5
  0
LAYER
  5
C
330
B
100
AcDbSymbolTableRecord
100
AcDbLayerTableRecord
  2
0
 70
     0
 62
     7
  6
CONTINUOUS
  0
LAYER
  5
20
330
B
100
AcDbSymbolTableRecord
100
AcDbLayerTableRecord
  2
ADP1DETAIL
 70
     0
 62
     7
  6
CONTINUOUS
  0
LAYER
  5
42
330
B
100
AcDbSymbolTableRecord
100
AcDbLayerTableRecord
  2
DEFPOINTS
 70
     0
 62
     7
  6
CONTINUOUS
  0
LAYER
  5
4
330
B
100
AcDbSymbolTableRecord
100
AcDbLayerTableRecord
  2
ADP2DETAIL
 70
     0
 62
     5
  6
CONTINUOUS
  0
LAYER
  5
1C
330
B
100
AcDbSymbolTableRecord
100
AcDbLayerTableRecord
  2
ADPDIM
 70
     0
 62
     3
  6
CONTINUOUS
  0
ENDTAB
  0
TABLE
  2
STYLE
  5
D
330
0
100
AcDbSymbolTable
 70
     2
  0
STYLE
  5
E
330
D
100
AcDbSymbolTableRecord
100
AcDbTextStyleTableRecord
  2
STANDARD
 70
     0
 40
0.0
 41
1.0
 50
0.0
 71
     0
 42
0.2
  3
txt
  4

  0
STYLE
  5
E3
330
D
100
AcDbSymbolTableRecord
100
AcDbTextStyleTableRecord
  2
ARIAL_WIDE
 70
     0
 40
0.0
 41
1.25
 50
0.0
 71
     0
 42
0.2
  3
ARIAL.TTF
  4

1001
ACAD
1000
Arial
1071
       34
  0
ENDTAB
  0
TABLE
  2
VIEW
  5
11
330
0
100
AcDbSymbolTable
 70
     0
  0
ENDTAB
  0
TABLE
  2
UCS
  5
12
330
0
100
AcDbSymbolTable
 70
     0
  0
ENDTAB
  0
TABLE
  2
APPID
  5
15
330
0
100
AcDbSymbolTable
 70
     1
  0
APPID
  5
16
330
15
100
AcDbSymbolTableRecord
100
AcDbRegAppTableRecord
  2
ACAD
 70
     0
  0
ENDTAB
  0
TABLE
  2
DIMSTYLE
  5
17
330
0
100
AcDbSymbolTable
 70
     1
  0
DIMSTYLE
105
1E
102
{ACAD_REACTORS
330
38
330
56
330
64
330
72
330
B2
330
C8
102
}
330
17
100
AcDbSymbolTableRecord
100
AcDbDimStyleTableRecord
  2
STANDARD
 70
     0
  3

  4

  5

  6

  7

 40
1.0
 41
0.18
 42
0.0625
 43
0.38
 44
0.18
 45
0.0
 46
0.0
 47
0.0
 48
0.0
140
0.18
141
0.09
142
0.0
143
25.4
144
1.0
145
0.0
146
1.0
147
0.09
 71
     0
 72
     0
 73
     1
 74
     1
 75
     0
 76
     0
 77
     0
 78
     0
170
     0
171
     2
172
     0
173
     0
174
     0
175
     0
176
     0
177
     0
178
     0
270
     2
271
     4
272
     4
273
     2
274
     2
340
E
275
     0
280
     0
281
     0
282
     0
283
     1
284
     0
285
     0
286
     0
287
     3
288
     0
  0
ENDTAB
  0
TABLE
  2
BLOCK_RECORD
  5
1
330
0
100
AcDbSymbolTable
 70
     6
  0
BLOCK_RECORD
  5
2
102
{ACAD_XDICTIONARY
360
183
102
}
330
1
100
AcDbSymbolTableRecord
100
AcDbBlockTableRecord
  2
*MODEL_SPACE
  0
BLOCK_RECORD
  5
8
102
{ACAD_XDICTIONARY
360
185
102
}
330
1
100
AcDbSymbolTableRecord
100
AcDbBlockTableRecord
  2
*PAPER_SPACE
  0
BLOCK_RECORD
  5
187
330
1
100
AcDbSymbolTableRecord
100
AcDbBlockTableRecord
  2
*D0
  0
BLOCK_RECORD
  5
196
330
1
100
AcDbSymbolTableRecord
100
AcDbBlockTableRecord
  2
*D1
  0
BLOCK_RECORD
  5
1A3
330
1
100
AcDbSymbolTableRecord
100
AcDbBlockTableRecord
  2
*D2
  0
BLOCK_RECORD
  5
1B0
330
1
100
AcDbSymbolTableRecord
100
AcDbBlockTableRecord
  2
*D3
  0
BLOCK_RECORD
  5
1BD
330
1
100
AcDbSymbolTableRecord
100
AcDbBlockTableRecord
  2
*D4
  0
BLOCK_RECORD
  5
1C7
330
1
100
AcDbSymbolTableRecord
100
AcDbBlockTableRecord
  2
*D5
  0
ENDTAB
  0
ENDSEC
  0
SECTION
  2
BLOCKS
  0
BLOCK
  5
3
330
2
100
AcDbEntity
  8
0
100
AcDbBlockBegin
  2
*MODEL_SPACE
 70
     0
 10
0.0
 20
0.0
 30
0.0
  3
*MODEL_SPACE
  1

  0
ENDBLK
  5
7
330
2
100
AcDbEntity
  8
0
100
AcDbBlockEnd
  0
BLOCK
  5
9
330
8
100
AcDbEntity
 67
     1
  8
0
100
AcDbBlockBegin
  2
*PAPER_SPACE
 70
     0
 10
0.0
 20
0.0
 30
0.0
  3
*PAPER_SPACE
  1

  0
ENDBLK
  5
A
330
8
100
AcDbEntity
 67
     1
  8
0
100
AcDbBlockEnd
  0
BLOCK
  5
192
330
187
100
AcDbEntity
  8
0
100
AcDbBlockBegin
  2
*D0
 70
     1
 10
0.0
 20
0.0
 30
0.0
  3
*D0
  1

  0
LINE
  5
4D7
330
187
100
AcDbEntity
  8
ADPDIM
 62
     0
100
AcDbLine
 10
3.489390026856575
 20
1.07447362022083
 30
0.0
 11
3.489390026856575
 21
1.37197362022083
 31
0.0
  0
LINE
  5
4D8
330
187
100
AcDbEntity
  8
ADPDIM
 62
     0
100
AcDbLine
 10
4.843774379044941
 20
1.131589447586149
 30
0.0
 11
4.843774379044941
 21
1.37197362022083
 31
0.0
  0
LINE
  5
4D9
330
187
100
AcDbEntity
  8
ADPDIM
 62
     0
100
AcDbLine
 10
3.489390026856575
 20
1.19197362022083
 30
0.0
 11
3.770748869617424
 21
1.19197362022083
 31
0.0
  0
LINE
  5
4DA
330
187
100
AcDbEntity
  8
ADPDIM
 62
     0
100
AcDbLine
 10
4.843774379044941
 20
1.19197362022083
 30
0.0
 11
4.562415536284091
 21
1.19197362022083
 31
0.0
  0
LINE
  5
4DB
330
187
100
AcDbEntity
  8
ADPDIM
 62
     0
100
AcDbLine
 10
4.718774379044941
 20
1.06697362022083
 30
0.0
 11
4.968774379044941
 21
1.31697362022083
 31
0.0
  0
LINE
  5
4DC
330
187
100
AcDbEntity
  8
ADPDIM
 62
     0
100
AcDbLine
 10
3.364390026856575
 20
1.06697362022083
 30
0.0
 11
3.614390026856575
 21
1.31697362022083
 31
0.0
  0
MTEXT
  5
4DD
330
187
100
AcDbEntity
  8
ADPDIM
 62
     0
100
AcDbMText
 10
4.166582202950758
 20
1.19197362022083
 30
0.0
 40
0.125
 41
0.0
 71
     5
 72
     1
  1
\A1;1 3/8
  0
POINT
  5
4DE
330
187
100
AcDbEntity
  8
DEFPOINTS
 62
     0
100
AcDbPoint
 10
3.489390026856575
 20
1.01197362022083
 30
0.0
  0
POINT
  5
4DF
330
187
100
AcDbEntity
  8
DEFPOINTS
 62
     0
100
AcDbPoint
 10
4.843774379044941
 20
1.069089447586149
 30
0.0
  0
POINT
  5
4E0
330
187
100
AcDbEntity
  8
DEFPOINTS
 62
     0
100
AcDbPoint
 10
4.843774379044941
 20
1.19197362022083
 30
0.0
  0
ENDBLK
  5
193
330
187
100
AcDbEntity
  8
0
100
AcDbBlockEnd
  0
BLOCK
  5
1A1
330
196
100
AcDbEntity
  8
0
100
AcDbBlockBegin
  2
*D1
 70
     1
 10
0.0
 20
0.0
 30
0.0
  3
*D1
  1

  0
LINE
  5
4E1
330
196
100
AcDbEntity
  8
ADPDIM
 62
     0
100
AcDbLine
 10
3.16256621679053
 20
1.06847362022083
 30
0.0
 11
3.16256621679053
 21
1.714089447586149
 31
0.0
  0
LINE
  5
4E2
330
196
100
AcDbEntity
  8
ADPDIM
 62
     0
100
AcDbLine
 10
5.158629793207268
 20
1.06847362022083
 30
0.0
 11
5.158629793207268
 21
1.714089447586149
 31
0.0
  0
LINE
  5
4E3
330
196
100
AcDbEntity
  8
ADPDIM
 62
     0
100
AcDbLine
 10
3.16256621679053
 20
1.534089447586149
 30
0.0
 11
3.993931338332232
 21
1.534089447586149
 31
0.0
  0
LINE
  5
4E4
330
196
100
AcDbEntity
  8
ADPDIM
 62
     0
100
AcDbLine
 10
5.158629793207268
 20
1.534089447586149
 30
0.0
 11
4.327264671665566
 21
1.534089447586149
 31
0.0
  0
LINE
  5
4E5
330
196
100
AcDbEntity
  8
ADPDIM
 62
     0
100
AcDbLine
 10
5.033629793207268
 20
1.409089447586149
 30
0.0
 11
5.283629793207268
 21
1.659089447586149
 31
0.0
  0
LINE
  5
4E6
330
196
100
AcDbEntity
  8
ADPDIM
 62
     0
100
AcDbLine
 10
3.03756621679053
 20
1.409089447586149
 30
0.0
 11
3.28756621679053
 21
1.659089447586149
 31
0.0
  0
MTEXT
  5
4E7
330
196
100
AcDbEntity
  8
ADPDIM
 62
     0
100
AcDbMText
 10
4.160598004998899
 20
1.534089447586149
 30
0.0
 40
0.125
 41
0.0
 71
     5
 72
     1
  1
\A1;2
  0
POINT
  5
4E8
330
196
100
AcDbEntity
  8
DEFPOINTS
 62
     0
100
AcDbPoint
 10
3.16256621679053
 20
1.00597362022083
 30
0.0
  0
POINT
  5
4E9
330
196
100
AcDbEntity
  8
DEFPOINTS
 62
     0
100
AcDbPoint
 10
5.158629793207268
 20
1.00597362022083
 30
0.0
  0
POINT
  5
4EA
330
196
100
AcDbEntity
  8
DEFPOINTS
 62
     0
100
AcDbPoint
 10
5.158629793207268
 20
1.534089447586149
 30
0.0
  0
ENDBLK
  5
1A2
330
196
100
AcDbEntity
  8
0
100
AcDbBlockEnd
  0
BLOCK
  5
1AE
330
1A3
100
AcDbEntity
  8
0
100
AcDbBlockBegin
  2
*D2
 70
     1
 10
0.0
 20
0.0
 30
0.0
  3
*D2
  1

  0
LINE
  5
4EB
330
1A3
100
AcDbEntity
  8
ADPDIM
 62
     0
100
AcDbLine
 10
4.293847606708967
 20
-1.196963837895814
 30
0.0
 11
6.32577437904494
 21
-1.196963837895815
 31
0.0
  0
LINE
  5
4EC
330
1A3
100
AcDbEntity
  8
ADPDIM
 62
     0
100
AcDbLine
 10
5.221129793207268
 20
1.00597362022083
 30
0.0
 11
6.32577437904494
 21
1.00597362022083
 31
0.0
  0
LINE
  5
4ED
330
1A3
100
AcDbEntity
  8
ADPDIM
 62
     0
100
AcDbLine
 10
6.14577437904494
 20
-1.196963837895815
 30
0.0
 11
6.14577437904494
 21
-0.5538284421708262
 31
0.0
  0
LINE
  5
4EE
330
1A3
100
AcDbEntity
  8
ADPDIM
 62
     0
100
AcDbLine
 10
6.14577437904494
 20
1.00597362022083
 30
0.0
 11
6.14577437904494
 21
0.3628382244958405
 31
0.0
  0
LINE
  5
4EF
330
1A3
100
AcDbEntity
  8
ADPDIM
 62
     0
100
AcDbLine
 10
6.27077437904494
 20
0.8809736202208299
 30
0.0
 11
6.02077437904494
 21
1.13097362022083
 31
0.0
  0
LINE
  5
4F0
330
1A3
100
AcDbEntity
  8
ADPDIM
 62
     0
100
AcDbLine
 10
6.27077437904494
 20
-1.321963837895815
 30
0.0
 11
6.02077437904494
 21
-1.071963837895815
 31
0.0
  0
MTEXT
  5
4F1
330
1A3
100
AcDbEntity
  8
ADPDIM
 62
     0
100
AcDbMText
 10
6.14577437904494
 20
-0.0954951088374919
 30
0.0
 40
0.125
 41
0.0
 71
     5
 72
     1
  1
\A1;2 3/16
 11
0.0000000000000001
 21
1.0
 31
0.0
  0
POINT
  5
4F2
330
1A3
100
AcDbEntity
  8
DEFPOINTS
 62
     0
100
AcDbPoint
 10
4.231347606708967
 20
-1.196963837895814
 30
0.0
  0
POINT
  5
4F3
330
1A3
100
AcDbEntity
  8
DEFPOINTS
 62
     0
100
AcDbPoint
 10
5.158629793207268
 20
1.00597362022083
 30
0.0
  0
POINT
  5
4F4
330
1A3
100
AcDbEntity
  8
DEFPOINTS
 62
     0
100
AcDbPoint
 10
6.14577437904494
 20
1.00597362022083
 30
0.0
  0
ENDBLK
  5
1AF
330
1A3
100
AcDbEntity
  8
0
100
AcDbBlockEnd
  0
BLOCK
  5
1BB
330
1B0
100
AcDbEntity
  8
0
100
AcDbBlockBegin
  2
*D3
 70
     1
 10
0.0
 20
0.0
 30
0.0
  3
*D3
  1

  0
LINE
  5
4F5
330
1B0
100
AcDbEntity
  8
ADPDIM
 62
     0
100
AcDbLine
 10
-1.357811306326732
 20
0.168164038008483
 30
0.0
 11
-1.67377327586999
 21
0.1681640380084831
 31
0.0
  0
LINE
  5
4F6
330
1B0
100
AcDbEntity
  8
ADPDIM
 62
     0
100
AcDbLine
 10
-1.357811306326732
 20
-2.581835961991516
 30
0.0
 11
-1.67377327586999
 21
-2.581835961991516
 31
0.0
  0
LINE
  5
4F7
330
1B0
100
AcDbEntity
  8
ADPDIM
 62
     0
100
AcDbLine
 10
-1.49377327586999
 20
0.168164038008483
 30
0.0
 11
-1.49377327586999
 21
-0.7901692953248504
 31
0.0
  0
LINE
  5
4F8
330
1B0
100
AcDbEntity
  8
ADPDIM
 62
     0
100
AcDbLine
 10
-1.49377327586999
 20
-2.581835961991516
 30
0.0
 11
-1.49377327586999
 21
-1.623502628658183
 31
0.0
  0
LINE
  5
4F9
330
1B0
100
AcDbEntity
  8
ADPDIM
 62
     0
100
AcDbLine
 10
-1.36877327586999
 20
-2.706835961991516
 30
0.0
 11
-1.61877327586999
 21
-2.456835961991516
 31
0.0
  0
LINE
  5
4FA
330
1B0
100
AcDbEntity
  8
ADPDIM
 62
     0
100
AcDbLine
 10
-1.36877327586999
 20
0.043164038008483
 30
0.0
 11
-1.61877327586999
 21
0.293164038008483
 31
0.0
  0
MTEXT
  5
4FB
330
1B0
100
AcDbEntity
  8
ADPDIM
 62
     0
100
AcDbMText
 10
-1.49377327586999
 20
-1.206835961991517
 30
0.0
 40
0.125
 41
0.0
 71
     5
 72
     1
  1
\A1;2 3/4
 11
0.0000000000000001
 21
1.0
 31
0.0
  0
POINT
  5
4FC
330
1B0
100
AcDbEntity
  8
DEFPOINTS
 62
     0
100
AcDbPoint
 10
-1.295311306326732
 20
0.168164038008483
 30
0.0
  0
POINT
  5
4FD
330
1B0
100
AcDbEntity
  8
DEFPOINTS
 62
     0
100
AcDbPoint
 10
-1.295311306326732
 20
-2.581835961991516
 30
0.0
  0
POINT
  5
4FE
330
1B0
100
AcDbEntity
  8
DEFPOINTS
 62
     0
100
AcDbPoint
 10
-1.49377327586999
 20
-2.581835961991516
 30
0.0
  0
ENDBLK
  5
1BC
330
1B0
100
AcDbEntity
  8
0
100
AcDbBlockEnd
  0
BLOCK
  5
1C5
330
1BD
100
AcDbEntity
  8
0
100
AcDbBlockBegin
  2
*D4
 70
     1
 10
0.0
 20
0.0
 30
0.0
  3
*D4
  1

  0
LINE
  5
4FF
330
1BD
100
AcDbEntity
  8
ADPDIM
 62
     0
100
AcDbLine
 10
3.777303879951566
 20
-1.797606544181926
 30
0.0
 11
4.04332246013079
 21
-1.374246041773601
 31
0.0
  0
MTEXT
  5
500
330
1BD
100
AcDbEntity
  8
ADPDIM
 62
     0
100
AcDbMText
 10
3.56670583730968
 20
-2.13276694192185
 30
0.0
 40
0.125
 41
0.0
 71
     5
 72
     1
  1
\A1;\U+22057/16
 11
0.5320371603584486
 21
0.8467210048166506
 31
0.0
  0
LINE
  5
501
330
1BD
100
AcDbEntity
  8
ADPDIM
 62
     0
100
AcDbLine
 10
4.082657940688065
 20
-1.546590812420488
 30
0.0
 11
4.003986979573515
 21
-1.201901271126713
 31
0.0
  0
LINE
  5
502
330
1BD
100
AcDbEntity
  8
ADPDIM
 62
     0
100
AcDbLine
 10
3.96718372813483
 20
-1.197017961166394
 30
0.0
 11
4.342183728134829
 21
-1.197017961166393
 31
0.0
  0
LINE
  5
503
330
1BD
100
AcDbEntity
  8
ADPDIM
 62
     0
100
AcDbLine
 10
4.154683728134829
 20
-1.384517961166393
 30
0.0
 11
4.15468372813483
 21
-1.009517961166393
 31
0.0
  0
POINT
  5
504
330
1BD
100
AcDbEntity
  8
DEFPOINTS
 62
     0
100
AcDbPoint
 10
4.04332246013079
 20
-1.374246041773601
 30
0.0
  0
POINT
  5
505
330
1BD
100
AcDbEntity
  8
DEFPOINTS
 62
     0
100
AcDbPoint
 10
4.26604499613887
 20
-1.019789880559186
 30
0.0
  0
ENDBLK
  5
1C6
330
1BD
100
AcDbEntity
  8
0
100
AcDbBlockEnd
  0
BLOCK
  5
1D2
330
1C7
100
AcDbEntity
  8
0
100
AcDbBlockBegin
  2
*D5
 70
     1
 10
0.0
 20
0.0
 30
0.0
  3
*D5
  1

  0
LINE
  5
506
330
1C7
100
AcDbEntity
  8
ADPDIM
 62
     0
100
AcDbLine
 10
-1.295311306326732
 20
0.230664038008483
 30
0.0
 11
-1.295311306326732
 21
1.51642853011063
 31
0.0
  0
LINE
  5
507
330
1C7
100
AcDbEntity
  8
ADPDIM
 62
     0
100
AcDbLine
 10
1.201336458228887
 20
1.110522111349297
 30
0.0
 11
1.201336458228887
 21
1.51642853011063
 31
0.0
  0
LINE
  5
508
330
1C7
100
AcDbEntity
  8
ADPDIM
 62
     0
100
AcDbLine
 10
-1.295311306326732
 20
1.33642853011063
 30
0.0
 11
-0.4428207573822555
 21
1.33642853011063
 31
0.0
  0
LINE
  5
509
330
1C7
100
AcDbEntity
  8
ADPDIM
 62
     0
100
AcDbLine
 10
1.201336458228887
 20
1.33642853011063
 30
0.0
 11
0.3488459092844112
 21
1.33642853011063
 31
0.0
  0
LINE
  5
50A
330
1C7
100
AcDbEntity
  8
ADPDIM
 62
     0
100
AcDbLine
 10
1.076336458228887
 20
1.21142853011063
 30
0.0
 11
1.326336458228887
 21
1.46142853011063
 31
0.0
  0
LINE
  5
50B
330
1C7
100
AcDbEntity
  8
ADPDIM
 62
     0
100
AcDbLine
 10
-1.420311306326732
 20
1.21142853011063
 30
0.0
 11
-1.170311306326732
 21
1.46142853011063
 31
0.0
  0
MTEXT
  5
50C
330
1C7
100
AcDbEntity
  8
ADPDIM
 62
     0
100
AcDbMText
 10
-0.0469874240489221
 20
1.33642853011063
 30
0.0
 40
0.125
 41
0.0
 71
     5
 72
     1
  1
\A1;2 1/2
  0
POINT
  5
50D
330
1C7
100
AcDbEntity
  8
DEFPOINTS
 62
     0
100
AcDbPoint
 10
-1.295311306326732
 20
0.168164038008483
 30
0.0
  0
POINT
  5
50E
330
1C7
100
AcDbEntity
  8
DEFPOINTS
 62
     0
100
AcDbPoint
 10
1.201336458228887
 20
1.048022111349297
 30
0.0
  0
POINT
  5
50F
330
1C7
100
AcDbEntity
  8
DEFPOINTS
 62
     0
100
AcDbPoint
 10
1.201336458228887
 20
1.33642853011063
 30
0.0
  0
ENDBLK
  5
1D3
330
1C7
100
AcDbEntity
  8
0
100
AcDbBlockEnd
  0
ENDSEC
  0
SECTION
  2
ENTITIES
  0
ARC
  5
1F
330
2
100
AcDbEntity
  8
ADP1DETAIL
100
AcDbCircle
 10
-0.0294354213437888
 20
0.5705434007236003
 30
0.0
 40
1.331885361551259
100
AcDbArc
 50
320.0409996393598
 51
357.1282876077179
  0
ARC
  5
21
330
2
100
AcDbEntity
  8
ADP1DETAIL
100
AcDbCircle
 10
-0.2094891443187011
 20
0.7858201995964835
 30
0.0
 40
1.608914251795203
100
AcDbArc
 50
247.9175177131689
 51
318.2824791466887
  0
ARC
  5
22
330
2
100
AcDbEntity
  8
ADP1DETAIL
100
AcDbCircle
 10
-0.8780719362963578
 20
-0.8153165395323117
 30
0.0
 40
0.1273393968186823
100
AcDbArc
 50
59.97073770248608
 51
205.7371402559003
  0
ARC
  5
23
330
2
100
AcDbEntity
  8
ADP1DETAIL
100
AcDbCircle
 10
0.0768105696447798
 20
0.490203766656947
 30
0.0
 40
0.7498784337159822
100
AcDbArc
 50
259.3029298025816
 51
25.85746378900092
  0
ARC
  5
24
330
2
100
AcDbEntity
  8
ADP1DETAIL
100
AcDbCircle
 10
0.0258870171727376
 20
1.609103663439331
 30
0.0
 40
1.857845105711153
100
AcDbArc
 50
247.439421293803
 51
267.2768542942361
  0
ARC
  5
25
330
2
100
AcDbEntity
  8
ADP1DETAIL
100
AcDbCircle
 10
-0.831112181110223
 20
-0.1844274112175406
 30
0.0
 40
0.1638929076110785
100
AcDbArc
 50
28.3631394463123
 51
170.5452751905391
  0
ARC
  5
26
330
2
100
AcDbEntity
  8
ADP1DETAIL
100
AcDbCircle
 10
-0.0088581186380547
 20
0.8527872094037405
 30
0.0
 40
0.9340682885249117
100
AcDbArc
 50
241.2957570506816
 51
313.1414445168115
  0
ARC
  5
27
330
2
100
AcDbEntity
  8
ADP1DETAIL
100
AcDbCircle
 10
-0.8469691803800813
 20
-0.420797191411303
 30
0.0
 40
0.5984086945392669
100
AcDbArc
 50
49.39244599261677
 51
96.65387872571445
  0
LINE
  5
28
330
2
100
AcDbEntity
  8
ADP1DETAIL
100
AcDbLine
 10
-1.170311306326732
 20
0.168164038008483
 30
0.0
 11
-0.9163075310832653
 21
0.1735807681581547
 31
0.0
  0
LINE
  5
29
330
2
100
AcDbEntity
  8
ADP1DETAIL
100
AcDbLine
 10
5.16256621679053
 20
1.00597362022083
 30
0.0
 11
5.16256621679053
 21
0.8799736202208361
 31
0.0
  0
LINE
  5
2A
330
2
100
AcDbEntity
  8
ADP2DETAIL
  6
HIDDEN2
100
AcDbLine
 10
4.943351836231407
 20
1.013055235020205
 30
0.0
 11
4.943351836231407
 21
0.9502501443076436
 31
0.0
  0
LINE
  5
2C
330
2
100
AcDbEntity
  8
ADP2DETAIL
  6
HIDDEN2
100
AcDbLine
 10
4.943351836231407
 20
0.9502501443076436
 30
0.0
 11
5.069029919198763
 21
0.8172511268271112
 31
0.0
  0
LINE
  5
2D
330
2
100
AcDbEntity
  8
ADP2DETAIL
  6
HIDDEN2
100
AcDbLine
 10
4.728959835906238
 20
1.016749653047908
 30
0.0
 11
4.728959835906238
 21
0.9502501443076436
 31
0.0
  0
LINE
  5
2E
330
2
100
AcDbEntity
  8
ADP2DETAIL
  6
HIDDEN2
100
AcDbLine
 10
4.728959835906238
 20
0.9502501443076436
 30
0.0
 11
4.632853066578258
 21
0.8246399628825162
 31
0.0
  0
LINE
  5
2F
330
2
100
AcDbEntity
  8
ADP2DETAIL
  6
HIDDEN2
100
AcDbLine
 10
4.721567007496393
 20
0.9502501443076436
 30
0.0
 11
4.943351836231407
 21
0.9502501443076436
 31
0.0
  0
LINE
  5
30
330
2
100
AcDbEntity
  8
ADP2DETAIL
  6
HIDDEN2
100
AcDbLine
 10
3.560892994271444
 20
1.013055235020205
 30
0.0
 11
3.560892994271444
 21
0.9502501443076436
 31
0.0
  0
LINE
  5
31
330
2
100
AcDbEntity
  8
ADP2DETAIL
  6
HIDDEN2
100
AcDbLine
 10
3.560892994271444
 20
0.9502501443076436
 30
0.0
 11
3.686571077238799
 21
0.8172511268271112
 31
0.0
  0
LINE
  5
32
330
2
100
AcDbEntity
  8
ADP1DETAIL
100
AcDbLine
 10
3.16256621679053
 20
0.8799736202208325
 30
0.0
 11
3.16256621679053
 21
1.00597362022083
 31
0.0
  0
ARC
  5
33
330
2
100
AcDbEntity
  8
ADP1DETAIL
100
AcDbCircle
 10
3.224566216790531
 20
0.8799736202208325
 30
0.0
 40
0.062
100
AcDbArc
 50
180.0
 51
270.0
  0
LINE
  5
34
330
2
100
AcDbEntity
  8
ADP2DETAIL
  6
HIDDEN2
100
AcDbLine
 10
3.346500993946275
 20
1.016749653047908
 30
0.0
 11
3.346500993946275
 21
0.9502501443076436
 31
0.0
  0
LINE
  5
35
330
2
100
AcDbEntity
  8
ADP2DETAIL
  6
HIDDEN2
100
AcDbLine
 10
3.346500993946275
 20
0.9502501443076436
 30
0.0
 11
3.250394224618293
 21
0.8246399628825162
 31
0.0
  0
LINE
  5
36
330
2
100
AcDbEntity
  8
ADP2DETAIL
  6
HIDDEN2
100
AcDbLine
 10
3.33910816553643
 20
0.9502501443076436
 30
0.0
 11
3.560892994271444
 21
0.9502501443076436
 31
0.0
  0
LINE
  5
37
330
2
100
AcDbEntity
  8
ADP1DETAIL
100
AcDbLine
 10
5.100566216790531
 20
0.8179736202208349
 30
0.0
 11
3.224566216790531
 21
0.8179736202208314
 31
0.0
  0
DIMENSION
  5
38
330
2
100
AcDbEntity
  8
ADPDIM
100
AcDbDimension
  2
*D0
 10
4.843774379044941
 20
1.19197362022083
 30
0.0
 11
4.166582202950758
 21
1.19197362022083
 31
0.0
 70
    32
  3
STANDARD
100
AcDbAlignedDimension
 13
3.489390026856575
 23
1.01197362022083
 33
0.0
 14
4.843774379044941
 24
1.069089447586149
 34
0.0
100
AcDbRotatedDimension
1001
ACAD
1000
DSTYLE
1002
{
1070
   270
1070
     7
1070
   270
1070
     7
1070
   270
1070
     7
1070
   270
1070
     7
1070
   270
1070
     7
1070
   270
1070
     7
1070
   270
1070
     7
1070
    41
1040
0.125
1070
    73
1070
     0
1070
    74
1070
     0
1070
    78
1070
     2
1070
   140
1040
0.125
1070
   141
1040
0.1875
1070
   142
1040
0.125
1070
   147
1040
0.125
1070
   171
1070
     1
1070
   276
1070
     2
1070
   277
1070
     5
1002
}
  0
LINE
  5
47
330
2
100
AcDbEntity
  8
ADP1DETAIL
100
AcDbLine
 10
1.714112532859221
 20
1.00525112682711
 30
0.0
 11
1.714112532859221
 21
0.8172511268271112
 31
0.0
  0
ARC
  5
48
330
2
100
AcDbEntity
  8
ADP1DETAIL
100
AcDbCircle
 10
5.900408857711223
 20
-1.571655345384082
 30
0.0
 40
5.046205667409746
100
AcDbArc
 50
152.4487575162419
 51
155.7138849512715
  0
LINE
  5
49
330
2
100
AcDbEntity
  8
ADP2DETAIL
  6
HIDDEN2
100
AcDbLine
 10
1.317582285583043
 20
1.011833489409797
 30
0.0
 11
1.317582285583043
 21
0.9490283986972354
 31
0.0
  0
ARC
  5
4A
330
2
100
AcDbEntity
  8
ADP2DETAIL
  6
HIDDEN2
100
AcDbCircle
 10
1.936495559579462
 20
0.4963352288186462
 30
0.0
 40
0.5752780623039437
100
AcDbArc
 50
145.9463746550799
 51
152.4487575162419
  0
LINE
  5
4B
330
2
100
AcDbEntity
  8
ADP2DETAIL
  6
HIDDEN2
100
AcDbLine
 10
1.317582285583043
 20
0.9490283986972354
 30
0.0
 11
1.443260368550401
 21
0.8160293812167029
 31
0.0
  0
LINE
  5
4C
330
2
100
AcDbEntity
  8
ADP2DETAIL
  6
HIDDEN2
100
AcDbLine
 10
1.103190285257873
 20
1.015527907437499
 30
0.0
 11
1.103190285257873
 21
0.9490283986972354
 31
0.0
  0
LINE
  5
4D
330
2
100
AcDbEntity
  8
ADP2DETAIL
  6
HIDDEN2
100
AcDbLine
 10
1.103190285257873
 20
0.9490283986972354
 30
0.0
 11
1.007083515929895
 21
0.823418217272108
 31
0.0
  0
LINE
  5
4E
330
2
100
AcDbEntity
  8
ADP2DETAIL
  6
HIDDEN2
100
AcDbLine
 10
1.095797456848032
 20
0.9490283986972354
 30
0.0
 11
1.317582285583043
 21
0.9490283986972354
 31
0.0
  0
LINE
  5
4F
330
2
100
AcDbEntity
  8
ADP1DETAIL
100
AcDbLine
 10
0.7516125328592196
 20
0.8172511268271112
 30
0.0
 11
0.7516125328592196
 21
1.00525112682711
 31
0.0
  0
ARC
  5
50
330
2
100
AcDbEntity
  8
ADP1DETAIL
100
AcDbCircle
 10
0.2331136196625714
 20
0.5891817069976071
 30
0.0
 40
0.5762749765465124
100
AcDbArc
 50
313.5088109509354
 51
25.39420979157996
  0
LINE
  5
51
330
2
100
AcDbEntity
  8
ADP1DETAIL
100
AcDbLine
 10
1.714112532859221
 20
0.8172511268271112
 30
0.0
 11
0.7516125328592196
 21
0.8172511268271112
 31
0.0
  0
LINE
  5
52
330
2
100
AcDbEntity
  8
ADP1DETAIL
100
AcDbLine
 10
0.7516125328592196
 20
1.00525112682711
 30
0.0
 11
1.714112532859221
 21
1.00525112682711
 31
0.0
  0
ARC
  5
53
330
2
100
AcDbEntity
  8
ADP1DETAIL
100
AcDbCircle
 10
5.100566216790531
 20
0.8799736202208361
 30
0.0
 40
0.062
100
AcDbArc
 50
270.0
 51
0.0
  0
LINE
  5
54
330
2
100
AcDbEntity
  8
ADP1DETAIL
100
AcDbLine
 10
3.16256621679053
 20
1.00597362022083
 30
0.0
 11
5.16256621679053
 21
1.00597362022083
 31
0.0
  0
LINE
  5
55
330
2
100
AcDbEntity
  8
ADP1DETAIL
100
AcDbLine
 10
5.158629793207268
 20
1.00597362022083
 30
0.0
 11
3.16256621679053
 21
1.00597362022083
 31
0.0
  0
DIMENSION
  5
56
330
2
100
AcDbEntity
  8
ADPDIM
100
AcDbDimension
  2
*D1
 10
5.158629793207268
 20
1.534089447586149
 30
0.0
 11
4.160598004998899
 21
1.534089447586149
 31
0.0
 70
    32
  3
STANDARD
100
AcDbAlignedDimension
 13
3.16256621679053
 23
1.00597362022083
 33
0.0
 14
5.158629793207268
 24
1.00597362022083
 34
0.0
100
AcDbRotatedDimension
1001
ACAD
1000
DSTYLE
1002
{
1070
   270
1070
     7
1070
   270
1070
     7
1070
   270
1070
     7
1070
   270
1070
     7
1070
   270
1070
     7
1070
   270
1070
     7
1070
   270
1070
     7
1070
    41
1040
0.125
1070
    73
1070
     0
1070
    74
1070
     0
1070
    78
1070
     2
1070
   140
1040
0.125
1070
   141
1040
0.1875
1070
   142
1040
0.125
1070
   147
1040
0.125
1070
   171
1070
     1
1070
   276
1070
     2
1070
   277
1070
     5
1002
}
  0
DIMENSION
  5
64
330
2
100
AcDbEntity
  8
ADPDIM
100
AcDbDimension
  2
*D2
 10
6.14577437904494
 20
1.00597362022083
 30
0.0
 11
6.14577437904494
 21
-0.0954951088374919
 31
0.0
 70
    32
  3
STANDARD
100
AcDbAlignedDimension
 13
4.231347606708967
 23
-1.196963837895814
 33
0.0
 14
5.158629793207268
 24
1.00597362022083
 34
0.0
 50
90.0
100
AcDbRotatedDimension
1001
ACAD
1000
DSTYLE
1002
{
1070
   270
1070
     7
1070
   270
1070
     7
1070
   270
1070
     7
1070
   270
1070
     7
1070
   270
1070
     7
1070
   270
1070
     7
1070
   270
1070
     7
1070
    41
1040
0.125
1070
    73
1070
     0
1070
    74
1070
     0
1070
    78
1070
     2
1070
   140
1040
0.125
1070
   141
1040
0.1875
1070
   142
1040
0.125
1070
   147
1040
0.125
1070
   171
1070
     1
1070
   276
1070
     2
1070
   277
1070
     5
1002
}
  0
DIMENSION
  5
72
330
2
100
AcDbEntity
  8
ADPDIM
100
AcDbDimension
  2
*D3
 10
-1.49377327586999
 20
-2.581835961991516
 30
0.0
 11
-1.49377327586999
 21
-1.206835961991517
 31
0.0
 70
    32
  3
STANDARD
100
AcDbAlignedDimension
 13
-1.295311306326732
 23
0.168164038008483
 33
0.0
 14
-1.295311306326732
 24
-2.581835961991516
 34
0.0
 50
90.0
100
AcDbRotatedDimension
1001
ACAD
1000
DSTYLE
1002
{
1070
   270
1070
     7
1070
   270
1070
     7
1070
   270
1070
     7
1070
   270
1070
     7
1070
   270
1070
     7
1070
   270
1070
     7
1070
   270
1070
     7
1070
    41
1040
0.125
1070
    73
1070
     0
1070
    74
1070
     0
1070
    78
1070
     2
1070
   140
1040
0.125
1070
   141
1040
0.1875
1070
   142
1040
0.125
1070
   147
1040
0.125
1070
   171
1070
     1
1070
   276
1070
     2
1070
   277
1070
     5
1002
}
  0
LWPOLYLINE
  5
80
330
2
100
AcDbEntity
  8
ADP1DETAIL
100
AcDbPolyline
 90
        3
 70
     0
 43
0.0
 10
4.161443651826689
 20
-0.6639255520718544
 42
0.3800457981514723
 10
4.028372740449486
 20
-0.7821469131999523
 10
3.897808048795197
 20
-0.7754590847120806
  0
CIRCLE
  5
85
330
2
100
AcDbEntity
  8
ADP1DETAIL
100
AcDbCircle
 10
4.154683728134831
 20
-1.197017961166393
 30
0.0
 40
0.2093110712962469
  0
LWPOLYLINE
  5
86
330
2
100
AcDbEntity
  8
ADP1DETAIL
100
AcDbPolyline
 90
        3
 70
     0
 43
0.0
 10
4.161443651826686
 20
-0.6639255520718544
 42
-0.3800457981514723
 10
4.294514563203889
 20
-0.7821469131999523
 10
4.411559344655677
 20
-0.7754590847120806
  0
LWPOLYLINE
  5
8B
330
2
100
AcDbEntity
  8
ADP1DETAIL
100
AcDbPolyline
 90
        7
 70
     0
 43
0.0
 10
4.317278287702597
 20
0.8179736202208333
 10
4.303469033442328
 20
-0.2065062208568196
 42
0.0995495467782223
 10
4.403081173459322
 20
-0.7851889766082876
 42
0.530312501866907
 10
4.484016017382155
 20
-0.8038561665585534
 10
4.770400919931009
 20
-0.6482962901183718
 42
-0.2607256457982128
 10
5.087547875309261
 20
-0.6268715057057129
 10
5.15514672837462
 20
-0.7214272081562703
  0
LWPOLYLINE
  5
94
330
2
100
AcDbEntity
  8
ADP1DETAIL
100
AcDbPolyline
 90
        5
 70
     0
 43
0.0
 10
4.481726746975815
 20
0.8179736202208339
 10
4.443004036118767
 20
0.0284565907499483
 42
0.1110981312721881
 10
4.502146639837202
 20
-0.3114297890067825
 42
0.5757162225684706
 10
4.613039065984867
 20
-0.3262074611175927
 42
-0.3652398506829423
 10
5.236265314361779
 20
-0.3432043168319292
  0
POINT
  5
9B
330
2
100
AcDbEntity
  8
ADP1DETAIL
100
AcDbPoint
 10
-0.0496339026695598
 20
-0.0811006229213232
 30
0.0
  0
POINT
  5
9C
330
2
100
AcDbEntity
  8
ADP1DETAIL
100
AcDbPoint
 10
-0.4574803308216062
 20
0.0207719335104684
 30
0.0
  0
POINT
  5
9D
330
2
100
AcDbEntity
  8
ADP1DETAIL
100
AcDbPoint
 10
-0.0496339026695598
 20
-0.8069424754049308
 30
0.0
  0
POINT
  5
9E
330
2
100
AcDbEntity
  8
ADP1DETAIL
100
AcDbPoint
 10
-0.8143459240452532
 20
-0.7050699189731402
 30
0.0
  0
ARC
  5
9F
330
2
100
AcDbEntity
  8
ADP2DETAIL
  6
HIDDEN2
100
AcDbCircle
 10
-0.6126858657357321
 20
-2.322161503338677
 30
0.0
 40
1.945658231413955
100
AcDbArc
 50
56.8952198062389
 51
95.87370901362232
  0
LINE
  5
A0
330
2
100
AcDbEntity
  8
ADP1DETAIL
100
AcDbLine
 10
-0.9941072525837785
 20
-2.229427854505602
 30
0.0
 11
-0.9927787206570776
 21
-0.1575050198646388
 31
0.0
  0
LWPOLYLINE
  5
A1
330
2
100
AcDbEntity
  8
ADP1DETAIL
100
AcDbPolyline
 90
        6
 70
     0
 43
0.0
 10
3.991791977141918
 20
0.8179736202208328
 10
4.017084130893482
 20
-0.2065062208568196
 42
-0.0995495467782223
 10
3.917471990876488
 20
-0.7851889766082876
 42
-0.530312501866907
 10
3.836537146953651
 20
-0.8038561665585534
 10
3.550152244404801
 20
-0.6482962901183718
 42
0.4596219581820889
 10
3.181260256557423
 20
-0.7214272081562703
  0
LWPOLYLINE
  5
A9
330
2
100
AcDbEntity
  8
ADP1DETAIL
100
AcDbPolyline
 90
        5
 70
     0
 43
0.0
 10
3.842426366113531
 20
0.8179736202208324
 10
3.881149076970582
 20
0.0284565907499483
 42
-0.1110981312721881
 10
3.822006473252147
 20
-0.3114297890067825
 42
-0.5757162225684706
 10
3.711114047104479
 20
-0.3262074611175927
 42
0.3909526512324399
 10
3.059582283348508
 20
-0.3432043168319292
  0
ARC
  5
B0
330
2
100
AcDbEntity
  8
ADP1DETAIL
100
AcDbCircle
 10
4.15468372813483
 20
-1.197017961166393
 30
0.0
 40
1.375
100
AcDbArc
 50
101.7267331206353
 51
77.64981711269152
  0
ARC
  5
B1
330
2
100
AcDbEntity
  8
ADP1DETAIL
100
AcDbCircle
 10
4.168229521131112
 20
-1.178808025312713
 30
0.0
 40
1.082863804475734
100
AcDbArc
 50
153.2363039681812
 51
26.33402216344931
  0
DIMENSION
  5
B2
330
2
100
AcDbEntity
  8
ADPDIM
100
AcDbDimension
  2
*D4
 10
4.26604499613887
 20
-1.019789880559186
 30
0.0
 11
3.56670583730968
 21
-2.13276694192185
 31
0.0
 70
    35
  3
STANDARD
100
AcDbDiametricDimension
 15
4.04332246013079
 25
-1.374246041773601
 35
0.0
 40
0.0
1001
ACAD
1000
DSTYLE
1002
{
1070
   270
1070
     7
1070
   270
1070
     7
1070
   270
1070
     7
1070
   270
1070
     7
1070
   270
1070
     7
1070
   270
1070
     7
1070
   270
1070
     7
1070
    41
1040
0.125
1070
    73
1070
     0
1070
    74
1070
     0
1070
    78
1070
     2
1070
   140
1040
0.125
1070
   141
1040
0.1875
1070
   142
1040
0.125
1070
   147
1040
0.125
1070
   171
1070
     1
1070
   276
1070
     2
1070
   277
1070
     5
1002
}
  0
LINE
  5
BE
330
2
100
AcDbEntity
  8
ADP1DETAIL
100
AcDbLine
 10
-1.295311306326732
 20
0.168164038008483
 30
0.0
 11
-1.170311306326732
 21
0.168164038008483
 31
0.0
  0
LINE
  5
BF
330
2
100
AcDbEntity
  8
ADP2DETAIL
  6
HIDDEN2
100
AcDbLine
 10
-1.239134620308239
 20
-0.084898942041209
 30
0.0
 11
-1.290884419177151
 21
-0.084898942041209
 31
0.0
  0
LINE
  5
C0
330
2
100
AcDbEntity
  8
ADP2DETAIL
  6
HIDDEN2
100
AcDbLine
 10
-1.014383850312961
 20
-1.024245876834843
 30
0.0
 11
-1.295311306326732
 21
-1.024245876834843
 31
0.0
  0
LINE
  5
C1
330
2
100
AcDbEntity
  8
ADP2DETAIL
  6
HIDDEN2
100
AcDbLine
 10
-1.295311306326732
 20
-1.452798273498054
 30
0.0
 11
-1.014383850312961
 21
-1.452798273498054
 31
0.0
  0
LINE
  5
C2
330
2
100
AcDbEntity
  8
ADP1DETAIL
100
AcDbLine
 10
-1.170311306326732
 20
-2.581835961991516
 30
0.0
 11
-1.295311306326732
 21
-2.581835961991516
 31
0.0
  0
LINE
  5
C3
330
2
100
AcDbEntity
  8
ADP2DETAIL
  6
HIDDEN2
100
AcDbLine
 10
-1.290884419177151
 20
-2.331835961991516
 30
0.0
 11
-1.239134620308239
 21
-2.331835961991516
 31
0.0
  0
LINE
  5
C4
330
2
100
AcDbEntity
  8
ADP1DETAIL
100
AcDbLine
 10
-1.170311306326732
 20
0.168164038008483
 30
0.0
 11
-1.170311306326732
 21
-2.581835961991516
 31
0.0
  0
LINE
  5
C5
330
2
100
AcDbEntity
  8
ADP1DETAIL
100
AcDbLine
 10
-1.295311306326732
 20
-2.581835961991516
 30
0.0
 11
-1.295311306326732
 21
0.168164038008483
 31
0.0
  0
LINE
  5
C6
330
2
100
AcDbEntity
  8
ADP2DETAIL
  6
HIDDEN2
100
AcDbLine
 10
-1.239134620308239
 20
-2.331835961991516
 30
0.0
 11
-1.239134620308239
 21
-0.084898942041209
 31
0.0
  0
LINE
  5
C7
330
2
100
AcDbEntity
  8
ADP1DETAIL
100
AcDbLine
 10
-1.170311306326732
 20
-2.581835961991516
 30
0.0
 11
-0.9941072525837785
 21
-2.229427854505602
 31
0.0
  0
DIMENSION
  5
C8
330
2
100
AcDbEntity
  8
ADPDIM
100
AcDbDimension
  2
*D5
 10
1.201336458228887
 20
1.33642853011063
 30
0.0
 11
-0.0469874240489221
 21
1.33642853011063
 31
0.0
 70
    32
  3
STANDARD
100
AcDbAlignedDimension
 13
-1.295311306326732
 23
0.168164038008483
 33
0.0
 14
1.201336458228887
 24
1.048022111349297
 34
0.0
100
AcDbRotatedDimension
1001
ACAD
1000
DSTYLE
1002
{
1070
   270
1070
     7
1070
   270
1070
     7
1070
   270
1070
     7
1070
   270
1070
     7
1070
   270
1070
     7
1070
   270
1070
     7
1070
   270
1070
     7
1070
    41
1040
0.125
1070
    73
1070
     0
1070
    74
1070
     0
1070
    78
1070
     2
1070
   140
1040
0.125
1070
   141
1040
0.1875
1070
   142
1040
0.125
1070
   147
1040
0.125
1070
   171
1070
     1
1070
   276
1070
     2
1070
   277
1070
     5
1002
}
  0
ARC
  5
D6
330
2
100
AcDbEntity
  8
ADP2DETAIL
  6
HIDDEN2
100
AcDbCircle
 10
-0.6635765732076007
 20
-0.6779445832031388
 30
0.0
 40
0.3267752639154635
100
AcDbArc
 50
116.9739265533215
 51
196.1321444029785
  0
TEXT
  5
E4
330
2
100
AcDbEntity
  8
ADPDIM
100
AcDbText
 10
-4.169038837295759
 20
-3.317779693515585
 30
0.0
 40
0.125
  1
J U L I U S  B L U M  &  C O . ,  I N C .      ( 8 0 0 )  5 2 6 - 6 2 9 3        W W W . J U L I U S B L U M . C O M        P A R T  N o .  3 8 3
 41
1.25
  7
ARIAL_WIDE
 72
     1
 11
2.265668700221294
 21
-3.192779693515585
 31
0.0
100
AcDbText
 73
     3
  0
ENDSEC
  0
SECTION
  2
OBJECTS
  0
DICTIONARY
  5
1B
330
0
100
AcDbDictionary
  3
ACAD_GROUP
350
19
  3
ACAD_LAYOUT
350
DD
  3
ACAD_MLINESTYLE
350
1A
  3
ACAD_PLOTSETTINGS
350
DE
  3
ACAD_PLOTSTYLENAME
350
DB
  3
ACDBHEADERROUNDTRIPXREC
350
4B4
  3
ACDBVARIABLEDICTIONARY
350
1D6
  0
DICTIONARY
  5
183
330
2
100
AcDbDictionary
280
     1
  3
ACAD_LAYOUTSELFREF
360
4D5
  0
DICTIONARY
  5
185
330
8
100
AcDbDictionary
280
     1
  3
ACAD_LAYOUTSELFREF
360
4D6
  0
DICTIONARY
  5
19
102
{ACAD_REACTORS
330
1B
102
}
330
1B
100
AcDbDictionary
  0
DICTIONARY
  5
DD
102
{ACAD_REACTORS
330
1B
102
}
330
1B
100
AcDbDictionary
  0
DICTIONARY
  5
1A
102
{ACAD_REACTORS
330
1B
102
}
330
1B
100
AcDbDictionary
  3
STANDARD
350
1D
  0
DICTIONARY
  5
DE
102
{ACAD_REACTORS
330
1B
102
}
330
1B
100
AcDbDictionary
  0
ACDBDICTIONARYWDFLT
  5
DB
102
{ACAD_REACTORS
330
1B
102
}
330
1B
100
AcDbDictionary
281
     1
  3
Normal
350
DC
100
AcDbDictionaryWithDefault
340
DC
  0
DICTIONARY
  5
4B4
102
{ACAD_REACTORS
330
1B
102
}
330
1B
100
AcDbDictionary
  3
CEPSNTYPE
350
4BE
  3
DIMSTYLEDATA
350
4C2
  3
FINGERPRINTGUID
350
4BF
  3
HYPERLINKBASE
350
4B7
  3
INSUNITS
350
4BD
  3
LAYOUTDICT
350
4B9
  3
LWETCUNION
350
4BC
  3
PLOTSETDICT
350
4BA
  3
PLOTSTYLNAMDICT
350
4BB
  3
PSVPSCALE
350
4C1
  3
PUCSBASE
350
4C5
  3
PUCSORGBACK
350
4CB
  3
PUCSORGBOTTOM
350
4C7
  3
PUCSORGFRONT
350
4CA
  3
PUCSORGLEFT
350
4C8
  3
PUCSORGRIGHT
350
4C9
  3
PUCSORGTOP
350
4C6
  3
PUCSORTHOREF
350
4C3
  3
PUCSORTHOVIEW
350
4C4
  3
STYLESHEET
350
4B8
  3
TSTACKALIGN
350
4B5
  3
TSTACKSIZE
350
4B6
  3
UCSBASE
350
4CE
  3
UCSORGBACK
350
4D4
  3
UCSORGBOTTOM
350
4D0
  3
UCSORGFRONT
350
4D3
  3
UCSORGLEFT
350
4D1
  3
UCSORGRIGHT
350
4D2
  3
UCSORGTOP
350
4CF
  3
UCSORTHOREF
350
4CC
  3
UCSORTHOVIEW
350
4CD
  3
VERSIONGUID
350
4C0
  0
DICTIONARY
  5
1D6
102
{ACAD_REACTORS
330
1B
102
}
330
1B
100
AcDbDictionary
  3
DIMASSOC
350
1D7
  0
XRECORD
  5
4D5
102
{ACAD_REACTORS
330
183
102
}
330
183
100
AcDbXrecord
340
2
  0
XRECORD
  5
4D6
102
{ACAD_REACTORS
330
185
102
}
330
185
100
AcDbXrecord
340
8
  0
MLINESTYLE
  5
1D
102
{ACAD_REACTORS
330
1A
102
}
330
1A
100
AcDbMlineStyle
  2
STANDARD
 70
     0
  3

 62
     0
 51
90.0
 52
90.0
 71
     2
 49
0.5
 62
   256
  6
BYLAYER
 49
-0.5
 62
   256
  6
BYLAYER
  0
ACDBPLACEHOLDER
  5
DC
102
{ACAD_REACTORS
330
DB
102
}
330
DB
100
AcDbPlaceHolder
280
     0
  0
XRECORD
  5
4BE
102
{ACAD_REACTORS
330
4B4
102
}
330
4B4
100
AcDbXrecord
 90
        0
  0
XRECORD
  5
4C2
102
{ACAD_REACTORS
330
4B4
102
}
330
4B4
100
AcDbXrecord
1000
DSTYLE
1002
{
1070
   276
 70
     2
1070
   277
 70
     5
1002
}
  0
XRECORD
  5
4BF
102
{ACAD_REACTORS
330
4B4
102
}
330
4B4
100
AcDbXrecord
  1
{8E435645-35C5-495A-A83D-5D5C75D06892}
  0
XRECORD
  5
4B7
102
{ACAD_REACTORS
330
4B4
102
}
330
4B4
100
AcDbXrecord
  1

  0
XRECORD
  5
4BD
102
{ACAD_REACTORS
330
4B4
102
}
330
4B4
100
AcDbXrecord
 90
        0
  0
XRECORD
  5
4B9
102
{ACAD_REACTORS
330
4B4
102
}
330
4B4
100
AcDbXrecord
340
DD
  0
XRECORD
  5
4BC
102
{ACAD_REACTORS
330
4B4
102
}
330
4B4
100
AcDbXrecord
 90
    14877
  0
XRECORD
  5
4BA
102
{ACAD_REACTORS
330
4B4
102
}
330
4B4
100
AcDbXrecord
340
DE
  0
XRECORD
  5
4BB
102
{ACAD_REACTORS
330
4B4
102
}
330
4B4
100
AcDbXrecord
340
DB
  0
XRECORD
  5
4C1
102
{ACAD_REACTORS
330
4B4
102
}
330
4B4
100
AcDbXrecord
 40
0.0
  0
XRECORD
  5
4C5
102
{ACAD_REACTORS
330
4B4
102
}
330
4B4
100
AcDbXrecord
340
0
  0
XRECORD
  5
4CB
102
{ACAD_REACTORS
330
4B4
102
}
330
4B4
100
AcDbXrecord
 10
0.0
 20
0.0
 30
0.0
  0
XRECORD
  5
4C7
102
{ACAD_REACTORS
330
4B4
102
}
330
4B4
100
AcDbXrecord
 10
0.0
 20
0.0
 30
0.0
  0
XRECORD
  5
4CA
102
{ACAD_REACTORS
330
4B4
102
}
330
4B4
100
AcDbXrecord
 10
0.0
 20
0.0
 30
0.0
  0
XRECORD
  5
4C8
102
{ACAD_REACTORS
330
4B4
102
}
330
4B4
100
AcDbXrecord
 10
0.0
 20
0.0
 30
0.0
  0
XRECORD
  5
4C9
102
{ACAD_REACTORS
330
4B4
102
}
330
4B4
100
AcDbXrecord
 10
0.0
 20
0.0
 30
0.0
  0
XRECORD
  5
4C6
102
{ACAD_REACTORS
330
4B4
102
}
330
4B4
100
AcDbXrecord
 10
0.0
 20
0.0
 30
0.0
  0
XRECORD
  5
4C3
102
{ACAD_REACTORS
330
4B4
102
}
330
4B4
100
AcDbXrecord
340
0
  0
XRECORD
  5
4C4
102
{ACAD_REACTORS
330
4B4
102
}
330
4B4
100
AcDbXrecord
 70
     0
  0
XRECORD
  5
4B8
102
{ACAD_REACTORS
330
4B4
102
}
330
4B4
100
AcDbXrecord
  1

  0
XRECORD
  5
4B5
102
{ACAD_REACTORS
330
4B4
102
}
330
4B4
100
AcDbXrecord
 90
        1
  0
XRECORD
  5
4B6
102
{ACAD_REACTORS
330
4B4
102
}
330
4B4
100
AcDbXrecord
 90
       70
  0
XRECORD
  5
4CE
102
{ACAD_REACTORS
330
4B4
102
}
330
4B4
100
AcDbXrecord
340
0
  0
XRECORD
  5
4D4
102
{ACAD_REACTORS
330
4B4
102
}
330
4B4
100
AcDbXrecord
 10
0.0
 20
0.0
 30
0.0
  0
XRECORD
  5
4D0
102
{ACAD_REACTORS
330
4B4
102
}
330
4B4
100
AcDbXrecord
 10
0.0
 20
0.0
 30
0.0
  0
XRECORD
  5
4D3
102
{ACAD_REACTORS
330
4B4
102
}
330
4B4
100
AcDbXrecord
 10
0.0
 20
0.0
 30
0.0
  0
XRECORD
  5
4D1
102
{ACAD_REACTORS
330
4B4
102
}
330
4B4
100
AcDbXrecord
 10
0.0
 20
0.0
 30
0.0
  0
XRECORD
  5
4D2
102
{ACAD_REACTORS
330
4B4
102
}
330
4B4
100
AcDbXrecord
 10
0.0
 20
0.0
 30
0.0
  0
XRECORD
  5
4CF
102
{ACAD_REACTORS
330
4B4
102
}
330
4B4
100
AcDbXrecord
 10
0.0
 20
0.0
 30
0.0
  0
XRECORD
  5
4CC
102
{ACAD_REACTORS
330
4B4
102
}
330
4B4
100
AcDbXrecord
340
0
  0
XRECORD
  5
4CD
102
{ACAD_REACTORS
330
4B4
102
}
330
4B4
100
AcDbXrecord
 70
     0
  0
XRECORD
  5
4C0
102
{ACAD_REACTORS
330
4B4
102
}
330
4B4
100
AcDbXrecord
  1
{C2FCBA00-4EEE-4EC2-9A40-9EDF92053095}
  0
DICTIONARYVAR
  5
1D7
102
{ACAD_REACTORS
330
1D6
102
}
330
1D6
100
DictionaryVariables
280
     0
  1
1
  0
ENDSEC
  0
EOF
